osu file format v14

[General]
AudioFilename: audio.mp3
AudioLeadIn: 0
PreviewTime: 63744
Countdown: 0
SampleSet: Normal
StackLeniency: 1
Mode: 0
LetterboxInBreaks: 0
WidescreenStoryboard: 1

[Editor]
Bookmarks: 120710
DistanceSpacing: 1
BeatDivisor: 4
GridSize: 4
TimelineZoom: 1.5

[Metadata]
Title:Maledetti Scarafaggi
TitleUnicode:Maledetti Scarafaggi
Artist:Giorgio Vanni
ArtistUnicode:Giorgio Vanni
Creator:Chewin
Version:INSANE
Source:
Tags:Gero Oggy et les cafards Gaumont Xilam Mediaset Cartone Animato Italiano GNEGNEGNE
BeatmapID:1069973
BeatmapSetID:465035

[Difficulty]
HPDrainRate:6
CircleSize:4
OverallDifficulty:7
ApproachRate:9
SliderMultiplier:1.6
SliderTickRate:1

[Events]
//Background and Video events
0,0,"1.png",0,0
//Break Periods
//Storyboard Layer 0 (Background)
//Storyboard Layer 1 (Fail)
//Storyboard Layer 2 (Pass)
//Storyboard Layer 3 (Foreground)
//Storyboard Sound Samples

[TimingPoints]
879,337.078651685393,4,1,1,40,1,0
7620,-66.6666666666667,4,1,1,40,0,0
18407,-66.6666666666667,4,1,1,40,0,1
29109,-66.6666666666667,4,1,1,40,0,0
29193,-66.6666666666667,4,1,1,40,0,1
39980,-66.6666666666667,4,1,1,40,0,0
57508,-100,4,1,1,40,0,0
58519,-83.3333333333333,4,1,1,40,0,0
58687,-100,4,1,1,40,0,0
59867,-76.9230769230769,4,1,1,40,0,0
60036,-100,4,1,1,40,0,0
61215,-66.6666666666667,4,1,1,40,0,0
61384,-100,4,1,1,40,0,0
61553,-100,4,1,1,40,0,0
64249,-66.6666666666667,4,1,1,40,0,1
74952,-66.6666666666667,4,1,1,40,0,0
75036,-66.6666666666667,4,1,1,40,0,1
85822,-66.6666666666667,4,1,1,40,0,0
103350,-100,4,1,1,40,0,0
107395,-100,4,1,1,40,0,0
110092,-66.6666666666667,4,1,1,40,0,0

[Colours]
Combo1 : 45,108,225
Combo2 : 0,128,64
Combo3 : 209,131,252
Combo4 : 255,128,64

[HitObjects]
268,208,879,6,0,L|156:204,1,80,4|0,0:0|0:0,0:0:0:0:
76,200,1216,1,0,0:0:0:0:
76,200,1384,1,0,0:0:0:0:
107,351,1553,6,0,P|123:314|127:275,1,80,0|0,0:0|0:0,0:0:0:0:
69,122,1890,2,0,P|63:161|75:199,1,80,0|0,0:0|0:0,0:0:0:0:
76,200,2143,1,0,0:0:0:0:
76,200,2227,6,0,L|164:196,1,80,4|0,0:0|0:0,0:0:0:0:
256,192,2564,1,0,0:0:0:0:
256,192,2732,1,0,0:0:0:0:
388,269,2901,6,0,P|348:275|311:263,1,80,0|0,0:0|0:0,0:0:0:0:
182,173,3238,2,0,P|221:171|255:191,1,80,0|0,0:0|0:0,0:0:0:0:
256,192,3491,1,0,0:0:0:0:
256,192,3575,6,0,L|264:108,1,80,4|0,0:0|0:0,0:0:0:0:
272,20,3912,1,0,0:0:0:0:
272,20,4081,1,0,0:0:0:0:
427,79,4249,6,0,L|348:76,1,80,0|0,0:0|0:0,0:0:0:0:
256,192,4586,2,0,L|335:195,1,80,0|0,0:0|0:0,0:0:0:0:
335,195,4839,1,0,0:0:0:0:
335,195,4923,5,2,0:0:0:0:
208,96,5092,1,2,0:0:0:0:
256,312,5261,1,2,0:0:0:0:
256,312,5429,1,2,0:0:0:0:
335,195,5598,5,2,0:0:0:0:
256,312,5766,1,2,0:0:0:0:
208,96,5935,1,2,0:0:0:0:
208,96,6103,1,2,0:0:0:0:
128,192,6272,6,0,L|132:248,3,40,0|0|0|0,0:0|0:0|0:0|0:0,0:0:0:0:
72,120,6609,2,0,L|80:68,3,40,0|0|0|0,0:0|0:0|0:0|0:0,0:0:0:0:
24,196,6946,1,8,0:0:0:0:
25,223,7030,1,0,0:0:0:0:
27,251,7114,1,0,0:0:0:0:
29,279,7198,1,0,0:0:0:0:
32,308,7283,2,0,P|72:324|136:308,1,80,8|8,0:0|0:0,0:0:0:0:
324,232,7620,6,0,P|228:216|154:260,1,180.000006866455,4|0,0:0|2:0,0:0:0:0:
108,321,7957,2,0,L|104:196,1,120.000004577637,8|0,0:0|0:0,0:0:0:0:
256,344,8294,2,0,P|340:356|428:256,1,180.000006866455,0|0,0:0|2:0,0:0:0:0:
476,248,8631,2,0,L|340:256,1,120.000004577637,8|0,0:0|0:0,0:0:0:0:
104,201,8968,1,0,0:0:0:0:
104,201,9137,1,0,0:0:0:0:
168,300,9305,6,0,L|160:368,2,60.0000022888184,10|0|0,0:0|0:0|0:0,0:0:0:0:
220,188,9643,2,0,L|256:132,2,60.0000022888184,2|0|0,0:0|0:0|0:0,0:0:0:0:
104,201,9980,1,10,0:0:0:0:
104,201,10148,1,0,0:0:0:0:
7,270,10317,6,0,P|81:317|168:300,1,180.000006866455,4|0,0:0|2:0,0:0:0:0:
236,260,10654,2,0,L|376:244,1,120.000004577637,8|0,0:0|0:0,0:0:0:0:
512,348,10991,2,0,P|436:372|352:324,1,180.000006866455,0|0,0:0|2:0,0:0:0:0:
355,246,11328,2,0,L|360:112,1,120.000004577637,8|0,0:0|0:0,0:0:0:0:
112,56,11665,1,0,0:0:0:0:
112,56,11834,1,0,0:0:0:0:
92,192,12002,6,0,L|16:180,2,60.0000022888184,10|0|0,0:0|0:0|0:0,0:0:0:0:
164,284,12339,2,0,L|168:352,2,60.0000022888184,2|0|0,0:0|0:0|0:0,0:0:0:0:
208,172,12676,1,10,0:0:0:0:
208,172,12845,1,0,0:0:0:0:
140,76,13013,6,0,P|212:56|316:128,1,180.000006866455,4|0,0:0|2:0,0:0:0:0:
336,176,13350,2,0,P|400:176|460:112,1,120.000004577637,8|0,0:0|0:0,0:0:0:0:
256,256,13687,2,0,P|192:248|88:308,1,180.000006866455,0|0,0:0|2:0,0:0:0:0:
56,368,14025,2,0,L|48:224,1,120.000004577637,8|0,0:0|0:0,0:0:0:0:
256,40,14362,1,0,0:0:0:0:
256,40,14530,1,0,0:0:0:0:
320,128,14699,6,0,L|340:208,2,60.0000022888184,10|0|0,0:0|0:0|0:0,0:0:0:0:
192,128,15036,2,0,L|172:208,2,60.0000022888184,2|0|0,0:0|0:0|0:0,0:0:0:0:
256,40,15373,1,10,0:0:0:0:
256,40,15541,1,0,0:0:0:0:
256,312,15710,5,4,0:0:0:0:
312,232,15878,1,0,0:0:0:0:
456,285,16047,2,0,P|410:322|352:324,1,120.000004577637,8|0,0:0|0:0,0:0:0:0:
216,220,16384,1,0,0:0:0:0:
259,132,16553,6,0,L|256:312,1,180.000006866455,0|0,0:0|0:0,0:0:0:0:
256,312,16890,1,0,0:0:0:0:
136,192,17058,1,0,0:0:0:0:
128,312,17227,6,0,L|132:372,2,60.0000022888184,0|0|8,0:0|0:0|0:0,0:0:0:0:
72,104,17564,1,0,0:0:0:0:
128,312,17732,1,0,0:0:0:0:
136,192,17901,5,0,0:0:0:0:
165,190,17985,1,0,0:0:0:0:
195,188,18069,1,8,0:0:0:0:
225,186,18153,1,0,0:0:0:0:
255,184,18238,1,0,0:0:0:0:
285,182,18322,1,0,0:0:0:0:
315,180,18407,6,0,B|380:176|380:176|424:192|424:192|504:184,1,180.000006866455,4|0,0:0|2:0,0:0:0:0:
491,185,18744,1,8,0:0:0:0:
488,304,18912,1,0,0:0:0:0:
368,288,19081,2,0,P|288:284|208:352,1,180.000006866455,0|0,0:0|2:0,0:0:0:0:
212,343,19418,2,0,P|152:356|96:328,1,120.000004577637,8|0,0:0|0:0,0:0:0:0:
64,216,19755,5,0,0:0:0:0:
160,144,19923,2,0,L|163:263,1,120.000004577637,0|8,0:0|0:0,0:0:0:0:
72,80,20261,2,0,P|136:44|260:136,1,240.000009155274
296,240,20766,2,0,L|440:232,1,120.000004577637,8|0,0:0|0:0,0:0:0:0:
364,344,21103,6,0,P|288:360|192:268,1,180.000006866455,4|0,0:0|2:0,0:0:0:0:
206,306,21440,2,0,P|144:304|80:344,1,120.000004577637,8|0,0:0|0:0,0:0:0:0:
32,228,21777,2,0,L|44:40,1,180.000006866455,0|0,0:0|2:0,0:0:0:0:
43,48,22114,2,0,P|115:47|171:99,1,120.000004577637,8|0,0:0|0:0,0:0:0:0:
212,180,22452,5,0,0:0:0:0:
296,96,22620,1,0,0:0:0:0:
296,96,22704,1,0,0:0:0:0:
296,96,22789,1,8,0:0:0:0:
384,176,22957,2,0,P|404:240|376:356,1,180.000006866455,0|0,0:0|0:0,0:0:0:0:
380,348,23294,2,0,L|244:344,1,120.000004577637,0|8,0:0|0:0,0:0:0:0:
168,268,23631,1,0,0:0:0:0:
6,300,23800,6,0,P|82:316|178:252,1,180.000006866455,0|0,0:0|2:0,0:0:0:0:
168,268,24137,2,0,L|160:132,1,120.000004577637,8|0,0:0|0:0,0:0:0:0:
92,52,24474,2,0,P|164:32|264:108,1,180.000006866455,0|0,0:0|2:0,0:0:0:0:
250,82,24811,2,0,L|257:201,1,120.000004577637,8|0,0:0|0:0,0:0:0:0:
260,324,25148,5,0,0:0:0:0:
372,372,25317,2,0,P|444:368|504:316,1,120.000004577637,0|8,0:0|0:0,0:0:0:0:
400,256,25654,2,0,L|404:60,1,180.000006866455,0|0,0:0|2:0,0:0:0:0:
403,76,25991,1,0,0:0:0:0:
300,136,26159,1,8,0:0:0:0:
256,24,26328,5,0,0:0:0:0:
256,24,26412,1,0,0:0:0:0:
256,24,26496,1,4,0:0:0:0:
300,136,26665,1,0,0:0:0:0:
152,196,26834,1,8,0:0:0:0:
152,196,27002,1,0,0:0:0:0:
64,80,27171,5,0,0:0:0:0:
24,192,27339,1,0,0:0:0:0:
148,364,27508,1,8,0:0:0:0:
148,364,27676,1,0,0:0:0:0:
256,280,27845,5,0,0:0:0:0:
140,240,28013,1,0,0:0:0:0:
272,248,28182,1,8,0:0:0:0:
120,272,28350,2,0,P|192:268|288:336,1,180.000006866455,0|0,0:0|0:0,0:0:0:0:
324,364,28687,2,0,P|392:360|452:312,1,120.000004577637,0|8,0:0|0:0,0:0:0:0:
480,220,29025,1,0,0:0:0:0:
359,76,29193,6,0,L|356:256,1,180.000006866455,4|0,0:0|2:0,0:0:0:0:
356,256,29530,2,0,L|492:252,1,120.000004577637,8|0,0:0|0:0,0:0:0:0:
420,360,29867,2,0,P|328:368|256:292,1,180.000006866455,0|0,0:0|0:0,0:0:0:0:
264,314,30204,2,0,P|201:303|133:335,1,120.000004577637,8|0,0:0|0:0,0:0:0:0:
40,372,30541,5,0,0:0:0:0:
64,256,30710,2,0,L|60:124,1,120.000004577637,0|8,0:0|0:0,0:0:0:0:
140,44,31047,2,0,P|240:16|332:104,1,240.000009155274
220,128,31553,1,8,0:0:0:0:
220,128,31721,1,0,0:0:0:0:
128,204,31890,6,0,P|189:242|300:216,1,180.000006866455,0|0,0:0|0:0,0:0:0:0:
290,223,32227,2,0,P|336:164|332:96,1,120.000004577637,8|0,0:0|0:0,0:0:0:0:
416,28,32564,2,0,P|444:88|424:228,1,180.000006866455,0|0,0:0|0:0,0:0:0:0:
437,199,32901,2,0,P|408:256|408:328,1,120.000004577637,8|0,0:0|0:0,0:0:0:0:
304,376,33238,5,0,0:0:0:0:
256,268,33407,1,0,0:0:0:0:
256,268,33491,1,0,0:0:0:0:
256,268,33575,1,8,0:0:0:0:
164,348,33744,2,0,L|24:352,1,120.000004577637,0|0,0:0|0:0,0:0:0:0:
24,232,34081,2,0,L|143:228,1,120.000004577637,0|8,0:0|0:0,0:0:0:0:
256,268,34418,1,0,0:0:0:0:
340,180,34586,6,0,P|368:236|344:352,1,180.000006866455,0|0,0:0|2:0,0:0:0:0:
347,347,34923,2,0,L|480:344,1,120.000004577637,8|0,0:0|0:0,0:0:0:0:
256,268,35261,2,0,P|188:260|84:324,1,180.000006866455,0|0,0:0|2:0,0:0:0:0:
93,311,35598,2,0,L|88:188,1,120.000004577637,8|0,0:0|0:0,0:0:0:0:
80,72,35935,5,0,0:0:0:0:
180,8,36103,1,0,0:0:0:0:
180,8,36187,1,0,0:0:0:0:
180,8,36272,1,8,0:0:0:0:
256,100,36440,2,0,P|272:168|248:276,1,180.000006866455,0|0,0:0|2:0,0:0:0:0:
249,273,36777,2,0,L|116:268,1,120.000004577637,0|8,0:0|0:0,0:0:0:0:
36,192,37114,1,0,0:0:0:0:
36,344,37283,5,4,0:0:0:0:
36,344,37367,1,0,0:0:0:0:
36,344,37452,1,0,0:0:0:0:
129,268,37620,2,0,L|249:273,1,120.000004577637,8|0,0:0|0:0,0:0:0:0:
460,192,37957,5,0,0:0:0:0:
500,308,38126,1,0,0:0:0:0:
388,352,38294,2,0,P|352:300|356:224,1,120.000004577637,8|0,0:0|0:0,0:0:0:0:
460,192,38631,1,0,0:0:0:0:
336,220,38800,5,0,0:0:0:0:
480,208,38968,1,8,0:0:0:0:
324,196,39137,2,0,P|404:208|488:132,1,180.000006866455,0|0,0:0|2:0,0:0:0:0:
400,88,39474,2,0,P|372:132|368:88,1,120.000004577637,0|8,0:0|0:0,0:0:0:0:
256,36,39811,1,0,0:0:0:0:
74,118,39980,6,0,P|157:146|236:108,1,180.000006866455,4|0,0:0|2:0,0:0:0:0:
256,36,40317,2,0,L|264:176,1,120.000004577637,8|0,0:0|0:0,0:0:0:0:
204,260,40654,2,0,P|280:248|380:320,1,180.000006866455,0|0,0:0|0:0,0:0:0:0:
392,364,40991,2,0,L|384:220,1,120.000004577637,8|0,0:0|0:0,0:0:0:0:
372,32,41328,1,0,0:0:0:0:
372,32,41496,1,0,0:0:0:0:
444,128,41665,6,0,L|504:120,2,60.0000022888184,10|0|0,0:0|0:0|0:0,0:0:0:0:
324,128,42002,2,0,L|264:120,2,60.0000022888184,2|0|0,0:0|0:0|0:0,0:0:0:0:
372,32,42339,1,10,0:0:0:0:
372,32,42508,1,0,0:0:0:0:
380,192,42676,6,0,B|368:332|368:332|340:304,1,180.000006866455,4|0,0:0|2:0,0:0:0:0:
296,240,43013,2,0,P|248:240|188:292,1,120.000004577637,8|0,0:0|0:0,0:0:0:0:
20,321,43350,2,0,P|89:373|175:355,1,180.000006866455,0|0,0:0|2:0,0:0:0:0:
192,282,43687,2,0,L|187:135,1,120.000004577637,8|0,0:0|0:0,0:0:0:0:
392,24,44025,1,0,0:0:0:0:
392,24,44193,1,0,0:0:0:0:
460,116,44362,6,0,L|456:180,1,60.0000022888184,10|0,0:0|0:0,0:0:0:0:
455,206,44530,1,0,0:0:0:0:
364,292,44699,2,0,L|372:356,2,60.0000022888184,2|0|0,0:0|0:0|0:0,0:0:0:0:
344,164,45036,1,10,0:0:0:0:
344,164,45204,1,0,0:0:0:0:
256,248,45373,6,0,L|64:260,1,180.000006866455,4|0,0:0|2:0,0:0:0:0:
4,260,45710,2,0,P|-4:188|24:128,1,120.000004577637,8|0,0:0|0:0,0:0:0:0:
172,12,46047,2,0,P|200:68|176:192,1,180.000006866455,0|0,0:0|2:0,0:0:0:0:
112,208,46384,2,0,L|116:344,1,120.000004577637,8|0,0:0|0:0,0:0:0:0:
256,252,46721,1,0,0:0:0:0:
256,252,46890,1,0,0:0:0:0:
328,336,47058,6,0,L|408:328,2,60.0000022888184,10|0|0,0:0|0:0|0:0,0:0:0:0:
256,252,47395,2,0,L|188:248,2,60.0000022888184,2|0|0,0:0|0:0|0:0,0:0:0:0:
360,192,47732,1,10,0:0:0:0:
360,192,47901,1,0,0:0:0:0:
256,32,48070,5,0,0:0:0:0:
200,120,48238,1,0,0:0:0:0:
10,82,48407,2,0,P|60:52|120:56,1,120.000004577637,8|0,0:0|0:0,0:0:0:0:
196,208,48744,1,0,0:0:0:0:
160,324,48912,6,0,L|164:108,1,180.000006866455,0|0,0:0|0:0,0:0:0:0:
163,144,49249,1,0,0:0:0:0:
332,192,49418,1,0,0:0:0:0:
276,300,49586,6,0,L|280:376,2,60.0000022888184,0|0|8,0:0|0:0|0:0,0:0:0:0:
256,100,49923,1,0,0:0:0:0:
276,300,50092,1,0,0:0:0:0:
332,192,50261,5,0,0:0:0:0:
276,300,50429,1,8,0:0:0:0:
184,220,50598,1,0,0:0:0:0:
256,100,50766,6,0,L|264:244,1,120.000004577637,4|0,0:0|0:0,0:0:0:0:
192,24,51103,1,8,0:0:0:0:
262,219,51272,1,0,0:0:0:0:
392,72,51440,1,0,0:0:0:0:
192,24,51609,1,0,0:0:0:0:
192,24,51777,1,8,0:0:0:0:
192,24,51946,1,0,0:0:0:0:
262,219,52114,6,0,L|254:75,1,120.000004577637,4|0,0:0|0:0,0:0:0:0:
326,295,52451,1,8,0:0:0:0:
255,99,52620,1,0,0:0:0:0:
126,247,52788,1,0,0:0:0:0:
326,295,52957,1,0,0:0:0:0:
326,295,53125,1,8,0:0:0:0:
326,295,53294,1,0,0:0:0:0:
256,100,53463,6,0,L|264:244,1,120.000004577637,4|0,0:0|0:0,0:0:0:0:
192,24,53800,1,8,0:0:0:0:
262,219,53969,1,0,0:0:0:0:
392,72,54137,1,0,0:0:0:0:
192,24,54306,1,0,0:0:0:0:
192,24,54474,1,8,0:0:0:0:
192,24,54643,1,0,0:0:0:0:
268,112,54811,5,4,0:0:0:0:
256,344,54980,1,0,0:0:0:0:
200,192,55148,1,8,0:0:0:0:
200,192,55317,1,0,0:0:0:0:
360,268,55485,5,0,0:0:0:0:
140,300,55654,1,0,0:0:0:0:
360,268,55822,1,8,0:0:0:0:
140,300,55991,1,0,0:0:0:0:
268,112,56159,5,4,0:0:0:0:
256,344,56328,1,0,0:0:0:0:
200,192,56496,1,8,0:0:0:0:
200,192,56665,1,0,0:0:0:0:
360,268,56833,5,0,0:0:0:0:
140,300,57002,1,0,0:0:0:0:
360,268,57170,1,8,0:0:0:0:
140,300,57339,1,0,0:0:0:0:
244,232,57508,6,0,L|236:120,1,80,4|0,0:0|0:0,0:0:0:0:
228,40,57845,1,0,0:0:0:0:
228,40,58013,1,0,0:0:0:0:
85,88,58182,6,0,P|120:106|160:108,1,80,4|0,0:0|0:0,0:0:0:0:
330,133,58519,2,0,P|290:133|231:156,1,95.9999970703126,4|0,0:0|0:0,0:0:0:0:
238,152,58772,1,0,0:0:0:0:
238,152,58856,6,0,L|244:232,1,80,4|0,0:0|0:0,0:0:0:0:
252,348,59193,1,0,0:0:0:0:
252,348,59362,1,0,0:0:0:0:
388,296,59530,6,0,P|351:283|312:288,1,80,4|0,0:0|0:0,0:0:0:0:
145,242,59867,2,0,P|195:252|243:232,1,103.999995239258,4|0,0:0|0:0,0:0:0:0:
243,232,60120,1,0,0:0:0:0:
244,232,60204,6,0,L|238:152,1,80,4|0,0:0|0:0,0:0:0:0:
228,40,60541,1,0,0:0:0:0:
228,40,60709,1,0,0:0:0:0:
85,88,60878,6,0,P|120:106|160:108,1,80,4|0,0:0|0:0,0:0:0:0:
352,139,61215,2,0,P|293:130|238:152,1,120.000004577637,4|0,0:0|0:0,0:0:0:0:
238,152,61468,1,0,0:0:0:0:
238,152,61553,5,2,0:0:0:0:
256,344,61721,1,2,0:0:0:0:
360,264,61890,1,2,0:0:0:0:
360,264,62058,1,2,0:0:0:0:
168,260,62227,5,2,0:0:0:0:
256,344,62395,1,2,0:0:0:0:
256,80,62564,1,2,0:0:0:0:
256,80,62732,1,2,0:0:0:0:
336,192,62901,6,0,L|328:260,3,40,0|0|0|0,0:0|0:0|0:0|0:0,0:0:0:0:
340,324,63238,2,0,L|392:312,3,40,0|0|0|0,0:0|0:0|0:0|0:0,0:0:0:0:
242,333,63575,5,8,0:0:0:0:
236,314,63660,1,0,0:0:0:0:
231,295,63744,1,0,0:0:0:0:
225,275,63828,1,0,0:0:0:0:
219,256,63912,1,8,0:0:0:0:
214,237,63997,1,0,0:0:0:0:
208,218,64081,1,0,0:0:0:0:
202,199,64165,1,0,0:0:0:0:
197,180,64249,6,0,B|132:176|132:176|88:192|88:192|8:184,1,180.000006866455,4|0,0:0|2:0,0:0:0:0:
21,185,64586,1,8,0:0:0:0:
24,304,64754,1,0,0:0:0:0:
144,288,64923,2,0,P|224:284|304:352,1,180.000006866455,0|0,0:0|0:0,0:0:0:0:
300,343,65260,2,0,P|360:356|416:328,1,120.000004577637,8|0,0:0|0:0,0:0:0:0:
448,216,65597,5,0,0:0:0:0:
352,144,65765,2,0,L|349:263,1,120.000004577637,0|8,0:0|0:0,0:0:0:0:
440,80,66103,2,0,P|368:40|244:136,1,240.000009155274
216,240,66608,2,0,L|72:232,1,120.000004577637,8|0,0:0|0:0,0:0:0:0:
148,344,66945,6,0,P|224:360|320:268,1,180.000006866455,0|0,0:0|0:0,0:0:0:0:
306,306,67282,2,0,P|368:304|432:344,1,120.000004577637,8|0,0:0|0:0,0:0:0:0:
480,228,67619,2,0,L|468:40,1,180.000006866455,0|0,0:0|2:0,0:0:0:0:
469,48,67956,2,0,P|397:47|341:99,1,120.000004577637,8|0,0:0|0:0,0:0:0:0:
300,180,68294,5,0,0:0:0:0:
216,96,68462,1,0,0:0:0:0:
216,96,68546,1,0,0:0:0:0:
216,96,68631,1,8,0:0:0:0:
128,176,68799,2,0,P|108:240|136:356,1,180.000006866455,0|0,0:0|2:0,0:0:0:0:
132,348,69136,2,0,L|268:344,1,120.000004577637,0|8,0:0|0:0,0:0:0:0:
344,267,69473,1,0,0:0:0:0:
506,300,69642,6,0,P|430:316|334:252,1,180.000006866455,0|0,0:0|0:0,0:0:0:0:
344,267,69979,2,0,L|352:131,1,120.000004577637,8|0,0:0|0:0,0:0:0:0:
420,52,70316,2,0,P|348:32|248:108,1,180.000006866455,0|0,0:0|0:0,0:0:0:0:
261,82,70653,2,0,L|254:201,1,120.000004577637,8|0,0:0|0:0,0:0:0:0:
252,324,70990,5,0,0:0:0:0:
140,372,71159,2,0,P|68:368|8:316,1,120.000004577637,0|8,0:0|0:0,0:0:0:0:
112,256,71496,2,0,L|108:60,1,180.000006866455,0|0,0:0|2:0,0:0:0:0:
109,76,71833,1,0,0:0:0:0:
212,136,72001,1,8,0:0:0:0:
256,24,72170,5,0,0:0:0:0:
256,24,72254,1,0,0:0:0:0:
256,24,72338,1,0,0:0:0:0:
212,136,72507,1,0,0:0:0:0:
360,196,72676,1,8,0:0:0:0:
360,196,72844,1,0,0:0:0:0:
448,80,73013,5,0,0:0:0:0:
488,192,73181,1,0,0:0:0:0:
364,364,73350,1,8,0:0:0:0:
364,364,73518,1,0,0:0:0:0:
256,280,73687,5,0,0:0:0:0:
372,240,73855,1,0,0:0:0:0:
240,248,74024,1,8,0:0:0:0:
392,272,74192,2,0,P|320:268|224:336,1,180.000006866455,0|0,0:0|0:0,0:0:0:0:
188,364,74529,2,0,P|120:360|60:312,1,120.000004577637,0|8,0:0|0:0,0:0:0:0:
32,220,74867,1,0,0:0:0:0:
153,76,75035,6,0,L|156:256,1,180.000006866455,4|0,0:0|2:0,0:0:0:0:
156,256,75372,2,0,L|20:252,1,120.000004577637,8|0,0:0|0:0,0:0:0:0:
92,360,75709,2,0,P|184:368|256:292,1,180.000006866455,0|0,0:0|0:0,0:0:0:0:
248,314,76046,2,0,P|311:303|379:335,1,120.000004577637,8|0,0:0|0:0,0:0:0:0:
472,372,76383,5,0,0:0:0:0:
448,256,76552,2,0,L|452:124,1,120.000004577637,0|8,0:0|0:0,0:0:0:0:
372,44,76889,2,0,P|300:20|172:112,1,240.000009155274,0|0,0:0|0:0,0:0:0:0:
292,128,77395,1,8,0:0:0:0:
292,128,77563,1,0,0:0:0:0:
384,204,77732,6,0,P|323:242|212:216,1,180.000006866455,0|0,0:0|0:0,0:0:0:0:
222,223,78069,2,0,P|176:164|180:96,1,120.000004577637,8|0,0:0|0:0,0:0:0:0:
96,28,78406,2,0,P|68:88|88:228,1,180.000006866455,0|0,0:0|2:0,0:0:0:0:
75,199,78743,2,0,P|104:256|104:328,1,120.000004577637,8|0,0:0|0:0,0:0:0:0:
208,376,79080,5,0,0:0:0:0:
256,268,79249,1,0,0:0:0:0:
256,268,79333,1,0,0:0:0:0:
256,268,79417,1,8,0:0:0:0:
348,348,79586,2,0,L|488:352,1,120.000004577637,0|0,0:0|0:0,0:0:0:0:
488,232,79923,2,0,L|369:228,1,120.000004577637,0|8,0:0|0:0,0:0:0:0:
256,268,80260,1,0,0:0:0:0:
172,180,80428,6,0,P|144:236|168:352,1,180.000006866455,0|0,0:0|0:0,0:0:0:0:
165,347,80765,2,0,L|32:344,1,120.000004577637,8|0,0:0|0:0,0:0:0:0:
256,268,81103,2,0,P|324:260|428:324,1,180.000006866455,0|0,0:0|0:0,0:0:0:0:
419,311,81440,2,0,L|424:188,1,120.000004577637,8|0,0:0|0:0,0:0:0:0:
432,72,81777,5,0,0:0:0:0:
332,8,81945,1,0,0:0:0:0:
332,8,82029,1,0,0:0:0:0:
332,8,82114,1,8,0:0:0:0:
256,100,82282,2,0,P|240:168|264:276,1,180.000006866455,0|0,0:0|0:0,0:0:0:0:
263,273,82619,2,0,L|396:268,1,120.000004577637,0|8,0:0|0:0,0:0:0:0:
476,192,82956,1,0,0:0:0:0:
476,344,83125,5,0,0:0:0:0:
476,344,83209,1,0,0:0:0:0:
476,344,83294,1,0,0:0:0:0:
383,268,83462,2,0,L|263:273,1,120.000004577637,8|0,0:0|0:0,0:0:0:0:
52,192,83799,5,0,0:0:0:0:
12,308,83968,1,0,0:0:0:0:
124,352,84136,2,0,P|160:300|156:224,1,120.000004577637,8|0,0:0|0:0,0:0:0:0:
52,192,84473,1,0,0:0:0:0:
176,220,84642,5,0,0:0:0:0:
32,208,84810,1,8,0:0:0:0:
188,196,84979,2,0,P|108:208|24:132,1,180.000006866455,0|0,0:0|0:0,0:0:0:0:
112,88,85316,2,0,P|140:132|144:88,1,120.000004577637,0|8,0:0|0:0,0:0:0:0:
256,36,85653,1,0,0:0:0:0:
438,118,85822,6,0,P|355:146|276:108,1,180.000006866455,4|0,0:0|2:0,0:0:0:0:
256,36,86159,2,0,L|248:176,1,120.000004577637,8|0,0:0|0:0,0:0:0:0:
308,260,86496,2,0,P|232:248|132:320,1,180.000006866455,0|0,0:0|0:0,0:0:0:0:
120,364,86833,2,0,L|128:220,1,120.000004577637,8|0,0:0|0:0,0:0:0:0:
140,32,87170,1,0,0:0:0:0:
140,32,87338,1,0,0:0:0:0:
68,128,87507,6,0,L|8:120,2,60.0000022888184,10|0|0,0:0|0:0|0:0,0:0:0:0:
188,128,87844,2,0,L|248:120,2,60.0000022888184,2|0|0,0:0|0:0|0:0,0:0:0:0:
140,32,88181,1,10,0:0:0:0:
140,32,88350,1,0,0:0:0:0:
132,192,88518,6,0,B|144:332|144:332|172:304,1,180.000006866455,4|0,0:0|2:0,0:0:0:0:
216,240,88855,2,0,P|264:240|324:292,1,120.000004577637,8|0,0:0|0:0,0:0:0:0:
492,321,89192,2,0,P|423:373|337:355,1,180.000006866455,0|0,0:0|2:0,0:0:0:0:
320,282,89529,2,0,L|325:135,1,120.000004577637,8|0,0:0|0:0,0:0:0:0:
120,24,89867,1,0,0:0:0:0:
120,24,90035,1,0,0:0:0:0:
52,116,90204,6,0,L|56:180,1,60.0000022888184,10|0,0:0|0:0,0:0:0:0:
57,206,90372,1,0,0:0:0:0:
148,292,90541,2,0,L|140:356,2,60.0000022888184,2|0|0,0:0|0:0|0:0,0:0:0:0:
168,164,90878,1,10,0:0:0:0:
168,164,91046,1,0,0:0:0:0:
256,248,91215,6,0,L|448:260,1,180.000006866455,4|0,0:0|2:0,0:0:0:0:
508,260,91552,2,0,P|516:188|488:128,1,120.000004577637,8|0,0:0|0:0,0:0:0:0:
340,12,91889,2,0,P|312:68|336:192,1,180.000006866455,0|0,0:0|2:0,0:0:0:0:
400,208,92226,2,0,L|396:344,1,120.000004577637,8|0,0:0|0:0,0:0:0:0:
256,252,92563,1,0,0:0:0:0:
256,252,92732,1,0,0:0:0:0:
184,336,92900,6,0,L|104:328,2,60.0000022888184,10|0|0,0:0|0:0|0:0,0:0:0:0:
256,252,93237,2,0,L|324:248,2,60.0000022888184,2|0|0,0:0|0:0|0:0,0:0:0:0:
152,192,93574,1,10,0:0:0:0:
152,192,93743,1,0,0:0:0:0:
256,32,93912,5,4,0:0:0:0:
312,120,94080,1,0,0:0:0:0:
502,82,94249,2,0,P|452:52|392:56,1,120.000004577637,8|0,0:0|0:0,0:0:0:0:
316,208,94586,1,0,0:0:0:0:
352,324,94754,6,0,L|348:108,1,180.000006866455,0|0,0:0|0:0,0:0:0:0:
349,144,95091,1,0,0:0:0:0:
180,192,95260,1,0,0:0:0:0:
236,300,95428,6,0,L|232:376,2,60.0000022888184,0|0|8,0:0|0:0|0:0,0:0:0:0:
256,100,95766,1,0,0:0:0:0:
236,300,95935,1,0,0:0:0:0:
180,192,96104,5,0,0:0:0:0:
236,300,96272,1,8,0:0:0:0:
328,220,96441,1,0,0:0:0:0:
260,28,96609,6,0,L|264:148,1,120.000004577637,4|0,0:0|0:0,0:0:0:0:
420,312,96946,2,0,P|344:304|252:364,1,180.000006866455,8|0,0:0|0:0,0:0:0:0:
258,355,97283,2,0,P|192:360|132:312,1,120.000004577637,0|0,0:0|0:0,0:0:0:0:
32,188,97620,1,8,0:0:0:0:
32,188,97789,1,0,0:0:0:0:
171,72,97957,6,0,L|164:192,1,120.000004577637,4|0,0:0|0:0,0:0:0:0:
92,300,98294,2,0,P|156:320|264:240,1,180.000006866455,8|0,0:0|0:0,0:0:0:0:
250,268,98631,2,0,L|388:276,1,120.000004577637,0|0,0:0|0:0,0:0:0:0:
480,120,98968,1,8,0:0:0:0:
480,120,99137,1,0,0:0:0:0:
464,312,99305,6,0,P|408:360|284:328,1,180.000006866455,4|0,0:0|2:0,0:0:0:0:
307,349,99643,2,0,P|280:288|296:216,1,120.000004577637,8|0,0:0|0:0,0:0:0:0:
308,80,99980,1,0,0:0:0:0:
375,155,100148,2,0,L|370:275,1,120.000004577637,0|8,0:0|0:0,0:0:0:0:
308,80,100485,1,0,0:0:0:0:
370,275,100654,5,4,0:0:0:0:
492,132,100822,1,0,0:0:0:0:
248,188,100991,1,8,0:0:0:0:
416,372,101159,1,0,0:0:0:0:
396,228,101328,5,0,0:0:0:0:
396,228,101496,1,0,0:0:0:0:
396,228,101665,1,8,0:0:0:0:
396,228,101834,1,0,0:0:0:0:
256,192,102002,5,4,0:0:0:0:
377,48,102170,1,0,0:0:0:0:
133,104,102339,1,8,0:0:0:0:
301,288,102507,1,0,0:0:0:0:
281,144,102676,5,0,0:0:0:0:
281,144,102844,1,0,0:0:0:0:
281,144,103013,1,8,0:0:0:0:
281,144,103182,1,0,0:0:0:0:
256,332,103350,6,0,L|140:328,1,80,4|0,0:0|0:0,0:0:0:0:
28,324,103687,1,0,0:0:0:0:
28,324,103856,1,0,0:0:0:0:
98,189,104025,6,0,P|98:229|88:268,1,80,4|0,0:0|0:0,0:0:0:0:
11,147,104362,2,0,P|3:109|9:69,1,80,4|0,0:0|0:0,0:0:0:0:
98,189,104699,6,0,L|212:184,1,80,4|0,0:0|0:0,0:0:0:0:
324,180,105036,1,0,0:0:0:0:
324,180,105204,1,0,0:0:0:0:
392,56,105373,6,0,P|403:94|401:134,1,80,4|0,0:0|0:0,0:0:0:0:
265,326,105710,2,0,P|259:286|267:248,1,80,4|0,0:0|0:0,0:0:0:0:
427,291,106047,6,0,L|348:288,1,80,4|0,0:0|0:0,0:0:0:0:
188,192,106384,1,0,0:0:0:0:
188,192,106553,1,0,0:0:0:0:
258,53,106721,6,0,P|263:93|256:132,1,80,4|0,0:0|0:0,0:0:0:0:
123,330,107058,2,0,P|120:291|128:252,1,80,4|0,0:0|0:0,0:0:0:0:
127,252,107311,1,0,0:0:0:0:
127,252,107395,5,2,0:0:0:0:
256,328,107564,1,2,0:0:0:0:
352,192,107732,1,2,0:0:0:0:
352,192,107901,1,2,0:0:0:0:
256,52,108070,5,2,0:0:0:0:
172,144,108238,1,2,0:0:0:0:
256,328,108407,1,2,0:0:0:0:
256,328,108575,1,2,0:0:0:0:
352,192,108744,6,0,L|412:188,3,40,0|0|0|0,0:0|0:0|0:0|0:0,0:0:0:0:
464,132,109081,2,0,L|468:72,3,40,0|0|0|0,0:0|0:0|0:0|0:0,0:0:0:0:
472,216,109418,2,0,L|464:324,1,80,8|0,0:0|0:0,0:0:0:0:
308,348,109755,2,0,P|344:364|383:362,1,80,8|8,0:0|0:0,0:0:0:0:
383,362,110008,1,0,0:0:0:0:
383,362,110092,6,0,L|400:148,1,180.000006866455,4|0,0:0|2:0,0:0:0:0:
400,108,110429,2,0,P|332:100|288:44,1,120.000004577637,8|0,0:0|0:0,0:0:0:0:
32,192,110766,2,0,P|108:200|192:136,1,180.000006866455,0|0,0:0|2:0,0:0:0:0:
208,72,111103,2,0,L|216:212,1,120.000004577637,8|0,0:0|0:0,0:0:0:0:
300,364,111440,1,0,0:0:0:0:
300,364,111609,1,0,0:0:0:0:
388,300,111777,6,0,L|452:292,2,60.0000022888184,10|0|0,0:0|0:0|0:0,0:0:0:0:
252,264,112114,2,0,L|180:248,2,60.0000022888184,2|0|0,0:0|0:0|0:0,0:0:0:0:
300,364,112452,1,10,0:0:0:0:
300,364,112620,1,0,0:0:0:0:
336,220,112789,6,0,B|348:80|348:80|324:116,1,180.000006866455,4|0,0:0|2:0,0:0:0:0:
264,156,113126,2,0,P|224:148|168:84,1,120.000004577637,8|0,0:0|0:0,0:0:0:0:
24,252,113463,2,0,P|104:248|196:324,1,180.000006866455,0|0,0:0|2:0,0:0:0:0:
236,360,113800,2,0,P|296:360|344:320,1,120.000004577637,8|0,0:0|0:0,0:0:0:0:
320,120,114137,1,0,0:0:0:0:
320,120,114305,1,0,0:0:0:0:
261,204,114474,6,0,L|264:264,2,60.0000022888184,10|0|0,0:0|0:0|0:0,0:0:0:0:
224,112,114811,2,0,L|160:96,2,60.0000022888184,2|0|0,0:0|0:0|0:0,0:0:0:0:
320,120,115148,1,10,0:0:0:0:
320,120,115317,1,0,0:0:0:0:
468,188,115485,6,0,P|492:260|460:360,1,180.000006866455,4|0,0:0|2:0,0:0:0:0:
388,372,115822,2,0,L|256:356,1,120.000004577637,8|0,0:0|0:0,0:0:0:0:
51,323,116159,2,0,P|127:279|212:304,1,180.000006866455,0|0,0:0|2:0,0:0:0:0:
268,357,116496,2,0,L|276:224,1,120.000004577637,8|0,0:0|0:0,0:0:0:0:
284,32,116834,1,0,0:0:0:0:
284,32,117002,1,0,0:0:0:0:
352,116,117171,6,0,L|416:108,2,60.0000022888184,10|0|0,0:0|0:0|0:0,0:0:0:0:
256,192,117508,2,0,L|184:180,2,60.0000022888184,2|0|0,0:0|0:0|0:0,0:0:0:0:
360,268,117845,1,10,0:0:0:0:
360,268,118013,1,0,0:0:0:0:
411,108,118182,5,4,0:0:0:0:
352,372,118350,1,0,0:0:0:0:
180,192,118519,1,8,0:0:0:0:
328,232,118687,2,0,L|452:240,1,120.000004577637,0|0,0:0|0:0,0:0:0:0:
272,140,119025,1,0,0:0:0:0:
256,356,119193,5,8,0:0:0:0:
128,336,119362,1,0,0:0:0:0:
280,328,119530,2,0,P|208:328|148:364,1,120.000004577637,0|4,0:0|0:0,0:0:0:0:
32,192,119867,1,8,0:0:0:0:
0,328,120036,6,0,P|79:367|165:348,1,180.000006866455,0|0,0:0|0:0,0:0:0:0:
188,272,120373,2,0,L|184:140,1,120.000004577637,0|8,0:0|0:0,0:0:0:0:
176,16,120710,1,0,0:0:0:0:
400,192,120878,5,4,0:0:0:0:
188,272,121047,1,0,0:0:0:0:
360,376,121216,1,8,0:0:0:0:
304,276,121384,2,0,L|296:144,1,120.000004577637,0|0,0:0|0:0,0:0:0:0:
424,280,121721,1,0,0:0:0:0:
164,192,121890,5,8,0:0:0:0:
300,372,122058,1,0,0:0:0:0:
376,164,122227,1,0,0:0:0:0:
280,252,122395,5,4,0:0:0:0:
276,56,122564,1,8,0:0:0:0:
464,84,122732,2,0,P|496:152|460:256,1,180.000006866455
392,196,123070,2,0,P|416:168|368:184,1,120.000004577637,0|8,0:0|0:0,0:0:0:0:
256,352,123407,1,0,0:0:0:0:
168,192,123575,5,4,0:0:0:0:
256,352,123744,1,0,0:0:0:0:
284,48,123912,1,8,0:0:0:0:
284,48,124081,1,0,0:0:0:0:
372,248,124249,5,0,0:0:0:0:
256,352,124418,1,0,0:0:0:0:
44,192,124586,1,8,0:0:0:0:
44,192,124755,1,0,0:0:0:0:
196,116,124923,2,0,L|192:256,1,120.000004577637,0|0,0:0|0:0,0:0:0:0:
120,36,125261,5,4,0:0:0:0:
344,192,125429,1,4,0:0:0:0:
104,324,125598,1,4,0:0:0:0:
