osu file format v14

[General]
AudioFilename: audio.mp3
AudioLeadIn: 0
PreviewTime: 63744
Countdown: 0
SampleSet: Normal
StackLeniency: 1
Mode: 0
LetterboxInBreaks: 0
WidescreenStoryboard: 1

[Editor]
Bookmarks: 120710
DistanceSpacing: 0.6
BeatDivisor: 4
GridSize: 4
TimelineZoom: 1.5

[Metadata]
Title:Maledetti Scarafaggi
TitleUnicode:Maledetti Scarafaggi
Artist:Giorgio Vanni
ArtistUnicode:Giorgio Vanni
Creator:Chewin
Version:EXTRA
Source:
Tags:Gero Oggy et les cafards Gaumont Xilam Mediaset Cartone Animato Italiano GNEGNEGNE
BeatmapID:1026834
BeatmapSetID:465035

[Difficulty]
HPDrainRate:6
CircleSize:4
OverallDifficulty:8
ApproachRate:9.4
SliderMultiplier:1.7
SliderTickRate:1

[Events]
//Background and Video events
0,0,"1.png",0,0
//Break Periods
//Storyboard Layer 0 (Background)
//Storyboard Layer 1 (Fail)
//Storyboard Layer 2 (Pass)
//Storyboard Layer 3 (Foreground)
//Storyboard Sound Samples

[TimingPoints]
879,337.078651685393,4,1,1,60,1,0
7620,-66.6666666666667,4,1,1,60,0,0
18407,-66.6666666666667,4,1,1,60,0,1
29109,-66.6666666666667,4,1,1,60,0,0
29193,-66.6666666666667,4,1,1,60,0,1
39980,-66.6666666666667,4,1,1,60,0,0
61553,-100,4,1,1,60,0,0
64249,-66.6666666666667,4,1,1,60,0,1
74952,-66.6666666666667,4,1,1,60,0,0
75036,-66.6666666666667,4,1,1,60,0,1
85822,-66.6666666666667,4,1,1,60,0,0
107395,-100,4,1,1,60,0,0
110092,-66.6666666666667,4,1,1,60,0,0

[Colours]
Combo1 : 45,108,225
Combo2 : 0,128,64
Combo3 : 209,131,252
Combo4 : 255,128,64

[HitObjects]
200,224,879,6,0,L|208:340,1,85,4|0,0:0|0:0,0:0:0:0:
320,192,1216,2,0,L|314:107,1,85,0|0,0:0|0:0,0:0:0:0:
200,224,1553,5,0,0:0:0:0:
320,192,1721,1,0,0:0:0:0:
200,224,1890,1,0,0:0:0:0:
320,192,2058,1,0,0:0:0:0:
205,308,2227,6,0,L|200:224,1,85,4|0,0:0|0:0,0:0:0:0:
314,107,2564,2,0,L|320:192,1,85,0|0,0:0|0:0,0:0:0:0:
205,308,2901,5,0,0:0:0:0:
314,107,3070,1,0,0:0:0:0:
205,308,3238,1,0,0:0:0:0:
314,107,3407,1,0,0:0:0:0:
216,192,3575,6,0,P|172:184|132:152,1,85,4|0,0:0|0:0,0:0:0:0:
296,244,3912,2,0,P|340:252|380:284,1,85,0|0,0:0|0:0,0:0:0:0:
216,96,4249,5,0,0:0:0:0:
264,344,4418,1,0,0:0:0:0:
284,24,4586,1,0,0:0:0:0:
264,344,4755,1,0,0:0:0:0:
320,128,4923,5,2,0:0:0:0:
368,196,5092,1,2,0:0:0:0:
400,68,5261,1,2,0:0:0:0:
328,280,5429,1,2,0:0:0:0:
312,116,5598,5,2,0:0:0:0:
380,208,5767,1,2,0:0:0:0:
408,56,5935,1,2,0:0:0:0:
320,292,6104,1,2,0:0:0:0:
256,192,6272,6,0,L|188:184,3,42.5,0|0|0|0,0:0|0:0|0:0|0:0,0:0:0:0:
148,248,6609,2,0,L|96:256,3,42.5,0|0|0|0,0:0|0:0|0:0|0:0,0:0:0:0:
32,192,6946,1,8,0:0:0:0:
120,368,7114,1,0,0:0:0:0:
136,60,7283,1,8,0:0:0:0:
136,60,7452,1,8,0:0:0:0:
256,192,7620,6,0,L|392:184,1,127.500004863739,4|0,0:0|0:0,0:0:0:0:
304,84,7957,1,8,0:0:0:0:
324,292,8126,1,0,0:0:0:0:
140,192,8294,6,0,P|76:184|24:116,1,127.500004863739,0|0,0:0|0:0,0:0:0:0:
212,112,8631,1,8,0:0:0:0:
176,368,8800,1,0,0:0:0:0:
88,272,8968,1,0,0:0:0:0:
88,272,9137,1,0,0:0:0:0:
324,192,9305,5,10,0:0:0:0:
324,192,9390,1,0,0:0:0:0:
324,192,9474,1,0,0:0:0:0:
256,360,9643,5,2,0:0:0:0:
256,360,9727,1,0,0:0:0:0:
256,360,9811,1,0,0:0:0:0:
224,28,9980,5,10,0:0:0:0:
224,28,10064,1,0,0:0:0:0:
224,28,10148,1,0,0:0:0:0:
451,185,10317,6,0,L|324:192,1,127.500004863739,4|0,0:0|0:0,0:0:0:0:
396,84,10654,1,8,0:0:0:0:
384,308,10822,1,0,0:0:0:0:
232,132,10991,6,0,B|216:192|216:192|240:284,1,127.500004863739,0|0,0:0|0:0,0:0:0:0:
451,185,11328,2,0,L|324:192,1,127.500004863739,8|0,0:0|0:0,0:0:0:0:
88,188,11665,1,0,0:0:0:0:
256,364,11834,1,0,0:0:0:0:
232,132,12002,6,0,L|228:56,2,63.7500024318696,10|0|0,0:0|0:0|0:0,0:0:0:0:
168,292,12339,6,0,L|164:355,2,63.7500024318696,2|0|0,0:0|0:0|0:0,0:0:0:0:
136,80,12676,6,0,L|132:4,2,63.7500024318696,10|0|0,0:0|0:0|0:0,0:0:0:0:
52,192,13013,6,0,L|212:184,1,127.500004863739,4|0,0:0|0:0,0:0:0:0:
408,92,13350,1,8,0:0:0:0:
344,296,13519,1,0,0:0:0:0:
312,144,13687,6,0,B|300:80|300:80|324:4,1,127.500004863739,0|0,0:0|0:0,0:0:0:0:
444,240,14025,2,0,B|456:304|456:304|432:380,1,127.500004863739,8|0,0:0|0:0,0:0:0:0:
208,192,14362,1,0,0:0:0:0:
208,192,14530,1,0,0:0:0:0:
344,296,14699,6,0,L|252:308,1,63.7500024318696,10|0,0:0|0:0,0:0:0:0:
192,320,14867,1,0,0:0:0:0:
0,228,15036,6,0,L|92:240,1,63.7500024318696,2|0,0:0|0:0,0:0:0:0:
152,252,15204,1,0,0:0:0:0:
360,168,15373,6,0,L|268:180,1,63.7500024318696,10|0,0:0|0:0,0:0:0:0:
208,192,15541,1,0,0:0:0:0:
312,48,15710,5,4,0:0:0:0:
256,344,15878,1,0,0:0:0:0:
208,96,16047,1,8,0:0:0:0:
208,96,16131,1,0,0:0:0:0:
208,96,16216,1,0,0:0:0:0:
316,244,16384,5,0,0:0:0:0:
256,344,16553,1,0,0:0:0:0:
56,192,16721,1,8,0:0:0:0:
56,192,16805,1,0,0:0:0:0:
56,192,16890,1,0,0:0:0:0:
404,136,17058,5,0,0:0:0:0:
316,244,17227,1,0,0:0:0:0:
312,208,17311,1,0,0:0:0:0:
308,172,17395,1,8,0:0:0:0:
488,192,17564,1,0,0:0:0:0:
332,368,17732,1,0,0:0:0:0:
318,57,17901,5,0,0:0:0:0:
317,76,17985,1,0,0:0:0:0:
315,95,18069,1,8,0:0:0:0:
313,114,18154,1,0,0:0:0:0:
311,133,18238,1,0,0:0:0:0:
309,152,18322,1,0,0:0:0:0:
308,172,18407,6,0,P|240:176|172:132,1,127.500004863739,4|0,0:0|0:0,0:0:0:0:
24,256,18744,2,0,P|92:252|192:324,1,191.250007295609,8|0,0:0|0:0,0:0:0:0:
216,352,19081,2,0,P|284:352|344:312,1,127.500004863739,0|0,0:0|0:0,0:0:0:0:
436,48,19418,1,8,0:0:0:0:
436,48,19502,1,0,0:0:0:0:
436,48,19586,1,0,0:0:0:0:
400,232,19755,5,0,0:0:0:0:
352,128,19923,2,0,B|260:88|252:168|148:104,1,191.250007295609,0|0,0:0|2:0,0:0:0:0:
136,84,20261,1,0,0:0:0:0:
44,196,20429,1,0,0:0:0:0:
68,328,20598,2,0,P|136:320|200:268,1,127.500004863739,0|8,0:0|0:0,0:0:0:0:
256,188,20935,1,0,0:0:0:0:
492,352,21103,6,0,P|388:360|316:288,1,191.250007295609,4|0,0:0|2:0,0:0:0:0:
336,272,21440,2,0,P|364:228|360:140,1,127.500004863739,8|0,0:0|0:0,0:0:0:0:
156,12,21777,2,0,P|128:88|164:196,1,191.250007295609,0|0,0:0|2:0,0:0:0:0:
196,192,22114,2,0,L|176:328,1,127.500004863739,8|0,0:0|0:0,0:0:0:0:
64,240,22452,5,0,0:0:0:0:
296,276,22620,1,0,0:0:0:0:
296,276,22704,1,0,0:0:0:0:
296,276,22789,1,8,0:0:0:0:
97,329,22957,2,0,P|184:362|272:328,1,191.250007295609,0|0,0:0|0:0,0:0:0:0:
296,276,23294,2,0,P|300:208|256:128,1,127.500004863739,0|8,0:0|0:0,0:0:0:0:
184,232,23631,1,0,0:0:0:0:
356,368,23800,5,0,0:0:0:0:
460,192,23968,1,0,0:0:0:0:
408,288,24137,2,0,B|316:248|308:328|204:264,1,191.250007295609,8|0,0:0|2:0,0:0:0:0:
184,232,24474,1,0,0:0:0:0:
356,368,24643,1,0,0:0:0:0:
272,196,24811,2,0,L|280:24,1,127.500004863739,8|0,0:0|0:0,0:0:0:0:
392,144,25148,5,0,0:0:0:0:
160,132,25317,1,0,0:0:0:0:
160,132,25401,1,0,0:0:0:0:
160,132,25485,1,8,0:0:0:0:
256,360,25654,1,0,0:0:0:0:
272,196,25822,1,0,0:0:0:0:
268,228,25907,1,0,0:0:0:0:
264,260,25991,1,0,0:0:0:0:
232,28,26159,5,8,0:0:0:0:
264,260,26328,1,0,0:0:0:0:
464,164,26496,1,4,0:0:0:0:
320,132,26665,5,0,0:0:0:0:
320,132,26749,1,0,0:0:0:0:
320,132,26834,1,8,0:0:0:0:
260,360,27002,1,0,0:0:0:0:
88,192,27171,1,0,0:0:0:0:
232,232,27339,5,0,0:0:0:0:
232,232,27423,1,0,0:0:0:0:
232,232,27508,1,8,0:0:0:0:
0,308,27676,1,0,0:0:0:0:
64,48,27845,1,0,0:0:0:0:
88,192,28013,5,0,0:0:0:0:
176,344,28182,1,8,0:0:0:0:
444,272,28350,2,0,B|348:241|348:322|238:269,1,191.250007295609,0|0,0:0|0:0,0:0:0:0:
232,232,28687,1,0,0:0:0:0:
404,364,28856,1,8,0:0:0:0:
432,20,29025,1,0,0:0:0:0:
412,136,29193,6,0,P|340:144|248:72,1,191.250007295609,4|0,0:0|2:0,0:0:0:0:
240,28,29530,2,0,P|176:32|116:80,1,127.500004863739,8|0,0:0|0:0,0:0:0:0:
28,336,29867,2,0,P|108:340|192:264,1,191.250007295609,0|0,0:0|0:0,0:0:0:0:
184,228,30204,2,0,L|328:252,1,127.500004863739,8|0,0:0|0:0,0:0:0:0:
148,144,30541,5,0,0:0:0:0:
256,368,30710,1,0,0:0:0:0:
256,368,30794,1,0,0:0:0:0:
256,368,30878,1,8,0:0:0:0:
492,260,31047,2,0,B|402:221|394:301|309:248,1,191.250007295609,0|0,0:0|2:0,0:0:0:0:
276,208,31384,1,0,0:0:0:0:
372,364,31553,1,8,0:0:0:0:
348,136,31721,5,0,0:0:0:0:
352,100,31805,1,0,0:0:0:0:
356,64,31890,1,0,0:0:0:0:
448,192,32058,1,0,0:0:0:0:
276,208,32227,2,0,L|72:192,1,191.250007295609,8|0,0:0|0:0,0:0:0:0:
48,192,32564,2,0,P|32:116|56:52,1,127.500004863739,0|0,0:0|0:0,0:0:0:0:
184,88,32901,1,8,0:0:0:0:
168,328,33070,1,0,0:0:0:0:
300,224,33238,5,0,0:0:0:0:
300,224,33322,1,0,0:0:0:0:
300,224,33407,1,0,0:0:0:0:
184,88,33575,1,8,0:0:0:0:
168,328,33744,2,0,B|240:296|288:372|376:308,1,191.250007295609,0|0,0:0|2:0,0:0:0:0:
392,300,34081,1,0,0:0:0:0:
299,97,34249,2,0,P|291:160|300:224,1,127.500004863739,8|0,0:0|0:0,0:0:0:0:
372,24,34586,5,0,0:0:0:0:
184,88,34755,1,0,0:0:0:0:
396,164,34923,2,0,L|484:152,2,63.7500024318696,8|0|0,0:0|0:0|0:0,0:0:0:0:
256,352,35261,2,0,P|152:352|84:268,1,191.250007295609,0|0,0:0|2:0,0:0:0:0:
52,292,35598,2,0,P|108:236|112:164,1,127.500004863739,8|0,0:0|0:0,0:0:0:0:
88,28,35935,5,0,0:0:0:0:
88,28,36019,1,0,0:0:0:0:
88,28,36103,1,0,0:0:0:0:
116,190,36272,1,8,0:0:0:0:
200,132,36440,2,0,B|272:120|272:120|372:148|372:148|468:124,1,255.000009727478,0|0,0:0|0:0,0:0:0:0:
256,24,36946,1,8,0:0:0:0:
300,300,37114,1,0,0:0:0:0:
376,56,37283,5,4,0:0:0:0:
376,56,37367,1,0,0:0:0:0:
376,56,37452,1,0,0:0:0:0:
300,300,37620,1,8,0:0:0:0:
264,192,37789,1,0,0:0:0:0:
447,129,37957,5,0,0:0:0:0:
395,213,38126,1,0,0:0:0:0:
355,133,38294,1,8,0:0:0:0:
491,213,38463,1,0,0:0:0:0:
392,336,38631,6,0,P|324:340|260:300,1,127.500004863739,0|0,0:0|0:0,0:0:0:0:
244,276,38884,1,0,0:0:0:0:
244,276,38968,1,8,0:0:0:0:
52,352,39137,2,0,P|136:368|236:296,1,191.250007295609,0|0,0:0|2:0,0:0:0:0:
244,276,39474,2,0,L|236:124,1,127.500004863739,0|8,0:0|0:0,0:0:0:0:
112,232,39811,1,0,0:0:0:0:
320,360,39980,6,0,P|388:340|436:276,1,127.500004863739,4|0,0:0|0:0,0:0:0:0:
244,276,40317,2,0,P|168:272|88:168,1,191.250007295609,8|0,0:0|0:0,0:0:0:0:
80,156,40654,2,0,P|88:88|140:32,1,127.500004863739,0|0,0:0|0:0,0:0:0:0:
340,148,40991,6,0,L|197:151,1,127.500004863739,8|0,0:0|0:0,0:0:0:0:
292,32,41328,1,0,0:0:0:0:
320,268,41496,1,0,0:0:0:0:
408,68,41665,5,10,0:0:0:0:
408,68,41749,1,0,0:0:0:0:
408,68,41834,1,0,0:0:0:0:
400,304,42002,6,0,L|408:392,2,63.7500024318696,2|0|0,0:0|0:0|0:0,0:0:0:0:
282,95,42339,6,0,L|292:32,2,63.7500024318696,10|0|0,0:0|0:0|0:0,0:0:0:0:
256,336,42676,6,0,P|184:344|112:284,1,127.500004863739,4|0,0:0|0:0,0:0:0:0:
32,124,43013,2,0,P|100:100|208:164,1,191.250007295609,8|0,0:0|2:0,0:0:0:0:
236,188,43350,2,0,P|312:196|380:132,1,127.500004863739,0|0,0:0|0:0,0:0:0:0:
228,48,43687,1,8,0:0:0:0:
256,336,43856,1,0,0:0:0:0:
452,148,44025,1,0,0:0:0:0:
452,148,44193,1,0,0:0:0:0:
304,172,44362,6,0,L|224:164,1,63.7500024318696,10|0,0:0|0:0,0:0:0:0:
160,156,44530,1,0,0:0:0:0:
24,344,44699,6,0,L|108:336,1,63.7500024318696,2|0,0:0|0:0,0:0:0:0:
168,324,44867,1,0,0:0:0:0:
468,300,45036,6,0,L|360:284,1,63.7500024318696,10|0,0:0|0:0,0:0:0:0:
324,280,45204,1,0,0:0:0:0:
43,191,45373,6,0,P|106:188|160:156,1,127.500004863739,4|0,0:0|0:0,0:0:0:0:
256,36,45710,2,0,P|344:32|432:104,1,191.250007295609,8|0,0:0|2:0,0:0:0:0:
424,136,46047,2,0,L|412:272,1,127.500004863739
256,164,46384,1,8,0:0:0:0:
256,164,46553,1,0,0:0:0:0:
99,263,46721,2,0,L|88:136,1,127.500004863739,0|0,0:0|0:0,0:0:0:0:
216,40,47058,5,10,0:0:0:0:
216,40,47143,1,0,0:0:0:0:
216,40,47227,1,0,0:0:0:0:
256,344,47395,5,2,0:0:0:0:
256,344,47480,1,0,0:0:0:0:
256,344,47564,1,0,0:0:0:0:
428,192,47732,5,10,0:0:0:0:
428,192,47817,1,0,0:0:0:0:
428,192,47901,1,0,0:0:0:0:
200,236,48070,5,0,0:0:0:0:
256,344,48238,1,0,0:0:0:0:
288,56,48407,1,8,0:0:0:0:
288,56,48491,1,0,0:0:0:0:
288,56,48575,1,0,0:0:0:0:
200,236,48744,5,0,0:0:0:0:
480,288,48912,2,0,B|388:332|352:244|264:312,1,191.250007295609
256,344,49249,1,0,0:0:0:0:
40,328,49418,6,0,P|102:336|160:312,1,127.500004863739
188,256,49671,1,0,0:0:0:0:
188,256,49755,1,8,0:0:0:0:
64,48,49923,1,0,0:0:0:0:
88,232,50092,1,0,0:0:0:0:
152,144,50261,5,0,0:0:0:0:
128,356,50429,1,8,0:0:0:0:
0,232,50598,1,0,0:0:0:0:
188,256,50766,6,0,B|256:224|320:308|400:232,1,191.250007295609,4|0,0:0|2:0,0:0:0:0:
416,236,51103,1,8,0:0:0:0:
256,56,51272,1,0,0:0:0:0:
232,348,51440,1,0,0:0:0:0:
192,160,51609,1,0,0:0:0:0:
232,348,51777,1,8,0:0:0:0:
256,56,51946,1,0,0:0:0:0:
444,294,52114,6,0,P|352:264|264:300,1,191.250007295609,4|0,0:0|2:0,0:0:0:0:
232,348,52452,2,0,P|144:352|84:288,1,127.500004863739,8|0,0:0|0:0,0:0:0:0:
60,192,52789,1,0,0:0:0:0:
113,332,52957,1,0,0:0:0:0:
144,28,53126,1,8,0:0:0:0:
144,28,53294,1,0,0:0:0:0:
356,192,53463,6,0,B|288:228|224:160|152:200,1,191.250007295609,4|0,0:0|2:0,0:0:0:0:
116,248,53800,1,8,0:0:0:0:
304,84,53968,1,0,0:0:0:0:
252,360,54137,1,0,0:0:0:0:
252,360,54305,1,0,0:0:0:0:
224,24,54474,1,8,0:0:0:0:
252,360,54643,1,0,0:0:0:0:
320,192,54811,5,4,0:0:0:0:
252,360,54980,1,0,0:0:0:0:
52,192,55148,1,8,0:0:0:0:
52,192,55317,1,0,0:0:0:0:
216,80,55485,5,0,0:0:0:0:
252,360,55654,1,0,0:0:0:0:
296,16,55822,5,8,0:0:0:0:
252,360,55991,1,0,0:0:0:0:
152,192,56159,5,4,0:0:0:0:
412,300,56328,1,0,0:0:0:0:
72,336,56496,5,8,0:0:0:0:
468,192,56665,1,0,0:0:0:0:
72,32,56834,5,0,0:0:0:0:
252,360,57002,1,0,0:0:0:0:
356,76,57171,5,8,0:0:0:0:
252,360,57339,1,0,0:0:0:0:
152,192,57508,5,4,0:0:0:0:
252,360,57676,1,0,0:0:0:0:
276,132,57845,1,0,0:0:0:0:
276,132,58013,1,0,0:0:0:0:
252,360,58182,5,4,0:0:0:0:
204,56,58350,1,0,0:0:0:0:
252,360,58519,1,4,0:0:0:0:
288,8,58687,1,0,0:0:0:0:
117,208,58856,5,4,0:0:0:0:
252,360,59024,1,0,0:0:0:0:
293,123,59193,1,0,0:0:0:0:
293,123,59361,1,0,0:0:0:0:
252,360,59530,5,4,0:0:0:0:
204,56,59698,1,0,0:0:0:0:
252,360,59867,1,4,0:0:0:0:
288,8,60035,1,0,0:0:0:0:
80,228,60205,5,4,0:0:0:0:
252,360,60372,1,0,0:0:0:0:
318,111,60542,1,0,0:0:0:0:
318,111,60710,1,0,0:0:0:0:
252,360,60878,5,4,0:0:0:0:
204,56,61046,1,0,0:0:0:0:
252,360,61215,1,4,0:0:0:0:
288,8,61383,1,0,0:0:0:0:
292,164,61553,5,2,0:0:0:0:
224,228,61721,1,2,0:0:0:0:
216,84,61890,1,2,0:0:0:0:
280,324,62058,1,2,0:0:0:0:
304,28,62227,5,2,0:0:0:0:
204,368,62395,1,2,0:0:0:0:
216,84,62564,1,2,0:0:0:0:
280,324,62732,1,2,0:0:0:0:
292,164,62901,5,0,0:0:0:0:
224,228,63070,1,0,0:0:0:0:
56,120,63238,1,0,0:0:0:0:
56,120,63407,1,0,0:0:0:0:
24,292,63575,5,8,0:0:0:0:
48,287,63659,1,0,0:0:0:0:
73,291,63743,1,0,0:0:0:0:
96,303,63827,1,0,0:0:0:0:
133,342,63912,1,8,0:0:0:0:
170,362,63996,1,0,0:0:0:0:
212,365,64080,1,0,0:0:0:0:
252,352,64164,1,0,0:0:0:0:
288,304,64249,6,0,L|424:316,1,127.500004863739,4|0,0:0|0:0,0:0:0:0:
472,72,64586,2,0,P|408:40|288:112,1,191.250007295609,8|0,0:0|0:0,0:0:0:0:
292,128,64923,2,0,P|224:128|172:80,1,127.500004863739,0|0,0:0|0:0,0:0:0:0:
20,192,65261,1,8,0:0:0:0:
20,192,65345,1,0,0:0:0:0:
20,192,65429,1,0,0:0:0:0:
84,372,65598,5,0,0:0:0:0:
132,276,65766,2,0,P|204:268|308:336,1,191.250007295609,0|0,0:0|0:0,0:0:0:0:
340,368,66103,2,0,P|408:352|452:304,1,127.500004863739,0|0,0:0|0:0,0:0:0:0:
456,40,66440,1,0,0:0:0:0:
444,164,66609,1,8,0:0:0:0:
413,155,66693,1,0,0:0:0:0:
382,159,66777,1,0,0:0:0:0:
355,176,66861,1,0,0:0:0:0:
337,202,66946,6,0,P|256:200|176:124,1,191.250007295609,0|0,0:0|0:0,0:0:0:0:
192,76,67283,2,0,L|56:84,1,127.500004863739,8|0,0:0|0:0,0:0:0:0:
16,288,67620,2,0,P|108:284|192:348,1,191.250007295609,0|0,0:0|2:0,0:0:0:0:
228,368,67957,2,0,P|296:364|352:304,1,127.500004863739,8|0,0:0|0:0,0:0:0:0:
304,68,68294,5,0,0:0:0:0:
256,264,68463,1,0,0:0:0:0:
256,264,68547,1,0,0:0:0:0:
256,264,68631,1,8,0:0:0:0:
72,112,68800,6,0,B|129:83|199:141|259:111,1,191.250007295609,0|0,0:0|2:0,0:0:0:0:
304,68,69137,1,0,0:0:0:0:
256,264,69305,1,8,0:0:0:0:
216,8,69474,1,0,0:0:0:0:
351,211,69643,6,0,P|364:274|350:335,1,127.500004863739,0|0,0:0|0:0,0:0:0:0:
24,276,69980,2,0,B|96:260|128:320|232:272,1,191.250007295609,8|0,0:0|2:0,0:0:0:0:
256,264,70317,1,0,0:0:0:0:
156,92,70485,1,0,0:0:0:0:
60,360,70654,1,8,0:0:0:0:
60,360,70738,1,0,0:0:0:0:
60,360,70822,1,0,0:0:0:0:
16,168,70991,5,0,0:0:0:0:
60,360,71159,1,0,0:0:0:0:
60,360,71244,1,0,0:0:0:0:
60,360,71328,1,8,0:0:0:0:
120,248,71496,2,0,B|192:220|252:308|352:212,1,191.250007295609,0|0,0:0|2:0,0:0:0:0:
344,224,71834,1,0,0:0:0:0:
256,368,72002,1,8,0:0:0:0:
196,32,72171,1,0,0:0:0:0:
256,164,72339,5,0,0:0:0:0:
256,164,72423,1,0,0:0:0:0:
256,164,72508,1,0,0:0:0:0:
344,328,72676,1,8,0:0:0:0:
452,188,72845,1,0,0:0:0:0:
344,224,73013,5,0,0:0:0:0:
344,224,73098,1,0,0:0:0:0:
344,224,73182,1,0,0:0:0:0:
256,368,73350,1,8,0:0:0:0:
224,40,73519,1,0,0:0:0:0:
256,368,73687,1,0,0:0:0:0:
312,120,73856,5,0,0:0:0:0:
256,280,74025,1,8,0:0:0:0:
40,208,74193,2,0,B|89:244|160:184|232:224,1,191.250007295609
256,280,74530,1,0,0:0:0:0:
148,40,74699,1,8,0:0:0:0:
80,360,74867,1,0,0:0:0:0:
32,216,75036,6,0,B|81:252|152:192|224:232,1,191.250007295609,4|0,0:0|2:0,0:0:0:0:
256,280,75373,2,0,P|324:280|388:220,1,127.500004863739,8|0,0:0|0:0,0:0:0:0:
496,60,75710,2,0,P|424:40|312:88,1,191.250007295609,0|0,0:0|0:0,0:0:0:0:
300,124,76047,2,0,P|236:128|168:84,1,127.500004863739,8|0,0:0|0:0,0:0:0:0:
20,192,76384,5,0,0:0:0:0:
96,368,76553,1,0,0:0:0:0:
96,368,76637,1,0,0:0:0:0:
96,368,76721,1,8,0:0:0:0:
136,248,76890,2,0,P|212:244|316:320,1,191.250007295609,0|0,0:0|2:0,0:0:0:0:
336,348,77227,2,0,P|420:352|472:304,1,127.500004863739,0|8,0:0|0:0,0:0:0:0:
472,64,77564,1,0,0:0:0:0:
456,188,77732,6,0,P|380:208|276:128,1,191.250007295609,0|0,0:0|0:0,0:0:0:0:
280,104,78070,2,0,L|144:120,1,127.500004863739,8|0,0:0|0:0,0:0:0:0:
8,224,78407,2,0,L|212:248,1,191.250007295609,0|0,0:0|2:0,0:0:0:0:
248,248,78744,2,0,P|260:316|240:380,1,127.500004863739,8|0,0:0|0:0,0:0:0:0:
153,118,79081,5,0,0:0:0:0:
128,364,79249,1,0,0:0:0:0:
128,364,79334,1,0,0:0:0:0:
128,364,79418,1,8,0:0:0:0:
8,224,79586,2,0,B|76:196|124:268|228:216,1,191.250007295609,0|0,0:0|2:0,0:0:0:0:
236,200,79923,1,0,0:0:0:0:
152,24,80092,2,0,P|144:87|152:150,1,127.500004863739,8|0,0:0|0:0,0:0:0:0:
256,368,80429,5,0,0:0:0:0:
472,284,80598,1,0,0:0:0:0:
320,192,80766,2,0,L|328:104,2,63.7500024318696,8|0|0,0:0|0:0|0:0,0:0:0:0:
256,368,81103,2,0,P|144:360|72:304,1,191.250007295609,0|0,0:0|0:0,0:0:0:0:
44,288,81440,2,0,P|96:252|128:184,1,127.500004863739,8|0,0:0|0:0,0:0:0:0:
164,12,81777,5,0,0:0:0:0:
196,280,81946,1,0,0:0:0:0:
196,280,82030,1,0,0:0:0:0:
196,280,82114,1,8,0:0:0:0:
428,209,82283,2,0,B|360:184|288:232|240:204,1,191.250007295609,0|0,0:0|0:0,0:0:0:0:
200,168,82620,1,0,0:0:0:0:
364,360,82789,1,8,0:0:0:0:
392,16,82957,1,0,0:0:0:0:
364,192,83126,5,0,0:0:0:0:
364,192,83210,1,0,0:0:0:0:
364,192,83294,1,0,0:0:0:0:
252,56,83463,1,8,0:0:0:0:
208,352,83631,1,0,0:0:0:0:
176,192,83800,5,0,0:0:0:0:
208,352,83968,1,0,0:0:0:0:
288,252,84137,1,8,0:0:0:0:
88,292,84305,1,0,0:0:0:0:
316,348,84474,6,0,P|384:340|432:296,1,127.500004863739,0|0,0:0|0:0,0:0:0:0:
452,264,84727,1,0,0:0:0:0:
452,264,84811,1,8,0:0:0:0:
256,216,84980,2,0,P|168:220|76:136,1,191.250007295609,0|0,0:0|0:0,0:0:0:0:
80,112,85317,2,0,P|100:44|160:4,1,127.500004863739,0|8,0:0|0:0,0:0:0:0:
180,352,85654,1,0,0:0:0:0:
200,112,85822,6,0,L|360:104,1,127.500004863739,4|0,0:0|0:0,0:0:0:0:
492,240,86159,2,0,P|416:236|320:320,1,191.250007295609,8|0,0:0|0:0,0:0:0:0:
308,352,86496,2,0,P|232:356|168:308,1,127.500004863739,0|0,0:0|0:0,0:0:0:0:
12,112,86834,2,0,P|92:92|196:180,1,191.250007295609,8|0,0:0|0:0,0:0:0:0:
208,184,87171,2,0,P|284:184|332:144,1,127.500004863739,0|0,0:0|0:0,0:0:0:0:
408,16,87508,5,10,0:0:0:0:
408,16,87592,1,0,0:0:0:0:
408,16,87676,1,0,0:0:0:0:
332,356,87845,5,2,0:0:0:0:
332,356,87929,1,0,0:0:0:0:
332,356,88013,1,0,0:0:0:0:
240,88,88182,5,10,0:0:0:0:
240,88,88266,1,0,0:0:0:0:
240,88,88350,1,0,0:0:0:0:
28,292,88519,6,0,P|100:292|156:328,1,127.500004863739,4|0,0:0|0:0,0:0:0:0:
256,188,88856,1,8,0:0:0:0:
260,376,89025,1,0,0:0:0:0:
488,288,89193,2,0,P|420:284|296:344,1,191.250007295609,0|0,0:0|2:0,0:0:0:0:
260,376,89530,2,0,P|272:308|244:232,1,127.500004863739,8|0,0:0|0:0,0:0:0:0:
32,136,89867,2,0,P|20:204|48:280,1,127.500004863739,0|0,0:0|0:0,0:0:0:0:
256,36,90204,5,10,0:0:0:0:
256,36,90289,1,0,0:0:0:0:
256,36,90373,1,0,0:0:0:0:
124,192,90541,5,2,0:0:0:0:
124,192,90626,1,0,0:0:0:0:
124,192,90710,1,0,0:0:0:0:
296,368,90878,5,10,0:0:0:0:
296,368,90963,1,0,0:0:0:0:
296,368,91047,1,0,0:0:0:0:
484,192,91216,6,0,P|416:184|304:252,1,191.250007295609,4|0,0:0|2:0,0:0:0:0:
272,280,91553,2,0,P|200:280|136:216,1,127.500004863739,8|0,0:0|0:0,0:0:0:0:
20,36,91890,2,0,P|88:32|188:96,1,191.250007295609,0|0,0:0|2:0,0:0:0:0:
216,136,92227,2,0,P|280:132|340:76,1,127.500004863739,8|0,0:0|0:0,0:0:0:0:
480,244,92564,2,0,P|416:248|360:292,1,127.500004863739,0|0,0:0|0:0,0:0:0:0:
184,360,92901,6,0,L|88:348,1,63.7500024318696,10|0,0:0|0:0,0:0:0:0:
40,340,93070,1,0,0:0:0:0:
280,256,93238,6,0,L|184:244,1,63.7500024318696,2|0,0:0|0:0,0:0:0:0:
136,236,93407,1,0,0:0:0:0:
372,148,93575,6,0,L|276:136,1,63.7500024318696,10|0,0:0|0:0,0:0:0:0:
228,128,93744,1,0,0:0:0:0:
368,32,93912,5,4,0:0:0:0:
324,272,94081,1,0,0:0:0:0:
228,128,94249,1,8,0:0:0:0:
228,128,94334,1,0,0:0:0:0:
228,128,94418,1,0,0:0:0:0:
468,192,94586,5,0,0:0:0:0:
376,340,94755,2,0,B|300:384|240:300|168:348,1,191.250007295609,0|0,0:0|0:0,0:0:0:0:
140,356,95092,1,0,0:0:0:0:
16,224,95261,2,0,P|84:220|144:176,1,127.500004863739,0|0,0:0|0:0,0:0:0:0:
164,148,95513,1,0,0:0:0:0:
164,148,95598,1,8,0:0:0:0:
256,280,95766,5,0,0:0:0:0:
280,32,95935,1,0,0:0:0:0:
256,364,96103,1,0,0:0:0:0:
96,148,96272,1,8,0:0:0:0:
256,364,96440,1,0,0:0:0:0:
188,128,96609,6,0,B|256:160|320:76|400:152,1,191.250007295609,4|0,0:0|2:0,0:0:0:0:
416,148,96946,1,8,0:0:0:0:
256,328,97115,1,0,0:0:0:0:
232,36,97283,1,0,0:0:0:0:
192,224,97452,1,0,0:0:0:0:
232,36,97620,1,8,0:0:0:0:
256,328,97789,1,0,0:0:0:0:
444,90,97957,6,0,P|352:120|264:84,1,191.250007295609,4|0,0:0|2:0,0:0:0:0:
232,36,98295,2,0,P|144:32|84:96,1,127.500004863739,8|0,0:0|0:0,0:0:0:0:
60,192,98632,1,0,0:0:0:0:
113,52,98800,1,0,0:0:0:0:
144,356,98969,1,8,0:0:0:0:
144,356,99137,1,0,0:0:0:0:
356,192,99306,6,0,B|288:156|224:224|152:184,1,191.250007295609,4|0,0:0|2:0,0:0:0:0:
116,136,99643,1,8,0:0:0:0:
304,300,99811,1,0,0:0:0:0:
252,24,99980,1,0,0:0:0:0:
252,24,100148,1,0,0:0:0:0:
224,360,100317,1,8,0:0:0:0:
252,24,100486,1,0,0:0:0:0:
192,192,100653,5,4,0:0:0:0:
396,136,100822,1,0,0:0:0:0:
76,84,100991,5,8,0:0:0:0:
352,280,101159,1,0,0:0:0:0:
80,328,101328,5,0,0:0:0:0:
484,228,101496,1,0,0:0:0:0:
192,192,101665,5,8,0:0:0:0:
352,280,101834,1,0,0:0:0:0:
308,160,102002,5,4,0:0:0:0:
256,256,102171,1,0,0:0:0:0:
224,96,102339,5,8,0:0:0:0:
256,296,102508,1,0,0:0:0:0:
320,64,102676,5,0,0:0:0:0:
256,332,102845,1,0,0:0:0:0:
240,8,103013,5,8,0:0:0:0:
256,368,103182,1,0,0:0:0:0:
344,192,103350,5,4,0:0:0:0:
260,264,103519,1,0,0:0:0:0:
212,88,103687,1,0,0:0:0:0:
212,88,103856,1,0,0:0:0:0:
356,292,104025,5,4,0:0:0:0:
180,328,104193,1,0,0:0:0:0:
436,352,104362,1,4,0:0:0:0:
108,256,104530,1,0,0:0:0:0:
351,188,104699,5,4,0:0:0:0:
259,266,104868,1,0,0:0:0:0:
207,74,105036,1,0,0:0:0:0:
207,74,105205,1,0,0:0:0:0:
360,288,105373,5,4,0:0:0:0:
172,332,105541,1,0,0:0:0:0:
440,356,105710,1,4,0:0:0:0:
100,252,105878,1,0,0:0:0:0:
362,182,106047,5,4,0:0:0:0:
259,271,106216,1,0,0:0:0:0:
200,55,106384,1,0,0:0:0:0:
200,55,106553,1,0,0:0:0:0:
364,284,106721,5,4,0:0:0:0:
164,336,106889,1,0,0:0:0:0:
448,360,107058,1,4,0:0:0:0:
92,248,107226,1,0,0:0:0:0:
304,120,107395,5,2,0:0:0:0:
256,340,107564,1,2,0:0:0:0:
220,24,107732,1,2,0:0:0:0:
256,240,107901,1,2,0:0:0:0:
304,120,108070,5,2,0:0:0:0:
256,340,108239,1,2,0:0:0:0:
220,24,108407,1,2,0:0:0:0:
256,240,108576,1,2,0:0:0:0:
436,192,108744,5,0,0:0:0:0:
376,88,108912,1,0,0:0:0:0:
256,240,109081,1,0,0:0:0:0:
256,240,109249,1,0,0:0:0:0:
464,352,109418,5,8,0:0:0:0:
441,363,109502,1,0,0:0:0:0:
416,363,109586,1,0,0:0:0:0:
394,350,109670,1,0,0:0:0:0:
360,320,109755,1,8,0:0:0:0:
319,309,109839,1,0,0:0:0:0:
277,315,109923,1,8,0:0:0:0:
240,335,110007,1,0,0:0:0:0:
192,360,110092,6,0,P|124:340|76:276,1,127.500004863739,4|0,0:0|0:0,0:0:0:0:
268,276,110429,2,0,P|344:272|424:168,1,191.250007295609,8|0,0:0|2:0,0:0:0:0:
432,156,110766,2,0,P|424:88|372:32,1,127.500004863739,0|0,0:0|0:0,0:0:0:0:
172,148,111103,6,0,L|315:151,1,127.500004863739,8|0,0:0|0:0,0:0:0:0:
220,32,111440,1,0,0:0:0:0:
192,268,111608,1,0,0:0:0:0:
104,68,111777,5,10,0:0:0:0:
104,68,111861,1,0,0:0:0:0:
104,68,111946,1,0,0:0:0:0:
112,304,112114,6,0,L|104:392,2,63.7500024318696,2|0|0,0:0|0:0|0:0,0:0:0:0:
230,95,112451,6,0,L|220:32,2,63.7500024318696,10|0|0,0:0|0:0|0:0,0:0:0:0:
256,336,112788,6,0,P|328:344|400:284,1,127.500004863739,4|0,0:0|0:0,0:0:0:0:
480,124,113125,2,0,P|412:100|304:164,1,191.250007295609,8|0,0:0|2:0,0:0:0:0:
276,188,113462,2,0,P|200:196|132:132,1,127.500004863739,0|0,0:0|0:0,0:0:0:0:
284,48,113799,1,8,0:0:0:0:
256,336,113968,1,0,0:0:0:0:
60,148,114137,1,0,0:0:0:0:
60,148,114305,1,0,0:0:0:0:
208,172,114474,6,0,L|288:164,1,63.7500024318696,10|0,0:0|0:0,0:0:0:0:
352,156,114642,1,0,0:0:0:0:
488,344,114811,6,0,L|404:336,1,63.7500024318696,2|0,0:0|0:0,0:0:0:0:
344,324,114979,1,0,0:0:0:0:
44,300,115148,6,0,L|152:284,1,63.7500024318696,10|0,0:0|0:0,0:0:0:0:
188,280,115316,1,0,0:0:0:0:
469,191,115485,6,0,P|406:188|352:156,1,127.500004863739,4|0,0:0|0:0,0:0:0:0:
256,36,115822,2,0,P|168:32|80:104,1,191.250007295609,8|0,0:0|2:0,0:0:0:0:
88,136,116159,2,0,L|100:272,1,127.500004863739,0|0,0:0|0:0,0:0:0:0:
256,164,116496,1,8,0:0:0:0:
256,164,116665,1,0,0:0:0:0:
413,263,116833,2,0,L|424:136,1,127.500004863739,0|0,0:0|0:0,0:0:0:0:
296,40,117170,5,10,0:0:0:0:
296,40,117255,1,0,0:0:0:0:
296,40,117339,1,0,0:0:0:0:
256,344,117507,5,2,0:0:0:0:
256,344,117592,1,0,0:0:0:0:
256,344,117676,1,0,0:0:0:0:
84,192,117844,5,10,0:0:0:0:
84,192,117929,1,0,0:0:0:0:
84,192,118013,1,0,0:0:0:0:
312,236,118182,5,4,0:0:0:0:
256,344,118350,1,0,0:0:0:0:
224,56,118519,1,8,0:0:0:0:
224,56,118603,1,0,0:0:0:0:
224,56,118687,1,0,0:0:0:0:
28,192,118856,5,0,0:0:0:0:
80,296,119025,1,0,0:0:0:0:
216,192,119193,1,8,0:0:0:0:
216,192,119362,1,0,0:0:0:0:
116,56,119530,5,0,0:0:0:0:
160,368,119699,1,4,0:0:0:0:
256,304,119867,2,0,L|392:312,1,127.500004863739,8|0,0:0|0:0,0:0:0:0:
452,32,120204,1,0,0:0:0:0:
384,312,120373,1,0,0:0:0:0:
420,128,120541,2,0,L|276:132,1,127.500004863739,8|0,0:0|0:0,0:0:0:0:
292,131,120794,1,0,0:0:0:0:
292,131,120878,5,4,0:0:0:0:
144,192,121047,1,0,0:0:0:0:
336,268,121216,5,8,0:0:0:0:
168,68,121384,1,0,0:0:0:0:
208,352,121553,5,0,0:0:0:0:
256,16,121721,1,0,0:0:0:0:
72,272,121890,5,8,0:0:0:0:
464,192,122058,1,0,0:0:0:0:
168,68,122227,5,0,0:0:0:0:
256,280,122395,1,4,0:0:0:0:
256,280,122480,1,0,0:0:0:0:
256,280,122564,1,8,0:0:0:0:
464,192,122732,6,0,P|376:176|272:232,1,191.250007295609,0|0,0:0|0:0,0:0:0:0:
256,280,123070,2,0,P|176:276|112:224,1,127.500004863739,0|8,0:0|0:0,0:0:0:0:
96,36,123407,1,0,0:0:0:0:
256,368,123575,5,4,0:0:0:0:
464,192,123744,1,0,0:0:0:0:
112,128,123912,5,8,0:0:0:0:
440,328,124081,1,0,0:0:0:0:
300,72,124249,5,0,0:0:0:0:
256,368,124418,1,0,0:0:0:0:
208,16,124586,5,8,0:0:0:0:
256,368,124755,1,0,0:0:0:0:
464,192,124923,2,0,B|400:168|320:236|224:148,1,191.250007295609,0|0,0:0|0:0,0:0:0:0:
236,112,125261,5,4,0:0:0:0:
416,364,125429,1,4,0:0:0:0:
428,0,125598,1,4,0:0:0:0:
