osu file format v14

[General]
AudioFilename: audio.mp3
AudioLeadIn: 0
PreviewTime: 63744
Countdown: 0
SampleSet: Normal
StackLeniency: 1
Mode: 0
LetterboxInBreaks: 0
WidescreenStoryboard: 1

[Editor]
Bookmarks: 120710
DistanceSpacing: 0.6
BeatDivisor: 2
GridSize: 4
TimelineZoom: 1.5

[Metadata]
Title:Maledetti Scarafaggi
TitleUnicode:Maledetti Scarafaggi
Artist:Giorgio Vanni
ArtistUnicode:Giorgio Vanni
Creator:Chewin
Version:EASY
Source:
Tags:Gero Oggy et les cafards Gaumont Xilam Mediaset Cartone Animato Italiano GNEGNEGNE
BeatmapID:1027707
BeatmapSetID:465035

[Difficulty]
HPDrainRate:2
CircleSize:2
OverallDifficulty:2
ApproachRate:2
SliderMultiplier:1
SliderTickRate:1

[Events]
//Background and Video events
0,0,"1.png",0,0
//Break Periods
//Storyboard Layer 0 (Background)
//Storyboard Layer 1 (Fail)
//Storyboard Layer 2 (Pass)
//Storyboard Layer 3 (Foreground)
//Storyboard Sound Samples

[TimingPoints]
879,337.078651685393,4,1,1,40,1,0
7620,-100,4,1,1,40,0,0
18407,-100,4,1,1,40,0,1
29109,-100,4,1,1,40,0,0
29193,-100,4,1,1,40,0,1
39980,-100,4,1,1,40,0,0
61553,-100,4,1,1,40,0,0
64249,-100,4,1,1,40,0,1
74952,-100,4,1,1,40,0,0
75036,-100,4,1,1,40,0,1
85822,-100,4,1,1,40,0,0
107395,-100,4,1,1,40,0,0
110092,-100,4,1,1,40,0,0

[Colours]
Combo1 : 45,108,225
Combo2 : 0,128,64
Combo3 : 209,131,252
Combo4 : 255,128,64

[HitObjects]
48,344,879,5,4,0:0:0:0:
140,268,1553,2,0,L|132:104,1,100,0|0,0:0|0:0,0:0:0:0:
132,108,2227,1,4,0:0:0:0:
252,92,2901,6,0,L|257:211,1,100,0|0,0:0|0:0,0:0:0:0:
260,252,3575,1,4,0:0:0:0:
380,268,4249,2,0,L|372:100,1,100,0|0,0:0|0:0,0:0:0:0:
256,192,4923,12,0,6272,0:0:0:0:
292,64,7620,6,0,P|204:48|84:120,1,200,4|0,0:0|0:0,0:0:0:0:
36,192,8968,1,0,0:0:0:0:
72,308,9643,1,2,0:0:0:0:
184,268,10317,6,0,P|280:272|372:344,1,200,4|0,0:0|0:0,0:0:0:0:
468,276,11665,1,0,0:0:0:0:
380,192,12339,1,2,0:0:0:0:
456,100,13013,6,0,P|372:76|264:160,1,200,4|0,0:0|0:0,0:0:0:0:
256,248,14362,1,0,0:0:0:0:
192,352,15036,2,0,P|124:352|76:300,1,100,2|10,0:0|0:0,0:0:0:0:
56,296,15710,5,4,0:0:0:0:
120,192,16384,1,0,0:0:0:0:
52,96,17058,1,0,0:0:0:0:
156,32,17732,1,0,0:0:0:0:
228,128,18407,6,0,L|460:120,1,200,4|0,0:0|0:0,0:0:0:0:
480,228,19755,1,0,0:0:0:0:
448,344,20429,1,0,0:0:0:0:
360,260,21103,6,0,P|272:264|172:340,1,200,4|0,0:0|0:0,0:0:0:0:
64,356,22452,1,0,0:0:0:0:
16,244,23126,1,0,0:0:0:0:
132,216,23800,6,0,L|128:56,1,100,0|8,0:0|0:0,0:0:0:0:
124,56,24474,1,0,0:0:0:0:
236,12,25148,1,0,0:0:0:0:
292,120,25822,1,0,0:0:0:0:
224,216,26496,6,0,L|228:356,1,100,4|8,0:0|0:0,0:0:0:0:
272,356,27171,2,0,P|348:348|384:304,1,100,0|8,0:0|0:0,0:0:0:0:
412,300,27845,1,0,0:0:0:0:
476,196,28519,1,0,0:0:0:0:
368,144,29193,6,0,L|384:28,2,100,4|8|0,0:0|0:0|0:0,0:0:0:0:
280,224,30541,2,0,P|168:228|96:148,1,200,0|0,0:0|0:0,0:0:0:0:
64,60,31890,5,0,0:0:0:0:
176,16,32564,1,0,0:0:0:0:
220,128,33238,2,0,L|204:344,1,200,0|0,0:0|0:0,0:0:0:0:
88,352,34586,5,0,0:0:0:0:
36,244,35261,1,0,0:0:0:0:
144,192,35935,2,0,P|244:192|340:280,1,200,0|0,0:0|0:0,0:0:0:0:
392,344,37283,6,0,P|456:328|484:276,1,100,4|8,0:0|0:0,0:0:0:0:
472,244,37957,2,0,L|464:128,1,100,0|8,0:0|0:0,0:0:0:0:
460,84,38631,1,0,0:0:0:0:
364,12,39305,1,0,0:0:0:0:
336,128,39980,6,0,L|112:120,1,200,4|0,0:0|0:0,0:0:0:0:
40,192,41328,1,0,0:0:0:0:
40,192,42002,1,2,0:0:0:0:
20,312,42676,6,0,P|124:340|220:272,1,200,4|0,0:0|0:0,0:0:0:0:
256,192,44025,1,0,0:0:0:0:
256,192,44699,1,2,0:0:0:0:
310,298,45373,6,0,P|398:341|492:312,1,200,4|0,0:0|0:0,0:0:0:0:
420,216,46721,1,0,0:0:0:0:
480,112,47395,1,2,0:0:0:0:
376,56,48070,6,0,L|244:64,1,100,0|8,0:0|0:0,0:0:0:0:
236,104,48744,2,0,P|184:108|120:68,1,100,0|8,0:0|0:0,0:0:0:0:
96,52,49418,1,0,0:0:0:0:
40,156,50092,1,0,0:0:0:0:
20,276,50766,6,0,P|120:272|216:340,1,200,4|0,0:0|0:0,0:0:0:0:
316,364,52114,2,0,P|428:364|496:292,1,200,4|0,0:0|0:0,0:0:0:0:
376,252,53463,2,0,L|368:28,1,200,4|0,0:0|0:0,0:0:0:0:
256,16,54811,5,4,0:0:0:0:
200,124,55485,2,0,L|68:116,1,100,0|8,0:0|0:0,0:0:0:0:
40,112,56159,1,4,0:0:0:0:
12,228,56834,2,0,L|111:234,1,100,0|8,0:0|0:0,0:0:0:0:
172,240,57508,5,4,0:0:0:0:
256,328,58182,2,0,P|356:352|452:276,1,200,4|4,0:0|0:0,0:0:0:0:
336,232,59530,2,0,L|352:16,1,200,4|4,0:0|0:0,0:0:0:0:
232,60,60878,2,0,L|220:244,1,100,4|4,0:0|0:0,0:0:0:0:
224,220,61553,5,2,0:0:0:0:
256,336,62227,1,2,0:0:0:0:
140,368,62901,1,0,0:0:0:0:
44,292,63575,1,8,0:0:0:0:
116,196,64249,6,0,L|112:64,1,100,4|8,0:0|0:0,0:0:0:0:
112,36,64923,1,0,0:0:0:0:
220,84,65598,2,0,L|436:76,1,200,0|0,0:0|0:0,0:0:0:0:
476,184,66946,6,0,P|484:248|476:324,1,100,0|8,0:0|0:0,0:0:0:0:
464,340,67620,1,0,0:0:0:0:
368,272,68294,2,0,P|280:272|168:352,1,200,0|0,0:0|0:0,0:0:0:0:
68,344,69643,6,0,L|64:212,1,100,0|8,0:0|0:0,0:0:0:0:
64,184,70317,1,0,0:0:0:0:
12,76,70991,2,0,P|120:80|180:204,1,200,0|0,0:0|0:0,0:0:0:0:
204,264,72339,6,0,P|260:276|336:216,1,100,0|8,0:0|0:0,0:0:0:0:
340,216,73013,2,0,L|332:96,2,100,0|8|0,0:0|0:0|0:0,0:0:0:0:
384,328,74362,1,0,0:0:0:0:
460,236,75036,6,0,L|453:136,1,100,4|8,0:0|0:0,0:0:0:0:
448,76,75710,1,0,0:0:0:0:
352,148,76384,2,0,P|256:156|164:88,1,200,0|0,0:0|0:0,0:0:0:0:
68,44,77732,6,0,L|56:168,1,100,0|8,0:0|0:0,0:0:0:0:
52,204,78407,1,0,0:0:0:0:
32,324,79081,2,0,P|136:344|224:280,1,200,0|0,0:0|0:0,0:0:0:0:
208,176,80429,6,0,L|217:76,1,100,0|8,0:0|0:0,0:0:0:0:
224,16,81103,1,0,0:0:0:0:
340,52,81777,2,0,P|448:56|520:148,1,200
396,156,83126,6,0,L|404:260,1,100,0|8,0:0|0:0,0:0:0:0:
412,316,83800,2,0,P|364:332|276:288,1,100,0|8,0:0|0:0,0:0:0:0:
276,276,84474,1,0,0:0:0:0:
192,192,85148,1,0,0:0:0:0:
148,304,85822,6,0,L|-8:312,2,100,4|8|0,0:0|0:0|0:0,0:0:0:0:
192,192,87171,1,0,0:0:0:0:
132,88,87845,1,2,0:0:0:0:
244,40,88519,6,0,P|344:36|444:104,1,200,4|0,0:0|0:0,0:0:0:0:
480,192,89867,2,0,L|468:304,1,100,0|10,0:0|0:0,0:0:0:0:
460,352,90541,1,2,0:0:0:0:
368,276,91216,5,4,0:0:0:0:
280,360,91890,1,0,0:0:0:0:
200,272,92564,1,0,0:0:0:0:
116,356,93238,1,2,0:0:0:0:
32,268,93912,6,0,L|44:148,1,100,4|8,0:0|0:0,0:0:0:0:
48,108,94586,2,0,P|100:116|148:168,1,100,0|8,0:0|0:0,0:0:0:0:
160,200,95261,2,0,P|276:192|360:100,1,200,0|0,0:0|0:0,0:0:0:0:
408,44,96609,5,4,0:0:0:0:
480,272,97957,1,4,0:0:0:0:
256,360,99305,1,4,0:0:0:0:
32,272,100654,6,0,L|40:128,1,100,4|8,0:0|0:0,0:0:0:0:
40,112,101328,1,0,0:0:0:0:
160,100,102002,6,0,L|152:244,1,100,4|8,0:0|0:0,0:0:0:0:
152,260,102676,1,0,0:0:0:0:
256,320,103350,6,0,P|368:332|464:256,1,200,4|4,0:0|0:0,0:0:0:0:
444,168,104699,2,0,L|440:56,2,100,4|0|4,0:0|0:0|0:0,0:0:0:0:
439,289,106047,2,0,P|353:335|256:320,1,200,4|4,0:0|0:0,0:0:0:0:
176,232,107395,5,2,0:0:0:0:
120,340,108070,1,2,0:0:0:0:
16,280,108744,1,0,0:0:0:0:
68,172,109418,1,8,0:0:0:0:
176,232,110092,6,0,L|384:224,1,200,4|0,0:0|0:0,0:0:0:0:
460,312,111440,2,0,P|496:220|440:120,1,200,0|2,0:0|0:0,0:0:0:0:
388,32,112789,5,4,0:0:0:0:
336,140,113463,1,0,0:0:0:0:
244,64,114137,1,0,0:0:0:0:
156,148,114811,1,2,0:0:0:0:
88,48,115485,6,0,P|44:108|76:236,1,200,4|0,0:0|0:0,0:0:0:0:
128,328,116834,2,0,L|356:320,1,200,0|2,0:0|0:0,0:0:0:0:
440,364,118182,6,0,P|440:288|408:232,1,100,4|8,0:0|0:0,0:0:0:0:
388,224,118856,2,0,L|400:108,1,100,0|8,0:0|0:0,0:0:0:0:
408,64,119530,1,0,0:0:0:0:
168,80,120878,6,0,L|36:88,1,100,4|8,0:0|0:0,0:0:0:0:
12,64,121553,2,0,P|40:132|32:192,1,100,0|8,0:0|0:0,0:0:0:0:
20,212,122227,1,0,0:0:0:0:
220,344,123575,6,0,P|304:336|352:292,1,100,4|8,0:0|0:0,0:0:0:0:
344,276,124249,2,0,L|340:160,1,100,0|8,0:0|0:0,0:0:0:0:
336,116,124923,1,0,0:0:0:0:
224,160,125598,5,4,0:0:0:0:
