osu file format v14

[General]
AudioFilename: audio.mp3
AudioLeadIn: 0
PreviewTime: 63744
Countdown: 0
SampleSet: Normal
StackLeniency: 1
Mode: 0
LetterboxInBreaks: 0
WidescreenStoryboard: 0

[Editor]
DistanceSpacing: 0.6
BeatDivisor: 4
GridSize: 4
TimelineZoom: 1.5

[Metadata]
Title:Maledetti Scarafaggi
TitleUnicode:Maledetti Scarafaggi
Artist:Giorgio Vanni
ArtistUnicode:Giorgio Vanni
Creator:Chewin
Version:CHALLENGE
Source:
Tags:Gero Oggy et les cafards Gaumont Xilam Mediaset Cartone Animato Italiano GNEGNEGNE
BeatmapID:995563
BeatmapSetID:465035

[Difficulty]
HPDrainRate:6
CircleSize:4
OverallDifficulty:9
ApproachRate:9.7
SliderMultiplier:1.9
SliderTickRate:1

[Events]
//Background and Video events
0,0,"2.png",0,0
//Break Periods
//Storyboard Layer 0 (Background)
//Storyboard Layer 1 (Fail)
//Storyboard Layer 2 (Pass)
//Storyboard Layer 3 (Foreground)
//Storyboard Sound Samples

[TimingPoints]
879,337.078651685393,4,1,1,40,1,0
7620,-66.6666666666667,4,1,1,40,0,0
18407,-66.6666666666667,4,1,1,40,0,1
29109,-66.6666666666667,4,1,1,40,0,0
29193,-66.6666666666667,4,1,1,40,0,1
39980,-66.6666666666667,4,1,1,40,0,0
61553,-100,4,1,1,40,0,0
64249,-66.6666666666667,4,1,1,40,0,1
74952,-66.6666666666667,4,1,1,40,0,0
75036,-66.6666666666667,4,1,1,40,0,1
85822,-66.6666666666667,4,1,1,40,0,0
107395,-100,4,1,1,40,0,0
110092,-66.6666666666667,4,1,1,40,0,0

[Colours]
Combo1 : 255,94,255
Combo2 : 0,213,106
Combo3 : 128,128,255
Combo4 : 255,128,64

[HitObjects]
148,184,879,5,4,0:0:0:0:
312,136,1047,1,0,0:0:0:0:
256,352,1216,1,0,0:0:0:0:
256,352,1384,1,0,0:0:0:0:
216,40,1553,5,0,0:0:0:0:
256,352,1721,1,0,0:0:0:0:
312,136,1890,5,0,0:0:0:0:
236,232,2058,1,0,0:0:0:0:
128,104,2227,5,4,0:0:0:0:
344,240,2395,1,0,0:0:0:0:
256,352,2564,1,0,0:0:0:0:
256,352,2732,1,0,0:0:0:0:
172,232,2901,5,0,0:0:0:0:
256,344,3070,1,0,0:0:0:0:
300,64,3238,5,0,0:0:0:0:
256,344,3407,1,0,0:0:0:0:
208,136,3575,5,4,0:0:0:0:
320,276,3744,1,0,0:0:0:0:
300,64,3912,5,0,0:0:0:0:
256,344,4081,1,0,0:0:0:0:
204,32,4249,5,0,0:0:0:0:
256,224,4418,1,0,0:0:0:0:
300,64,4586,5,0,0:0:0:0:
256,344,4755,1,0,0:0:0:0:
208,136,4923,6,0,L|128:124,1,47.5,2|0,0:0|0:0,0:0:0:0:
84,32,5092,6,0,L|92:84,1,47.5,2|0,0:0|0:0,0:0:0:0:
0,168,5261,6,0,L|56:148,1,47.5,2|0,0:0|0:0,0:0:0:0:
124,252,5429,6,0,L|117:204,1,47.5,2|0,0:0|0:0,0:0:0:0:
208,136,5598,6,0,L|128:124,1,47.5,2|0,0:0|0:0,0:0:0:0:
84,32,5767,6,0,L|92:84,1,47.5,2|0,0:0|0:0,0:0:0:0:
0,168,5936,6,0,L|56:148,1,47.5,2|0,0:0|0:0,0:0:0:0:
124,252,6104,6,0,L|117:204,1,47.5,2|0,0:0|0:0,0:0:0:0:
32,324,6272,5,0,0:0:0:0:
64,328,6356,1,0,0:0:0:0:
97,333,6440,1,0,0:0:0:0:
130,338,6524,1,0,0:0:0:0:
208,368,6609,5,0,0:0:0:0:
255,363,6693,1,0,0:0:0:0:
302,359,6777,1,0,0:0:0:0:
349,355,6861,1,0,0:0:0:0:
424,308,6946,6,0,L|496:320,2,47.5,8|0|0,0:0|0:0|0:0,0:0:0:0:
204,56,7283,5,8,0:0:0:0:
255,363,7452,1,8,0:0:0:0:
200,180,7620,6,0,B|252:184|288:136|288:136|304:196|364:208,1,213.750008153916,4|0,0:0|2:0,0:0:0:0:
367,129,7957,6,0,P|325:66|211:109,1,213.750008153916,8|0,0:0|2:0,0:0:0:0:
278,344,8294,6,0,B|292:294|292:294|272:217|272:217|288:137,1,213.750008153916,0|0,0:0|2:0,0:0:0:0:
388,248,8631,6,0,B|328:240|328:240|244:264|244:264|136:248,1,213.750008153916,8|0,0:0|2:0,0:0:0:0:
124,192,8968,5,0,0:0:0:0:
256,32,9137,1,0,0:0:0:0:
306,281,9305,6,0,P|296:315|276:344,1,71.2500027179719,10|0,0:0|0:0,0:0:0:0:
252,196,9474,1,0,0:0:0:0:
345,338,9643,6,0,P|311:347|276:344,1,71.2500027179719,2|0,0:0|0:0,0:0:0:0:
400,252,9811,1,0,0:0:0:0:
215,309,9980,6,0,P|249:320|276:344,1,71.2500027179719,10|0,0:0|0:0,0:0:0:0:
140,372,10148,2,0,P|96:360|64:312,1,71.2500027179719
140,372,10317,6,0,P|120:304|228:208,1,213.750008153916,4|0,0:0|2:0,0:0:0:0:
326,368,10654,6,0,B|289:339|301:263|301:263|269:307|213:309,1,213.750008153916,8|0,0:0|2:0,0:0:0:0:
48,268,10991,6,0,P|118:341|215:309,1,213.750008153916,0|0,0:0|2:0,0:0:0:0:
160,100,11328,6,0,L|144:241,1,142.500005435944,8|0,0:0|0:0,0:0:0:0:
144,241,11581,1,0,0:0:0:0:
144,241,11665,5,0,0:0:0:0:
88,28,11834,1,0,0:0:0:0:
320,92,12002,6,0,B|283:93|283:93|248:94,1,71.2500027179719,10|0,0:0|0:0,0:0:0:0:
160,100,12171,1,0,0:0:0:0:
424,200,12339,6,0,P|388:196|348:160,1,71.2500027179719,2|0,0:0|0:0,0:0:0:0:
320,92,12508,1,0,0:0:0:0:
352,364,12676,6,0,P|360:312|384:264,1,71.2500027179719,10|0,0:0|0:0,0:0:0:0:
424,200,12845,2,0,P|444:232|460:276,1,71.2500027179719
352,364,13013,6,0,P|352:288|192:248,1,213.750008153916,4|0,0:0|2:0,0:0:0:0:
48,324,13350,6,0,B|120:316|120:316|180:336|180:336|260:323,1,213.750008153916,8|0,0:0|2:0,0:0:0:0:
308,116,13687,6,0,P|196:108|152:208,1,213.750008153916,0|0,0:0|2:0,0:0:0:0:
257,323,14025,6,0,L|241:175,1,142.500005435944,8|0,0:0|0:0,0:0:0:0:
241,181,14277,1,0,0:0:0:0:
241,181,14362,5,0,0:0:0:0:
464,240,14530,1,0,0:0:0:0:
322,343,14699,6,0,P|286:341|256:324,1,71.2500027179719,10|0,0:0|0:0,0:0:0:0:
241,181,14867,1,0,0:0:0:0:
168,360,15036,6,0,P|176:304|200:252,1,71.2500027179719,2|0,0:0|0:0,0:0:0:0:
328,232,15204,1,0,0:0:0:0:
104,264,15373,6,0,P|132:220|188:208,1,71.2500027179719,10|0,0:0|0:0,0:0:0:0:
256,324,15541,2,0,P|260:268|240:232,1,71.2500027179719
168,360,15710,5,4,0:0:0:0:
112,108,15878,1,0,0:0:0:0:
112,108,15963,1,0,0:0:0:0:
112,108,16047,1,8,0:0:0:0:
255,254,16216,2,0,P|216:268|160:256,1,71.2500027179719
100,236,16384,1,0,0:0:0:0:
356,128,16553,5,0,0:0:0:0:
356,128,16637,1,0,0:0:0:0:
356,128,16721,1,8,0:0:0:0:
256,368,16890,1,0,0:0:0:0:
212,12,17058,5,0,0:0:0:0:
256,92,17227,1,0,0:0:0:0:
252,120,17311,1,0,0:0:0:0:
248,148,17395,1,8,0:0:0:0:
144,124,17564,5,0,0:0:0:0:
356,128,17732,1,0,0:0:0:0:
144,124,17901,1,0,0:0:0:0:
356,128,18070,1,8,0:0:0:0:
256,336,18238,1,0,0:0:0:0:
256,336,18322,1,0,0:0:0:0:
256,336,18407,6,0,B|184:328|184:328|120:344|120:344|40:332,1,213.750008153916,4|0,0:0|2:0,0:0:0:0:
16,256,18744,1,8,0:0:0:0:
144,36,18912,1,0,0:0:0:0:
204,192,19081,2,0,B|260:172|308:204|308:204|360:232|436:192,1,213.750008153916,0|0,0:0|2:0,0:0:0:0:
356,128,19418,1,8,0:0:0:0:
256,336,19586,1,0,0:0:0:0:
220,36,19755,5,0,0:0:0:0:
220,36,19839,1,0,0:0:0:0:
220,36,19923,1,0,0:0:0:0:
256,336,20092,1,8,0:0:0:0:
350,199,20261,2,0,L|356:128,1,71.2500027179719
360,48,20429,1,0,0:0:0:0:
472,192,20598,5,0,0:0:0:0:
344,368,20766,1,8,0:0:0:0:
276,84,20935,1,0,0:0:0:0:
276,84,21019,1,0,0:0:0:0:
276,84,21103,2,0,P|184:84|112:180,1,213.750008153916,4|0,0:0|2:0,0:0:0:0:
82,37,21440,2,0,P|110:102|112:173,1,142.500005435944,8|0,0:0|0:0,0:0:0:0:
256,360,21777,2,0,P|180:332|60:376,1,213.750008153916,0|0,0:0|2:0,0:0:0:0:
41,234,22114,2,0,L|60:375,1,142.500005435944,8|0,0:0|0:0,0:0:0:0:
340,104,22452,5,0,0:0:0:0:
256,360,22620,1,0,0:0:0:0:
256,8,22789,1,8,0:0:0:0:
400,232,22957,1,0,0:0:0:0:
360,224,23041,1,0,0:0:0:0:
324,216,23126,1,0,0:0:0:0:
256,104,23294,5,0,0:0:0:0:
344,368,23463,1,8,0:0:0:0:
504,152,23631,1,0,0:0:0:0:
360,224,23800,6,0,B|310:251|258:223|258:223|210:191|154:211,1,213.750008153916,0|0,0:0|2:0,0:0:0:0:
112,304,24137,2,0,P|60:232|132:108,1,213.750008153916,8|0,0:0|2:0,0:0:0:0:
176,84,24474,1,0,0:0:0:0:
256,368,24643,1,0,0:0:0:0:
360,224,24811,1,8,0:0:0:0:
360,224,24895,1,0,0:0:0:0:
360,224,24980,1,0,0:0:0:0:
236,192,25148,5,0,0:0:0:0:
388,344,25317,1,0,0:0:0:0:
432,120,25485,1,8,0:0:0:0:
256,312,25654,2,0,B|200:292|156:320|156:320|104:348|24:308,1,213.750008153916,0|0,0:0|2:0,0:0:0:0:
12,248,25991,1,0,0:0:0:0:
112,40,26159,1,8,0:0:0:0:
236,192,26328,1,0,0:0:0:0:
236,192,26412,1,0,0:0:0:0:
236,192,26496,5,4,0:0:0:0:
164,336,26665,1,0,0:0:0:0:
112,40,26834,1,8,0:0:0:0:
112,40,27002,1,0,0:0:0:0:
464,192,27171,5,0,0:0:0:0:
316,372,27339,1,0,0:0:0:0:
280,16,27508,1,8,0:0:0:0:
280,16,27676,1,0,0:0:0:0:
304,212,27845,5,0,0:0:0:0:
320,100,28013,1,0,0:0:0:0:
312,156,28098,1,0,0:0:0:0:
304,212,28182,1,8,0:0:0:0:
204,136,28350,5,0,0:0:0:0:
432,172,28519,1,0,0:0:0:0:
292,324,28687,1,0,0:0:0:0:
272,316,28771,1,0,0:0:0:0:
251,316,28855,1,8,0:0:0:0:
232,326,28939,1,0,0:0:0:0:
208,344,29025,1,0,0:0:0:0:
131,342,29109,1,0,0:0:0:0:
70,294,29193,6,0,P|136:312|236:216,1,213.750008153916,4|0,0:0|2:0,0:0:0:0:
256,132,29530,1,8,0:0:0:0:
32,196,29699,1,0,0:0:0:0:
144,72,29867,2,0,L|140:244,1,142.500005435944
140,214,30120,1,0,0:0:0:0:
140,214,30204,1,8,0:0:0:0:
68,20,30373,1,0,0:0:0:0:
140,360,30541,5,0,0:0:0:0:
256,132,30710,1,0,0:0:0:0:
256,132,30794,1,0,0:0:0:0:
256,132,30878,1,8,0:0:0:0:
32,196,31047,2,0,B|88:176|136:208|136:208|188:236|264:196,1,213.750008153916,0|0,0:0|2:0,0:0:0:0:
320,188,31384,1,0,0:0:0:0:
84,40,31553,1,8,0:0:0:0:
80,276,31721,5,0,0:0:0:0:
84,308,31805,1,0,0:0:0:0:
88,340,31890,1,0,0:0:0:0:
256,64,32058,1,0,0:0:0:0:
237,208,32227,6,0,P|156:208|96:156,1,142.500005435944,8|0,0:0|0:0,0:0:0:0:
108,173,32480,1,0,0:0:0:0:
108,173,32564,1,0,0:0:0:0:
380,128,32732,1,0,0:0:0:0:
256,368,32901,1,8,0:0:0:0:
256,368,32985,1,0,0:0:0:0:
256,368,33070,1,0,0:0:0:0:
228,44,33238,5,0,0:0:0:0:
272,256,33407,1,0,0:0:0:0:
264,312,33491,1,0,0:0:0:0:
256,368,33575,1,8,0:0:0:0:
464,132,33744,2,0,B|412:116|360:140|360:140|300:160|236:112,1,213.750008153916,0|0,0:0|2:0,0:0:0:0:
228,44,34081,1,0,0:0:0:0:
256,368,34249,1,8,0:0:0:0:
412,220,34418,1,0,0:0:0:0:
412,220,34502,1,0,0:0:0:0:
412,220,34586,6,0,L|404:76,1,142.500005435944
300,192,34923,1,8,0:0:0:0:
512,136,35092,1,0,0:0:0:0:
348,288,35261,2,0,B|296:312|246:287|246:287|198:255|142:275,1,213.750008153916,0|0,0:0|2:0,0:0:0:0:
96,348,35598,1,8,0:0:0:0:
168,40,35766,1,0,0:0:0:0:
152,188,35935,5,0,0:0:0:0:
148,232,36019,1,0,0:0:0:0:
142,274,36103,1,0,0:0:0:0:
64,92,36272,1,8,0:0:0:0:
224,328,36440,2,0,P|128:360|40:280,1,213.750008153916,0|0,0:0|2:0,0:0:0:0:
28,216,36777,1,0,0:0:0:0:
224,328,36946,1,8,0:0:0:0:
168,16,37114,1,0,0:0:0:0:
188,176,37283,5,4,0:0:0:0:
188,176,37367,1,0,0:0:0:0:
188,176,37452,1,0,0:0:0:0:
28,216,37620,1,8,0:0:0:0:
88,88,37789,1,0,0:0:0:0:
140,336,37957,5,0,0:0:0:0:
368,192,38126,1,0,0:0:0:0:
168,16,38294,1,8,0:0:0:0:
188,176,38463,2,0,L|72:168,1,71.2500027179719
32,164,38631,1,0,0:0:0:0:
256,348,38800,5,0,0:0:0:0:
256,80,38968,1,8,0:0:0:0:
492,196,39137,2,0,B|440:180|396:204|396:204|328:224|264:176,1,213.750008153916,0|0,0:0|2:0,0:0:0:0:
208,152,39474,1,0,0:0:0:0:
420,356,39643,5,8,0:0:0:0:
352,120,39811,1,0,0:0:0:0:
332,304,39980,6,0,P|248:288|152:376,1,213.750008153916,4|0,0:0|2:0,0:0:0:0:
134,224,40317,2,0,L|155:365,1,142.500005435944,8|0,0:0|0:0,0:0:0:0:
64,136,40654,1,0,0:0:0:0:
155,365,40822,1,0,0:0:0:0:
184,152,40991,2,0,L|192:56,1,71.2500027179719,8|0,0:0|0:0,0:0:0:0:
200,4,41159,1,0,0:0:0:0:
64,136,41328,1,0,0:0:0:0:
292,168,41496,1,0,0:0:0:0:
150,271,41665,6,0,P|120:252|100:224,1,71.2500027179719,10|0,0:0|0:0,0:0:0:0:
64,136,41834,1,0,0:0:0:0:
215,248,42002,6,0,P|180:251|150:271,1,71.2500027179719,2|0,0:0|0:0,0:0:0:0:
120,352,42171,1,0,0:0:0:0:
219,179,42339,6,0,P|210:213|215:248,1,71.2500027179719,10|0,0:0|0:0,0:0:0:0:
328,356,42508,2,0,P|320:304|288:264,1,71.2500027179719
328,356,42676,6,0,P|252:328|132:376,1,213.750008153916,4|0,0:0|2:0,0:0:0:0:
52,335,43013,6,0,P|12:266|82:305,1,213.750008153916,8|0,0:0|2:0,0:0:0:0:
133,374,43350,6,0,P|160:276|60:176,1,213.750008153916,0|0,0:0|2:0,0:0:0:0:
71,82,43687,6,0,P|13:154|99:189,1,213.750008153916,8|0,0:0|2:0,0:0:0:0:
152,120,44025,5,0,0:0:0:0:
256,360,44193,1,0,0:0:0:0:
236,76,44362,6,0,L|244:-16,1,71.2500027179719,10|0,0:0|0:0,0:0:0:0:
152,120,44530,1,0,0:0:0:0:
416,152,44699,6,0,L|424:60,1,71.2500027179719,2|0,0:0|0:0,0:0:0:0:
332,196,44867,1,0,0:0:0:0:
136,308,45036,6,0,L|129:378,1,71.2500027179719,10|0,0:0|0:0,0:0:0:0:
220,264,45204,2,0,L|226:193,1,71.2500027179719
136,308,45373,6,0,P|192:352|316:264,1,213.750008153916,4|0,0:0|2:0,0:0:0:0:
228,57,45710,6,0,B|248:105|224:161|224:161|196:209|220:264,1,213.750008153916,8|0,0:0|2:0,0:0:0:0:
299,211,46047,6,0,P|210:164|127:222,1,213.750008153916,0|0,0:0|2:0,0:0:0:0:
224,344,46384,6,0,B|200:289|228:241|228:241|252:185|232:137,1,213.750008153916,8|0,0:0|2:0,0:0:0:0:
228,57,46721,5,0,0:0:0:0:
308,292,46890,1,0,0:0:0:0:
92,300,47058,6,0,P|52:264|40:220,1,71.2500027179719,10|0,0:0|0:0,0:0:0:0:
36,152,47227,1,0,0:0:0:0:
236,208,47395,6,0,P|196:212|148:248,1,71.2500027179719,2|0,0:0|0:0,0:0:0:0:
92,300,47564,1,0,0:0:0:0:
352,320,47732,6,0,P|316:319|284:305,1,71.2500027179719,10|0,0:0|0:0,0:0:0:0:
265,144,47901,2,0,P|244:173|236:208,1,71.2500027179719
344,216,48070,5,0,0:0:0:0:
256,20,48238,1,0,0:0:0:0:
256,20,48322,1,0,0:0:0:0:
256,20,48407,1,8,0:0:0:0:
144,264,48575,2,0,L|152:352,1,71.2500027179719
72,204,48744,1,0,0:0:0:0:
368,116,48912,5,0,0:0:0:0:
368,116,48996,1,0,0:0:0:0:
368,116,49081,1,8,0:0:0:0:
256,360,49249,1,0,0:0:0:0:
232,8,49418,1,0,0:0:0:0:
256,204,49586,5,0,0:0:0:0:
220,200,49671,1,0,0:0:0:0:
184,196,49755,1,8,0:0:0:0:
180,100,49923,5,0,0:0:0:0:
256,360,50092,1,0,0:0:0:0:
284,32,50261,1,0,0:0:0:0:
256,360,50429,1,8,0:0:0:0:
44,192,50598,5,0,0:0:0:0:
44,192,50682,1,0,0:0:0:0:
44,192,50766,2,0,B|100:172|148:204|148:204|200:232|276:192,1,213.750008153916,4|0,0:0|2:0,0:0:0:0:
316,164,51103,1,8,0:0:0:0:
256,360,51272,1,0,0:0:0:0:
256,52,51440,1,0,0:0:0:0:
44,192,51609,5,0,0:0:0:0:
256,52,51777,1,8,0:0:0:0:
256,360,51946,1,0,0:0:0:0:
344,184,52114,6,0,B|290:164|246:192|246:192|194:220|140:192,1,213.750008153916,4|0,0:0|2:0,0:0:0:0:
64,160,52452,1,8,0:0:0:0:
256,360,52620,1,0,0:0:0:0:
296,92,52789,1,0,0:0:0:0:
139,191,52957,5,0,0:0:0:0:
256,20,53126,1,8,0:0:0:0:
256,360,53294,1,0,0:0:0:0:
0,288,53463,6,0,B|56:308|104:276|104:276|156:252|232:288,1,213.750008153916,4|0,0:0|2:0,0:0:0:0:
292,280,53800,1,8,0:0:0:0:
176,28,53968,1,0,0:0:0:0:
120,364,54137,1,0,0:0:0:0:
120,364,54221,1,0,0:0:0:0:
120,364,54305,1,0,0:0:0:0:
68,128,54474,5,8,0:0:0:0:
148,240,54643,1,0,0:0:0:0:
256,84,54811,5,4,0:0:0:0:
288,300,54980,1,0,0:0:0:0:
328,4,55148,5,8,0:0:0:0:
216,372,55317,1,0,0:0:0:0:
172,32,55485,5,0,0:0:0:0:
288,300,55654,1,0,0:0:0:0:
256,84,55822,5,8,0:0:0:0:
216,372,55991,1,0,0:0:0:0:
40,192,56159,5,4,0:0:0:0:
456,272,56328,1,0,0:0:0:0:
0,280,56496,5,8,0:0:0:0:
504,188,56665,1,0,0:0:0:0:
0,104,56834,5,0,0:0:0:0:
512,352,57002,1,0,0:0:0:0:
256,16,57171,5,8,0:0:0:0:
256,368,57339,1,0,0:0:0:0:
332,144,57508,5,4,0:0:0:0:
256,368,57676,1,0,0:0:0:0:
168,208,57845,1,0,0:0:0:0:
168,208,58013,1,0,0:0:0:0:
392,280,58182,5,4,0:0:0:0:
116,320,58350,1,0,0:0:0:0:
392,280,58519,1,4,0:0:0:0:
116,320,58687,1,0,0:0:0:0:
304,92,58856,5,4,0:0:0:0:
256,368,59024,1,0,0:0:0:0:
168,156,59193,1,0,0:0:0:0:
168,156,59361,1,0,0:0:0:0:
436,272,59530,5,4,0:0:0:0:
68,332,59698,1,0,0:0:0:0:
436,272,59867,1,4,0:0:0:0:
68,332,60036,1,0,0:0:0:0:
344,16,60204,5,4,0:0:0:0:
256,368,60372,1,0,0:0:0:0:
168,112,60541,1,0,0:0:0:0:
168,112,60709,1,0,0:0:0:0:
468,264,60878,5,4,0:0:0:0:
40,340,61047,1,0,0:0:0:0:
468,264,61216,1,4,0:0:0:0:
40,340,61384,1,0,0:0:0:0:
240,112,61553,6,0,L|246:178,1,47.5,2|0,0:0|0:0,0:0:0:0:
276,280,61721,6,0,L|269:213,1,47.5,2|0,0:0|0:0,0:0:0:0:
220,100,61890,6,0,L|226:166,1,47.5,2|0,0:0|0:0,0:0:0:0:
288,292,62058,6,0,L|281:225,1,47.5,2|0,0:0|0:0,0:0:0:0:
204,88,62227,6,0,L|210:154,1,47.5,2|0,0:0|0:0,0:0:0:0:
304,304,62395,6,0,L|297:237,1,47.5,2|0,0:0|0:0,0:0:0:0:
180,76,62564,6,0,L|186:142,1,47.5,2|0,0:0|0:0,0:0:0:0:
320,320,62732,6,0,L|313:253,1,47.5,2|0,0:0|0:0,0:0:0:0:
256,192,62901,5,0,0:0:0:0:
208,195,62985,1,0,0:0:0:0:
161,198,63069,1,0,0:0:0:0:
113,201,63153,1,0,0:0:0:0:
24,180,63238,5,0,0:0:0:0:
28,227,63322,1,0,0:0:0:0:
33,274,63406,1,0,0:0:0:0:
38,321,63490,1,0,0:0:0:0:
104,376,63575,6,0,L|168:364,2,47.5,8|0|0,0:0|0:0|0:0,0:0:0:0:
256,32,63912,5,8,0:0:0:0:
256,348,64081,1,0,0:0:0:0:
256,348,64165,1,0,0:0:0:0:
256,348,64249,6,0,B|328:340|328:340|396:360|396:360|504:340,1,213.750008153916,4|0,0:0|2:0,0:0:0:0:
504,276,64586,1,8,0:0:0:0:
364,24,64755,1,0,0:0:0:0:
256,192,64923,2,0,P|312:200|400:144,1,142.500005435944
432,96,65176,1,0,0:0:0:0:
432,96,65261,1,8,0:0:0:0:
328,372,65429,1,0,0:0:0:0:
300,104,65598,5,0,0:0:0:0:
256,312,65766,2,0,L|164:320,1,71.2500027179719
100,328,65935,1,8,0:0:0:0:
64,32,66103,1,0,0:0:0:0:
64,32,66187,1,0,0:0:0:0:
64,32,66272,1,0,0:0:0:0:
212,192,66440,5,0,0:0:0:0:
100,328,66609,1,8,0:0:0:0:
69,103,66777,2,0,L|64:32,1,71.2500027179719
32,192,66946,5,0,0:0:0:0:
200,376,67114,1,0,0:0:0:0:
256,28,67283,1,8,0:0:0:0:
256,28,67367,1,0,0:0:0:0:
256,28,67452,1,0,0:0:0:0:
476,192,67620,2,0,B|422:172|378:200|378:200|326:228|272:200,1,213.750008153916,0|0,0:0|2:0,0:0:0:0:
216,136,67957,5,8,0:0:0:0:
320,368,68126,1,0,0:0:0:0:
344,40,68294,1,0,0:0:0:0:
344,40,68378,1,0,0:0:0:0:
344,40,68463,1,0,0:0:0:0:
320,368,68631,1,8,0:0:0:0:
256,248,68800,6,0,P|180:236|72:332,1,213.750008153916,0|0,0:0|2:0,0:0:0:0:
77,315,69137,1,0,0:0:0:0:
128,84,69305,1,8,0:0:0:0:
184,364,69474,1,0,0:0:0:0:
476,192,69643,5,0,0:0:0:0:
476,192,69727,1,0,0:0:0:0:
476,192,69811,1,0,0:0:0:0:
272,192,69980,2,0,B|218:172|174:200|174:200|124:224|64:196,1,213.750008153916,8|0,0:0|2:0,0:0:0:0:
24,124,70317,1,0,0:0:0:0:
252,360,70485,1,0,0:0:0:0:
200,28,70654,1,8,0:0:0:0:
200,28,70738,1,0,0:0:0:0:
200,28,70822,1,0,0:0:0:0:
152,264,70991,5,0,0:0:0:0:
480,192,71159,1,0,0:0:0:0:
480,192,71244,1,0,0:0:0:0:
480,192,71328,1,8,0:0:0:0:
316,64,71496,2,0,B|336:112|312:168|312:168|284:216|308:271,1,213.750008153916,0|0,0:0|2:0,0:0:0:0:
308,352,71834,5,0,0:0:0:0:
480,192,72002,1,8,0:0:0:0:
236,116,72171,1,0,0:0:0:0:
236,116,72255,1,0,0:0:0:0:
236,116,72339,5,0,0:0:0:0:
308,352,72508,1,0,0:0:0:0:
328,32,72676,1,8,0:0:0:0:
328,32,72845,1,0,0:0:0:0:
100,192,73013,5,0,0:0:0:0:
168,344,73182,1,0,0:0:0:0:
184,24,73350,1,8,0:0:0:0:
184,24,73519,1,0,0:0:0:0:
0,116,73687,5,0,0:0:0:0:
92,272,73856,1,0,0:0:0:0:
96,232,73940,1,0,0:0:0:0:
100,192,74025,1,8,0:0:0:0:
8,344,74193,5,0,0:0:0:0:
212,244,74362,1,0,0:0:0:0:
0,116,74530,5,0,0:0:0:0:
0,116,74614,1,0,0:0:0:0:
0,116,74699,1,8,0:0:0:0:
0,116,74783,1,0,0:0:0:0:
0,116,74867,1,0,0:0:0:0:
0,116,74952,1,0,0:0:0:0:
0,116,75036,6,0,P|76:152|184:56,1,213.750008153916,4|0,0:0|2:0,0:0:0:0:
188,228,75373,2,0,L|176:86,1,142.500005435944,8|0,0:0|0:0,0:0:0:0:
84,272,75710,1,0,0:0:0:0:
304,148,75878,1,0,0:0:0:0:
80,52,76047,1,8,0:0:0:0:
80,52,76131,1,0,0:0:0:0:
80,52,76216,1,0,0:0:0:0:
172,156,76384,5,0,0:0:0:0:
256,32,76553,1,0,0:0:0:0:
256,368,76721,1,8,0:0:0:0:
456,192,76890,2,0,B|402:172|358:200|358:200|306:228|252:200,1,213.750008153916,0|0,0:0|2:0,0:0:0:0:
172,156,77227,1,0,0:0:0:0:
368,16,77395,1,8,0:0:0:0:
412,264,77564,1,0,0:0:0:0:
415,299,77648,1,0,0:0:0:0:
418,334,77732,6,0,P|356:360|260:320,1,142.500005435944
232,280,77985,1,0,0:0:0:0:
232,280,78070,1,8,0:0:0:0:
176,80,78238,1,0,0:0:0:0:
24,273,78407,2,0,B|80:257|128:281|128:281|172:305|232:280,1,213.750008153916,0|0,0:0|2:0,0:0:0:0:
292,216,78744,1,8,0:0:0:0:
256,32,78912,1,0,0:0:0:0:
188,364,79081,6,0,P|112:364|48:300,1,142.500005435944
40,244,79334,1,0,0:0:0:0:
40,244,79418,1,8,0:0:0:0:
256,196,79586,2,0,B|312:176|360:208|360:208|412:236|488:196,1,213.750008153916,0|0,0:0|2:0,0:0:0:0:
492,132,79923,1,0,0:0:0:0:
384,364,80092,1,8,0:0:0:0:
344,16,80261,1,0,0:0:0:0:
300,276,80429,6,0,P|240:284|164:216,1,142.500005435944
174,239,80682,1,0,0:0:0:0:
174,239,80766,1,8,0:0:0:0:
168,24,80935,1,0,0:0:0:0:
232,368,81103,1,0,0:0:0:0:
360,192,81272,1,0,0:0:0:0:
32,208,81440,2,0,B|88:188|136:220|136:220|188:248|264:208,1,213.750008153916,8|0,0:0|2:0,0:0:0:0:
284,152,81777,5,0,0:0:0:0:
244,368,81946,1,0,0:0:0:0:
244,368,82030,1,0,0:0:0:0:
244,368,82114,1,8,0:0:0:0:
224,76,82283,1,0,0:0:0:0:
244,368,82452,1,0,0:0:0:0:
280,8,82620,5,0,0:0:0:0:
32,128,82789,1,8,0:0:0:0:
256,276,82957,1,0,0:0:0:0:
196,136,83126,5,0,0:0:0:0:
196,136,83210,1,0,0:0:0:0:
196,136,83294,1,0,0:0:0:0:
244,368,83463,1,8,0:0:0:0:
272,36,83631,1,0,0:0:0:0:
300,216,83800,2,0,L|296:288,1,71.2500027179719
244,368,83968,1,0,0:0:0:0:
196,136,84137,1,8,0:0:0:0:
448,256,84305,1,0,0:0:0:0:
244,368,84474,6,0,P|172:360|112:296,1,142.500005435944
96,236,84727,1,0,0:0:0:0:
96,236,84811,1,8,0:0:0:0:
44,376,84980,1,0,0:0:0:0:
28,108,85148,1,0,0:0:0:0:
121,314,85317,1,0,0:0:0:0:
121,314,85401,1,0,0:0:0:0:
121,314,85485,1,8,0:0:0:0:
100,16,85654,1,0,0:0:0:0:
216,192,85822,6,0,B|276:176|324:204|324:204|384:224|448:184,1,213.750008153916,4|0,0:0|2:0,0:0:0:0:
484,144,86159,1,8,0:0:0:0:
368,368,86328,1,0,0:0:0:0:
324,16,86496,1,0,0:0:0:0:
368,368,86665,1,0,0:0:0:0:
200,204,86834,5,8,0:0:0:0:
244,196,86918,1,0,0:0:0:0:
284,188,87002,1,0,0:0:0:0:
224,80,87171,1,0,0:0:0:0:
256,312,87339,1,0,0:0:0:0:
388,192,87508,6,0,P|412:160|428:116,1,71.2500027179719,10|0,0:0|0:0,0:0:0:0:
440,48,87676,1,0,0:0:0:0:
392,352,87845,6,0,P|372:308|368:248,1,71.2500027179719,2|0,0:0|0:0,0:0:0:0:
388,192,88013,1,0,0:0:0:0:
216,48,88182,6,0,L|132:56,1,71.2500027179719,10|0,0:0|0:0,0:0:0:0:
32,132,88350,2,0,L|128:136,1,71.2500027179719
256,200,88519,6,0,P|172:204|84:304,1,213.750008153916,4|0,0:0|2:0,0:0:0:0:
196,360,88856,6,0,P|184:288|240:356,1,213.750008153916,8|0,0:0|2:0,0:0:0:0:
348,352,89193,6,0,P|408:372|348:316,1,213.750008153916,0|0,0:0|2:0,0:0:0:0:
308,236,89530,6,0,B|324:176|300:132|300:132|280:80|312:12,1,213.750008153916,8|0,0:0|2:0,0:0:0:0:
380,88,89867,5,0,0:0:0:0:
224,200,90036,1,0,0:0:0:0:
427,313,90204,6,0,P|392:314|360:300,1,71.2500027179719,10|0,0:0|0:0,0:0:0:0:
308,236,90373,1,0,0:0:0:0:
189,369,90541,6,0,P|224:365|256:348,1,71.2500027179719,2|0,0:0|0:0,0:0:0:0:
308,236,90710,1,0,0:0:0:0:
208,100,90878,6,0,P|243:103|275:118,1,71.2500027179719,10|0,0:0|0:0,0:0:0:0:
373,215,91047,2,0,P|343:233|308:236,1,71.2500027179719
117,261,91216,6,0,P|207:209|308:236,1,213.750008153916,4|0,0:0|2:0,0:0:0:0:
245,358,91553,6,0,P|217:286|212:364,1,213.750008153916,8|0,0:0|2:0,0:0:0:0:
188,360,91890,6,0,P|219:280|261:354,1,213.750008153916,0|0,0:0|2:0,0:0:0:0:
277,341,92227,6,0,P|215:273|172:354,1,213.750008153916,8|0,0:0|2:0,0:0:0:0:
160,360,92564,5,0,0:0:0:0:
256,24,92732,1,0,0:0:0:0:
420,84,92900,6,0,P|460:120|472:164,1,71.2500027179719,10|0,0:0|0:0,0:0:0:0:
476,232,93069,1,0,0:0:0:0:
276,176,93237,6,0,P|316:172|364:136,1,71.2500027179719,2|0,0:0|0:0,0:0:0:0:
420,84,93406,1,0,0:0:0:0:
160,64,93574,6,0,P|196:65|228:79,1,71.2500027179719,10|0,0:0|0:0,0:0:0:0:
247,240,93743,2,0,P|268:211|276:176,1,71.2500027179719
168,168,93912,5,4,0:0:0:0:
256,364,94080,1,0,0:0:0:0:
256,364,94164,1,0,0:0:0:0:
256,364,94249,1,8,0:0:0:0:
368,120,94417,2,0,L|360:32,1,71.2500027179719
440,180,94586,1,0,0:0:0:0:
144,268,94754,5,0,0:0:0:0:
144,268,94838,1,0,0:0:0:0:
144,268,94923,1,8,0:0:0:0:
256,24,95091,1,0,0:0:0:0:
256,364,95260,1,0,0:0:0:0:
256,180,95428,5,0,0:0:0:0:
292,184,95513,1,0,0:0:0:0:
328,188,95597,1,8,0:0:0:0:
208,100,95766,5,0,0:0:0:0:
256,364,95935,1,0,0:0:0:0:
256,24,96104,1,0,0:0:0:0:
256,364,96272,1,8,0:0:0:0:
468,192,96440,5,0,0:0:0:0:
468,192,96524,1,0,0:0:0:0:
468,192,96609,2,0,B|412:172|364:204|364:204|312:232|236:192,1,213.750008153916,4|0,0:0|2:0,0:0:0:0:
196,164,96946,1,8,0:0:0:0:
256,364,97115,1,0,0:0:0:0:
256,52,97283,1,0,0:0:0:0:
468,192,97452,5,0,0:0:0:0:
256,52,97620,1,8,0:0:0:0:
256,364,97789,1,0,0:0:0:0:
168,184,97957,6,0,B|222:164|266:192|266:192|318:220|372:192,1,213.750008153916,4|0,0:0|2:0,0:0:0:0:
448,160,98295,1,8,0:0:0:0:
256,364,98463,1,0,0:0:0:0:
216,92,98632,1,0,0:0:0:0:
373,191,98800,5,0,0:0:0:0:
256,20,98969,1,8,0:0:0:0:
256,364,99137,1,0,0:0:0:0:
512,288,99306,6,0,B|456:308|408:276|408:276|356:252|280:288,1,213.750008153916,4|0,0:0|2:0,0:0:0:0:
220,280,99643,1,8,0:0:0:0:
336,28,99811,1,0,0:0:0:0:
392,364,99980,1,0,0:0:0:0:
392,364,100064,1,0,0:0:0:0:
392,364,100148,1,0,0:0:0:0:
256,144,100317,5,8,0:0:0:0:
256,144,100486,1,0,0:0:0:0:
336,356,100654,5,4,0:0:0:0:
256,20,100822,1,0,0:0:0:0:
196,312,100991,5,8,0:0:0:0:
256,144,101159,1,0,0:0:0:0:
308,256,101328,5,0,0:0:0:0:
256,144,101496,1,0,0:0:0:0:
216,228,101665,5,8,0:0:0:0:
256,144,101834,1,0,0:0:0:0:
24,192,102002,5,4,0:0:0:0:
480,196,102171,1,0,0:0:0:0:
144,104,102339,5,8,0:0:0:0:
368,280,102508,1,0,0:0:0:0:
8,344,102676,5,0,0:0:0:0:
504,40,102845,1,0,0:0:0:0:
8,40,103013,5,8,0:0:0:0:
504,344,103182,1,0,0:0:0:0:
368,192,103350,5,4,0:0:0:0:
256,284,103519,1,0,0:0:0:0:
212,96,103687,1,0,0:0:0:0:
212,96,103856,1,0,0:0:0:0:
256,284,104025,5,4,0:0:0:0:
304,16,104193,1,0,0:0:0:0:
256,372,104362,5,4,0:0:0:0:
204,4,104530,1,0,0:0:0:0:
436,192,104699,5,4,0:0:0:0:
256,372,104867,1,0,0:0:0:0:
104,256,105036,1,0,0:0:0:0:
104,256,105204,1,0,0:0:0:0:
424,316,105373,5,4,0:0:0:0:
32,192,105541,1,0,0:0:0:0:
512,84,105710,5,4,0:0:0:0:
32,192,105878,1,0,0:0:0:0:
368,192,106047,5,4,0:0:0:0:
256,284,106216,1,0,0:0:0:0:
212,96,106384,1,0,0:0:0:0:
212,96,106553,1,0,0:0:0:0:
256,284,106721,5,4,0:0:0:0:
304,16,106890,1,0,0:0:0:0:
256,372,107059,5,4,0:0:0:0:
204,4,107227,1,0,0:0:0:0:
336,208,107395,6,0,L|270:202,1,47.5,2|0,0:0|0:0,0:0:0:0:
168,172,107563,6,0,L|235:179,1,47.5,2|0,0:0|0:0,0:0:0:0:
348,228,107732,6,0,L|282:222,1,47.5,2|0,0:0|0:0,0:0:0:0:
156,160,107900,6,0,L|223:167,1,47.5,2|0,0:0|0:0,0:0:0:0:
360,244,108070,6,0,L|294:238,1,47.5,2|0,0:0|0:0,0:0:0:0:
144,144,108237,6,0,L|211:151,1,47.5,2|0,0:0|0:0,0:0:0:0:
372,268,108406,6,0,L|306:262,1,47.5,2|0,0:0|0:0,0:0:0:0:
128,128,108575,6,0,L|195:135,1,47.5,2|0,0:0|0:0,0:0:0:0:
256,192,108743,5,0,0:0:0:0:
253,240,108827,1,0,0:0:0:0:
250,287,108911,1,0,0:0:0:0:
247,335,108995,1,0,0:0:0:0:
160,360,109081,5,0,0:0:0:0:
163,312,109165,1,0,0:0:0:0:
166,265,109249,1,0,0:0:0:0:
169,217,109333,1,0,0:0:0:0:
128,128,109418,6,0,L|124:56,2,47.5,8|0|0,0:0|0:0|0:0,0:0:0:0:
160,360,109755,5,8,0:0:0:0:
472,192,109923,1,8,0:0:0:0:
312,180,110092,6,0,B|260:184|224:136|224:136|208:196|148:208,1,213.750008153916,4|0,0:0|2:0,0:0:0:0:
145,129,110429,6,0,P|187:66|301:109,1,213.750008153916,8|0,0:0|2:0,0:0:0:0:
234,344,110766,6,0,B|220:294|220:294|240:217|240:217|224:137,1,213.750008153916,0|0,0:0|2:0,0:0:0:0:
124,248,111103,6,0,B|184:240|184:240|268:264|268:264|376:248,1,213.750008153916,8|0,0:0|2:0,0:0:0:0:
388,192,111440,5,0,0:0:0:0:
256,32,111609,1,0,0:0:0:0:
206,281,111777,6,0,P|216:315|236:344,1,71.2500027179719,10|0,0:0|0:0,0:0:0:0:
260,196,111946,1,0,0:0:0:0:
167,338,112115,6,0,P|201:347|236:344,1,71.2500027179719,2|0,0:0|0:0,0:0:0:0:
112,252,112283,1,0,0:0:0:0:
297,309,112452,6,0,P|263:320|236:344,1,71.2500027179719,10|0,0:0|0:0,0:0:0:0:
372,372,112620,2,0,P|416:360|448:312,1,71.2500027179719
372,372,112789,6,0,P|392:304|284:208,1,213.750008153916,4|0,0:0|2:0,0:0:0:0:
186,368,113126,6,0,B|223:339|211:263|211:263|243:307|299:309,1,213.750008153916,8|0,0:0|2:0,0:0:0:0:
464,268,113463,6,0,P|394:341|297:309,1,213.750008153916,0|0,0:0|2:0,0:0:0:0:
352,100,113800,6,0,L|368:241,1,142.500005435944,8|0,0:0|0:0,0:0:0:0:
368,241,114053,1,0,0:0:0:0:
368,241,114137,5,0,0:0:0:0:
424,28,114306,1,0,0:0:0:0:
192,92,114474,6,0,B|229:93|229:93|264:94,1,71.2500027179719,10|0,0:0|0:0,0:0:0:0:
352,100,114643,1,0,0:0:0:0:
88,200,114811,6,0,P|124:196|164:160,1,71.2500027179719,2|0,0:0|0:0,0:0:0:0:
192,92,114980,1,0,0:0:0:0:
160,364,115148,6,0,P|152:312|128:264,1,71.2500027179719,10|0,0:0|0:0,0:0:0:0:
88,200,115317,2,0,P|68:232|52:276,1,71.2500027179719
160,364,115485,6,0,P|160:288|320:248,1,213.750008153916,4|0,0:0|2:0,0:0:0:0:
464,324,115822,6,0,B|392:316|392:316|332:336|332:336|252:323,1,213.750008153916,8|0,0:0|2:0,0:0:0:0:
204,116,116159,6,0,P|316:108|360:208,1,213.750008153916,0|0,0:0|2:0,0:0:0:0:
255,323,116497,6,0,L|271:175,1,142.500005435944,8|0,0:0|0:0,0:0:0:0:
271,181,116749,1,0,0:0:0:0:
271,181,116834,5,0,0:0:0:0:
48,240,117002,1,0,0:0:0:0:
190,343,117171,6,0,P|226:341|256:324,1,71.2500027179719,10|0,0:0|0:0,0:0:0:0:
271,181,117339,1,0,0:0:0:0:
344,360,117508,6,0,P|336:304|312:252,1,71.2500027179719,2|0,0:0|0:0,0:0:0:0:
184,232,117676,1,0,0:0:0:0:
308,40,117845,5,10,0:0:0:0:
256,324,118013,1,0,0:0:0:0:
200,116,118182,5,4,0:0:0:0:
256,324,118350,1,0,0:0:0:0:
256,324,118435,1,0,0:0:0:0:
256,324,118519,1,8,0:0:0:0:
460,192,118687,1,0,0:0:0:0:
256,28,118856,5,0,0:0:0:0:
256,324,119025,1,0,0:0:0:0:
320,192,119193,1,8,0:0:0:0:
120,268,119362,1,0,0:0:0:0:
184,124,119530,5,0,0:0:0:0:
256,324,119699,1,4,0:0:0:0:
296,48,119867,5,8,0:0:0:0:
220,240,120036,1,0,0:0:0:0:
216,12,120204,5,0,0:0:0:0:
320,380,120373,1,0,0:0:0:0:
400,192,120541,1,8,0:0:0:0:
152,232,120710,1,0,0:0:0:0:
184,236,120794,1,0,0:0:0:0:
220,240,120878,5,4,0:0:0:0:
92,108,121047,1,0,0:0:0:0:
180,360,121216,1,8,0:0:0:0:
404,16,121384,1,0,0:0:0:0:
0,192,121553,5,0,0:0:0:0:
512,192,121721,1,0,0:0:0:0:
0,100,121890,5,8,0:0:0:0:
512,284,122058,1,0,0:0:0:0:
0,284,122227,5,0,0:0:0:0:
512,100,122395,1,4,0:0:0:0:
200,100,122564,5,8,0:0:0:0:
256,296,122732,1,0,0:0:0:0:
272,24,122901,1,0,0:0:0:0:
192,368,123070,5,0,0:0:0:0:
192,368,123154,1,0,0:0:0:0:
192,368,123238,1,8,0:0:0:0:
460,192,123407,1,0,0:0:0:0:
64,48,123575,5,4,0:0:0:0:
460,192,123744,1,0,0:0:0:0:
0,360,123912,5,8,0:0:0:0:
512,100,124081,1,0,0:0:0:0:
0,128,124249,5,0,0:0:0:0:
512,360,124418,1,0,0:0:0:0:
0,360,124586,5,8,0:0:0:0:
460,192,124755,1,0,0:0:0:0:
136,8,124923,1,0,0:0:0:0:
208,288,125261,5,4,0:0:0:0:
256,64,125429,1,4,0:0:0:0:
276,368,125598,1,4,0:0:0:0:
