osu file format v14

[General]
AudioFilename: audio.mp3
AudioLeadIn: 0
PreviewTime: -1
Countdown: 1
SampleSet: None
StackLeniency: 0.7
Mode: 0
LetterboxInBreaks: 0
WidescreenStoryboard: 0

[Editor]
DistanceSpacing: 1.1
BeatDivisor: 4
GridSize: 32
TimelineZoom: 2.7

[Metadata]
Title:Sigla Dragon Ball GT (speed up ver.)
TitleUnicode:Sigla Dragon Ball GT (speed up ver.)
Artist:Giorgio Amadori
ArtistUnicode:Giorgio Amadori
Creator:- Croma -
Version:Goku, lo sai! Che la fullcomberaaaaiiii
Source:dragon
Tags:dragon, ball , gt , goku , giorgio , vanni , croma , nightcore , cristina , 2016 , anime , manga, giappominkia , italia , pop , dance
BeatmapID:958648
BeatmapSetID:446324

[Difficulty]
HPDrainRate:6
CircleSize:4.2
OverallDifficulty:8
ApproachRate:9.2
SliderMultiplier:1.8
SliderTickRate:2

[Events]
//Background and Video events
0,0,"TAMosYV.jpg",0,0
//Break Periods
//Storyboard Layer 0 (Background)
//Storyboard Layer 1 (Fail)
//Storyboard Layer 2 (Pass)
//Storyboard Layer 3 (Foreground)
//Storyboard Sound Samples

[TimingPoints]
1002.96956255538,341.950869887628,4,3,0,90,1,0
6474,-66.6666666666667,4,3,0,90,0,0
11945,-100,4,3,0,90,0,0
16903,-66.6666666666667,4,3,0,90,0,0
17074,-100,4,3,0,90,0,0
28017,-66.6666666666667,4,3,0,90,0,0
28786,-100,4,3,0,90,0,0
34343,-50,4,3,0,90,0,0
45200,-100,4,3,0,90,0,0
55715,170.975242784845,4,3,0,90,1,1
77514,341.95048556969,4,3,0,90,1,0
87088,170.975242784845,4,3,0,90,1,0
88455,341.950869887628,4,3,0,90,1,0
98286,170.975242784845,4,3,0,90,1,1
107518,-66.6666666666667,4,3,0,90,0,1
108031,-100,4,3,0,90,0,1
134276,341.950869887628,4,3,0,90,1,0

[HitObjects]
212,202,1002,6,0,P|141:217|105:253,1,90
97,266,1259,1,0,0:0:0:0:
114,318,1344,1,0,0:0:0:0:
308,319,1515,1,0,0:0:0:0:
418,205,1686,1,0,0:0:0:0:
418,205,1772,1,0,0:0:0:0:
418,205,1943,2,0,P|379:170|371:170,1,45
197,52,2370,6,0,P|255:68|272:42,1,90
325,62,2627,1,0,0:0:0:0:
363,109,2712,1,0,0:0:0:0:
126,168,2883,1,0,0:0:0:0:
273,339,3055,1,0,0:0:0:0:
243,300,3140,1,0,0:0:0:0:
400,212,3311,2,0,L|437:188,1,45
182,217,3738,6,0,P|197:151|171:115,1,90
152,106,3995,1,0,0:0:0:0:
319,89,4166,1,0,0:0:0:0:
368,66,4251,1,0,0:0:0:0:
294,327,4422,1,0,0:0:0:0:
307,282,4507,1,0,0:0:0:0:
264,133,4678,1,0,0:0:0:0:
264,133,4764,1,0,0:0:0:0:
256,192,5106,12,0,5790,0:0:0:0:
74,311,6474,6,0,B|152:311|152:311|152:257|220:235|319:251,1,270.000010299683
454,245,7158,6,0,B|376:245|376:245|376:191|308:169|209:185,1,270.000010299683
73,178,7841,6,0,B|151:178|151:178|151:124|219:102|318:118,1,270.000010299683
455,111,8525,6,0,B|377:111|377:111|377:57|309:35|210:51,1,270.000010299683
48,306,9209,1,0,0:0:0:0:
348,277,9380,1,0,0:0:0:0:
138,62,9722,2,0,P|162:132|101:149,1,135.000005149842
283,42,10064,1,0,0:0:0:0:
448,155,10235,1,0,0:0:0:0:
256,192,10577,12,0,11090,0:0:0:0:
256,192,11261,12,0,11603,0:0:0:0:
340,59,11945,5,0,0:0:0:0:
373,93,12030,1,0,0:0:0:0:
392,140,12116,1,0,0:0:0:0:
391,191,12201,1,0,0:0:0:0:
361,228,12287,1,0,0:0:0:0:
328,264,12372,2,0,P|325:315|332:321,1,45
458,204,12543,5,0,0:0:0:0:
421,171,12629,1,0,0:0:0:0:
375,149,12714,1,0,0:0:0:0:
325,148,12800,1,0,0:0:0:0:
274,164,12885,1,0,0:0:0:0:
236,200,12971,1,0,0:0:0:0:
193,227,13056,2,0,P|148:243|137:240,1,45
253,37,13313,5,0,0:0:0:0:
458,128,13484,1,0,0:0:0:0:
367,334,13655,1,0,0:0:0:0:
161,242,13826,2,0,P|103:222|49:237,1,90
310,151,14168,5,0,0:0:0:0:
347,115,14253,1,0,0:0:0:0:
362,64,14339,1,0,0:0:0:0:
362,64,14510,1,0,0:0:0:0:
441,198,14681,6,0,P|441:253|409:289,1,90
187,189,15022,2,0,P|196:134|226:102,1,90
443,81,15364,1,0,0:0:0:0:
300,177,15535,1,0,0:0:0:0:
474,245,15706,1,0,0:0:0:0:
326,326,15877,1,0,0:0:0:0:
207,271,16048,5,0,0:0:0:0:
179,239,16134,1,0,0:0:0:0:
148,207,16219,1,0,0:0:0:0:
114,174,16305,1,0,0:0:0:0:
83,144,16390,5,0,0:0:0:0:
82,125,16476,1,0,0:0:0:0:
82,106,16561,1,0,0:0:0:0:
82,90,16647,1,0,0:0:0:0:
83,74,16732,1,0,0:0:0:0:
84,58,16818,1,0,0:0:0:0:
84,42,16903,2,0,P|164:48|221:89,1,135.000005149842
406,228,17245,5,0,0:0:0:0:
165,317,17416,2,0,P|128:273|157:231,1,90
47,95,17758,1,0,0:0:0:0:
132,167,17929,1,0,0:0:0:0:
323,225,18100,1,0,0:0:0:0:
237,146,18271,1,0,0:0:0:0:
321,38,18442,1,0,0:0:0:0:
406,128,18613,2,0,B|489:124|396:167|464:181|334:204|513:151|470:175|495:215|443:240,1,180
290,193,19126,5,0,0:0:0:0:
385,323,19297,1,0,0:0:0:0:
191,200,19468,1,0,0:0:0:0:
284,331,19639,1,0,0:0:0:0:
40,211,19810,2,0,P|81:154|125:151,1,90
284,113,20152,1,0,0:0:0:0:
99,37,20323,2,0,P|71:88|89:118,1,90
166,282,20665,1,0,0:0:0:0:
166,282,21007,5,0,0:0:0:0:
346,66,21349,2,0,P|400:71|418:111,1,90
408,247,21690,1,0,0:0:0:0:
162,138,21861,2,0,P|201:105|202:64,2,90
71,318,22374,2,0,P|126:346|161:329,1,90
308,101,22716,2,0,P|385:105|390:197,1,180
97,161,23229,5,0,0:0:0:0:
217,79,23400,1,0,0:0:0:0:
197,295,23571,1,0,0:0:0:0:
216,178,23742,1,0,0:0:0:0:
378,322,23913,1,0,0:0:0:0:
300,227,24084,2,0,B|296:161|360:194|311:105|433:101|493:247|384:38|477:47,1,270
314,47,24768,2,0,B|255:55|255:55|216:74,1,90
129,121,25110,2,0,B|100:168|100:168|96:221,1,90
334,195,25452,5,0,0:0:0:0:
334,195,25623,1,0,0:0:0:0:
453,257,25794,1,0,0:0:0:0:
453,257,25965,1,0,0:0:0:0:
316,323,26136,2,0,B|198:320|250:333|162:233,1,180
348,57,26820,2,0,P|414:62|415:113,1,90
309,157,27162,1,0,0:0:0:0:
453,229,27333,1,0,0:0:0:0:
326,324,27504,1,0,0:0:0:0:
134,77,27846,5,0,0:0:0:0:
126,286,28017,2,0,P|222:280|270:189,1,202.500007724762
275,90,28359,1,0,0:0:0:0:
319,50,28444,1,0,0:0:0:0:
377,39,28530,1,0,0:0:0:0:
435,55,28615,1,0,0:0:0:0:
472,97,28700,1,0,0:0:0:0:
461,154,28786,2,0,P|446:208|452:226,1,45
357,337,28957,5,0,0:0:0:0:
296,338,29042,1,0,0:0:0:0:
234,340,29128,1,0,0:0:0:0:
172,340,29213,1,0,0:0:0:0:
112,326,29299,2,0,P|68:295|63:283,1,45
228,222,29470,5,0,0:0:0:0:
280,193,29555,1,0,0:0:0:0:
326,153,29641,1,0,0:0:0:0:
342,94,29726,1,0,0:0:0:0:
328,38,29812,2,0,P|291:9|280:12,1,45
79,46,29983,5,0,0:0:0:0:
125,85,30068,1,0,0:0:0:0:
140,143,30154,1,0,0:0:0:0:
121,193,30239,1,0,0:0:0:0:
85,240,30325,1,0,0:0:0:0:
104,296,30410,1,0,0:0:0:0:
154,324,30496,2,0,P|205:335|216:331,1,45
443,319,30667,5,0,0:0:0:0:
402,277,30752,1,0,0:0:0:0:
350,240,30838,1,0,0:0:0:0:
296,209,30923,1,0,0:0:0:0:
239,186,31009,1,0,0:0:0:0:
180,172,31094,1,0,0:0:0:0:
123,168,31180,2,0,P|72:151|66:127,1,45
105,40,31351,5,0,0:0:0:0:
162,62,31436,1,0,0:0:0:0:
203,106,31522,1,0,0:0:0:0:
206,164,31607,1,0,0:0:0:0:
179,215,31693,1,0,0:0:0:0:
172,274,31778,1,0,0:0:0:0:
201,325,31864,2,0,P|248:347|260:344,1,45
298,147,32035,5,0,0:0:0:0:
342,189,32120,1,0,0:0:0:0:
358,249,32205,1,0,0:0:0:0:
340,306,32291,1,0,0:0:0:0:
285,329,32376,1,0,0:0:0:0:
256,192,32462,12,0,33146,0:0:0:0:
403,76,33317,5,0,0:0:0:0:
59,180,33488,1,0,0:0:0:0:
383,273,33659,1,0,0:0:0:0:
150,40,33830,1,0,0:0:0:0:
111,302,34001,1,0,0:0:0:0:
394,153,34172,1,0,0:0:0:0:
112,165,34343,2,0,P|267:202|252:29,1,360
40,244,34856,5,0,0:0:0:0:
292,346,35027,1,0,0:0:0:0:
292,346,35112,1,0,0:0:0:0:
292,346,35198,1,0,0:0:0:0:
88,90,35369,1,0,0:0:0:0:
456,130,35540,1,0,0:0:0:0:
133,294,35710,2,0,P|178:212|328:346,1,360
59,130,36223,5,0,0:0:0:0:
206,340,36394,2,0,P|245:254|188:186,2,180
444,215,36907,1,0,0:0:0:0:
326,35,37078,1,0,0:0:0:0:
134,297,37249,1,0,0:0:0:0:
310,153,37420,2,0,P|339:250|288:251,1,180
22,206,37762,5,0,0:0:0:0:
163,329,37933,1,0,0:0:0:0:
421,326,38104,1,0,0:0:0:0:
252,222,38275,1,0,0:0:0:0:
192,31,38446,1,0,0:0:0:0:
303,152,38617,1,0,0:0:0:0:
306,147,38703,1,0,0:0:0:0:
310,140,38788,1,0,0:0:0:0:
79,149,38959,5,0,0:0:0:0:
87,207,39045,1,0,0:0:0:0:
111,262,39130,1,0,0:0:0:0:
151,310,39215,1,0,0:0:0:0:
202,343,39301,2,0,P|308:355|385:324,1,180
32,95,39643,1,0,0:0:0:0:
480,95,39814,1,0,0:0:0:0:
384,130,39985,2,0,P|417:214|349:192,1,180
243,58,40327,5,0,0:0:0:0:
249,343,40498,2,0,L|96:237,1,180
243,58,40840,1,0,0:0:0:0:
479,225,41011,1,0,0:0:0:0:
33,225,41182,1,0,0:0:0:0:
89,264,41353,1,0,0:0:0:0:
148,298,41524,1,0,0:0:0:0:
372,321,41695,6,0,P|400:229|313:219,1,180
75,180,42037,1,0,0:0:0:0:
272,66,42208,1,0,0:0:0:0:
485,144,42379,1,0,0:0:0:0:
284,270,42550,1,0,0:0:0:0:
284,270,42891,1,0,0:0:0:0:
284,270,43233,5,0,0:0:0:0:
428,214,43404,2,0,P|419:116|328:64,1,180
86,62,43746,1,0,0:0:0:0:
428,316,43917,1,0,0:0:0:0:
434,69,44088,1,0,0:0:0:0:
134,279,44259,1,0,0:0:0:0:
229,48,44430,2,0,P|282:136|193:233,1,180
59,70,44772,5,0,0:0:0:0:
105,94,44858,1,0,0:0:0:0:
139,133,44943,1,0,0:0:0:0:
146,183,45029,1,0,0:0:0:0:
117,224,45114,1,0,0:0:0:0:
105,273,45200,2,0,P|121:338|128:341,1,45
308,336,45371,5,0,0:0:0:0:
360,317,45456,1,0,0:0:0:0:
403,280,45542,1,0,0:0:0:0:
424,228,45627,1,0,0:0:0:0:
407,177,45713,1,0,0:0:0:0:
386,127,45798,1,0,0:0:0:0:
378,72,45884,2,0,P|412:33|415:34,1,45
475,157,46054,5,0,0:0:0:0:
426,193,46140,1,0,0:0:0:0:
370,216,46225,1,0,0:0:0:0:
307,224,46311,1,0,0:0:0:0:
247,213,46396,1,0,0:0:0:0:
190,191,46482,1,0,0:0:0:0:
130,184,46567,2,0,P|83:207|82:211,1,45
88,193,46995,1,0,0:0:0:0:
349,54,47337,5,0,0:0:0:0:
435,222,47508,1,0,0:0:0:0:
200,109,47679,1,0,0:0:0:0:
165,156,47764,1,0,0:0:0:0:
145,209,47850,1,0,0:0:0:0:
145,267,47935,2,0,P|154:315|147:320,1,45
58,252,48106,5,0,0:0:0:0:
95,209,48192,1,0,0:0:0:0:
146,186,48277,1,0,0:0:0:0:
200,189,48363,1,0,0:0:0:0:
241,229,48448,2,0,P|303:242|306:236,1,45
460,265,48619,5,0,0:0:0:0:
453,205,48705,1,0,0:0:0:0:
428,151,48790,1,0,0:0:0:0:
385,105,48876,1,0,0:0:0:0:
334,75,48961,1,0,0:0:0:0:
276,61,49047,1,0,0:0:0:0:
215,60,49132,1,0,0:0:0:0:
158,75,49218,1,0,0:0:0:0:
112,111,49303,1,0,0:0:0:0:
81,158,49389,2,0,P|92:227|64:263,1,90
441,328,49730,5,0,0:0:0:0:
186,191,49901,1,0,0:0:0:0:
442,86,50072,1,0,0:0:0:0:
442,86,50158,1,0,0:0:0:0:
442,86,50243,1,0,0:0:0:0:
442,86,50414,1,0,0:0:0:0:
475,228,50585,5,0,0:0:0:0:
281,191,50756,1,0,0:0:0:0:
118,51,50927,1,0,0:0:0:0:
125,281,51098,1,0,0:0:0:0:
379,361,51269,1,0,0:0:0:0:
428,209,51440,2,0,P|416:149|384:118,1,90
126,87,51782,2,0,P|135:152|160:188,1,90
285,316,52124,1,0,0:0:0:0:
380,219,52295,1,0,0:0:0:0:
270,117,52466,2,0,P|308:66|366:74,1,90
73,139,52979,5,0,0:0:0:0:
162,314,53150,1,0,0:0:0:0:
461,158,53492,1,0,0:0:0:0:
146,228,53834,1,0,0:0:0:0:
146,228,54005,1,0,0:0:0:0:
146,228,54176,1,0,0:0:0:0:
44,35,54347,5,0,0:0:0:0:
83,79,54432,1,0,0:0:0:0:
112,132,54518,1,0,0:0:0:0:
115,191,54603,1,0,0:0:0:0:
93,246,54689,1,0,0:0:0:0:
61,297,54774,1,0,0:0:0:0:
25,344,54860,1,0,0:0:0:0:
83,341,54945,5,0,0:0:0:0:
134,316,55031,1,0,0:0:0:0:
179,278,55116,1,0,0:0:0:0:
232,252,55202,1,0,0:0:0:0:
289,248,55287,1,0,0:0:0:0:
339,280,55373,1,0,0:0:0:0:
382,319,55458,1,0,0:0:0:0:
425,358,55544,1,0,0:0:0:0:
479,338,55629,1,0,0:0:0:0:
500,281,55715,1,0,0:0:0:0:
301,66,55886,5,0,0:0:0:0:
45,66,56056,6,0,B|112:71|124:114|124:114|170:148|234:114,1,180
472,193,56398,2,0,B|405:198|393:241|393:241|347:275|283:241,1,180
59,263,56740,1,0,0:0:0:0:
427,43,56911,1,0,0:0:0:0:
446,95,56997,1,0,0:0:0:0:
441,147,57082,1,0,0:0:0:0:
401,182,57168,1,0,0:0:0:0:
351,206,57253,2,0,B|285:190|285:190|279:181|249:208|246:253|283:300,1,180
45,87,57595,5,0,0:0:0:0:
149,326,57766,1,0,0:0:0:0:
275,48,57937,1,0,0:0:0:0:
263,341,58108,1,0,0:0:0:0:
479,115,58279,1,0,0:0:0:0:
348,351,58450,1,0,0:0:0:0:
44,173,58621,5,0,0:0:0:0:
44,173,58792,2,0,B|143:149|98:242|66:249|179:306,1,180
417,59,59134,1,0,0:0:0:0:
442,323,59305,2,0,P|417:263|310:287,1,180
262,253,59561,1,0,0:0:0:0:
212,211,59647,1,0,0:0:0:0:
167,164,59732,1,0,0:0:0:0:
151,108,59818,2,0,B|211:91|217:79|217:79|201:46|285:38|333:72,1,180
356,75,60074,1,0,0:0:0:0:
409,104,60160,2,0,B|425:154|425:154|457:184|490:227|451:281,1,180
63,189,60502,5,0,0:0:0:0:
466,112,60673,1,0,0:0:0:0:
76,49,60844,1,0,0:0:0:0:
463,261,61015,2,0,B|415:310|415:310|404:324|350:272|290:306,1,180
62,154,61357,6,0,P|97:223|74:242,1,90
130,269,61528,1,0,0:0:0:0:
144,323,61613,1,0,0:0:0:0:
198,342,61699,1,0,0:0:0:0:
445,46,61870,1,0,0:0:0:0:
123,131,62041,2,0,B|147:189|147:189|212:189|213:264|267:230,1,180
469,194,62383,5,0,0:0:0:0:
446,136,62468,1,0,0:0:0:0:
392,111,62554,1,0,0:0:0:0:
339,139,62639,1,0,0:0:0:0:
319,195,62724,1,0,0:0:0:0:
402,325,62895,1,0,0:0:0:0:
57,259,63066,1,0,0:0:0:0:
452,201,63237,1,0,0:0:0:0:
106,196,63408,1,0,0:0:0:0:
454,73,63579,1,0,0:0:0:0:
163,129,63750,6,0,P|183:322|370:162,1,540
243,228,64434,1,0,0:0:0:0:
251,70,64605,1,0,0:0:0:0:
403,29,64776,1,0,0:0:0:0:
489,162,64947,1,0,0:0:0:0:
390,284,65118,6,0,P|328:278|385:340,1,180
465,80,65460,1,0,0:0:0:0:
204,144,65631,1,0,0:0:0:0:
149,164,65717,1,0,0:0:0:0:
100,193,65802,2,0,P|70:242|81:281,1,90
334,46,65973,5,0,0:0:0:0:
385,82,66059,1,0,0:0:0:0:
424,129,66144,1,0,0:0:0:0:
431,191,66229,1,0,0:0:0:0:
408,248,66315,1,0,0:0:0:0:
364,290,66400,1,0,0:0:0:0:
305,305,66486,1,0,0:0:0:0:
245,309,66571,1,0,0:0:0:0:
188,307,66657,2,0,P|126:278|112:167,1,180
345,251,66999,5,0,0:0:0:0:
52,128,67170,1,0,0:0:0:0:
411,45,67341,1,0,0:0:0:0:
48,240,67512,1,0,0:0:0:0:
179,39,67683,1,0,0:0:0:0:
381,338,67854,5,0,0:0:0:0:
354,285,67939,1,0,0:0:0:0:
351,228,68025,1,0,0:0:0:0:
377,177,68110,1,0,0:0:0:0:
428,151,68196,1,0,0:0:0:0:
60,77,68367,5,0,0:0:0:0:
379,97,68538,1,0,0:0:0:0:
92,169,68709,1,0,0:0:0:0:
430,213,68880,1,0,0:0:0:0:
48,264,69051,1,0,0:0:0:0:
374,306,69222,2,0,B|356:256|356:256|399:233|272:320|226:235,1,180
240,168,69563,5,0,0:0:0:0:
132,296,69734,1,0,0:0:0:0:
334,129,69905,1,0,0:0:0:0:
147,184,70076,1,0,0:0:0:0:
460,115,70247,1,0,0:0:0:0:
260,58,70418,1,0,0:0:0:0:
260,58,70589,2,0,B|197:97|197:97|210:113|77:38|117:102,1,180
432,253,70931,2,0,B|397:210|397:210|465:187|380:144|439:96,1,180
257,184,71273,1,0,0:0:0:0:
257,184,71615,1,0,0:0:0:0:
42,148,71957,6,0,B|148:142|49:237|48:302|150:322|259:360|101:159|254:342,1,360
293,53,72470,5,0,0:0:0:0:
459,206,72641,2,0,B|394:228|461:304|321:160|327:220|298:285,1,180
275,300,72898,1,0,0:0:0:0:
222,300,72983,2,0,B|136:340|175:265|115:316|138:171|64:212,1,180
63,161,73239,1,0,0:0:0:0:
77,104,73325,1,0,0:0:0:0:
125,68,73410,1,0,0:0:0:0:
184,74,73496,1,0,0:0:0:0:
314,62,73667,1,0,0:0:0:0:
456,49,73838,1,0,0:0:0:0:
215,288,74009,5,0,0:0:0:0:
467,153,74180,1,0,0:0:0:0:
129,61,74351,2,0,B|63:67|130:107|153:150|146:200|45:178,1,180
441,208,74693,2,0,P|374:211|391:317,3,180
92,255,75377,1,0,0:0:0:0:
323,175,75548,1,0,0:0:0:0:
107,148,75719,1,0,0:0:0:0:
341,68,75890,6,0,P|395:102|376:220,1,180
171,316,76232,2,0,P|117:282|136:164,1,180
163,131,76488,1,0,0:0:0:0:
214,104,76573,1,0,0:0:0:0:
264,75,76659,1,0,0:0:0:0:
297,30,76744,1,0,0:0:0:0:
339,73,76830,1,0,0:0:0:0:
366,127,76915,1,0,0:0:0:0:
373,187,77001,1,0,0:0:0:0:
363,248,77086,1,0,0:0:0:0:
336,299,77172,1,0,0:0:0:0:
288,330,77257,1,0,0:0:0:0:
230,337,77343,1,0,0:0:0:0:
170,332,77428,2,0,P|119:315|74:329,1,90
198,255,77599,5,0,0:0:0:0:
256,228,77684,1,0,0:0:0:0:
319,218,77770,1,0,0:0:0:0:
377,237,77855,1,0,0:0:0:0:
421,275,77941,2,0,P|441:319|470:329,1,45
472,184,78112,5,0,0:0:0:0:
443,129,78197,1,0,0:0:0:0:
396,89,78283,1,0,0:0:0:0:
343,59,78368,1,0,0:0:0:0:
284,45,78454,1,0,0:0:0:0:
220,44,78539,1,0,0:0:0:0:
165,53,78625,2,0,P|117:75|101:93,1,45
450,233,78796,5,0,0:0:0:0:
156,338,78967,1,0,0:0:0:0:
415,140,79138,1,0,0:0:0:0:
119,151,79309,2,0,P|135:195|155:205,1,45
175,229,79480,1,0,0:0:0:0:
234,252,79565,1,0,0:0:0:0:
294,264,79651,1,0,0:0:0:0:
356,255,79736,1,0,0:0:0:0:
405,224,79822,2,0,P|447:198|467:202,1,45
346,320,79993,5,0,0:0:0:0:
308,275,80078,1,0,0:0:0:0:
283,220,80164,1,0,0:0:0:0:
280,159,80249,1,0,0:0:0:0:
300,104,80335,1,0,0:0:0:0:
341,61,80420,1,0,0:0:0:0:
92,78,80591,5,0,0:0:0:0:
399,166,80762,1,0,0:0:0:0:
81,257,80933,1,0,0:0:0:0:
401,70,81104,1,0,0:0:0:0:
299,335,81275,2,0,P|267:286|279:219,1,90
256,192,81617,12,0,82899,0:0:0:0:
171,157,83070,5,0,0:0:0:0:
230,164,83155,1,0,0:0:0:0:
290,157,83241,1,0,0:0:0:0:
346,137,83326,1,0,0:0:0:0:
395,99,83412,1,0,0:0:0:0:
428,50,83497,2,0,P|463:18|474:20,1,45
230,55,83754,5,0,0:0:0:0:
432,206,83925,1,0,0:0:0:0:
171,279,84096,1,0,0:0:0:0:
375,309,84267,1,0,0:0:0:0:
105,129,84438,1,0,0:0:0:0:
105,129,84609,1,0,0:0:0:0:
399,85,84951,6,0,P|414:153|386:203,1,90
105,129,85293,1,0,0:0:0:0:
105,129,85464,1,0,0:0:0:0:
164,233,85635,5,0,0:0:0:0:
210,195,85720,1,0,0:0:0:0:
263,163,85806,1,0,0:0:0:0:
319,136,85891,1,0,0:0:0:0:
379,117,85977,1,0,0:0:0:0:
445,111,86062,1,0,0:0:0:0:
503,133,86148,5,0,0:0:0:0:
503,133,86233,1,0,0:0:0:0:
503,133,86319,1,0,0:0:0:0:
487,199,86404,5,0,0:0:0:0:
450,251,86490,1,0,0:0:0:0:
397,295,86575,1,0,0:0:0:0:
336,313,86661,1,0,0:0:0:0:
273,304,86746,1,0,0:0:0:0:
215,281,86832,1,0,0:0:0:0:
161,244,86917,1,0,0:0:0:0:
126,194,87003,2,0,P|121:143|141:130,1,45
446,193,87173,6,0,L|505:230,1,45
384,191,87258,2,0,L|435:136,1,45
322,193,87344,2,0,L|368:246,1,45
266,194,87429,2,0,L|308:137,1,45
209,195,87515,2,0,L|251:247,1,45
153,196,87600,2,0,L|203:129,1,45
99,220,87686,2,0,L|143:262,1,45
71,273,87771,2,0,L|136:257,1,45
90,328,87857,2,0,L|118:279,1,45
146,335,87942,2,0,L|123:268,1,45
174,289,88028,2,0,L|174:239,1,45
235,286,88113,2,0,L|304:277,1,45
244,234,88199,2,0,L|272:182,1,45
314,172,88284,2,0,L|366:133,1,45
388,99,88370,2,0,L|435:56,1,45
95,65,88540,6,0,P|72:151|140:232,1,180
119,222,89224,1,0,0:0:0:0:
245,321,89395,2,0,P|311:293|362:312,1,90
211,86,89737,2,0,P|245:57|301:69,1,90
426,128,89993,6,0,P|483:123|486:113,1,45
288,183,90164,2,0,P|279:234|291:242,1,45
130,68,90335,2,0,P|81:81|70:77,1,45
207,331,90506,2,0,P|170:291|147:294,1,45
458,224,90763,5,0,0:0:0:0:
184,54,90934,1,0,0:0:0:0:
326,318,91276,2,0,P|359:277|427:258,2,90
67,188,91789,1,0,0:0:0:0:
67,188,92130,1,0,0:0:0:0:
423,109,92301,6,0,P|441:63|428:44,1,45
172,118,92472,2,0,P|194:171|215:174,1,45
423,288,92643,2,0,P|368:264|347:275,1,45
73,244,92814,2,0,P|92:286|110:282,1,45
279,106,92985,2,0,P|230:89|225:100,1,45
256,192,93156,12,0,93669,0:0:0:0:
106,257,94011,5,0,0:0:0:0:
106,257,94182,2,0,P|102:191|72:147,1,90
406,127,94524,2,0,P|410:193|440:237,1,90
172,68,94866,2,0,P|243:51|287:28,1,90
340,316,95208,2,0,P|269:333|225:356,1,90
257,190,95550,1,0,0:0:0:0:
257,190,95892,1,0,0:0:0:0:
469,88,96063,5,0,0:0:0:0:
126,41,96234,1,0,0:0:0:0:
246,322,96405,1,0,0:0:0:0:
246,322,96576,1,0,0:0:0:0:
305,58,96747,2,0,P|211:239|380:137,1,540
279,161,97944,5,0,0:0:0:0:
279,161,98115,1,0,0:0:0:0:
279,161,98286,2,0,B|340:128|326:85|326:85|390:64|443:55,1,180
92,49,98627,2,0,P|136:115|89:209,1,180
88,265,98884,5,0,0:0:0:0:
152,305,98969,1,0,0:0:0:0:
223,327,99055,1,0,0:0:0:0:
297,338,99140,1,0,0:0:0:0:
370,324,99226,1,0,0:0:0:0:
428,283,99311,1,0,0:0:0:0:
474,227,99397,1,0,0:0:0:0:
493,155,99482,1,0,0:0:0:0:
493,82,99568,2,0,P|446:46|412:74,1,90
26,173,99824,5,0,0:0:0:0:
415,86,99995,1,0,0:0:0:0:
97,44,100166,1,0,0:0:0:0:
377,351,100337,1,0,0:0:0:0:
199,119,100508,1,0,0:0:0:0:
247,156,100594,1,0,0:0:0:0:
231,217,100679,1,0,0:0:0:0:
167,216,100765,1,0,0:0:0:0:
150,152,100850,1,0,0:0:0:0:
150,152,101021,5,0,0:0:0:0:
432,264,101192,1,0,0:0:0:0:
199,346,101363,1,0,0:0:0:0:
380,66,101534,2,0,B|436:98|398:113|325:136|312:193|365:210,1,180
40,278,101876,1,0,0:0:0:0:
85,233,101961,1,0,0:0:0:0:
107,173,102047,1,0,0:0:0:0:
102,109,102132,2,0,B|122:64|122:64|186:75,1,90
229,75,102303,1,0,0:0:0:0:
281,114,102389,5,0,0:0:0:0:
464,267,102560,1,0,0:0:0:0:
153,315,102731,1,0,0:0:0:0:
440,194,102902,1,0,0:0:0:0:
143,195,102987,2,0,B|90:173|90:173|135:140|88:92|30:113,1,180
39,110,103244,1,0,0:0:0:0:
39,110,103329,1,0,0:0:0:0:
39,110,103415,5,0,0:0:0:0:
297,42,103586,1,0,0:0:0:0:
158,300,103757,1,0,0:0:0:0:
366,98,103928,1,0,0:0:0:0:
472,293,104099,1,0,0:0:0:0:
448,220,104441,1,0,0:0:0:0:
293,330,104612,2,0,B|207:348|196:335|180:332|241:170|240:128|11:162|100:282,1,360
83,243,105039,1,0,0:0:0:0:
83,243,105125,5,0,0:0:0:0:
434,323,105295,1,0,0:0:0:0:
34,133,105466,1,0,0:0:0:0:
495,29,105637,1,0,0:0:0:0:
235,351,105808,1,0,0:0:0:0:
235,351,105979,1,0,0:0:0:0:
346,180,106150,2,0,P|322:115|210:97,1,180
159,116,106407,1,0,0:0:0:0:
107,164,106492,5,0,0:0:0:0:
453,321,106663,1,0,0:0:0:0:
85,322,106834,1,0,0:0:0:0:
257,37,107005,1,0,0:0:0:0:
257,339,107176,1,0,0:0:0:0:
257,339,107347,1,0,0:0:0:0:
414,56,107518,6,0,B|326:60|326:60|316:133|446:209|446:209|334:222|242:195|166:68|71:171|71:171|123:287,1,810.000030899049
334,311,108202,5,0,0:0:0:0:
219,196,108373,1,0,0:0:0:0:
173,331,108544,1,0,0:0:0:0:
444,219,108715,1,0,0:0:0:0:
321,35,108886,1,0,0:0:0:0:
128,150,109057,1,0,0:0:0:0:
128,150,109142,1,0,0:0:0:0:
128,150,109228,1,0,0:0:0:0:
404,295,109399,1,0,0:0:0:0:
404,295,109484,1,0,0:0:0:0:
404,295,109570,1,0,0:0:0:0:
301,57,109741,5,0,0:0:0:0:
321,126,109826,1,0,0:0:0:0:
324,197,109912,1,0,0:0:0:0:
297,266,109997,1,0,0:0:0:0:
245,313,110083,1,0,0:0:0:0:
181,334,110168,2,0,B|117:342|117:342|172:280|172:280|55:223,1,270
439,180,110767,5,0,0:0:0:0:
225,53,110938,1,0,0:0:0:0:
404,346,111109,1,0,0:0:0:0:
399,44,111280,1,0,0:0:0:0:
68,301,111622,1,0,0:0:0:0:
397,235,112134,5,0,0:0:0:0:
68,211,112304,1,0,0:0:0:0:
454,78,112475,1,0,0:0:0:0:
159,326,112646,1,0,0:0:0:0:
323,29,112989,1,0,0:0:0:0:
68,209,113502,5,0,0:0:0:0:
430,335,113673,1,0,0:0:0:0:
436,162,113844,1,0,0:0:0:0:
72,342,114015,1,0,0:0:0:0:
252,51,114357,1,0,0:0:0:0:
84,201,114699,5,0,0:0:0:0:
417,169,114870,1,0,0:0:0:0:
84,201,115041,1,0,0:0:0:0:
385,302,115383,5,0,0:0:0:0:
128,111,115554,1,0,0:0:0:0:
385,302,115725,1,0,0:0:0:0:
440,188,115896,2,0,B|479:143|479:143|408:94|473:53|409:27,1,180
124,103,116238,5,0,0:0:0:0:
354,153,116409,1,0,0:0:0:0:
125,234,116580,1,0,0:0:0:0:
297,326,116751,2,0,P|355:286|434:357,1,180
413,284,117007,1,0,0:0:0:0:
365,237,117093,1,0,0:0:0:0:
304,209,117178,1,0,0:0:0:0:
237,200,117264,1,0,0:0:0:0:
55,75,117435,6,0,P|132:46|256:66,1,180
122,320,117777,1,0,0:0:0:0:
323,81,117948,1,0,0:0:0:0:
440,338,118119,1,0,0:0:0:0:
225,83,118290,1,0,0:0:0:0:
365,300,118461,2,0,P|337:257|241:308,2,180
365,300,118974,1,0,0:0:0:0:
365,300,119144,1,0,0:0:0:0:
85,97,119486,5,0,0:0:0:0:
296,63,119657,1,0,0:0:0:0:
221,328,119828,2,0,B|246:297|246:297|380:249|234:213,1,180
70,261,120170,1,0,0:0:0:0:
261,52,120341,1,0,0:0:0:0:
261,52,120512,1,0,0:0:0:0:
453,258,120854,6,0,L|466:206,1,45
395,246,120940,2,0,L|386:188,1,45
334,257,121025,2,0,L|312:195,1,45
275,277,121111,2,0,L|245:236,1,45
226,315,121196,2,0,L|138:278,1,90
89,238,121367,5,0,0:0:0:0:
67,173,121453,1,0,0:0:0:0:
81,109,121538,1,0,0:0:0:0:
130,65,121624,1,0,0:0:0:0:
197,53,121709,1,0,0:0:0:0:
261,60,121795,2,0,P|320:88|339:122,1,90
196,203,121966,5,0,0:0:0:0:
248,240,122051,1,0,0:0:0:0:
290,287,122137,1,0,0:0:0:0:
326,340,122222,1,0,0:0:0:0:
385,311,122308,1,0,0:0:0:0:
436,273,122393,1,0,0:0:0:0:
468,218,122478,2,0,P|468:166|436:136,1,90
70,130,122735,5,0,0:0:0:0:
451,93,122906,1,0,0:0:0:0:
77,71,123077,1,0,0:0:0:0:
454,42,123248,1,0,0:0:0:0:
392,65,123333,1,0,0:0:0:0:
344,110,123419,1,0,0:0:0:0:
320,171,123504,1,0,0:0:0:0:
343,235,123590,2,0,B|405:253|405:253|331:360,1,180
36,34,123932,6,0,B|152:36|119:125|50:208|140:352|199:288,1,360
237,268,124359,5,0,0:0:0:0:
270,217,124445,1,0,0:0:0:0:
297,166,124530,1,0,0:0:0:0:
356,141,124616,1,0,0:0:0:0:
419,155,124701,1,0,0:0:0:0:
461,202,124787,1,0,0:0:0:0:
469,265,124872,2,0,P|461:319|422:348,1,90
371,249,125043,5,0,0:0:0:0:
323,207,125129,1,0,0:0:0:0:
271,178,125214,1,0,0:0:0:0:
208,171,125300,2,0,P|160:193|159:239,1,90
479,64,125471,5,0,0:0:0:0:
406,64,125556,1,0,0:0:0:0:
334,64,125642,1,0,0:0:0:0:
263,66,125727,1,0,0:0:0:0:
191,64,125813,1,0,0:0:0:0:
122,64,125898,1,0,0:0:0:0:
50,64,125983,1,0,0:0:0:0:
122,64,126069,1,0,0:0:0:0:
191,64,126154,1,0,0:0:0:0:
263,66,126240,1,0,0:0:0:0:
334,64,126325,1,0,0:0:0:0:
406,64,126411,1,0,0:0:0:0:
479,64,126496,6,0,P|480:125|390:214,1,180
123,95,126838,1,0,0:0:0:0:
337,301,127009,1,0,0:0:0:0:
105,277,127180,1,0,0:0:0:0:
232,66,127351,1,0,0:0:0:0:
436,240,127522,1,0,0:0:0:0:
185,170,127693,1,0,0:0:0:0:
185,170,127864,1,0,0:0:0:0:
451,75,128035,5,0,0:0:0:0:
274,338,128206,2,0,P|310:289|329:369,1,180
99,273,128548,1,0,0:0:0:0:
339,251,128719,1,0,0:0:0:0:
132,83,128890,1,0,0:0:0:0:
132,83,129061,1,0,0:0:0:0:
454,116,129232,1,0,0:0:0:0:
454,116,129403,2,0,B|415:59|392:153|407:215|320:201|320:201|319:202,1,180
224,63,129745,5,0,0:0:0:0:
224,63,129916,1,0,0:0:0:0:
65,297,130087,2,0,B|112:272|112:272|164:342|235:277,1,180
454,167,130429,1,0,0:0:0:0:
123,129,130600,1,0,0:0:0:0:
181,93,130685,1,0,0:0:0:0:
246,75,130771,2,0,P|299:89|336:128,1,90
479,247,130942,5,0,0:0:0:0:
427,300,131027,1,0,0:0:0:0:
363,335,131113,1,0,0:0:0:0:
291,344,131198,1,0,0:0:0:0:
220,327,131284,1,0,0:0:0:0:
161,285,131369,1,0,0:0:0:0:
110,234,131455,1,0,0:0:0:0:
161,285,131540,1,0,0:0:0:0:
220,327,131626,1,0,0:0:0:0:
291,344,131711,1,0,0:0:0:0:
363,335,131797,1,0,0:0:0:0:
427,300,131882,1,0,0:0:0:0:
479,247,131968,6,0,P|479:189|430:141,1,90
412,117,132139,1,0,0:0:0:0:
345,87,132224,2,0,P|300:75|236:91,1,90
61,122,132481,1,0,0:0:0:0:
61,122,132822,1,0,0:0:0:0:
354,193,133164,5,0,0:0:0:0:
158,193,133335,1,0,0:0:0:0:
354,193,133506,1,0,0:0:0:0:
158,193,133677,1,0,0:0:0:0:
354,193,133848,1,0,0:0:0:0:
158,193,134019,1,0,0:0:0:0:
