osu file format v14

[General]
AudioFilename: audio.mp3
AudioLeadIn: 0
PreviewTime: 172019
Countdown: 1
SampleSet: Normal
StackLeniency: 0.7
Mode: 0
LetterboxInBreaks: 0
WidescreenStoryboard: 0

[Editor]
DistanceSpacing: 1
BeatDivisor: 4
GridSize: 4
TimelineZoom: 1

[Metadata]
Title:Iroha Uta (Full Ver.)
TitleUnicode:Iroha Uta (Full Ver.)
Artist:Ginsaku
ArtistUnicode:Ginsaku
Creator:Nitronic Techno
Version:For Your Sake!
Source:Project Diva
Tags:Ginsaku Iroha Uta Project Diva Kagamine Rin
BeatmapID:1382092
BeatmapSetID:651739

[Difficulty]
HPDrainRate:6.5
CircleSize:4
OverallDifficulty:8
ApproachRate:9
SliderMultiplier:1.9
SliderTickRate:1

[Events]
//Background and Video events
0,0,"iroha.jpg",0,0
//Break Periods
2,121638,125896
2,166986,171419
//Storyboard Layer 0 (Background)
//Storyboard Layer 1 (Fail)
//Storyboard Layer 2 (Pass)
//Storyboard Layer 3 (Foreground)
//Storyboard Sound Samples

[TimingPoints]
1438,348.837209302326,4,2,0,60,1,0
9810,-95.2380952380952,4,1,0,75,0,0
20972,-200,4,3,0,70,0,0
21321,-133.333333333333,4,2,0,75,0,0
32135,-166.666666666667,4,3,0,70,0,0
32484,-117.647058823529,4,2,0,75,0,0
43298,-100,4,1,0,60,0,0
51670,-66.6666666666667,4,1,0,60,0,0
52019,-200,4,1,0,60,0,0
53414,-133.333333333333,4,1,0,60,0,0
54112,-100,4,1,0,70,0,0
54461,-83.3333333333333,4,1,0,80,0,1
62135,-66.6666666666667,4,1,0,80,0,1
62833,-83.3333333333333,4,1,0,80,0,1
73996,-83.3333333333333,4,1,0,80,0,0
79577,-95.2380952380952,4,1,0,75,0,0
97717,-100,4,2,0,60,0,0
99112,-125,4,2,0,40,0,0
109403,-125,4,1,0,70,0,0
110275,-142.857142857143,4,3,0,70,0,0
110624,-105.263157894737,4,2,0,75,0,0
120042,-100,4,1,0,68,0,0
126496,-95.2380952380952,4,2,0,40,0,0
127019,-95.2380952380952,4,1,0,60,0,0
129810,-64.5161290322581,4,1,0,60,0,0
130158,-181.818181818182,4,1,0,60,0,0
131554,-125,4,1,0,60,0,0
132251,-95.2380952380952,4,1,0,70,0,0
132600,-80,4,1,0,80,0,1
139751,-76.9230769230769,4,1,0,80,0,1
140275,-61.5384615384615,4,1,0,80,0,1
140798,-80,4,1,0,80,0,1
150740,-64,4,1,0,80,0,1
151089,-80,4,2,0,80,0,0
152135,-133.333333333333,4,2,0,50,0,0
172019,-100,4,3,0,50,0,0
174461,-90.9090909090909,4,3,0,70,0,0
178647,-72.7272727272727,4,3,0,70,0,0
179344,-90.9090909090909,4,3,0,70,0,0
185624,-200,4,2,0,50,0,0
187891,-90.9090909090909,4,1,0,70,0,0
188414,-76.9230769230769,4,1,0,80,0,1
195565,-74.0740740740741,4,1,0,80,0,1
196089,-59.2592592592593,4,1,0,80,0,1
196438,-74.0740740740741,4,1,0,80,0,1
196786,-76.9230769230769,4,1,0,80,0,1
210740,-90.9090909090909,4,1,0,80,0,0
221903,-95.2380952380952,4,1,0,70,0,0
227310,-82.815734989648,4,1,0,70,0,0
231060,-95.2380952380952,4,1,0,70,0,0

[HitObjects]
256,58,1612,5,2,0:0:0:0:
256,86,2135,5,2,0:0:0:0:
256,119,2789,5,2,0:0:0:0:
256,156,3443,5,2,0:0:0:0:
256,198,4228,5,2,0:0:0:0:
256,250,5188,5,2,0:0:0:0:
256,192,5275,12,8,8938,0:0:0:0:
108,82,9112,5,8,0:0:0:0:
202,82,9286,1,2,0:0:0:0:
226,104,9374,1,2,0:0:0:0:
250,126,9461,1,8,0:0:0:0:
344,124,9635,1,2,0:0:0:0:
365,149,9722,1,2,0:0:0:0:
385,177,9810,6,0,P|388:234|357:274,1,99.7499969558717,4|0,0:0|0:0,0:0:0:0:
284,326,10158,2,0,P|274:261|305:216,1,99.7499969558717
296,132,10507,2,0,P|243:144|190:137,1,99.7499969558717,8|0,0:0|0:0,0:0:0:0:
163,102,10769,1,0,0:0:0:0:
193,62,10856,2,0,P|251:56|310:75,1,99.7499969558717
387,92,11205,2,0,P|442:61|465:27,2,99.7499969558717,8|0|0,0:0|0:0|0:0,0:0:0:0:
323,169,11728,1,2,0:0:0:0:
421,184,11903,1,10,0:0:0:0:
302,196,12077,1,2,0:0:0:0:
312,294,12251,1,2,0:0:0:0:
230,352,12426,1,2,0:0:0:0:
131,340,12600,6,2,P|55:295|69:182,1,199.499993911743,10|2,0:0|0:0,0:0:0:0:
123,252,13124,2,2,P|152:206|69:106,1,199.499993911743
49,106,13560,1,0,0:0:0:0:
24,106,13647,1,0,0:0:0:0:
105,48,13821,2,0,L|229:48,1,99.7499969558717,0|8,0:0|0:0,0:0:0:0:
285,106,14170,2,0,L|392:106,1,99.7499969558717
434,192,14519,1,0,0:0:0:0:
434,192,14606,1,0,0:0:0:0:
434,192,14693,2,0,P|384:233|257:188,1,199.499993911743,8|0,0:0|0:0,0:0:0:0:
168,124,15217,1,0,0:0:0:0:
147,149,15304,1,0,0:0:0:0:
127,177,15392,6,0,P|124:234|155:274,1,99.7499969558717,8|0,0:0|0:0,0:0:0:0:
228,326,15740,2,0,P|238:261|207:216,1,99.7499969558717
216,132,16089,2,0,P|269:144|322:137,1,99.7499969558717,8|0,0:0|0:0,0:0:0:0:
349,102,16351,1,0,0:0:0:0:
319,62,16438,2,0,P|261:56|202:75,1,99.7499969558717
125,92,16787,2,0,P|70:61|47:27,2,99.7499969558717,8|0|0,0:0|0:0|0:0,0:0:0:0:
189,169,17310,1,2,0:0:0:0:
91,184,17485,1,10,0:0:0:0:
210,196,17659,1,2,0:0:0:0:
200,294,17833,1,2,0:0:0:0:
282,352,18008,1,2,0:0:0:0:
381,340,18182,6,2,P|457:295|443:182,1,199.499993911743,10|2,0:0|0:0,0:0:0:0:
389,252,18706,2,2,P|360:206|443:106,1,199.499993911743
463,106,19142,1,0,0:0:0:0:
488,106,19229,1,0,0:0:0:0:
407,48,19403,2,0,L|283:48,1,99.7499969558717,0|8,0:0|0:0,0:0:0:0:
227,106,19752,2,0,L|120:106,1,99.7499969558717
78,192,20101,1,2,0:0:0:0:
78,192,20188,1,2,0:0:0:0:
78,192,20275,2,0,L|136:288,1,99.7499969558717,10|0,0:0|0:0,0:0:0:0:
186,194,20624,2,0,L|239:287,1,99.7499969558717,0|2,0:0|0:0,0:0:0:0:
266,296,20885,1,2,0:0:0:0:
304,302,20972,6,0,B|334:272|334:272|352:214,1,95,4|0,0:2|0:0,0:0:0:0:
355,151,21496,1,0,0:0:0:0:
351,80,21670,2,0,L|282:125,1,71.2500027179719,2|0,0:0|0:0,0:0:0:0:
259,54,21932,1,0,0:0:0:0:
259,54,22019,2,0,L|190:99,1,71.2500027179719,0|2,0:0|0:0,0:0:0:0:
165,119,22281,1,0,0:0:0:0:
165,119,22368,6,0,P|136:169|143:211,1,71.2500027179719
160,247,22717,2,2,P|234:276|302:250,1,142.500005435944
350,217,23240,2,8,P|389:201|439:205,2,71.2500027179719
311,156,23763,6,2,P|325:116|351:89,1,71.2500027179719
255,140,24112,2,0,L|255:56,1,71.2500027179719
201,156,24374,1,0,0:0:0:0:
201,156,24461,2,0,P|187:116|161:89,1,71.2500027179719,2|0,0:0|0:0,0:0:0:0:
125,192,24810,1,0,0:0:0:0:
160,292,24984,1,2,0:0:0:0:
256,337,25158,6,8,P|292:299|301:193,1,142.500005435944
241,241,25682,2,8,P|236:195|302:114,1,142.500005435944
256,55,26205,1,8,0:0:0:0:
325,40,26379,5,8,0:0:0:0:
432,40,26554,1,2,0:0:0:0:
435,146,26728,1,2,0:0:0:0:
299,191,26903,1,0,0:0:0:0:
408,261,27077,5,8,0:0:0:0:
408,368,27252,1,2,0:0:0:0:
302,371,27426,1,2,0:0:0:0:
257,235,27601,1,0,0:0:0:0:
187,344,27775,5,8,0:0:0:0:
80,344,27950,1,2,0:0:0:0:
77,238,28124,1,2,0:0:0:0:
213,193,28299,1,0,0:0:0:0:
104,123,28472,5,8,0:0:0:0:
104,16,28647,1,2,0:0:0:0:
210,13,28821,1,2,0:0:0:0:
255,149,28996,1,8,0:0:0:0:
255,235,29170,1,8,0:0:0:0:
325,314,29344,6,2,P|361:295|371:252,1,71.2500027179719
256,267,29693,2,2,L|256:193,1,71.2500027179719
187,314,30042,2,2,P|151:295|141:252,1,71.2500027179719
152,161,30391,1,2,0:0:0:0:
360,161,30565,1,2,0:0:0:0:
256,60,30740,6,0,P|211:95|122:72,1,142.500005435944
107,192,31263,1,8,0:0:0:0:
306,268,31612,1,8,0:0:0:0:
331,164,31786,1,8,0:0:0:0:
235,213,31961,1,8,0:1:0:0:
235,213,32048,1,8,0:1:0:0:
235,213,32135,6,0,B|276:228|276:228|352:211,1,113.999996520996,4|0,0:0|0:0,0:0:0:0:
411,259,32658,1,0,0:0:0:0:
351,304,32832,2,0,L|277:254,1,80.750001540184,2|0,0:0|0:0,0:0:0:0:
259,330,33094,1,0,0:0:0:0:
259,330,33181,2,0,L|184:280,1,80.750001540184,0|2,0:0|0:0,0:0:0:0:
165,265,33443,1,0,0:0:0:0:
165,265,33530,6,0,P|122:216|135:177,1,80.750001540184
160,137,33879,2,2,P|234:100|302:134,1,161.500003080368
350,167,34402,2,8,P|389:183|446:175,2,80.750001540184
311,228,34925,6,2,P|325:268|355:298,1,80.750001540184
255,244,35274,2,0,L|256:340,1,80.750001540184
201,228,35536,1,0,0:0:0:0:
201,228,35623,2,0,P|187:268|151:303,1,80.750001540184,2|0,0:0|0:0,0:0:0:0:
125,192,35972,1,0,0:0:0:0:
160,92,36146,1,2,0:0:0:0:
256,47,36320,6,8,P|292:85|300:194,1,161.500003080368
241,143,36844,2,8,P|236:189|311:278,1,161.500003080368
256,329,37367,1,8,0:0:0:0:
174,327,37542,5,8,0:0:0:0:
114,271,37717,1,2,0:0:0:0:
194,264,37891,1,2,0:0:0:0:
156,192,38065,1,0,0:0:0:0:
121,110,38240,5,8,0:0:0:0:
177,50,38415,1,2,0:0:0:0:
184,129,38589,1,2,0:0:0:0:
256,92,38763,1,0,0:0:0:0:
338,57,38938,5,8,0:0:0:0:
398,113,39113,1,2,0:0:0:0:
318,120,39287,1,2,0:0:0:0:
356,192,39461,1,8,0:0:0:0:
399,259,39635,2,0,L|421:323,1,40.375000770092,8|0,0:0|0:0,0:0:0:0:
396,334,39810,1,0,0:0:0:0:
327,291,39984,2,8,P|269:292|241:324,2,80.750001540184
364,219,40507,6,0,L|409:136,1,80.750001540184,2|0,0:0|0:0,0:0:0:0:
331,69,40856,2,0,L|309:152,1,80.750001540184,2|0,0:0|0:0,0:0:0:0:
201,147,41205,2,0,L|181:69,1,80.750001540184,2|0,0:0|0:0,0:0:0:0:
109,148,41554,2,0,L|148:219,1,80.750001540184,2|0,0:0|0:0,0:0:0:0:
166,322,41903,5,8,0:0:0:0:
256,269,42077,1,8,0:0:0:0:
340,331,42251,1,8,0:0:0:0:
447,274,42426,1,8,0:0:0:0:
458,235,42513,1,0,0:0:0:0:
456,194,42600,1,0,0:0:0:0:
255,81,42775,2,2,L|255:180,1,80.750001540184
65,274,43124,1,4,0:0:0:0:
54,235,43211,1,8,0:0:0:0:
56,194,43298,5,8,0:0:0:0:
97,86,43647,2,0,P|155:66|190:83,1,95
217,110,43908,1,0,0:0:0:0:
254,141,43996,2,0,L|287:46,1,95,2|0,0:0|0:0,0:0:0:0:
298,214,44344,2,0,L|285:103,1,95,2|0,0:0|0:0,0:0:0:0:
236,253,44693,2,0,L|285:146,1,95,2|0,0:0|0:0,0:0:0:0:
303,317,45042,2,0,L|277:223,1,95,2|0,0:0|0:0,0:0:0:0:
208,291,45391,1,2,0:0:0:0:
338,269,45565,1,0,0:0:0:0:
214,251,45740,1,2,0:0:0:0:
333,307,45914,1,0,0:0:0:0:
243,223,46089,5,4,0:0:0:0:
410,312,46438,2,0,P|368:282|324:284,1,95
284,274,46699,1,0,0:0:0:0:
234,261,46786,2,0,L|266:355,1,95,2|0,0:0|0:0,0:0:0:0:
307,209,47135,2,0,L|280:311,1,95,2|0,0:0|0:0,0:0:0:0:
228,148,47484,2,0,L|267:255,1,95,2|0,0:0|0:0,0:0:0:0:
298,103,47833,2,0,L|278:201,1,95,2|0,0:0|0:0,0:0:0:0:
208,93,48182,1,2,0:0:0:0:
338,115,48356,1,0,0:0:0:0:
214,133,48531,1,2,0:0:0:0:
333,77,48705,1,0,0:0:0:0:
243,161,48880,5,4,0:0:0:0:
58,116,49228,2,0,P|103:144|164:120,1,95
190,150,49490,1,0,0:0:0:0:
219,192,49577,2,0,L|123:226,1,95,2|0,0:0|0:0,0:0:0:0:
270,266,49926,2,0,L|180:228,1,95,2|0,0:0|0:0,0:0:0:0:
319,189,50275,2,0,L|220:222,1,95,2|0,0:0|0:0,0:0:0:0:
384,244,50624,2,0,L|286:221,1,95,2|0,0:0|0:0,0:0:0:0:
412,189,50972,1,2,0:0:0:0:
361,108,51147,1,0,0:0:0:0:
269,83,51321,1,2,0:0:0:0:
181,120,51496,1,8,0:0:0:0:
154,159,51583,1,8,0:0:0:0:
135,195,51670,6,4,B|114:262|114:262|194:335,1,142.500005435944
244,307,52193,2,0,L|205:338,1,47.5
261,224,52542,2,0,L|244:286,1,47.5
317,191,52891,2,2,P|293:169|215:178,1,95
166,191,53414,1,8,0:0:0:0:
119,136,53589,1,2,0:0:0:0:
107,102,53676,1,2,0:0:0:0:
117,68,53763,1,2,0:0:0:0:
184,43,53938,1,2,0:0:0:0:
278,48,54112,5,4,0:0:0:0:
373,153,54286,1,4,0:0:0:0:
310,288,54461,6,0,P|247:330|191:331,1,113.999996520996,4|0,0:0|0:0,0:0:0:0:
215,260,54722,1,0,0:0:0:0:
215,260,54810,2,0,P|153:278|115:323,1,113.999996520996
43,228,55158,2,0,L|43:96,1,113.999996520996,8|0,0:0|0:0,0:0:0:0:
122,113,55420,1,0,0:0:0:0:
122,113,55507,2,0,L|122:242,1,113.999996520996
256,139,55856,6,0,L|355:76,1,113.999996520996,8|0,0:0|0:0,0:0:0:0:
384,234,56205,2,0,L|483:301,1,113.999996520996
478,86,56554,2,0,L|384:150,1,113.999996520996,8|0,0:0|0:0,0:0:0:0:
352,306,56903,2,0,L|256:245,1,113.999996520996
120,227,57251,5,8,0:0:0:0:
77,345,57426,1,2,0:0:0:0:
153,258,57600,5,8,0:0:0:0:
44,320,57775,1,2,0:0:0:0:
159,300,57949,5,8,0:0:0:0:
35,277,58124,1,2,0:0:0:0:
35,248,58211,1,0,0:0:0:0:
35,219,58298,1,8,0:0:0:0:
68,110,58472,2,2,B|129:55|161:50|161:50|186:54|265:127,1,227.999993041992
255,174,58908,1,0,0:0:0:0:
256,231,58996,2,2,B|324:294|349:298|349:298|381:293|442:238,1,227.999993041992
360,159,59519,2,8,L|352:240,1,56.9999982604981
360,159,59693,2,8,L|299:43,1,113.999996520996
205,58,60042,6,0,L|152:159,1,113.999996520996,4|0,0:0|0:0,0:0:0:0:
121,269,60391,1,0,0:0:0:0:
234,271,60565,1,8,0:0:0:0:
252,235,60653,1,0,0:0:0:0:
256,195,60740,1,4,0:0:0:0:
256,155,60827,1,0,0:0:0:0:
274,119,60914,1,0,0:0:0:0:
364,49,61089,2,0,L|406:170,1,113.999996520996,0|8,0:0|0:0,0:0:0:0:
400,190,61350,1,0,0:0:0:0:
400,224,61438,5,4,0:0:0:0:
286,235,61612,2,2,P|219:267|159:142,1,227.999993041992
149,158,62048,1,0,0:0:0:0:
149,158,62135,2,2,P|149:239|315:240,1,285.000010871888
272,107,62658,1,2,0:0:0:0:
166,59,62833,6,0,L|59:146,1,113.999996520996,8|0,0:0|0:0,0:0:0:0:
77,253,63182,2,0,L|166:325,1,113.999996520996,8|0,0:0|0:0,0:0:0:0:
295,325,63443,1,0,0:0:0:0:
295,325,63531,2,0,L|402:238,1,113.999996520996,8|0,0:0|0:0,0:0:0:0:
383,130,63879,2,0,L|294:58,1,113.999996520996,8|0,0:0|0:0,0:0:0:0:
166,59,64141,1,2,0:0:0:0:
166,59,64228,6,0,L|166:177,1,113.999996520996,8|0,0:0|0:0,0:0:0:0:
280,171,64577,2,0,L|280:52,2,113.999996520996,8|0|8,0:0|0:0|0:0,0:0:0:0:
282,285,65100,2,2,L|329:336,1,56.9999982604981
282,285,65275,2,0,L|282:171,1,113.999996520996,8|8,0:0|0:0,0:0:0:0:
241,131,65536,2,2,L|282:171,1,56.9999982604981,2|4,0:0|0:0,0:0:0:0:
169,191,65798,5,0,0:0:0:0:
256,263,65972,2,0,L|361:332,1,113.999996520996
343,211,66321,2,0,B|299:213|263:180|269:151|269:151|275:123|226:77|171:69,1,227.999993041992,8|0,0:0|0:0,0:0:0:0:
96,141,66844,1,0,0:0:0:0:
83,197,66932,1,0,0:0:0:0:
72,252,67019,2,0,L|47:369,1,113.999996520996,8|0,0:0|0:0,0:0:0:0:
162,364,67368,2,0,L|185:252,1,113.999996520996
197,197,67629,1,0,0:0:0:0:
210,141,67717,1,8,0:0:0:0:
303,76,67891,2,0,P|360:121|385:170,2,113.999996520996
188,69,68414,6,0,P|128:94|101:143,1,113.999996520996,8|0,0:0|0:0,0:0:0:0:
103,249,68763,2,0,P|135:296|188:315,1,113.999996520996,8|0,0:0|0:0,0:0:0:0:
324,315,69025,1,0,0:0:0:0:
324,315,69112,2,0,P|384:290|411:241,1,113.999996520996,8|0,0:0|0:0,0:0:0:0:
408,134,69461,2,0,P|376:87|324:69,1,113.999996520996,8|0,0:0|0:0,0:0:0:0:
256,71,69722,1,0,0:0:0:0:
256,71,69810,1,2,0:0:0:0:
256,193,69984,1,2,0:0:0:0:
164,172,70158,2,2,P|226:117|345:178,1,227.999993041992
394,269,70682,1,0,0:0:0:0:
255,321,70856,1,8,0:0:0:0:
118,269,71031,1,8,0:0:0:0:
203,194,71205,6,2,P|196:132|52:62,1,227.999993041992
48,92,71641,1,0,0:0:0:0:
53,134,71728,1,0,0:0:0:0:
309,194,71903,6,2,P|316:132|460:62,1,227.999993041992
464,92,72339,1,0,0:0:0:0:
459,134,72426,1,0,0:0:0:0:
429,244,72600,6,0,P|370:303|255:317,1,170.999994781494
258,323,72949,2,0,P|175:304|115:244,1,170.999994781494
115,216,73298,2,0,P|174:157|289:143,1,170.999994781494
286,137,73647,2,0,P|368:155|428:215,1,170.999994781494
430,243,73996,5,4,0:0:0:0:
259,240,74170,1,4,0:0:0:0:
256,70,74519,1,2,0:0:0:0:
150,253,74868,1,2,0:0:0:0:
361,253,75217,1,2,0:0:0:0:
256,70,75566,1,2,0:0:0:0:
259,240,75914,1,2,0:0:0:0:
172,184,76089,1,8,0:0:0:0:
197,85,76263,1,8,0:0:0:0:
300,79,76438,1,8,0:0:0:0:
338,174,76612,1,8,0:0:0:0:
355,209,76699,1,2,0:0:0:0:
372,244,76786,5,4,0:0:0:0:
256,192,76874,12,8,79577,0:0:0:0:
173,142,80100,6,2,P|215:105|343:145,1,199.499993911743
343,176,80536,1,0,0:0:0:0:
328,208,80624,1,0,0:0:0:0:
171,145,80798,2,2,P|160:199|258:290,1,199.499993911743
285,275,81234,1,0,0:0:0:0:
305,246,81322,1,0,0:0:0:0:
178,98,81496,5,8,0:0:0:0:
298,77,81670,1,8,0:0:0:0:
376,171,81844,1,8,0:0:0:0:
334,286,82019,1,8,0:0:0:0:
213,306,82193,1,8,0:0:0:0:
135,212,82368,1,8,0:0:0:0:
256,192,82455,12,8,83414,0:0:0:0:
256,192,83589,12,4,87251,0:0:0:0:
256,191,87600,5,8,0:0:0:0:
421,79,87949,6,0,P|406:132|424:186,2,99.7499969558717,8|0|0,0:0|0:0|0:0,0:0:0:0:
325,48,88472,1,0,0:0:0:0:
276,34,88560,1,0,0:0:0:0:
233,59,88647,1,8,0:0:0:0:
173,139,88821,2,0,P|108:151|74:135,2,99.7499969558717
213,168,89257,1,0,0:0:0:0:
256,192,89344,2,0,L|336:268,2,99.7499969558717,8|0|0,0:0|0:0|0:0,0:0:0:0:
256,292,89868,1,2,0:0:0:0:
173,347,90042,1,10,0:0:0:0:
258,244,90217,1,2,0:0:0:0:
337,184,90391,1,2,0:0:0:0:
417,125,90565,1,2,0:0:0:0:
472,208,90740,6,2,P|400:261|288:222,1,199.499993911743,10|2,0:0|0:0,0:0:0:0:
378,172,91263,2,2,P|320:142|207:205,1,199.499993911743
181,228,91699,1,0,0:0:0:0:
153,256,91786,1,0,0:0:0:0:
68,202,91961,2,0,L|150:124,1,99.7499969558717,0|8,0:0|0:0,0:0:0:0:
240,131,92310,2,0,L|171:212,1,99.7499969558717
251,270,92658,1,0,0:0:0:0:
295,246,92746,1,0,0:0:0:0:
336,218,92833,2,0,P|393:138|333:52,1,199.499993911743,8|0,0:0|0:0,0:0:0:0:
341,270,93356,1,0,0:0:0:0:
378,298,93443,1,0,0:0:0:0:
421,305,93531,6,0,P|406:252|424:198,2,99.7499969558717,8|0|0,0:0|0:0|0:0,0:0:0:0:
325,336,94054,1,0,0:0:0:0:
276,350,94142,1,0,0:0:0:0:
233,325,94229,1,8,0:0:0:0:
173,245,94403,2,0,P|108:233|74:249,2,99.7499969558717
213,216,94839,1,0,0:0:0:0:
256,192,94926,2,0,L|336:116,2,99.7499969558717,8|0|0,0:0|0:0|0:0,0:0:0:0:
256,92,95450,1,2,0:0:0:0:
173,37,95624,1,10,0:0:0:0:
258,140,95799,1,2,0:0:0:0:
337,200,95973,1,2,0:0:0:0:
417,259,96147,1,2,0:0:0:0:
472,176,96321,6,2,P|400:123|288:162,1,199.499993911743,8|0,0:0|0:0,0:0:0:0:
378,212,96845,2,2,P|320:242|207:179,1,199.499993911743
181,156,97281,1,0,0:0:0:0:
153,128,97368,1,8,0:0:0:0:
65,193,97542,1,8,0:0:0:0:
165,67,98414,5,2,0:0:0:0:
160,104,98501,1,2,0:0:0:0:
156,142,98589,1,2,0:0:0:0:
152,179,98676,1,2,0:0:0:0:
149,216,98763,1,2,0:0:0:0:
258,274,98938,1,2,0:0:0:0:
269,243,99025,1,2,0:0:0:0:
281,212,99112,5,4,0:0:0:0:
205,80,99461,2,0,P|159:96|139:132,2,76,0|0|2,0:0|0:0|0:0,0:0:0:0:
173,228,100158,2,0,P|159:265|168:318,2,76,0|0|2,0:0|0:0|0:0,0:0:0:0:
324,248,100856,2,0,P|368:271|469:232,2,152,0|2|0,0:0|0:0|0:0,0:0:0:0:
255,213,101728,1,0,0:0:0:0:
236,139,101903,6,0,L|207:68,1,76,2|0,0:0|0:0,0:0:0:0:
165,161,102251,2,0,L|107:106,1,76
113,208,102600,2,0,L|36:174,1,76,2|0,0:0|0:0,0:0:0:0:
88,272,102949,2,0,L|-8:271,1,76
42,341,103298,6,0,P|94:352|194:315,1,152,2|0,0:0|0:0,0:0:0:0:
246,275,103821,2,0,P|285:256|327:256,1,76,8|2,0:0|0:0,0:0:0:0:
351,186,104170,2,8,P|306:177|266:182,1,76
255,106,104519,5,8,0:0:0:0:
355,52,104693,1,2,0:0:0:0:
468,68,104868,1,2,0:0:0:0:
343,155,105042,1,0,0:0:0:0:
418,162,105217,5,8,0:0:0:0:
472,262,105391,1,2,0:0:0:0:
456,375,105566,1,2,0:0:0:0:
369,250,105740,1,0,0:0:0:0:
299,280,105914,5,8,0:0:0:0:
199,334,106088,1,2,0:0:0:0:
86,318,106263,1,2,0:0:0:0:
211,231,106437,1,0,0:0:0:0:
136,224,106612,5,8,0:0:0:0:
82,124,106786,2,2,P|142:84|226:69,1,152
256,177,107310,1,8,0:0:0:0:
322,213,107484,6,2,P|371:223|476:188,1,152
404,151,108007,2,0,L|321:92,1,76,0|8,0:0|0:0,0:0:0:0:
266,116,108356,2,0,L|204:172,1,76,0|8,0:0|0:0,0:0:0:0:
283,185,108705,2,0,L|365:178,1,76,0|8,0:0|0:0,0:0:0:0:
192,263,109403,2,8,P|256:288|346:244,1,152
192,263,109926,1,8,0:0:0:0:
256,169,110100,1,2,0:0:0:0:
256,130,110188,1,2,0:0:0:0:
256,92,110275,6,0,B|217:65|217:65|123:62,1,132.999995941162,4|0,0:0|0:0,0:0:0:0:
104,144,110798,1,0,0:0:0:0:
133,178,110885,1,0,0:0:0:0:
164,210,110972,2,0,L|232:291,1,90.2499975900651,2|0,0:0|0:0,0:0:0:0:
250,199,111234,1,0,0:0:0:0:
250,199,111321,2,0,L|309:274,1,90.2499975900651
396,272,111670,2,0,P|384:216|352:176,1,90.2499975900651,2|0,0:0|0:0,0:0:0:0:
257,144,112019,2,0,P|283:188|333:216,1,90.2499975900651
318,245,112281,1,0,0:0:0:0:
322,280,112368,1,2,0:0:0:0:
241,338,112542,2,8,P|178:341|120:328,2,90.2499975900651
302,259,113065,6,0,L|360:183,1,90.2499975900651,2|0,0:0|0:0,0:0:0:0:
210,259,113414,2,0,L|152:183,1,90.2499975900651
275,158,113676,1,0,0:0:0:0:
275,158,113763,2,0,L|321:69,1,90.2499975900651,2|0,0:0|0:0,0:0:0:0:
237,158,114112,2,0,L|191:69,1,90.2499975900651
97,61,114461,6,0,P|72:115|75:161,2,90.2499975900651,2|0|0,0:0|0:0|0:0,0:0:0:0:
196,66,114984,2,8,P|245:98|377:65,1,180.49999518013
453,46,115507,1,8,0:0:0:0:
407,134,115682,5,8,0:0:0:0:
404,232,115856,1,2,0:0:0:0:
339,307,116031,2,0,P|284:314|229:301,1,90.2499975900651,2|0,0:0|0:0,0:0:0:0:
335,135,116379,5,8,0:0:0:0:
263,202,116554,1,2,0:0:0:0:
164,209,116728,2,0,P|120:175|90:126,1,90.2499975900651,2|0,0:0|0:0,0:0:0:0:
256,138,117077,5,8,0:0:0:0:
158,135,117251,1,2,0:0:0:0:
62,164,117426,2,0,P|25:290|38:345,1,180.49999518013,2|0,0:0|0:0,0:0:0:0:
73,346,117862,1,0,0:0:0:0:
112,352,117949,1,0,0:0:0:0:
194,315,118124,2,0,L|243:288,1,45.1249987950325
194,315,118298,2,8,P|163:237|169:203,1,90.2499975900651
224,166,118647,6,0,P|238:113|232:54,2,90.2499975900651,8|0|8,0:0|0:0|0:0,0:0:0:0:
298,217,119170,2,0,P|289:272|303:324,1,90.2499975900651,0|8,0:0|0:0,0:0:0:0:
367,250,119519,2,0,P|383:195|374:152,1,90.2499975900651,0|8,0:0|0:0,0:0:0:0:
449,107,119868,1,2,0:0:0:0:
421,71,119955,1,2,0:0:0:0:
377,53,120042,6,0,P|311:51|267:75,1,95,8|8,0:0|0:0,0:0:0:0:
214,126,120391,2,8,P|277:134|327:113,1,95
142,257,120914,1,2,0:0:0:0:
370,257,121089,1,2,0:0:0:0:
255,101,121263,1,8,0:0:0:0:
255,101,121350,1,8,0:0:0:0:
255,101,121438,5,4,0:0:0:0:
155,111,126496,5,2,0:0:0:0:
256,70,126670,1,2,0:0:0:0:
351,123,126844,1,2,0:0:0:0:
370,169,126932,1,2,0:0:0:0:
391,213,127019,6,0,P|384:268|251:306,1,199.499993911743,4|8,0:0|0:0,0:0:0:0:
222,282,127455,1,0,0:0:0:0:
175,264,127542,2,0,L|81:311,1,99.7499969558717,0|8,0:0|0:0,0:0:0:0:
180,162,127891,2,0,L|106:250,1,99.7499969558717,0|8,0:0|0:0,0:0:0:0:
83,199,128153,1,0,0:0:0:0:
112,159,128240,2,0,L|207:238,1,99.7499969558717,0|8,0:0|0:0,0:0:0:0:
169,91,128589,2,0,L|183:193,1,99.7499969558717,0|8,0:0|0:0,0:0:0:0:
62,107,128938,2,0,L|159:170,1,99.7499969558717,0|8,0:0|0:0,0:0:0:0:
123,64,129286,1,0,0:0:0:0:
170,46,129374,1,0,0:0:0:0:
219,46,129461,1,8,0:0:0:0:
389,64,129635,1,2,0:0:0:0:
342,46,129723,1,2,0:0:0:0:
293,46,129810,6,4,B|248:106|248:106|252:203,1,147.250001123428
336,212,130333,2,0,L|344:149,1,52.2500015945435
255,296,130682,2,0,L|304:256,1,52.2500015945435
260,364,131031,2,2,P|214:352|189:291,1,104.500003189087
206,230,131554,1,2,0:0:0:0:
141,165,131728,1,8,0:0:0:0:
160,132,131815,1,8,0:0:0:0:
181,99,131903,1,8,0:0:0:0:
256,48,132077,1,8,0:0:0:0:
387,95,132251,5,4,0:0:0:0:
329,233,132426,1,4,0:0:0:0:
280,244,132513,1,0,0:0:0:0:
225,267,132600,6,0,P|288:309|346:312,1,118.75,4|0,0:0|0:0,0:0:0:0:
320,239,132861,1,0,0:0:0:0:
320,239,132949,2,0,P|382:257|422:307,1,118.75
492,207,133298,2,0,L|490:70,1,118.75,8|0,0:0|0:0,0:0:0:0:
412,84,133559,1,0,0:0:0:0:
412,84,133646,2,0,L|413:221,1,118.75
279,118,133995,6,0,L|177:52,1,118.75,8|0,0:0|0:0,0:0:0:0:
151,213,134344,2,0,L|48:284,1,118.75
51,59,134693,2,0,L|151:129,1,118.75,8|0,0:0|0:0,0:0:0:0:
179,288,135042,2,0,L|279:224,1,118.75
415,206,135390,5,8,0:0:0:0:
458,324,135565,1,2,0:0:0:0:
382,237,135739,5,8,0:0:0:0:
491,299,135914,1,2,0:0:0:0:
376,279,136088,5,8,0:0:0:0:
500,256,136263,1,2,0:0:0:0:
500,227,136350,1,0,0:0:0:0:
500,198,136437,1,0,0:0:0:0:
471,97,136611,2,2,B|406:34|374:29|374:29|349:33|270:106,1,237.5
280,153,137047,1,0,0:0:0:0:
279,210,137135,2,2,B|211:273|186:277|186:277|154:272|85:207,1,237.5
175,138,137658,2,0,L|182:241,1,59.375
175,138,137832,2,8,L|230:21,1,118.75
324,32,138181,6,0,L|382:137,1,118.75,4|0,0:0|0:0,0:0:0:0:
414,248,138530,1,0,0:0:0:0:
301,250,138705,1,8,0:0:0:0:
283,214,138792,1,0,0:0:0:0:
279,174,138879,1,4,0:0:0:0:
279,134,138966,1,0,0:0:0:0:
261,98,139053,1,0,0:0:0:0:
171,28,139228,2,0,L|129:154,1,118.75
132,168,139489,1,0,0:0:0:0:
135,203,139577,5,8,0:0:0:0:
141,310,139751,2,2,P|211:330|389:303,1,246.999988693238
408,266,140188,1,0,0:0:0:0:
436,226,140275,2,2,P|356:194|137:228,1,308.750008833409
135,106,140798,1,8,0:0:0:0:
256,78,140973,6,0,L|379:78,1,118.75,8|0,0:0|0:0,0:0:0:0:
370,192,141321,2,0,L|370:315,1,118.75,8|0,0:0|0:0,0:0:0:0:
256,306,141583,1,0,0:0:0:0:
256,306,141670,2,0,L|133:306,1,118.75,8|0,0:0|0:0,0:0:0:0:
142,192,142018,2,0,L|142:69,1,118.75,8|0,0:0|0:0,0:0:0:0:
224,66,142281,1,0,0:0:0:0:
224,66,142368,6,0,L|223:198,1,118.75,8|0,0:0|0:0,0:0:0:0:
336,184,142717,2,0,L|338:59,2,118.75,8|0|0,0:0|0:0|0:0,0:0:0:0:
230,285,143240,2,2,L|179:342,1,59.375
230,285,143415,2,8,L|229:160,1,118.75
270,123,143676,2,2,L|225:169,1,59.375,2|4,0:0|0:0,0:0:0:0:
343,191,143938,5,0,0:0:0:0:
256,263,144112,2,0,L|142:337,1,118.75
158,212,144461,2,0,B|213:213|249:180|243:151|243:151|237:123|286:77|349:71,1,237.5,8|0,0:0|0:0,0:0:0:0:
416,141,144984,1,0,0:0:0:0:
429,197,145072,1,0,0:0:0:0:
439,247,145158,2,0,L|465:369,1,118.75,8|0,0:0|0:0,0:0:0:0:
350,364,145508,2,0,L|327:248,1,118.75
315,197,145769,1,0,0:0:0:0:
302,141,145857,1,8,0:0:0:0:
209,76,146031,2,2,P|152:121|127:174,2,118.75
324,69,146554,6,0,P|384:94|412:152,1,118.75,8|0,0:0|0:0,0:0:0:0:
409,249,146903,2,0,P|377:296|313:317,1,118.75,8|0,0:0|0:0,0:0:0:0:
188,315,147165,1,0,0:0:0:0:
188,315,147252,2,0,P|128:290|97:232,1,118.75,8|0,0:0|0:0,0:0:0:0:
104,134,147601,2,0,P|136:87|196:66,1,118.75,8|0,0:0|0:0,0:0:0:0:
256,71,147862,1,0,0:0:0:0:
256,71,147950,1,2,0:0:0:0:
256,193,148124,1,2,0:0:0:0:
348,172,148298,2,2,P|276:109|167:178,1,237.5
118,269,148822,1,0,0:0:0:0:
257,321,148996,1,0,0:0:0:0:
394,269,149171,1,0,0:0:0:0:
453,167,149344,6,8,P|445:102|293:73,1,237.5
256,66,149781,1,0,0:0:0:0:
214,66,149868,1,0,0:0:0:0:
59,217,150042,6,8,P|67:282|219:311,1,237.5
256,318,150479,1,0,0:0:0:0:
298,318,150566,1,0,0:0:0:0:
325,234,150740,6,4,L|175:142,1,148.4375
129,109,151089,1,0,0:0:0:0:
289,94,151438,1,0,0:0:0:0:
359,193,151612,1,2,0:0:0:0:
286,290,151786,1,2,0:0:0:0:
171,251,151961,1,2,0:0:0:0:
173,130,152135,5,4,0:0:0:0:
101,135,152310,1,0,0:0:0:0:
29,135,152484,1,0,0:0:0:0:
33,241,152658,1,0,0:0:0:0:
33,241,152746,1,0,0:0:0:0:
33,241,152833,2,0,P|84:229|129:234,1,71.2500027179719,8|0,0:0|0:0,0:0:0:0:
102,229,153094,1,0,0:0:0:0:
102,229,153182,1,0,0:0:0:0:
167,313,153356,1,0,0:0:0:0:
167,313,153443,1,0,0:0:0:0:
167,313,153531,6,0,L|242:260,1,71.2500027179719,8|0,0:0|0:0,0:0:0:0:
331,276,153879,2,0,P|363:244|372:207,1,71.2500027179719
297,207,154141,1,0,0:0:0:0:
297,207,154228,2,0,L|297:128,1,71.2500027179719,8|0,0:0|0:0,0:0:0:0:
256,75,154490,1,0,0:0:0:0:
256,75,154577,2,0,P|230:107|225:139,1,71.2500027179719
225,209,154839,1,0,0:0:0:0:
225,209,154926,6,0,P|217:261|190:284,1,71.2500027179719,8|0,0:0|0:0,0:0:0:0:
147,314,155275,2,0,P|102:323|68:305,1,71.2500027179719
114,252,155536,1,0,0:0:0:0:
114,252,155624,2,0,L|114:170,1,71.2500027179719,8|0,0:0|0:0,0:0:0:0:
62,131,155885,1,0,0:0:0:0:
62,131,155972,2,0,P|103:114|152:120,1,71.2500027179719
198,130,156321,6,0,P|245:140|279:135,2,71.2500027179719,8|0|0,0:0|0:0|0:0,0:0:0:0:
184,200,156844,1,0,0:0:0:0:
184,200,156932,1,0,0:0:0:0:
184,200,157019,1,8,0:0:0:0:
256,281,157193,5,0,0:0:0:0:
345,192,157368,1,0,0:0:0:0:
256,103,157542,1,0,0:0:0:0:
167,192,157717,1,2,0:0:0:0:
303,239,157891,5,0,0:0:0:0:
303,144,158066,1,0,0:0:0:0:
208,144,158240,1,0,0:0:0:0:
208,239,158415,1,2,0:0:0:0:
306,192,158589,5,0,0:0:0:0:
256,141,158764,1,0,0:0:0:0:
205,192,158938,1,0,0:0:0:0:
256,242,159113,1,2,0:0:0:0:
282,165,159286,5,0,0:0:0:0:
229,165,159461,1,0,0:0:0:0:
229,218,159635,1,0,0:0:0:0:
282,218,159810,1,2,0:0:0:0:
256,163,159984,5,0,0:0:0:0:
227,192,160159,1,0,0:0:0:0:
256,220,160333,1,0,0:0:0:0:
284,192,160508,1,2,0:0:0:0:
333,140,160682,6,0,P|374:105|400:106,2,71.2500027179719
340,175,161118,1,0,0:0:0:0:
344,210,161205,1,2,0:0:0:0:
301,266,161379,1,0,0:0:0:0:
268,280,161467,1,0,0:0:0:0:
232,276,161554,1,0,0:0:0:0:
173,235,161728,1,0,0:0:0:0:
152,205,161815,1,0,0:0:0:0:
140,170,161903,6,0,P|133:118|142:72,1,71.2500027179719,2|0,0:0|0:0,0:0:0:0:
211,62,162251,2,0,P|223:106|216:150,2,71.2500027179719,0|0|2,0:0|0:0|0:0,0:0:0:0:
147,111,162775,5,8,0:0:0:0:
337,83,162949,1,8,0:0:0:0:
365,273,163124,1,8,0:0:0:0:
175,301,163298,1,8,0:0:0:0:
256,192,163385,12,8,163996,0:0:0:0:
256,192,164083,12,4,166786,0:0:0:0:
255,70,172019,5,8,0:0:0:0:
339,293,172542,1,8,0:0:0:0:
173,293,172891,1,8,0:0:0:0:
192,134,173065,5,2,0:0:0:0:
255,97,173240,1,2,0:0:0:0:
320,134,173414,1,2,0:0:0:0:
120,233,173589,5,2,0:0:0:0:
147,126,173764,1,2,0:0:0:0:
255,97,173938,1,2,0:0:0:0:
300,84,174025,1,0,0:0:0:0:
346,72,174112,1,8,0:0:0:0:
383,140,174286,1,8,0:0:0:0:
337,152,174373,1,8,0:0:0:0:
292,165,174460,5,4,0:0:0:0:
204,222,174635,2,2,L|174:247,2,26.1250007972718
217,200,174810,2,0,P|230:149|216:91,1,104.500003189087
117,79,175158,2,2,L|89:67,2,26.1250007972718
130,109,175333,2,0,P|115:169|128:219,1,104.500003189087
176,300,175682,2,2,L|154:334,2,26.1250007972718
197,277,175856,2,0,P|231:290|315:272,1,104.500003189087
346,189,176205,2,2,L|363:166,2,26.1250007972718
315,203,176379,2,0,P|283:195|211:201,1,104.500003189087
143,280,176728,2,8,P|211:292|257:279,1,104.500003189087
346,69,177164,2,2,L|333:98,1,26.1250007972718
346,69,177251,6,0,P|286:57|162:73,1,156.750004783631,4|0,0:0|0:0,0:0:0:0:
166,86,177600,1,8,0:0:0:0:
144,188,177775,2,2,P|227:207|321:175,1,156.750004783631
331,173,178124,1,8,0:0:0:0:
380,265,178298,2,2,L|381:335,1,52.2500015945435
316,252,178472,2,2,L|316:188,1,52.2500015945435
253,256,178647,6,8,P|246:315|253:368,1,87.0833341638247
190,258,178879,2,8,P|195:206|190:161,1,87.0833341638247
122,255,179112,2,8,P|130:299|121:352,1,87.0833341638247
55,250,179344,5,4,0:0:0:0:
65,145,179519,2,2,L|82:115,4,26.1250007972718
169,138,179868,1,0,0:0:0:0:
256,80,180042,5,8,0:0:0:0:
306,66,180129,1,8,0:0:0:0:
356,82,180217,1,8,0:0:0:0:
396,115,180304,1,8,0:0:0:0:
422,160,180391,2,2,L|427:229,1,52.2500015945435
356,250,180565,2,2,L|351:185,1,52.2500015945435
282,176,180740,5,8,0:0:0:0:
239,205,180827,1,8,0:0:0:0:
224,255,180914,1,8,0:0:0:0:
224,307,181001,1,8,0:0:0:0:
260,344,181089,2,2,L|328:344,1,52.2500015945435
353,274,181263,2,2,L|277:274,1,52.2500015945435
261,209,181438,5,8,0:0:0:0:
219,177,181525,1,8,0:0:0:0:
170,157,181612,1,8,0:0:0:0:
118,165,181699,1,8,0:0:0:0:
70,185,181786,2,2,L|70:110,1,52.2500015945435
142,93,181961,2,2,L|142:161,1,52.2500015945435
202,188,182135,5,8,0:0:0:0:
250,206,182222,1,8,0:0:0:0:
302,202,182310,1,8,0:0:0:0:
351,184,182397,1,8,0:0:0:0:
398,162,182484,2,2,L|467:162,1,52.2500015945435
483,91,182658,2,2,L|422:91,1,52.2500015945435
395,28,182833,5,4,0:0:0:0:
256,192,182920,12,0,185449,0:0:0:0:
256,192,185624,5,2,0:0:0:0:
256,190,186321,5,2,0:0:0:0:
256,190,187019,5,2,0:0:0:0:
256,192,187717,5,2,0:0:0:0:
192,132,187891,5,8,0:0:0:0:
320,132,188065,1,8,0:0:0:0:
256,252,188240,1,8,0:0:0:0:
254,288,188327,1,8,0:0:0:0:
245,330,188414,6,0,P|177:353|114:339,1,123.499994346619,4|0,0:0|0:0,0:0:0:0:
67,296,188676,1,0,0:0:0:0:
67,296,188763,2,0,P|140:265|188:285,1,123.499994346619
267,330,189112,2,0,P|335:353|398:339,1,123.499994346619,8|0,0:0|0:0,0:0:0:0:
445,296,189374,1,0,0:0:0:0:
445,296,189461,2,0,P|372:265|324:285,1,123.499994346619
358,195,189810,6,0,L|429:52,1,123.499994346619,8|0,0:0|0:0,0:0:0:0:
199,143,190158,2,0,L|128:35,1,123.499994346619
380,39,190507,2,0,L|313:143,1,123.499994346619,8|0,0:0|0:0,0:0:0:0:
99,84,190855,2,0,L|154:195,1,123.499994346619
189,288,191205,5,8,0:0:0:0:
323,248,191379,1,2,0:0:0:0:
339,312,191554,5,8,0:0:0:0:
172,262,191728,1,2,0:0:0:0:
151,342,191903,5,8,0:0:0:0:
360,279,192077,1,2,0:0:0:0:
370,237,192164,1,0,0:0:0:0:
379,194,192251,1,8,0:0:0:0:
448,142,192426,2,2,P|439:56|288:57,1,246.999988693238
279,78,192862,1,0,0:0:0:0:
262,117,192949,2,2,P|232:182|113:98,1,246.999988693238
185,125,193472,2,8,L|185:61,1,61.7499971733095
184,160,193647,2,8,P|184:228|246:271,1,123.499994346619
328,224,193996,6,0,P|328:156|266:113,1,123.499994346619,4|0,0:0|0:0,0:0:0:0:
213,80,194344,1,0,0:0:0:0:
149,139,194519,1,8,0:0:0:0:
117,168,194606,1,0,0:0:0:0:
121,210,194693,1,4,0:0:0:0:
126,253,194781,1,0,0:0:0:0:
93,280,194868,1,0,0:0:0:0:
152,342,195042,2,0,P|234:343|296:329,1,123.499994346619,0|8,0:0|0:0,0:0:0:0:
314,317,195304,1,8,0:0:0:0:
353,300,195391,5,4,0:0:0:0:
439,205,195565,2,2,P|435:123|288:134,1,256.50000097847
256,150,196001,1,0,0:0:0:0:
220,138,196089,2,2,P|157:74|41:222,1,320.625005351007
53,253,196525,1,8,0:0:0:0:
87,290,196612,1,8,0:0:0:0:
137,298,196699,1,8,0:0:0:0:
187,303,196786,6,0,P|259:316|316:296,1,123.499994346619,2|0,0:0|0:0,0:0:0:0:
109,241,197135,2,0,P|94:181|107:122,1,123.499994346619,2|0,0:0|0:0,0:0:0:0:
206,82,197397,1,0,0:0:0:0:
206,82,197484,2,0,P|265:67|325:81,1,123.499994346619,2|0,0:0|0:0,0:0:0:0:
403,241,197833,2,0,P|417:181|404:122,1,123.499994346619,2|0,0:0|0:0,0:0:0:0:
256,99,198182,5,8,0:0:0:0:
136,128,198356,1,0,0:0:0:0:
30,192,198531,1,8,0:0:0:0:
138,249,198705,1,0,0:0:0:0:
256,283,198879,1,8,0:0:0:0:
339,191,199054,2,2,L|376:134,1,61.7499971733095
339,191,199228,2,8,P|354:266|396:305,1,123.499994346619
446,289,199490,2,2,L|377:300,1,61.7499971733095,2|4,0:0|0:0,0:0:0:0:
292,337,199751,5,0,0:0:0:0:
257,217,199926,2,0,L|194:337,1,123.499994346619
145,214,200275,2,0,B|190:298|264:277|264:277|302:240|396:274,1,246.999988693238,8|0,0:0|0:0,0:0:0:0:
304,150,200798,1,0,0:0:0:0:
258,108,200885,1,0,0:0:0:0:
213,65,200972,2,0,L|71:65,1,123.499994346619,8|0,0:0|0:0,0:0:0:0:
82,192,201321,2,0,L|227:192,1,123.499994346619
252,233,201583,1,0,0:0:0:0:
299,272,201670,1,8,0:0:0:0:
409,216,201844,2,0,L|449:159,1,61.7499971733095
409,216,202019,2,0,P|349:131|304:120,1,123.499994346619
286,85,202281,1,0,0:0:0:0:
237,123,202368,6,0,P|174:160|92:163,1,123.499994346619,8|0,0:0|0:0,0:0:0:0:
202,263,202717,2,0,P|265:222|318:221,1,123.499994346619,8|0,0:0|0:0,0:0:0:0:
300,97,202978,1,0,0:0:0:0:
300,97,203065,2,0,P|314:163|366:201,1,123.499994346619,8|0,0:0|0:0,0:0:0:0:
255,269,203414,2,0,P|241:200|199:154,1,123.499994346619,8|0,0:0|0:0,0:0:0:0:
149,137,203676,1,0,0:0:0:0:
149,137,203763,1,2,0:0:0:0:
38,192,203938,1,2,0:0:0:0:
63,98,204112,2,2,P|131:164|65:283,1,246.999988693238
213,91,204635,1,0,0:0:0:0:
318,191,204810,1,8,0:0:0:0:
213,293,204984,1,8,0:0:0:0:
330,330,205158,6,8,P|407:330|465:228,1,185.249991519928
464,214,205507,2,0,P|424:146|373:120,1,123.499994346619
182,54,205856,6,8,P|105:54|48:197,1,246.999988693238
86,240,206292,1,0,0:0:0:0:
145,256,206379,1,0,0:0:0:0:
194,336,206554,6,0,L|336:336,1,123.499994346619,2|0,0:0|0:0,0:0:0:0:
318,48,206903,2,0,L|176:48,1,123.499994346619,2|0,0:0|0:0,0:0:0:0:
400,130,207251,2,0,L|400:272,1,123.499994346619,2|0,0:0|0:0,0:0:0:0:
112,254,207600,2,0,L|112:112,1,123.499994346619,2|0,0:0|0:0,0:0:0:0:
256,192,207949,5,4,0:0:0:0:
256,68,208124,1,4,0:0:0:0:
363,253,208472,1,2,0:0:0:0:
148,254,208821,1,2,0:0:0:0:
256,68,209170,1,2,0:0:0:0:
363,253,209518,1,2,0:0:0:0:
148,254,209868,1,2,0:0:0:0:
163,109,210042,1,8,0:0:0:0:
306,78,210217,1,8,0:0:0:0:
379,204,210391,1,8,0:0:0:0:
281,313,210565,1,8,0:0:0:0:
225,339,210653,1,8,0:0:0:0:
172,341,210740,5,4,0:0:0:0:
256,192,210827,12,0,213531,0:0:0:0:
256,66,213879,6,2,P|314:85|248:266,1,313.500009567261
230,270,214490,2,2,L|201:273,2,26.1250007972718
150,202,214751,2,0,P|116:259|125:336,1,104.500003189087
212,261,215100,2,0,P|239:203|239:155,1,104.500003189087
186,49,215449,5,8,0:0:0:0:
344,59,215624,1,8,0:0:0:0:
414,202,215798,1,8,0:0:0:0:
326,334,215972,1,8,0:0:0:0:
167,324,216147,1,8,0:0:0:0:
97,181,216321,1,8,0:0:0:0:
256,192,216408,12,4,217368,0:0:0:0:
256,192,217542,12,4,221205,0:0:0:0:
178,99,221903,5,2,0:0:0:0:
297,77,222077,1,0,0:0:0:0:
375,170,222251,1,0,0:0:0:0:
334,285,222426,1,0,0:0:0:0:
178,99,222600,6,0,P|185:177|167:210,1,99.7499969558717,2|0,0:0|0:0,0:0:0:0:
150,203,222862,2,2,L|121:224,2,24.9374992389679
219,275,223124,2,0,P|278:291|320:274,2,99.7499969558717
280,196,223647,2,0,P|298:125|274:71,1,99.7499969558717,2|0,0:0|0:0,0:0:0:0:
266,79,223908,2,2,L|247:47,2,24.9374992389679
170,107,224170,2,0,P|119:108|68:74,2,99.7499969558717
194,204,224693,2,0,P|191:266|173:304,1,99.7499969558717,2|0,0:0|0:0,0:0:0:0:
159,323,224955,2,2,L|129:336,2,24.9374992389679
255,295,225217,2,0,P|310:285|363:302,2,99.7499969558717
326,224,225740,6,0,L|402:140,1,99.7499969558717,2|0,0:0|0:0,0:0:0:0:
240,222,226089,2,0,L|295:111,1,99.7499969558717,2|0,0:0|0:0,0:0:0:0:
168,272,226438,2,0,L|169:147,1,99.7499969558717,2|0,0:0|0:0,0:0:0:0:
99,327,226786,2,2,P|47:268|71:143,1,199.499993911743
121,226,227310,2,2,P|189:242|334:166,1,229.425000350075
210,128,227833,1,2,0:0:0:0:
263,330,228007,1,8,0:0:0:0:
427,191,228182,1,8,0:0:0:0:
256,192,228269,12,4,230275,0:0:0:0:
179,148,230449,5,0,0:0:0:0:
153,77,230624,2,2,P|217:84|204:219,1,229.425000350075
178,217,231060,2,2,L|152:212,2,24.9374992389679
215,153,231321,1,0,0:0:0:0:
236,240,231496,1,0,0:0:0:0:
160,287,231670,1,0,0:0:0:0:
91,230,231844,1,0,0:0:0:0:
125,146,232019,1,0,0:0:0:0:
18,182,232193,2,0,P|6:235|20:294,1,99.7499969558717,2|0,0:0|0:0,0:0:0:0:
31,314,232455,2,2,L|54:335,2,24.9374992389679
289,178,232717,2,8,P|302:261|292:290,1,99.7499969558717
165,218,233065,5,4,0:0:0:0:
256,192,233153,12,4,237949,0:0:0:0:
