osu file format v14

[General]
AudioFilename: audio.mp3
AudioLeadIn: 0
PreviewTime: 64755
Countdown: 0
SampleSet: Soft
StackLeniency: 0.3
Mode: 0
LetterboxInBreaks: 1
WidescreenStoryboard: 1

[Editor]
Bookmarks: 40905,50505,64830,96930
DistanceSpacing: 0.4
BeatDivisor: 4
GridSize: 8
TimelineZoom: 1.500005

[Metadata]
Title:Starlight Express
TitleUnicode:Starlight Express
Artist:Ginkiha
ArtistUnicode:Ginkiha
Creator:StaroaX
Version:Hypernova
Source:Sound Voltex II -infinite infection-
Tags:SDVX
BeatmapID:1492279
BeatmapSetID:705553

[Difficulty]
HPDrainRate:5.5
CircleSize:4.2
OverallDifficulty:8
ApproachRate:9.6
SliderMultiplier:2
SliderTickRate:2

[Events]
//Background and Video events
0,0,"owo.png",0,0
//Break Periods
2,41105,49996
//Storyboard Layer 0 (Background)
//Storyboard Layer 1 (Fail)
//Storyboard Layer 2 (Pass)
//Storyboard Layer 3 (Foreground)
//Storyboard Sound Samples

[TimingPoints]
105,300,4,2,0,100,1,0
105,-200,4,2,1,100,0,0
7905,-66.6666666666667,4,1,1,100,0,0
9405,-50,4,3,1,100,0,0
9705,-66.6666666666667,4,3,1,100,0,1
11505,-100,4,3,1,100,0,1
12105,-66.6666666666667,4,3,1,100,0,1
19305,-66.6666666666667,4,3,1,100,0,0
29805,-133.333333333333,4,3,1,100,0,0
30105,-80,4,3,1,100,0,0
34305,-50,4,3,1,100,0,0
39105,-66.6666666666667,4,3,1,100,0,0
50655,-100,4,3,1,100,0,0
60075,260.869565217391,4,3,1,100,1,0
61118,218.181818181818,4,3,1,100,1,0
61990,187.5,4,3,1,100,1,0
62740,150,4,3,1,100,1,0
64530,300,4,3,1,100,1,1
64830,-50,4,3,1,100,0,1
65055,-66.6666666666667,4,3,1,100,0,1
77130,-200,4,3,1,100,0,1
79155,-66.6666666666667,4,3,1,100,0,1
84330,-200,4,3,1,100,0,1
85530,-200,4,2,0,100,0,0
94680,-66.6666666666667,4,2,1,100,0,0

[Colours]
Combo1 : 231,182,80
Combo2 : 255,255,255
Combo3 : 183,183,255
Combo4 : 255,255,255

[HitObjects]
128,88,105,5,4,0:0:0:0:
128,88,255,1,0,0:0:0:0:
128,184,405,1,0,0:0:0:0:
128,184,555,1,0,0:0:0:0:
208,248,705,1,0,0:0:0:0:
313,224,855,1,0,0:0:0:0:
349,118,1005,1,0,0:0:0:0:
272,47,1155,1,0,0:0:0:0:
240,120,1305,5,0,0:0:0:0:
248,200,1455,1,0,0:0:0:0:
256,280,1605,1,0,0:0:0:0:
256,280,1755,2,8,L|136:296,1,100
320,344,2205,1,8,0:0:0:0:
448,256,2355,1,0,0:0:0:0:
384,88,2505,5,4,0:0:0:0:
384,88,2655,1,0,0:0:0:0:
384,184,2805,1,0,0:0:0:0:
384,184,2955,1,0,0:0:0:0:
304,248,3105,1,0,0:0:0:0:
199,224,3255,1,0,0:0:0:0:
163,118,3405,1,0,0:0:0:0:
240,47,3555,1,0,0:0:0:0:
272,120,3705,5,0,0:0:0:0:
264,200,3855,1,0,0:0:0:0:
256,280,4005,1,0,0:0:0:0:
256,280,4155,2,8,L|376:296,1,100
192,344,4605,1,8,0:0:0:0:
64,256,4755,1,0,0:0:0:0:
88,64,4905,5,4,0:0:0:0:
176,72,5055,1,0,0:0:0:0:
248,120,5205,1,0,0:0:0:0:
288,192,5355,1,0,0:0:0:0:
216,240,5505,1,0,0:0:0:0:
248,160,5655,1,0,0:0:0:0:
280,80,5805,1,0,0:0:0:0:
312,0,5955,1,0,0:0:0:0:
456,64,6105,5,0,0:0:0:0:
368,176,6255,1,0,0:0:0:0:
400,48,6405,1,0,0:0:0:0:
424,192,6555,2,8,P|432:240|424:304,1,100
344,128,7005,1,8,0:0:0:0:
248,320,7155,1,0,0:0:0:0:
120,288,7305,5,0,0:0:0:0:
118,263,7380,1,0,0:0:0:0:
117,238,7455,1,0,0:0:0:0:
116,213,7530,1,0,0:0:0:0:
115,188,7605,1,0,0:0:0:0:
114,163,7680,1,0,0:0:0:0:
113,138,7755,1,0,0:0:0:0:
112,113,7830,1,0,0:0:0:0:
120,88,7905,5,0,0:0:0:0:
136,60,7980,1,0,0:0:0:0:
158,36,8055,1,0,0:0:0:0:
185,19,8130,1,0,0:0:0:0:
215,9,8205,1,0,0:0:0:0:
247,8,8280,1,0,0:0:0:0:
279,16,8355,1,0,0:0:0:0:
306,34,8430,1,0,0:0:0:0:
328,56,8505,5,8,0:0:0:0:
402,287,8655,1,0,0:0:0:0:
206,144,8805,1,8,0:0:0:0:
448,144,8955,1,0,0:0:0:0:
253,287,9105,1,8,0:0:0:0:
104,224,9405,6,4,B|67:205|67:205|71:188|71:188|34:169,1,100,4|0,0:0|0:0,0:0:0:0:
216,56,9705,2,0,P|256:32|304:32,1,75.0000028610231,8|0,0:0|0:0,0:0:0:0:
344,72,9855,2,0,P|304:96|256:96,1,75.0000028610231
336,48,10005,5,8,0:0:0:0:
381,42,10080,1,0,0:0:0:0:
426,52,10155,1,0,0:0:0:0:
462,80,10230,1,0,0:0:0:0:
483,121,10305,1,12,0:0:0:0:
486,167,10380,1,4,0:0:0:0:
458,200,10455,1,4,0:0:0:0:
413,193,10530,1,0,0:0:0:0:
367,187,10605,1,12,0:0:0:0:
323,199,10680,1,4,0:0:0:0:
290,231,10755,1,4,0:0:0:0:
266,270,10830,1,0,0:0:0:0:
288,312,10905,5,8,0:0:0:0:
285,290,10980,1,0,0:0:0:0:
282,269,11055,1,0,0:0:0:0:
279,248,11130,1,0,0:0:0:0:
276,227,11205,1,8,0:0:0:0:
274,205,11280,1,0,0:0:0:0:
271,184,11355,1,0,0:0:0:0:
268,163,11430,1,0,0:0:0:0:
168,64,11505,6,4,L|81:51,1,50,12|0,0:0|0:0,0:0:0:0:
348,151,11655,2,4,L|434:163,1,50,4|0,0:0|0:0,0:0:0:0:
337,46,11805,2,0,L|429:14,1,50,12|0,0:0|0:0,0:0:0:0:
179,169,11955,2,0,L|96:199,1,50,4|0,0:0|0:0,0:0:0:0:
256,352,12105,5,8,0:0:0:0:
256,248,12255,1,0,0:0:0:0:
256,144,12405,1,8,0:0:0:0:
168,40,12555,5,0,0:0:0:0:
328,216,12705,1,8,0:0:0:0:
272,32,12855,1,0,0:0:0:0:
208,232,13005,1,8,0:0:0:0:
320,80,13155,1,0,0:0:0:0:
208,280,13305,1,8,0:0:0:0:
368,120,13455,5,0,0:0:0:0:
240,328,13605,1,8,0:0:0:0:
248,144,13755,1,0,0:0:0:0:
448,280,13905,1,8,0:0:0:0:
344,136,14055,1,0,0:0:0:0:
192,304,14205,1,8,0:0:0:0:
448,176,14355,1,0,0:0:0:0:
336,80,14505,5,8,0:0:0:0:
208,40,14655,1,0,0:0:0:0:
328,264,14805,1,8,0:0:0:0:
400,136,14955,1,0,0:0:0:0:
192,160,15105,5,12,0:0:0:0:
192,160,15180,1,4,0:0:0:0:
192,160,15255,2,0,B|136:192|136:192|160:232,1,75.0000028610231,4|0,0:0|0:0,0:0:0:0:
327,187,15405,5,12,0:0:0:0:
327,187,15480,1,4,0:0:0:0:
327,187,15555,2,0,B|392:224|392:224|240:312|464:208|488:288,1,300.000011444092,4|0,0:0|0:0,0:0:0:0:
376,352,16005,5,8,0:0:0:0:
272,360,16155,1,0,0:0:0:0:
152,296,16305,1,8,0:0:0:0:
120,152,16455,1,0,0:0:0:0:
216,32,16605,1,8,0:0:0:0:
400,16,16755,1,0,0:0:0:0:
240,136,16905,6,0,P|152:72|120:24,2,150.000005722046,8|0|8,0:0|0:0|0:0,0:0:0:0:
352,176,17355,6,0,L|440:80,1,75.0000028610231
416,104,17505,1,8,0:0:0:0:
400,224,17655,2,0,L|312:320,1,75.0000028610231
336,296,17805,1,8,0:0:0:0:
296,136,17955,2,0,L|200:49,1,75.0000028610231
225,72,18105,1,8,0:0:0:0:
32,168,18255,5,4,0:0:0:0:
56,336,18555,1,4,0:0:0:0:
256,192,18705,1,12,0:0:0:0:
256,192,18780,12,8,19305,0:0:0:0:
168,176,19455,6,0,P|184:96|272:112,1,150.000005722046,0|4,0:0|0:0,0:0:0:0:
344,208,19755,2,0,P|328:288|240:272,1,150.000005722046,0|8,0:0|0:0,0:0:0:0:
256,336,20055,2,0,L|256:184,1,150.000005722046,8|0,0:0|0:0,0:0:0:0:
256,144,20355,1,0,0:0:0:0:
200,208,20505,5,8,0:0:0:0:
178,235,20580,1,0,0:0:0:0:
145,246,20655,1,8,0:0:0:0:
118,248,20730,1,0,0:0:0:0:
85,236,20805,1,4,0:0:0:0:
62,209,20880,1,0,0:0:0:0:
52,176,20955,1,0,0:0:0:0:
59,141,21030,1,0,0:0:0:0:
80,113,21105,1,0,0:0:0:0:
112,97,21180,1,0,0:0:0:0:
146,90,21255,1,8,0:0:0:0:
182,90,21330,1,0,0:0:0:0:
217,94,21405,1,4,0:0:0:0:
252,101,21480,1,0,0:0:0:0:
286,110,21555,1,0,0:0:0:0:
321,118,21630,1,0,0:0:0:0:
352,128,21705,5,8,0:0:0:0:
356,137,21780,1,0,0:0:0:0:
361,147,21855,1,8,0:0:0:0:
365,157,21930,1,0,0:0:0:0:
368,167,22005,1,4,0:0:0:0:
371,177,22080,1,0,0:0:0:0:
374,187,22155,1,0,0:0:0:0:
377,198,22230,1,0,0:0:0:0:
384,232,22305,5,0,0:0:0:0:
351,274,22380,1,0,0:0:0:0:
306,302,22455,1,8,0:0:0:0:
254,296,22530,1,0,0:0:0:0:
212,264,22605,1,4,0:0:0:0:
168,233,22680,1,0,0:0:0:0:
116,224,22755,1,0,0:0:0:0:
64,236,22830,1,0,0:0:0:0:
24,272,22905,5,8,0:3:0:0:
8,317,22980,1,0,0:3:0:0:
24,359,23055,1,8,0:3:0:0:
56,384,23130,1,0,0:3:0:0:
96,384,23205,1,4,0:3:0:0:
130,374,23280,1,0,0:3:0:0:
152,352,23355,1,0,0:3:0:0:
157,321,23430,1,0,0:3:0:0:
157,285,23505,1,0,0:3:0:0:
146,253,23580,1,0,0:3:0:0:
130,223,23655,1,0,0:3:0:0:
114,191,23730,1,0,0:3:0:0:
104,160,23805,1,4,0:3:0:0:
93,127,23880,1,0,0:3:0:0:
84,91,23955,1,8,0:3:0:0:
85,56,24030,1,0,0:3:0:0:
128,40,24105,5,8,0:0:0:0:
152,56,24180,1,0,0:0:0:0:
176,80,24255,1,8,0:0:0:0:
184,120,24330,1,0,0:0:0:0:
200,160,24405,1,4,0:0:0:0:
240,176,24480,1,0,0:0:0:0:
280,160,24555,1,0,0:0:0:0:
296,120,24630,1,0,0:0:0:0:
344,112,24705,5,0,0:0:0:0:
408,120,24780,1,0,0:0:0:0:
448,168,24855,1,8,0:0:0:0:
448,232,24930,1,0,0:0:0:0:
392,288,25005,1,4,0:0:0:0:
320,320,25080,1,0,0:0:0:0:
240,328,25155,1,0,0:0:0:0:
168,296,25230,1,0,0:0:0:0:
112,232,25305,5,8,0:0:0:0:
104,193,25380,1,0,0:0:0:0:
119,156,25455,1,8,0:0:0:0:
152,133,25530,1,0,0:0:0:0:
191,126,25605,1,4,0:0:0:0:
229,136,25680,1,0,0:0:0:0:
256,165,25755,1,0,0:0:0:0:
265,203,25830,1,0,0:0:0:0:
261,243,25905,1,0,0:0:0:0:
252,282,25980,1,0,0:0:0:0:
280,283,26055,1,8,0:0:0:0:
312,259,26130,1,0,0:0:0:0:
345,236,26205,1,4,0:0:0:0:
383,224,26280,1,0,0:0:0:0:
423,226,26355,1,0,0:0:0:0:
462,227,26430,1,0,0:0:0:0:
496,248,26505,5,8,0:0:0:0:
486,285,26580,1,0,0:0:0:0:
453,306,26655,1,8,0:0:0:0:
414,307,26730,1,0,0:0:0:0:
380,287,26805,1,4,0:0:0:0:
363,251,26880,1,0,0:0:0:0:
361,212,26955,1,0,0:0:0:0:
363,172,27030,1,0,0:0:0:0:
364,132,27105,1,0,0:0:0:0:
354,93,27180,1,0,0:0:0:0:
329,63,27255,1,8,0:0:0:0:
292,49,27330,1,0,0:0:0:0:
252,51,27405,1,4,0:0:0:0:
217,69,27480,1,0,0:0:0:0:
196,103,27555,1,0,0:0:0:0:
197,142,27630,1,0,0:0:0:0:
208,176,27705,5,8,0:0:0:0:
220,218,27780,1,0,0:0:0:0:
244,256,27855,1,0,0:0:0:0:
277,286,27930,1,0,0:0:0:0:
317,307,28005,1,8,0:0:0:0:
359,319,28080,1,0,0:0:0:0:
395,292,28155,1,0,0:0:0:0:
425,259,28230,1,0,0:0:0:0:
448,220,28305,1,8,0:0:0:0:
454,176,28380,1,0,0:0:0:0:
444,133,28455,1,0,0:0:0:0:
416,96,28530,1,0,0:0:0:0:
383,77,28605,1,8,0:0:0:0:
347,65,28680,1,0,0:0:0:0:
310,62,28755,1,0,0:0:0:0:
274,72,28830,1,0,0:0:0:0:
240,104,28905,5,8,0:0:0:0:
230,134,28980,1,0,0:0:0:0:
214,162,29055,1,8,0:0:0:0:
193,186,29130,1,0,0:0:0:0:
166,204,29205,1,8,0:0:0:0:
136,213,29280,1,0,0:0:0:0:
104,208,29355,1,8,0:0:0:0:
78,190,29430,1,0,0:0:0:0:
64,120,29505,5,8,0:0:0:0:
123,74,29580,1,8,0:0:0:0:
195,56,29655,1,8,0:0:0:0:
268,68,29730,1,8,0:0:0:0:
336,48,29805,2,0,L|352:40,3,18.7500007152558,8|8|8|8,0:0|0:0|0:0|0:0,0:0:0:0:
376,64,29955,2,0,L|386:69,7,9.37500035762788,8|8|8|8|8|8|8|8,0:0|0:0|0:0|0:0|0:0|0:0|0:0|0:0,0:0:0:0:
360,168,30105,6,0,L|360:120,1,31.25,8|0,0:0|0:0,0:0:0:0:
368,168,30180,2,0,L|408:136,1,31.25
368,168,30255,2,0,L|408:168,1,31.25
360,168,30330,2,0,L|392:216,1,31.25
360,168,30405,2,0,L|352:216,1,31.25,8|0,0:0|0:0,0:0:0:0:
360,168,30480,2,0,L|331:196,1,31.25
365,162,30555,2,0,L|308:150,1,31.25
365,162,30630,2,0,L|336:122,1,31.25
160,192,30705,6,0,L|216:128,1,62.5,8|0,0:0|0:0,0:0:0:0:
352,191,30855,2,0,L|304:248,1,62.5
256,96,31005,2,0,L|320:151,1,62.5,8|0,0:0|0:0,0:0:0:0:
256,288,31155,2,0,L|199:240,1,62.5
152,216,31305,6,0,L|152:264,1,31.25,8|0,0:0|0:0,0:0:0:0:
144,216,31380,2,0,L|104:248,1,31.25
144,216,31455,2,0,L|104:216,1,31.25
152,216,31530,2,0,L|120:168,1,31.25
152,216,31605,2,0,L|160:168,1,31.25,8|0,0:0|0:0,0:0:0:0:
152,216,31680,2,0,L|180:187,1,31.25
147,222,31755,2,0,L|203:233,1,31.25
147,222,31830,2,0,L|175:261,1,31.25
104,240,31905,6,0,L|104:280,1,31.25,8|0,3:0|3:0,3:0:0:0:
103,232,31980,2,0,L|55:263,1,31.25,0|0,3:0|3:0,3:0:0:0:
103,232,32055,2,0,L|55:224,1,31.25,0|0,3:0|3:0,3:0:0:0:
168,304,32205,2,0,L|224:384,1,62.5,8|0,0:0|0:0,0:0:0:0:
252,320,32355,2,0,L|200:248,1,62.5
352,160,32505,6,0,P|401:190|393:230,1,62.5,8|0,0:0|0:0,0:0:0:0:
392,312,32655,2,0,P|342:281|350:241,1,62.5
385,158,32805,2,0,P|417:207|394:239,1,62.5,8|0,0:0|0:0,0:0:0:0:
358,313,32955,2,0,P|326:264|349:232,1,62.5
376,144,33105,6,0,L|372:215,1,62.5,8|0,0:0|0:0,0:0:0:0:
365,327,33255,2,0,L|368:255,1,62.5
336,150,33405,2,0,L|363:217,1,62.5,8|0,0:0|0:0,0:0:0:0:
404,320,33555,2,0,L|377:253,1,62.5
344,168,33705,5,8,0:0:0:0:
232,112,33855,1,0,0:0:0:0:
56,160,34005,6,0,L|40:112,1,31.25,8|0,0:0|0:0,0:0:0:0:
46,130,34080,2,0,L|94:114,1,31.25
75,120,34155,2,0,L|91:168,1,31.25
85,150,34230,2,0,L|37:166,1,31.25
144,272,34305,2,0,P|235:288|186:234,1,200,8|0,0:0|0:0,0:0:0:0:
208,144,34605,6,0,L|312:248,1,100,8|0,0:0|0:0,0:0:0:0:
304,224,34755,2,0,L|224:144,1,100,8|0,0:0|0:0,0:0:0:0:
304,64,34905,5,8,0:0:0:0:
304,64,35055,1,0,0:0:0:0:
184,64,35205,1,8,0:0:0:0:
360,192,35355,1,0,0:0:0:0:
216,176,35505,6,0,P|168:176|128:208,1,100,8|0,0:0|0:0,0:0:0:0:
128,207,35655,2,0,P|115:253|136:300,1,100
135,299,35805,2,0,P|176:323|227:315,1,100,8|0,0:0|0:0,0:0:0:0:
226,316,35955,2,0,P|259:282|265:231,1,100
248,192,36105,5,8,0:0:0:0:
320,152,36255,1,0,0:0:0:0:
392,112,36405,1,8,0:0:0:0:
464,72,36555,1,0,0:0:0:0:
256,232,36705,6,0,L|368:232,1,100,8|0,0:0|0:0,0:0:0:0:
352,336,36855,2,0,L|352:224,1,100
448,232,37005,2,0,L|336:232,1,100,8|0,0:0|0:0,0:0:0:0:
352,128,37155,2,0,L|352:240,1,100
352,336,37305,5,8,0:0:0:0:
112,176,37455,1,8,0:0:0:0:
256,120,37605,1,8,0:0:0:0:
88,352,37755,1,8,0:0:0:0:
272,224,37905,1,8,0:0:0:0:
112,56,38055,1,8,0:0:0:0:
336,128,38205,1,8,0:0:0:0:
392,336,38355,1,8,0:0:0:0:
304,280,38505,5,8,0:0:0:0:
256,248,38580,1,8,0:0:0:0:
200,224,38655,1,8,0:0:0:0:
144,208,38730,1,8,0:0:0:0:
88,208,38805,6,8,L|95:154,1,50
88,208,38880,2,8,L|13:174,1,50
88,208,38955,2,8,L|44:242,1,50
88,208,39030,2,8,L|116:285,1,50
200,112,39105,6,8,L|188:89,7,18.7500007152558
312,112,39255,2,8,L|318:95,7,18.7500007152558
176,224,39405,2,8,L|164:201,7,18.7500007152558
336,224,39555,2,8,L|343:207,7,18.7500007152558
256,192,39705,12,0,40905,0:0:0:0:
256,192,50505,5,8,1:0:0:0:
160,192,50655,2,0,P|160:136|208:96,1,100,0|8,0:0|0:0,0:0:0:0:
352,192,50955,2,0,P|352:248|304:288,1,100,0|8,0:0|0:0,0:0:0:0:
156,134,51255,2,0,P|189:76|263:63,1,100,0|8,0:0|0:0,0:0:0:0:
355,249,51555,2,0,P|322:307|248:320,1,100,0|8,0:0|0:0,0:0:0:0:
186,72,51855,2,0,P|232:32|296:32,1,100,0|8,0:0|0:0,0:0:0:0:
325,311,52155,2,0,P|280:352|216:352,1,100,0|8,0:0|0:0,0:0:0:0:
161,328,52455,6,0,P|208:343|255:330,1,100,0|8,0:0|0:0,0:0:0:0:
350,55,52755,2,0,P|303:40|256:53,1,100,0|8,0:0|0:0,0:0:0:0:
224,323,53055,2,0,P|274:321|313:291,1,100,0|8,0:0|0:0,0:0:0:0:
287,60,53355,2,0,P|237:62|198:92,1,100,0|8,0:0|0:0,0:0:0:0:
271,302,53655,2,0,P|316:283|339:240,1,100,0|8,0:0|0:0,0:0:0:0:
240,81,53956,2,0,P|195:100|172:144,1,100,0|8,0:0|0:0,0:0:0:0:
324,279,54255,2,0,P|354:240|351:191,1,100,0|8,0:0|0:0,0:0:0:0:
187,104,54556,2,0,P|157:143|160:192,1,100,0|8,0:0|0:0,0:0:0:0:
256,304,54855,2,0,L|256:200,1,100,0|8,0:0|0:0,0:0:0:0:
256,64,55155,1,0,0:0:0:0:
256,192,55305,5,8,1:0:0:0:
278,226,55455,1,0,0:0:0:0:
233,157,55605,1,8,0:0:0:0:
302,232,55755,1,0,0:0:0:0:
209,151,55905,1,8,0:0:0:0:
338,232,56055,1,0,0:0:0:0:
173,151,56205,1,8,0:0:0:0:
377,216,56355,1,0,0:0:0:0:
134,167,56505,1,8,0:0:0:0:
410,182,56655,1,0,0:0:0:0:
101,201,56805,1,8,0:0:0:0:
439,130,56955,1,0,0:0:0:0:
72,253,57105,1,8,0:0:0:0:
457,57,57255,1,0,0:0:0:0:
54,326,57405,1,8,0:0:0:0:
482,10,57555,1,0,0:0:0:0:
29,373,57705,5,8,1:0:0:0:
468,98,57855,1,0,0:0:0:0:
43,285,58005,1,8,0:0:0:0:
439,163,58155,1,0,0:0:0:0:
72,220,58305,1,8,0:0:0:0:
403,208,58455,1,0,0:0:0:0:
108,175,58605,1,8,0:0:0:0:
359,232,58755,1,0,0:0:0:0:
256,192,58905,1,8,0:0:0:0:
153,251,59055,5,0,0:0:0:0:
256,73,59205,1,8,0:0:0:0:
358,251,59355,1,0,0:0:0:0:
153,251,59505,1,8,0:0:0:0:
256,73,59655,1,0,0:0:0:0:
358,251,59805,1,8,0:0:0:0:
256,192,59955,1,0,0:0:0:0:
358,132,60205,5,0,0:0:0:0:
256,310,60335,1,8,0:0:0:0:
153,132,60466,1,0,0:0:0:0:
358,132,60596,1,8,0:0:0:0:
255,310,60727,1,0,0:0:0:0:
153,132,60857,1,8,0:0:0:0:
256,192,60988,1,0,0:0:0:0:
176,88,61227,5,0,0:0:0:0:
256,40,61336,1,8,0:0:0:0:
336,88,61445,1,0,0:0:0:0:
288,144,61554,1,8,0:0:0:0:
224,144,61663,1,0,0:0:0:0:
256,104,61772,1,8,0:0:0:0:
256,168,61881,1,0,0:0:0:0:
256,80,62083,5,0,0:0:0:0:
256,144,62177,1,8,0:0:0:0:
256,208,62271,2,8,L|256:320,1,100
256,336,62458,2,0,L|256:368,12,25,0|0|0|0|8|0|0|0|0|0|0|0|8,0:0|0:0|0:0|0:0|0:0|0:0|0:0|0:0|0:0|0:0|0:0|0:0|0:0,0:0:0:0:
112,232,62815,5,8,0:0:0:0:
134,198,62890,1,8,0:0:0:0:
148,161,62965,1,8,0:0:0:0:
149,121,63040,1,8,0:0:0:0:
134,84,63115,1,8,0:0:0:0:
168,48,63190,1,8,0:0:0:0:
208,72,63265,1,8,0:0:0:0:
232,102,63340,1,8,0:0:0:0:
250,138,63415,1,8,0:0:0:0:
273,172,63490,1,8,0:0:0:0:
307,189,63565,1,8,0:0:0:0:
352,208,63640,2,8,L|424:208,8,50
256,192,64015,12,0,64502,0:0:0:0:
264,280,64830,6,4,B|240:312|232:352|232:352|176:312,1,100,4|0,0:0|0:0,0:0:0:0:
56,224,65130,6,8,P|16:184|8:152,1,75.0000028610231,8|0,0:0|0:0,0:0:0:0:
24,96,65280,2,0,P|64:136|72:168,1,75.0000028610231
88,200,65430,5,8,0:0:0:0:
116,242,65505,1,0,0:0:0:0:
170,240,65580,1,0,0:0:0:0:
213,207,65655,1,0,0:0:0:0:
240,160,65730,1,12,0:0:0:0:
240,104,65805,1,4,0:0:0:0:
243,47,65880,1,4,0:0:0:0:
285,15,65955,1,0,0:0:0:0:
339,8,66030,1,12,0:0:0:0:
392,24,66105,1,4,0:0:0:0:
432,64,66180,1,4,0:0:0:0:
432,120,66255,1,0,0:0:0:0:
400,144,66330,5,8,0:0:0:0:
389,151,66405,1,0,0:0:0:0:
379,158,66480,1,0,0:0:0:0:
369,165,66555,1,0,0:0:0:0:
359,172,66630,1,8,0:0:0:0:
351,179,66705,1,0,0:0:0:0:
343,186,66780,1,0,0:0:0:0:
336,192,66855,1,0,0:0:0:0:
328,200,66930,1,8,0:0:0:0:
296,240,67005,5,0,0:0:0:0:
287,289,67080,1,0,0:0:0:0:
248,320,67155,1,0,0:0:0:0:
199,321,67230,1,8,0:0:0:0:
172,281,67305,1,0,0:0:0:0:
172,231,67380,1,0,0:0:0:0:
147,195,67455,1,0,0:0:0:0:
105,183,67530,1,8,0:0:0:0:
256,64,67680,5,0,0:0:0:0:
330,295,67830,1,8,0:0:0:0:
134,152,67980,1,0,0:0:0:0:
376,152,68130,1,8,0:0:0:0:
181,295,68280,1,0,0:0:0:0:
176,160,68430,5,8,0:0:0:0:
424,272,68580,1,0,0:0:0:0:
304,152,68730,1,8,0:0:0:0:
248,256,68880,5,0,0:0:0:0:
432,288,69030,1,8,0:0:0:0:
200,144,69180,1,0,0:0:0:0:
352,48,69330,1,8,0:0:0:0:
392,272,69480,1,0,0:0:0:0:
224,160,69630,1,8,0:0:0:0:
448,96,69780,1,0,0:0:0:0:
296,40,69930,5,8,0:0:0:0:
176,240,70080,1,0,0:0:0:0:
216,48,70230,1,8,0:0:0:0:
384,224,70380,1,0,0:0:0:0:
224,128,70530,5,12,0:0:0:0:
224,128,70605,1,4,0:0:0:0:
224,128,70680,2,0,P|216:80|200:48,1,75.0000028610231,4|0,0:0|0:0,0:0:0:0:
64,232,70830,5,12,0:0:0:0:
64,232,70905,1,4,0:0:0:0:
64,232,70980,2,0,B|131:109|70:191|105:247|29:354|126:390|182:298|111:293,1,300.000011444092,4|0,0:0|0:0,0:0:0:0:
456,256,71430,5,8,0:0:0:0:
336,40,71580,1,0,0:0:0:0:
480,104,71730,1,8,0:0:0:0:
256,80,71880,1,0,0:0:0:0:
488,192,72030,1,8,0:0:0:0:
176,120,72180,1,0,0:0:0:0:
488,272,72330,5,8,0:0:0:0:
392,40,72480,1,0,0:0:0:0:
104,240,72630,1,8,0:0:0:0:
320,128,72780,6,0,L|360:48,1,75.0000028610231
288,248,72930,1,8,0:0:0:0:
192,128,73080,2,0,L|152:48,1,75.0000028610231
224,248,73230,1,8,0:0:0:0:
256,120,73380,2,0,L|256:40,1,75.0000028610231
256,264,73530,1,8,0:0:0:0:
256,192,73680,5,4,0:0:0:0:
64,192,73980,1,4,0:0:0:0:
448,192,74130,1,12,0:0:0:0:
256,192,74205,12,0,74730,0:0:0:0:
112,56,74880,5,0,0:0:0:0:
352,32,75030,1,8,0:0:0:0:
216,104,75180,1,0,0:0:0:0:
144,192,75330,1,4,0:0:0:0:
136,240,75405,1,4,0:0:0:0:
144,288,75480,1,4,0:0:0:0:
352,288,75630,1,4,0:0:0:0:
360,240,75705,1,4,0:0:0:0:
352,192,75780,2,0,B|341:112|232:170|164:54|280:-46|402:57|266:105,1,300.000011444092,4|0,0:0|0:0,0:0:0:0:
256,320,76380,5,0,0:0:0:0:
330,89,76530,1,8,0:0:0:0:
134,232,76680,1,0,0:0:0:0:
377,232,76830,1,8,0:0:0:0:
181,89,76980,1,0,0:0:0:0:
88,80,77130,5,0,0:0:0:0:
88,80,77205,2,0,L|96:112,1,25
120,224,77355,1,0,0:0:0:0:
120,224,77430,2,0,L|112:184,1,25
184,24,77580,1,0,0:0:0:0:
184,24,77655,2,0,L|192:56,1,25
216,168,77805,1,0,0:0:0:0:
216,168,77880,2,0,L|208:128,1,25
312,64,78030,5,8,0:0:0:0:
312,64,78105,2,0,L|336:80,1,25
376,104,78255,1,0,0:0:0:0:
401,130,78330,1,8,0:0:0:0:
418,162,78405,1,0,0:0:0:0:
426,198,78480,1,0,0:0:0:0:
420,234,78555,1,0,0:0:0:0:
394,260,78630,1,8,0:0:0:0:
359,268,78705,1,0,0:0:0:0:
322,263,78780,1,0,0:0:0:0:
287,254,78855,1,0,0:0:0:0:
251,247,78930,5,8,0:0:0:0:
214,249,79005,1,0,0:0:0:0:
179,262,79080,1,0,0:0:0:0:
152,288,79155,2,0,B|120:344|72:312|88:200,1,150.000005722046
88,168,79380,5,0,0:0:0:0:
94,116,79455,1,0,0:0:0:0:
125,73,79530,1,8,0:0:0:0:
170,45,79605,1,0,0:0:0:0:
221,32,79680,1,0,0:0:0:0:
274,34,79755,1,0,0:0:0:0:
324,50,79830,1,8,0:0:0:0:
365,83,79905,1,0,0:0:0:0:
379,133,79980,1,0,0:0:0:0:
351,176,80055,1,0,0:0:0:0:
303,197,80130,1,8,0:0:0:0:
250,202,80205,5,0,0:0:0:0:
216,160,80280,1,0,0:0:0:0:
234,101,80355,1,0,0:0:0:0:
293,76,80430,1,8,0:0:0:0:
357,77,80505,1,0,0:0:0:0:
417,101,80580,1,0,0:0:0:0:
462,147,80655,1,0,0:0:0:0:
312,224,80730,5,8,0:0:0:0:
382,148,80830,1,0,0:0:0:0:
410,248,80930,1,0,0:0:0:0:
328,218,81030,1,8,0:0:0:0:
386,158,81130,1,0,0:0:0:0:
408,238,81230,1,0,0:0:0:0:
339,218,81330,1,8,0:0:0:0:
385,170,81430,1,0,0:0:0:0:
402,234,81530,1,0,0:0:0:0:
368,208,81630,1,8,0:0:0:0:
448,280,81930,5,8,0:0:0:0:
312,24,82080,1,0,0:0:0:0:
232,280,82230,1,8,0:0:0:0:
496,56,82380,1,0,0:0:0:0:
128,24,82680,1,0,0:0:0:0:
128,360,82980,1,0,0:0:0:0:
208,120,83280,1,0,0:0:0:0:
208,120,83580,1,0,0:0:0:0:
208,256,83730,2,4,B|192:168|24:312|280:392|312:208,1,300.000011444092
384,168,84330,6,0,L|416:152,7,25,8|0|0|0|0|0|0|0,0:0|0:0|0:0|0:0|0:0|0:0|0:0|0:0,0:0:0:0:
312,176,84930,5,8,0:0:0:0:
240,176,85005,1,0,0:0:0:0:
168,192,85080,1,0,0:0:0:0:
120,248,85155,1,0,0:0:0:0:
192,264,85230,5,8,0:0:0:0:
160,203,85305,1,0,0:0:0:0:
129,142,85380,1,0,0:0:0:0:
98,82,85455,1,0,0:0:0:0:
176,72,85530,6,0,L|120:72,3,50
176,160,86130,2,0,L|112:160,1,50
128,248,86430,2,0,L|178:248,1,50
280,320,86730,5,0,0:0:0:0:
400,256,86880,1,0,0:0:0:0:
446,128,87030,1,0,0:0:0:0:
446,128,87180,2,0,P|448:80|400:88,1,100
256,144,87630,1,0,0:0:0:0:
104,32,87780,5,4,0:0:0:0:
336,72,87930,2,0,L|392:72,3,50,4|0|0|0,0:0|0:0|0:0|0:0,0:0:0:0:
336,160,88530,2,0,L|400:160,1,50
384,248,88830,2,0,L|334:248,1,50
232,320,89130,5,0,0:0:0:0:
112,256,89280,1,0,0:0:0:0:
66,128,89430,1,0,0:0:0:0:
66,128,89580,2,0,P|64:80|112:88,1,100,0|4,0:0|0:0,0:0:0:0:
440,80,90180,1,4,0:0:0:0:
256,48,90330,6,0,L|256:104,3,50,4|0|0|0,0:0|0:0|0:0|0:0,0:0:0:0:
256,152,90930,2,0,L|256:216,1,50
256,304,91230,2,0,L|255:254,1,50
152,256,91530,5,0,0:0:0:0:
360,256,91680,1,0,0:0:0:0:
256,144,91830,1,0,0:0:0:0:
256,144,91980,2,0,L|256:264,1,100
112,192,92430,1,0,0:0:0:0:
384,288,92580,1,4,0:0:0:0:
384,184,92730,5,4,0:0:0:0:
377,163,92805,1,0,0:0:0:0:
363,148,92880,1,0,0:0:0:0:
343,139,92955,1,0,0:0:0:0:
323,132,93030,1,0,0:0:0:0:
303,125,93105,1,0,0:0:0:0:
285,113,93180,1,0,0:0:0:0:
272,96,93255,1,0,0:0:0:0:
240,72,93330,5,4,0:0:0:0:
209,61,93405,1,0,0:0:0:0:
177,57,93480,1,0,0:0:0:0:
146,61,93555,1,0,0:0:0:0:
116,73,93630,1,0,0:0:0:0:
91,93,93705,1,0,0:0:0:0:
72,119,93780,1,0,0:0:0:0:
63,150,93855,1,0,0:0:0:0:
64,184,93930,5,0,0:0:0:0:
263,45,94080,1,4,0:0:0:0:
183,274,94230,1,0,0:0:0:0:
112,42,94380,1,4,0:0:0:0:
306,188,94530,1,0,0:0:0:0:
184,144,94830,6,0,B|232:256|232:256|248:208,1,150.000005722046
256,192,95130,1,4,0:0:0:0:
256,192,95205,12,0,96930,0:0:0:0:
