osu file format v14

[General]
AudioFilename: audio.mp3
AudioLeadIn: 0
PreviewTime: 72010
Countdown: 0
SampleSet: Soft
StackLeniency: 0.7
Mode: 3
LetterboxInBreaks: 0
SpecialStyle: 0
WidescreenStoryboard: 1

[Editor]
Bookmarks: 10406,20673,30941,41208,51475,61743,82278,92545
DistanceSpacing: 1.5
BeatDivisor: 4
GridSize: 32
TimelineZoom: 2.5

[Metadata]
Title:Paved Garden
TitleUnicode:Paved Garden
Artist:ginkiha
ArtistUnicode:ginkiha
Creator:Rakh
Version:Insane
Source:OverRapid
Tags:CROSSING DELTA rhythm video game dnb drum & bass electronic instrumental Featured Artist FA osu! Syadow-
BeatmapID:2531604
BeatmapSetID:1215941

[Difficulty]
HPDrainRate:8.5
CircleSize:4
OverallDifficulty:8
ApproachRate:5
SliderMultiplier:1.4
SliderTickRate:1

[Events]
//Background and Video events
0,0,"paved insane.png",0,0
//Break Periods
//Storyboard Layer 0 (Background)
//Storyboard Layer 1 (Fail)
//Storyboard Layer 2 (Pass)
//Storyboard Layer 3 (Foreground)
//Storyboard Layer 4 (Overlay)
//Storyboard Sound Samples

[TimingPoints]
139,320.855614973262,4,2,1,65,1,0
19390,-100,4,2,1,70,0,0
20673,-100,4,2,1,60,0,0
29657,-100,4,2,1,70,0,0
30941,-100,4,2,1,80,0,0
41208,-100,4,2,1,80,0,1
51475,-100,4,2,1,80,0,0
72010,-100,4,2,1,80,0,1
92545,-100,4,2,1,70,0,0
92866,-100,4,2,1,60,0,0

[HitObjects]
64,192,139,128,0,1422:0:0:0:0:
448,192,139,1,0,0:0:0:0:
320,192,780,128,0,1422:0:0:0:0:
192,192,1422,1,0,0:0:0:0:
448,192,1422,128,0,2705:0:0:0:0:
192,192,2064,128,0,2384:0:0:0:0:
320,192,2384,128,0,2705:0:0:0:0:
64,192,2705,128,0,3989:0:0:0:0:
192,192,2705,1,0,0:0:0:0:
448,192,3347,128,0,3989:0:0:0:0:
192,192,3989,1,0,0:0:0:0:
320,192,3989,128,0,4310:0:0:0:0:
448,192,4149,128,0,4310:0:0:0:0:
64,192,4310,1,0,0:0:0:0:
192,192,4310,128,0,4630:0:0:0:0:
320,192,4470,128,0,4630:0:0:0:0:
64,192,4630,128,0,4951:0:0:0:0:
448,192,4630,128,0,4951:0:0:0:0:
192,192,4951,1,0,0:0:0:0:
320,192,4951,128,0,5272:0:0:0:0:
64,192,5272,1,0,0:0:0:0:
192,192,5272,128,0,6556:0:0:0:0:
320,192,5914,128,0,6556:0:0:0:0:
64,192,6556,128,0,7839:0:0:0:0:
448,192,6556,1,0,0:0:0:0:
448,192,7197,128,0,7518:0:0:0:0:
320,192,7518,128,0,7839:0:0:0:0:
192,192,7839,128,0,8802:0:0:0:0:
448,192,7839,1,0,0:0:0:0:
320,192,9122,1,0,0:0:0:0:
448,192,9122,128,0,9363:0:0:0:0:
192,192,9283,128,0,9443:0:0:0:0:
320,192,9443,128,0,9684:0:0:0:0:
448,192,9443,1,0,0:0:0:0:
64,192,9604,128,0,9764:0:0:0:0:
192,192,9764,128,0,10005:0:0:0:0:
320,192,9764,1,0,0:0:0:0:
448,192,9925,128,0,10085:0:0:0:0:
64,192,10085,128,0,10326:0:0:0:0:
192,192,10085,1,0,0:0:0:0:
320,192,10245,128,0,10406:0:0:0:0:
64,192,10406,1,2,0:0:0:0:
448,192,10406,128,4,10727:0:0:0:0:
192,192,10566,1,0,0:0:0:0:
320,192,10647,1,0,0:0:0:0:
64,192,10727,1,8,0:0:0:0:
192,192,10727,1,0,0:0:0:0:
320,192,10887,1,0,0:0:0:0:
192,192,10967,1,0,0:0:0:0:
320,192,11048,1,0,0:0:0:0:
64,192,11128,1,0,0:0:0:0:
192,192,11208,1,2,0:0:0:0:
448,192,11208,1,0,0:0:0:0:
320,192,11288,1,0,0:0:0:0:
64,192,11368,1,8,0:0:0:0:
192,192,11368,1,0,0:0:0:0:
448,192,11368,1,0,0:0:0:0:
320,192,11529,1,0,0:0:0:0:
192,192,11609,1,0,0:0:0:0:
64,192,11689,128,2,12010:0:0:0:0:
448,192,11689,1,0,0:0:0:0:
320,192,11850,1,0,0:0:0:0:
192,192,11930,1,0,0:0:0:0:
320,192,12010,1,8,0:0:0:0:
448,192,12010,1,0,0:0:0:0:
192,192,12171,1,0,0:0:0:0:
320,192,12251,1,0,0:0:0:0:
192,192,12331,1,0,0:0:0:0:
448,192,12411,1,0,0:0:0:0:
64,192,12491,1,2,0:0:0:0:
320,192,12491,1,0,0:0:0:0:
192,192,12572,1,0,0:0:0:0:
64,192,12652,1,8,0:0:0:0:
320,192,12652,1,0,0:0:0:0:
448,192,12652,1,0,0:0:0:0:
192,192,12812,1,0,0:0:0:0:
320,192,12893,1,0,0:0:0:0:
64,192,12973,1,2,0:0:0:0:
448,192,12973,128,0,13294:0:0:0:0:
192,192,13133,1,0,0:0:0:0:
320,192,13213,1,0,0:0:0:0:
64,192,13294,1,8,0:0:0:0:
192,192,13294,1,0,0:0:0:0:
320,192,13454,1,0,0:0:0:0:
192,192,13534,1,0,0:0:0:0:
320,192,13614,1,0,0:0:0:0:
64,192,13695,1,0,0:0:0:0:
192,192,13775,1,2,0:0:0:0:
448,192,13775,1,0,0:0:0:0:
320,192,13855,1,0,0:0:0:0:
64,192,13935,1,8,0:0:0:0:
192,192,13935,1,0,0:0:0:0:
448,192,13935,1,0,0:0:0:0:
320,192,14096,1,0,0:0:0:0:
192,192,14176,1,0,0:0:0:0:
64,192,14256,128,2,14497:0:0:0:0:
448,192,14256,1,0,0:0:0:0:
320,192,14417,1,0,0:0:0:0:
192,192,14497,1,0,0:0:0:0:
64,192,14577,1,8,0:0:0:0:
320,192,14577,1,0,0:0:0:0:
448,192,14577,128,0,14818:0:0:0:0:
192,192,14737,1,0,0:0:0:0:
320,192,14818,1,0,0:0:0:0:
64,192,14898,128,0,15138:0:0:0:0:
448,192,14898,1,0,0:0:0:0:
320,192,15058,1,2,0:0:0:0:
448,192,15058,1,0,0:0:0:0:
192,192,15138,1,0,0:0:0:0:
64,192,15219,1,8,0:0:0:0:
320,192,15219,1,0,0:0:0:0:
448,192,15219,128,0,15459:0:0:0:0:
192,192,15379,1,0,0:0:0:0:
320,192,15540,128,2,15860:0:0:0:0:
448,192,15540,1,0,0:0:0:0:
64,192,15700,1,0,0:0:0:0:
448,192,15780,1,0,0:0:0:0:
64,192,15860,1,8,0:0:0:0:
192,192,15860,1,0,0:0:0:0:
448,192,16021,1,0,0:0:0:0:
64,192,16101,1,0,0:0:0:0:
448,192,16181,1,0,0:0:0:0:
320,192,16261,1,0,0:0:0:0:
64,192,16342,1,2,0:0:0:0:
192,192,16342,1,0,0:0:0:0:
320,192,16422,1,0,0:0:0:0:
64,192,16502,1,8,0:0:0:0:
192,192,16502,1,0,0:0:0:0:
448,192,16502,1,0,0:0:0:0:
320,192,16663,1,0,0:0:0:0:
448,192,16743,1,0,0:0:0:0:
64,192,16823,1,2,0:0:0:0:
192,192,16823,128,0,17144:0:0:0:0:
320,192,16983,1,0,0:0:0:0:
64,192,17064,1,0,0:0:0:0:
320,192,17144,1,8,0:0:0:0:
448,192,17144,1,0,0:0:0:0:
64,192,17304,1,0,0:0:0:0:
448,192,17384,1,0,0:0:0:0:
64,192,17465,1,0,0:0:0:0:
192,192,17545,1,0,0:0:0:0:
320,192,17625,1,2,0:0:0:0:
448,192,17625,1,0,0:0:0:0:
192,192,17705,1,0,0:0:0:0:
64,192,17786,1,8,0:0:0:0:
320,192,17786,1,0,0:0:0:0:
448,192,17786,1,0,0:0:0:0:
192,192,17946,1,0,0:0:0:0:
64,192,18026,1,0,0:0:0:0:
320,192,18106,128,2,18427:0:0:0:0:
448,192,18106,1,0,0:0:0:0:
64,192,18267,1,0,0:0:0:0:
448,192,18347,1,0,0:0:0:0:
64,192,18427,1,8,0:0:0:0:
192,192,18427,1,0,0:0:0:0:
448,192,18588,1,0,0:0:0:0:
64,192,18668,1,0,0:0:0:0:
448,192,18748,1,0,0:0:0:0:
320,192,18828,1,0,0:0:0:0:
64,192,18909,1,2,0:0:0:0:
192,192,18909,1,0,0:0:0:0:
320,192,18989,1,0,0:0:0:0:
64,192,19069,1,8,0:0:0:0:
192,192,19069,1,0,0:0:0:0:
448,192,19069,1,0,0:0:0:0:
320,192,19229,1,0,0:0:0:0:
192,192,19310,1,0,0:0:0:0:
64,192,19390,128,0,19630:0:0:0:0:
448,192,19390,1,0,0:0:0:0:
320,192,19550,128,0,19711:0:0:0:0:
64,192,19711,1,0,0:0:0:0:
192,192,19711,128,0,19951:0:0:0:0:
448,192,19871,128,0,20032:0:0:0:0:
192,192,20032,1,0,0:0:0:0:
320,192,20032,128,0,20272:0:0:0:0:
64,192,20192,128,0,20352:0:0:0:0:
320,192,20352,1,0,0:0:0:0:
448,192,20352,128,0,20593:0:0:0:0:
192,192,20513,128,0,20673:0:0:0:0:
64,192,20673,1,4,0:0:0:0:
448,192,20673,1,0,0:0:0:0:
320,192,20834,128,0,21155:0:0:0:0:
192,192,20994,128,0,21155:0:0:0:0:
448,192,21315,128,0,21636:0:0:0:0:
64,192,21475,128,0,21636:0:0:0:0:
320,192,21796,128,0,22117:0:0:0:0:
64,192,21957,1,0,0:0:0:0:
192,192,21957,128,0,22117:0:0:0:0:
320,192,22438,128,0,22598:0:0:0:0:
448,192,22438,1,0,0:0:0:0:
64,192,22919,1,0,0:0:0:0:
192,192,22919,128,0,23080:0:0:0:0:
320,192,23240,1,0,0:0:0:0:
448,192,23240,1,0,0:0:0:0:
192,192,23401,128,0,23721:0:0:0:0:
320,192,23561,128,0,23721:0:0:0:0:
64,192,23882,128,0,24203:0:0:0:0:
448,192,24042,128,0,24203:0:0:0:0:
192,192,24363,128,0,24684:0:0:0:0:
320,192,24524,128,0,24684:0:0:0:0:
448,192,24524,1,0,0:0:0:0:
64,192,24844,128,0,25165:0:0:0:0:
192,192,24844,1,0,0:0:0:0:
320,192,25005,1,0,0:0:0:0:
448,192,25005,128,0,25165:0:0:0:0:
192,192,25165,1,0,0:0:0:0:
320,192,25326,128,0,25647:0:0:0:0:
448,192,25326,1,0,0:0:0:0:
64,192,25486,1,0,0:0:0:0:
192,192,25486,128,0,25647:0:0:0:0:
64,192,25807,1,0,0:0:0:0:
448,192,25807,1,0,0:0:0:0:
320,192,25967,128,0,26288:0:0:0:0:
192,192,26128,128,0,26288:0:0:0:0:
448,192,26449,128,0,26770:0:0:0:0:
64,192,26609,128,0,26770:0:0:0:0:
320,192,26930,128,0,27090:0:0:0:0:
64,192,27090,1,0,0:0:0:0:
192,192,27090,128,0,27411:0:0:0:0:
320,192,27411,1,0,0:0:0:0:
448,192,27411,128,0,27732:0:0:0:0:
64,192,27732,1,0,0:0:0:0:
192,192,27732,128,0,28053:0:0:0:0:
320,192,28053,128,0,28374:0:0:0:0:
448,192,28053,1,0,0:0:0:0:
64,192,28374,128,0,29016:0:0:0:0:
192,192,28374,1,0,0:0:0:0:
448,192,29176,128,0,29336:0:0:0:0:
64,192,29336,128,0,29497:0:0:0:0:
448,192,29497,128,0,29657:0:0:0:0:
64,192,29657,128,2,29898:0:0:0:0:
192,192,29657,1,0,0:0:0:0:
320,192,29818,128,0,29978:0:0:0:0:
64,192,29978,1,2,0:0:0:0:
192,192,29978,128,0,30219:0:0:0:0:
448,192,30138,128,0,30299:0:0:0:0:
192,192,30299,1,2,0:0:0:0:
320,192,30299,128,0,30540:0:0:0:0:
64,192,30459,128,0,30620:0:0:0:0:
320,192,30620,1,2,0:0:0:0:
448,192,30620,128,0,30941:0:0:0:0:
64,192,30780,1,2,0:0:0:0:
192,192,30780,1,0,0:0:0:0:
64,192,30941,1,2,0:0:0:0:
320,192,30941,128,0,31101:0:0:0:0:
64,192,31261,1,8,0:0:0:0:
192,192,31261,1,0,0:0:0:0:
448,192,31261,128,0,31422:0:0:0:0:
320,192,31422,128,0,31582:0:0:0:0:
64,192,31582,1,0,0:0:0:0:
192,192,31743,1,2,0:0:0:0:
448,192,31743,128,0,31903:0:0:0:0:
320,192,31823,1,0,0:0:0:0:
64,192,31903,128,8,32064:0:0:0:0:
192,192,31903,1,0,0:0:0:0:
320,192,31983,1,0,0:0:0:0:
448,192,32064,1,0,0:0:0:0:
320,192,32224,128,2,32384:0:0:0:0:
448,192,32224,1,0,0:0:0:0:
64,192,32384,1,0,0:0:0:0:
448,192,32465,128,0,32625:0:0:0:0:
64,192,32545,1,8,0:0:0:0:
192,192,32545,1,0,0:0:0:0:
320,192,32705,128,0,32866:0:0:0:0:
192,192,32866,128,0,33026:0:0:0:0:
64,192,33026,1,2,0:0:0:0:
448,192,33026,1,0,0:0:0:0:
64,192,33187,1,8,0:0:0:0:
320,192,33187,128,0,33347:0:0:0:0:
448,192,33187,1,0,0:0:0:0:
192,192,33347,128,0,33507:0:0:0:0:
64,192,33507,1,2,0:0:0:0:
448,192,33507,128,0,33668:0:0:0:0:
64,192,33828,128,8,33989:0:0:0:0:
320,192,33828,1,0,0:0:0:0:
448,192,33828,1,0,0:0:0:0:
192,192,33989,128,0,34149:0:0:0:0:
448,192,34149,1,0,0:0:0:0:
64,192,34310,128,2,34470:0:0:0:0:
320,192,34310,1,0,0:0:0:0:
192,192,34390,1,0,0:0:0:0:
320,192,34470,1,8,0:0:0:0:
448,192,34470,128,0,34630:0:0:0:0:
192,192,34550,1,0,0:0:0:0:
64,192,34630,1,0,0:0:0:0:
320,192,34791,128,2,34871:0:0:0:0:
448,192,34791,128,0,35032:0:0:0:0:
64,192,34951,128,0,35112:0:0:0:0:
192,192,35032,128,0,35112:0:0:0:0:
320,192,35112,128,8,35352:0:0:0:0:
448,192,35112,1,0,0:0:0:0:
64,192,35272,128,0,35352:0:0:0:0:
192,192,35352,128,0,35433:0:0:0:0:
320,192,35433,128,0,35513:0:0:0:0:
448,192,35433,128,0,35673:0:0:0:0:
64,192,35593,128,2,35673:0:0:0:0:
192,192,35593,128,0,35753:0:0:0:0:
320,192,35753,128,8,35994:0:0:0:0:
448,192,35753,128,4,35834:0:0:0:0:
64,192,35914,128,2,36074:0:0:0:0:
192,192,35914,128,0,35994:0:0:0:0:
192,192,36074,1,2,0:0:0:0:
320,192,36074,1,4,0:0:0:0:
448,192,36074,1,0,0:0:0:0:
448,192,36235,1,0,0:0:0:0:
64,192,36395,1,2,0:0:0:0:
192,192,36395,1,0,0:0:0:0:
320,192,36395,1,0,0:0:0:0:
64,192,36556,1,0,0:0:0:0:
192,192,36716,1,2,0:0:0:0:
320,192,36716,1,4,0:0:0:0:
448,192,36716,1,0,0:0:0:0:
192,192,36876,1,0,0:0:0:0:
320,192,36957,1,0,0:0:0:0:
64,192,37037,1,2,0:0:0:0:
192,192,37037,1,0,0:0:0:0:
448,192,37037,1,0,0:0:0:0:
320,192,37117,1,0,0:0:0:0:
64,192,37197,1,2,0:0:0:0:
448,192,37197,1,0,0:0:0:0:
64,192,37358,1,2,0:0:0:0:
192,192,37358,1,4,0:0:0:0:
448,192,37358,1,0,0:0:0:0:
192,192,37518,1,0,0:0:0:0:
64,192,37679,1,2,0:0:0:0:
320,192,37679,1,0,0:0:0:0:
448,192,37679,1,0,0:0:0:0:
64,192,37839,1,0,0:0:0:0:
192,192,37999,1,2,0:0:0:0:
320,192,37999,1,4,0:0:0:0:
448,192,37999,1,0,0:0:0:0:
320,192,38160,1,0,0:0:0:0:
64,192,38320,1,2,0:0:0:0:
192,192,38320,1,0,0:0:0:0:
448,192,38320,1,0,0:0:0:0:
64,192,38481,1,2,0:0:0:0:
320,192,38481,1,0,0:0:0:0:
192,192,38641,1,2,0:0:0:0:
320,192,38641,1,4,0:0:0:0:
448,192,38721,1,2,0:0:0:0:
64,192,38802,1,2,0:0:0:0:
192,192,38802,1,0,0:0:0:0:
320,192,38882,1,2,0:0:0:0:
64,192,38962,1,2,0:0:0:0:
448,192,38962,1,0,0:0:0:0:
192,192,39042,1,2,0:0:0:0:
320,192,39122,1,2,0:0:0:0:
448,192,39122,1,0,0:0:0:0:
64,192,39203,1,2,0:0:0:0:
192,192,39283,1,2,0:0:0:0:
320,192,39283,1,0,0:0:0:0:
448,192,39363,1,2,0:0:0:0:
64,192,39443,1,2,0:0:0:0:
192,192,39443,1,0,0:0:0:0:
448,192,39524,1,2,0:0:0:0:
64,192,39604,1,2,0:0:0:0:
192,192,39604,1,0,0:0:0:0:
320,192,39684,1,2,0:0:0:0:
64,192,39764,1,2,0:0:0:0:
448,192,39764,1,0,0:0:0:0:
192,192,39844,1,2,0:0:0:0:
64,192,39925,128,2,40165:0:0:0:0:
320,192,39925,1,0,0:0:0:0:
448,192,39925,1,0,0:0:0:0:
320,192,40085,128,8,40245:0:0:0:0:
448,192,40085,1,0,0:0:0:0:
64,192,40245,1,8,0:0:0:0:
192,192,40245,128,0,40486:0:0:0:0:
448,192,40406,128,0,40566:0:0:0:0:
64,192,40566,128,0,40807:0:0:0:0:
320,192,40566,1,0,0:0:0:0:
192,192,40727,1,2,0:0:0:0:
320,192,40727,1,0,0:0:0:0:
64,192,40887,1,8,0:0:0:0:
192,192,40887,128,0,41048:0:0:0:0:
448,192,40887,1,0,0:0:0:0:
320,192,41048,128,0,41208:0:0:0:0:
64,192,41208,1,4,0:0:0:0:
192,192,41208,1,2,0:0:0:0:
448,192,41208,1,0,0:0:0:0:
192,192,41368,1,0,0:0:0:0:
320,192,41449,1,0,0:0:0:0:
448,192,41449,1,0,0:0:0:0:
64,192,41529,1,8,0:0:0:0:
192,192,41529,1,0,0:0:0:0:
320,192,41689,1,0,0:0:0:0:
448,192,41689,1,0,0:0:0:0:
320,192,41850,1,0,0:0:0:0:
448,192,41850,1,0,0:0:0:0:
64,192,41930,1,0,0:0:0:0:
192,192,42010,1,2,0:0:0:0:
320,192,42010,1,0,0:0:0:0:
64,192,42171,1,8,0:0:0:0:
192,192,42171,1,0,0:0:0:0:
448,192,42171,1,0,0:0:0:0:
64,192,42331,1,0,0:0:0:0:
448,192,42331,1,0,0:0:0:0:
192,192,42491,1,2,0:0:0:0:
320,192,42491,1,0,0:0:0:0:
448,192,42652,1,0,0:0:0:0:
64,192,42812,1,8,0:0:0:0:
192,192,42812,1,0,0:0:0:0:
320,192,42812,1,0,0:0:0:0:
448,192,42973,1,0,0:0:0:0:
64,192,43053,1,0,0:0:0:0:
192,192,43133,1,0,0:0:0:0:
320,192,43133,1,0,0:0:0:0:
448,192,43213,1,0,0:0:0:0:
64,192,43294,1,2,0:0:0:0:
192,192,43294,1,0,0:0:0:0:
320,192,43374,1,0,0:0:0:0:
448,192,43374,1,0,0:0:0:0:
64,192,43454,1,8,0:0:0:0:
192,192,43454,1,0,0:0:0:0:
320,192,43614,1,0,0:0:0:0:
448,192,43614,1,0,0:0:0:0:
64,192,43775,1,2,0:0:0:0:
448,192,43775,1,0,0:0:0:0:
320,192,43935,1,0,0:0:0:0:
64,192,44016,1,0,0:0:0:0:
192,192,44016,1,0,0:0:0:0:
320,192,44096,1,8,0:0:0:0:
448,192,44096,1,0,0:0:0:0:
64,192,44256,1,0,0:0:0:0:
192,192,44256,1,0,0:0:0:0:
64,192,44417,1,0,0:0:0:0:
192,192,44417,1,0,0:0:0:0:
448,192,44497,1,0,0:0:0:0:
192,192,44577,1,2,0:0:0:0:
320,192,44577,1,0,0:0:0:0:
64,192,44737,1,8,0:0:0:0:
320,192,44737,1,0,0:0:0:0:
448,192,44737,1,0,0:0:0:0:
64,192,44898,1,0,0:0:0:0:
192,192,44898,1,0,0:0:0:0:
320,192,45058,128,2,45299:0:0:0:0:
448,192,45058,1,0,0:0:0:0:
64,192,45219,128,0,45379:0:0:0:0:
192,192,45379,128,8,45620:0:0:0:0:
320,192,45379,1,0,0:0:0:0:
448,192,45379,1,0,0:0:0:0:
448,192,45540,128,0,45700:0:0:0:0:
64,192,45700,128,0,45941:0:0:0:0:
192,192,45700,1,0,0:0:0:0:
320,192,45780,1,0,0:0:0:0:
192,192,45860,1,2,0:0:0:0:
320,192,45941,1,0,0:0:0:0:
64,192,46021,1,8,0:0:0:0:
192,192,46021,1,0,0:0:0:0:
448,192,46021,128,0,46342:0:0:0:0:
320,192,46181,128,0,46342:0:0:0:0:
64,192,46342,1,2,0:0:0:0:
192,192,46342,1,0,0:0:0:0:
448,192,46502,1,0,0:0:0:0:
64,192,46582,1,0,0:0:0:0:
192,192,46582,1,0,0:0:0:0:
320,192,46663,1,8,0:0:0:0:
448,192,46663,1,0,0:0:0:0:
64,192,46823,1,0,0:0:0:0:
192,192,46823,1,0,0:0:0:0:
64,192,46983,1,0,0:0:0:0:
192,192,46983,1,0,0:0:0:0:
448,192,47064,1,0,0:0:0:0:
192,192,47144,1,2,0:0:0:0:
320,192,47144,1,0,0:0:0:0:
64,192,47304,1,8,0:0:0:0:
320,192,47304,1,0,0:0:0:0:
448,192,47304,1,0,0:0:0:0:
64,192,47465,1,0,0:0:0:0:
448,192,47465,1,0,0:0:0:0:
192,192,47625,1,2,0:0:0:0:
320,192,47625,1,0,0:0:0:0:
64,192,47786,1,0,0:0:0:0:
192,192,47946,1,8,0:0:0:0:
320,192,47946,1,0,0:0:0:0:
448,192,47946,1,0,0:0:0:0:
64,192,48106,1,0,0:0:0:0:
448,192,48187,1,0,0:0:0:0:
192,192,48267,1,0,0:0:0:0:
320,192,48267,1,0,0:0:0:0:
64,192,48347,1,0,0:0:0:0:
320,192,48427,1,2,0:0:0:0:
448,192,48427,1,0,0:0:0:0:
64,192,48507,1,0,0:0:0:0:
192,192,48507,1,0,0:0:0:0:
320,192,48588,1,8,0:0:0:0:
448,192,48588,1,0,0:0:0:0:
64,192,48748,1,0,0:0:0:0:
192,192,48748,1,0,0:0:0:0:
64,192,48909,1,2,0:0:0:0:
448,192,48909,1,0,0:0:0:0:
192,192,49069,1,0,0:0:0:0:
320,192,49149,1,0,0:0:0:0:
448,192,49149,1,0,0:0:0:0:
64,192,49229,1,8,0:0:0:0:
192,192,49229,1,0,0:0:0:0:
320,192,49390,1,0,0:0:0:0:
448,192,49390,1,0,0:0:0:0:
320,192,49550,1,0,0:0:0:0:
448,192,49550,1,0,0:0:0:0:
64,192,49630,1,0,0:0:0:0:
192,192,49711,1,2,0:0:0:0:
320,192,49711,1,0,0:0:0:0:
64,192,49871,1,8,0:0:0:0:
192,192,49871,1,0,0:0:0:0:
448,192,49871,1,0,0:0:0:0:
320,192,50032,1,0,0:0:0:0:
448,192,50032,1,0,0:0:0:0:
64,192,50192,1,2,0:0:0:0:
192,192,50192,128,0,50433:0:0:0:0:
448,192,50352,128,0,50513:0:0:0:0:
64,192,50513,1,8,0:0:0:0:
192,192,50513,1,0,0:0:0:0:
320,192,50513,128,0,50753:0:0:0:0:
64,192,50673,128,0,50834:0:0:0:0:
320,192,50834,1,0,0:0:0:0:
448,192,50834,128,0,51074:0:0:0:0:
192,192,50914,1,0,0:0:0:0:
320,192,50994,1,2,0:0:0:0:
192,192,51074,1,0,0:0:0:0:
64,192,51155,128,8,51475:0:0:0:0:
320,192,51155,1,0,0:0:0:0:
448,192,51155,1,0,0:0:0:0:
192,192,51315,128,0,51475:0:0:0:0:
320,192,51475,1,4,0:0:0:0:
448,192,51475,1,2,0:0:0:0:
192,192,51636,1,0,0:0:0:0:
320,192,51716,1,0,0:0:0:0:
448,192,51716,1,0,0:0:0:0:
64,192,51796,1,8,0:0:0:0:
192,192,51796,1,2,0:0:0:0:
320,192,51957,1,0,0:0:0:0:
448,192,51957,1,0,0:0:0:0:
320,192,52117,1,2,0:0:0:0:
448,192,52117,128,0,52197:0:0:0:0:
64,192,52278,128,0,52358:0:0:0:0:
192,192,52278,1,0,0:0:0:0:
320,192,52358,1,0,0:0:0:0:
64,192,52438,1,8,0:0:0:0:
192,192,52438,1,2,0:0:0:0:
448,192,52438,1,0,0:0:0:0:
320,192,52598,128,0,52679:0:0:0:0:
448,192,52598,1,0,0:0:0:0:
64,192,52759,1,2,0:0:0:0:
192,192,52759,128,0,52839:0:0:0:0:
320,192,52919,1,0,0:0:0:0:
448,192,52919,128,0,52999:0:0:0:0:
192,192,52999,1,0,0:0:0:0:
64,192,53080,1,8,0:0:0:0:
320,192,53080,1,2,0:0:0:0:
448,192,53080,1,0,0:0:0:0:
64,192,53240,128,0,53320:0:0:0:0:
192,192,53240,1,0,0:0:0:0:
320,192,53401,1,2,0:0:0:0:
448,192,53401,1,0,0:0:0:0:
64,192,53561,128,0,53641:0:0:0:0:
192,192,53561,1,0,0:0:0:0:
320,192,53641,1,0,0:0:0:0:
64,192,53721,1,8,0:0:0:0:
192,192,53721,1,2,0:0:0:0:
448,192,53721,128,0,53802:0:0:0:0:
64,192,53882,1,0,0:0:0:0:
320,192,53882,128,0,53962:0:0:0:0:
192,192,54042,128,2,54122:0:0:0:0:
448,192,54042,1,0,0:0:0:0:
320,192,54203,1,0,0:0:0:0:
192,192,54283,1,0,0:0:0:0:
64,192,54363,1,8,0:0:0:0:
320,192,54363,128,2,54443:0:0:0:0:
448,192,54363,1,0,0:0:0:0:
64,192,54524,1,0,0:0:0:0:
192,192,54524,128,0,54604:0:0:0:0:
320,192,54684,1,2,0:0:0:0:
448,192,54684,128,0,54764:0:0:0:0:
64,192,54844,128,0,54925:0:0:0:0:
192,192,54844,1,0,0:0:0:0:
320,192,54925,1,0,0:0:0:0:
64,192,55005,1,8,0:0:0:0:
192,192,55005,1,2,0:0:0:0:
448,192,55005,128,0,55085:0:0:0:0:
320,192,55165,1,0,0:0:0:0:
64,192,55326,128,2,55406:0:0:0:0:
192,192,55326,1,0,0:0:0:0:
320,192,55486,1,0,0:0:0:0:
448,192,55486,128,0,55566:0:0:0:0:
192,192,55566,1,0,0:0:0:0:
64,192,55647,1,8,0:0:0:0:
320,192,55647,1,2,0:0:0:0:
448,192,55647,1,0,0:0:0:0:
64,192,55807,1,0,0:0:0:0:
192,192,55807,128,0,55887:0:0:0:0:
64,192,55967,128,2,56048:0:0:0:0:
320,192,55967,1,0,0:0:0:0:
192,192,56128,1,0,0:0:0:0:
448,192,56128,1,0,0:0:0:0:
64,192,56288,1,8,0:0:0:0:
320,192,56288,1,2,0:0:0:0:
448,192,56288,128,0,56368:0:0:0:0:
192,192,56449,1,0,0:0:0:0:
320,192,56449,1,0,0:0:0:0:
448,192,56529,1,0,0:0:0:0:
64,192,56609,1,2,0:0:0:0:
192,192,56609,1,0,0:0:0:0:
320,192,56770,1,0,0:0:0:0:
64,192,56850,1,0,0:0:0:0:
192,192,56850,1,0,0:0:0:0:
320,192,56930,1,8,0:0:0:0:
448,192,56930,1,2,0:0:0:0:
64,192,57090,1,0,0:0:0:0:
192,192,57090,1,0,0:0:0:0:
64,192,57251,128,2,57331:0:0:0:0:
192,192,57251,1,0,0:0:0:0:
320,192,57411,1,0,0:0:0:0:
448,192,57411,128,0,57491:0:0:0:0:
192,192,57491,1,0,0:0:0:0:
64,192,57572,1,8,0:0:0:0:
320,192,57572,1,2,0:0:0:0:
448,192,57572,1,0,0:0:0:0:
64,192,57732,1,0,0:0:0:0:
192,192,57732,128,0,57812:0:0:0:0:
320,192,57893,128,2,57973:0:0:0:0:
448,192,57893,1,0,0:0:0:0:
64,192,58053,128,0,58133:0:0:0:0:
192,192,58053,1,0,0:0:0:0:
320,192,58133,1,0,0:0:0:0:
64,192,58213,1,8,0:0:0:0:
192,192,58213,1,2,0:0:0:0:
448,192,58213,1,0,0:0:0:0:
320,192,58374,1,0,0:0:0:0:
448,192,58374,128,0,58454:0:0:0:0:
64,192,58454,1,0,0:0:0:0:
192,192,58534,1,2,0:0:0:0:
320,192,58534,1,0,0:0:0:0:
64,192,58695,128,0,58775:0:0:0:0:
192,192,58695,1,0,0:0:0:0:
320,192,58775,1,0,0:0:0:0:
64,192,58855,1,8,0:0:0:0:
192,192,58855,1,2,0:0:0:0:
448,192,58855,128,0,58935:0:0:0:0:
192,192,59016,1,0,0:0:0:0:
320,192,59016,128,0,59096:0:0:0:0:
64,192,59176,128,2,59256:0:0:0:0:
448,192,59176,1,0,0:0:0:0:
192,192,59336,1,0,0:0:0:0:
320,192,59417,1,0,0:0:0:0:
64,192,59497,1,8,0:0:0:0:
192,192,59497,128,2,59577:0:0:0:0:
448,192,59497,1,0,0:0:0:0:
320,192,59657,128,0,59737:0:0:0:0:
448,192,59657,1,0,0:0:0:0:
64,192,59818,128,2,59898:0:0:0:0:
192,192,59818,1,0,0:0:0:0:
320,192,59978,1,0,0:0:0:0:
448,192,59978,128,0,60058:0:0:0:0:
192,192,60058,1,0,0:0:0:0:
64,192,60138,128,8,60219:0:0:0:0:
320,192,60138,1,2,0:0:0:0:
448,192,60138,1,0,0:0:0:0:
192,192,60299,1,0,0:0:0:0:
64,192,60459,1,8,0:0:0:0:
320,192,60459,128,2,60540:0:0:0:0:
448,192,60459,128,0,60700:0:0:0:0:
64,192,60620,128,0,60700:0:0:0:0:
192,192,60620,128,0,60780:0:0:0:0:
320,192,60780,128,8,61021:0:0:0:0:
448,192,60780,1,2,0:0:0:0:
64,192,60941,128,0,61101:0:0:0:0:
192,192,60941,128,0,61021:0:0:0:0:
320,192,61101,128,8,61181:0:0:0:0:
448,192,61101,128,2,61342:0:0:0:0:
64,192,61261,128,0,61342:0:0:0:0:
192,192,61261,128,0,61422:0:0:0:0:
320,192,61422,128,8,61663:0:0:0:0:
448,192,61422,128,2,61502:0:0:0:0:
64,192,61582,128,8,61743:0:0:0:0:
192,192,61582,128,0,61663:0:0:0:0:
192,192,61743,1,8,0:0:0:0:
320,192,61743,1,2,0:0:0:0:
448,192,61743,1,4,0:0:0:0:
192,192,61903,1,0,0:0:0:0:
320,192,61983,1,0,0:0:0:0:
448,192,61983,1,0,0:0:0:0:
64,192,62064,1,8,0:0:0:0:
192,192,62064,1,2,0:0:0:0:
320,192,62224,1,0,0:0:0:0:
448,192,62224,1,0,0:0:0:0:
320,192,62384,1,2,0:0:0:0:
448,192,62384,128,0,62465:0:0:0:0:
64,192,62545,128,0,62625:0:0:0:0:
192,192,62545,1,0,0:0:0:0:
320,192,62625,1,0,0:0:0:0:
64,192,62705,1,8,0:0:0:0:
192,192,62705,1,2,0:0:0:0:
448,192,62705,1,0,0:0:0:0:
320,192,62866,1,0,0:0:0:0:
448,192,62866,128,0,62946:0:0:0:0:
64,192,63026,128,2,63106:0:0:0:0:
192,192,63026,1,0,0:0:0:0:
320,192,63187,1,0,0:0:0:0:
448,192,63187,128,0,63267:0:0:0:0:
192,192,63267,1,0,0:0:0:0:
64,192,63347,1,8,0:0:0:0:
320,192,63347,1,2,0:0:0:0:
448,192,63347,1,0,0:0:0:0:
64,192,63507,128,0,63588:0:0:0:0:
192,192,63507,1,0,0:0:0:0:
320,192,63668,1,2,0:0:0:0:
448,192,63668,1,0,0:0:0:0:
64,192,63828,128,0,63909:0:0:0:0:
192,192,63828,1,0,0:0:0:0:
320,192,63909,1,0,0:0:0:0:
64,192,63989,1,8,0:0:0:0:
192,192,63989,1,2,0:0:0:0:
448,192,63989,128,0,64069:0:0:0:0:
320,192,64149,128,0,64229:0:0:0:0:
64,192,64310,1,2,0:0:0:0:
192,192,64310,128,0,64390:0:0:0:0:
320,192,64470,1,0,0:0:0:0:
192,192,64550,1,0,0:0:0:0:
64,192,64630,1,8,0:0:0:0:
320,192,64630,128,2,64711:0:0:0:0:
448,192,64630,1,0,0:0:0:0:
64,192,64791,1,0,0:0:0:0:
192,192,64791,128,0,64871:0:0:0:0:
320,192,64951,1,2,0:0:0:0:
448,192,64951,128,0,65032:0:0:0:0:
64,192,65112,128,0,65192:0:0:0:0:
192,192,65112,1,0,0:0:0:0:
320,192,65192,1,0,0:0:0:0:
64,192,65272,1,8,0:0:0:0:
192,192,65272,1,2,0:0:0:0:
448,192,65272,128,0,65352:0:0:0:0:
320,192,65433,1,0,0:0:0:0:
64,192,65593,128,2,65834:0:0:0:0:
192,192,65593,128,0,65673:0:0:0:0:
448,192,65593,1,0,0:0:0:0:
320,192,65753,128,0,65914:0:0:0:0:
448,192,65753,128,0,65834:0:0:0:0:
64,192,65914,1,8,0:0:0:0:
192,192,65914,128,2,66155:0:0:0:0:
320,192,66074,128,0,66155:0:0:0:0:
448,192,66074,128,0,66235:0:0:0:0:
64,192,66235,128,2,66475:0:0:0:0:
192,192,66235,128,0,66315:0:0:0:0:
320,192,66395,128,0,66556:0:0:0:0:
448,192,66395,1,0,0:0:0:0:
64,192,66556,128,8,66636:0:0:0:0:
192,192,66556,128,2,66796:0:0:0:0:
320,192,66716,1,0,0:0:0:0:
448,192,66716,128,0,66876:0:0:0:0:
64,192,66876,1,8,0:0:0:0:
192,192,66876,1,2,0:0:0:0:
320,192,67037,1,0,0:0:0:0:
64,192,67197,1,8,0:0:0:0:
192,192,67197,1,2,0:0:0:0:
448,192,67197,1,0,0:0:0:0:
192,192,67358,1,0,0:0:0:0:
64,192,67518,128,8,67598:0:0:0:0:
320,192,67518,1,2,0:0:0:0:
448,192,67518,1,0,0:0:0:0:
320,192,67679,128,0,67759:0:0:0:0:
64,192,67839,1,8,0:0:0:0:
192,192,67839,1,2,0:0:0:0:
448,192,67839,1,0,0:0:0:0:
192,192,67999,128,0,68080:0:0:0:0:
64,192,68160,1,2,0:0:0:0:
320,192,68160,128,8,68240:0:0:0:0:
448,192,68160,1,0,0:0:0:0:
448,192,68320,128,0,68401:0:0:0:0:
64,192,68481,1,8,0:0:0:0:
192,192,68481,1,2,0:0:0:0:
320,192,68481,1,0,0:0:0:0:
64,192,68641,128,0,68721:0:0:0:0:
192,192,68802,1,8,0:0:0:0:
320,192,68802,1,2,0:0:0:0:
448,192,68802,1,0,0:0:0:0:
448,192,68962,128,0,69042:0:0:0:0:
64,192,69122,1,8,0:0:0:0:
192,192,69122,1,2,0:0:0:0:
320,192,69122,128,0,69203:0:0:0:0:
192,192,69283,128,0,69363:0:0:0:0:
320,192,69443,1,8,0:0:0:0:
448,192,69443,1,2,0:0:0:0:
192,192,69524,1,0,0:0:0:0:
64,192,69604,1,2,0:0:0:0:
448,192,69604,1,0,0:0:0:0:
320,192,69684,1,0,0:0:0:0:
64,192,69764,1,2,0:0:0:0:
192,192,69764,1,0,0:0:0:0:
448,192,69844,1,0,0:0:0:0:
64,192,69925,1,2,0:0:0:0:
192,192,69925,1,0,0:0:0:0:
320,192,70005,1,0,0:0:0:0:
64,192,70085,1,2,0:0:0:0:
448,192,70085,1,0,0:0:0:0:
192,192,70165,1,0,0:0:0:0:
320,192,70245,1,2,0:0:0:0:
448,192,70245,1,0,0:0:0:0:
64,192,70326,1,0,0:0:0:0:
192,192,70406,1,2,0:0:0:0:
320,192,70406,1,0,0:0:0:0:
448,192,70486,1,0,0:0:0:0:
64,192,70566,1,2,0:0:0:0:
192,192,70566,1,0,0:0:0:0:
320,192,70647,1,0,0:0:0:0:
64,192,70727,128,2,70967:0:0:0:0:
192,192,70727,128,8,70807:0:0:0:0:
448,192,70727,1,0,0:0:0:0:
320,192,70887,128,0,71048:0:0:0:0:
448,192,70887,128,0,70967:0:0:0:0:
64,192,71048,1,8,0:0:0:0:
192,192,71048,128,2,71288:0:0:0:0:
320,192,71208,128,0,71288:0:0:0:0:
448,192,71208,128,0,71368:0:0:0:0:
64,192,71368,128,8,71609:0:0:0:0:
192,192,71368,128,2,71449:0:0:0:0:
320,192,71529,128,0,71609:0:0:0:0:
448,192,71529,128,0,71689:0:0:0:0:
64,192,71689,128,2,71770:0:0:0:0:
192,192,71689,128,0,71930:0:0:0:0:
320,192,71850,128,0,71930:0:0:0:0:
448,192,71850,128,0,72010:0:0:0:0:
64,192,72010,1,2,0:0:0:0:
192,192,72010,1,4,0:0:0:0:
320,192,72010,1,0,0:0:0:0:
64,192,72331,1,8,0:0:0:0:
192,192,72331,1,0,0:0:0:0:
320,192,72331,1,0,0:0:0:0:
320,192,72491,1,0,0:0:0:0:
448,192,72491,1,0,0:0:0:0:
64,192,72572,1,0,0:0:0:0:
192,192,72652,1,0,0:0:0:0:
448,192,72732,1,0,0:0:0:0:
64,192,72812,1,2,0:0:0:0:
192,192,72812,1,0,0:0:0:0:
320,192,72893,1,0,0:0:0:0:
64,192,72973,1,8,0:0:0:0:
192,192,72973,1,0,0:0:0:0:
448,192,72973,1,0,0:0:0:0:
320,192,73133,1,0,0:0:0:0:
448,192,73133,1,0,0:0:0:0:
64,192,73294,1,2,0:0:0:0:
192,192,73294,1,0,0:0:0:0:
192,192,73454,1,0,0:0:0:0:
320,192,73454,1,0,0:0:0:0:
64,192,73614,1,8,0:0:0:0:
320,192,73614,1,0,0:0:0:0:
448,192,73614,1,0,0:0:0:0:
64,192,73775,1,0,0:0:0:0:
192,192,73775,1,0,0:0:0:0:
448,192,73855,1,0,0:0:0:0:
192,192,73935,1,0,0:0:0:0:
320,192,73935,1,0,0:0:0:0:
64,192,74016,1,0,0:0:0:0:
320,192,74096,1,2,0:0:0:0:
448,192,74096,1,0,0:0:0:0:
192,192,74176,1,0,0:0:0:0:
64,192,74256,1,8,0:0:0:0:
320,192,74256,1,0,0:0:0:0:
448,192,74256,1,0,0:0:0:0:
64,192,74417,1,0,0:0:0:0:
192,192,74417,1,0,0:0:0:0:
320,192,74577,1,2,0:0:0:0:
448,192,74577,1,0,0:0:0:0:
192,192,74737,1,0,0:0:0:0:
64,192,74898,1,8,0:0:0:0:
320,192,74898,1,0,0:0:0:0:
448,192,74898,1,0,0:0:0:0:
64,192,75058,1,0,0:0:0:0:
192,192,75058,1,0,0:0:0:0:
448,192,75138,1,0,0:0:0:0:
320,192,75219,1,0,0:0:0:0:
64,192,75299,1,0,0:0:0:0:
320,192,75379,1,2,0:0:0:0:
448,192,75379,1,0,0:0:0:0:
192,192,75459,1,0,0:0:0:0:
64,192,75540,1,8,0:0:0:0:
320,192,75540,1,0,0:0:0:0:
448,192,75540,1,0,0:0:0:0:
64,192,75700,1,0,0:0:0:0:
192,192,75700,1,0,0:0:0:0:
448,192,75780,1,0,0:0:0:0:
192,192,75860,1,2,0:0:0:0:
320,192,75860,1,0,0:0:0:0:
64,192,76021,1,0,0:0:0:0:
320,192,76021,1,0,0:0:0:0:
64,192,76181,1,8,0:0:0:0:
192,192,76181,1,0,0:0:0:0:
448,192,76181,1,0,0:0:0:0:
320,192,76342,1,0,0:0:0:0:
448,192,76342,1,0,0:0:0:0:
64,192,76422,1,0,0:0:0:0:
192,192,76502,1,0,0:0:0:0:
448,192,76582,1,0,0:0:0:0:
64,192,76663,1,2,0:0:0:0:
192,192,76663,1,0,0:0:0:0:
320,192,76743,1,0,0:0:0:0:
64,192,76823,1,8,0:0:0:0:
192,192,76823,1,0,0:0:0:0:
448,192,76823,1,0,0:0:0:0:
320,192,76983,1,0,0:0:0:0:
448,192,76983,1,0,0:0:0:0:
64,192,77144,1,2,0:0:0:0:
192,192,77144,1,0,0:0:0:0:
192,192,77304,1,0,0:0:0:0:
64,192,77465,1,8,0:0:0:0:
320,192,77465,1,0,0:0:0:0:
448,192,77465,1,0,0:0:0:0:
64,192,77625,1,0,0:0:0:0:
192,192,77625,1,0,0:0:0:0:
448,192,77705,1,0,0:0:0:0:
320,192,77786,1,0,0:0:0:0:
64,192,77866,1,0,0:0:0:0:
320,192,77946,1,2,0:0:0:0:
448,192,77946,1,0,0:0:0:0:
192,192,78026,1,0,0:0:0:0:
64,192,78106,1,8,0:0:0:0:
320,192,78106,1,0,0:0:0:0:
448,192,78106,1,0,0:0:0:0:
64,192,78267,1,0,0:0:0:0:
192,192,78267,1,0,0:0:0:0:
320,192,78427,1,2,0:0:0:0:
448,192,78427,1,0,0:0:0:0:
64,192,78588,1,0,0:0:0:0:
448,192,78588,1,0,0:0:0:0:
64,192,78748,1,8,0:0:0:0:
192,192,78748,1,0,0:0:0:0:
320,192,78748,1,0,0:0:0:0:
320,192,78909,1,0,0:0:0:0:
448,192,78909,1,0,0:0:0:0:
64,192,78989,1,0,0:0:0:0:
192,192,79069,1,0,0:0:0:0:
320,192,79069,1,0,0:0:0:0:
448,192,79149,1,0,0:0:0:0:
64,192,79229,1,2,0:0:0:0:
192,192,79229,1,0,0:0:0:0:
320,192,79310,1,0,0:0:0:0:
64,192,79390,1,8,0:0:0:0:
192,192,79390,1,0,0:0:0:0:
448,192,79390,1,0,0:0:0:0:
192,192,79550,1,0,0:0:0:0:
320,192,79550,1,0,0:0:0:0:
320,192,79711,1,2,0:0:0:0:
448,192,79711,1,0,0:0:0:0:
192,192,79871,1,0,0:0:0:0:
64,192,80032,1,8,0:0:0:0:
320,192,80032,1,0,0:0:0:0:
448,192,80032,1,0,0:0:0:0:
64,192,80192,1,0,0:0:0:0:
192,192,80192,1,0,0:0:0:0:
448,192,80272,1,0,0:0:0:0:
320,192,80352,1,0,0:0:0:0:
64,192,80433,1,0,0:0:0:0:
320,192,80513,1,2,0:0:0:0:
448,192,80513,1,0,0:0:0:0:
192,192,80593,1,0,0:0:0:0:
320,192,80673,1,8,0:0:0:0:
64,192,80673,1,0,0:0:0:0:
448,192,80673,1,0,0:0:0:0:
192,192,80834,1,0,0:0:0:0:
64,192,80834,1,0,0:0:0:0:
448,192,80914,1,0,0:0:0:0:
320,192,80994,1,2,0:0:0:0:
192,192,80994,1,0,0:0:0:0:
64,192,81155,1,0,0:0:0:0:
448,192,81155,1,0,0:0:0:0:
64,192,81315,1,8,0:0:0:0:
320,192,81315,1,0,0:0:0:0:
192,192,81315,1,0,0:0:0:0:
448,192,81475,1,0,0:0:0:0:
320,192,81475,1,0,0:0:0:0:
64,192,81556,1,0,0:0:0:0:
192,192,81636,1,0,0:0:0:0:
448,192,81716,1,0,0:0:0:0:
64,192,81796,1,2,0:0:0:0:
192,192,81796,1,0,0:0:0:0:
320,192,81876,1,0,0:0:0:0:
64,192,81957,1,8,0:0:0:0:
192,192,81957,1,0,0:0:0:0:
448,192,81957,1,0,0:0:0:0:
192,192,82117,1,0,0:0:0:0:
320,192,82117,1,0,0:0:0:0:
320,192,82278,1,2,0:0:0:0:
448,192,82278,1,0,0:0:0:0:
64,192,82438,1,0,0:0:0:0:
192,192,82598,1,8,0:0:0:0:
320,192,82598,1,2,0:0:0:0:
448,192,82598,1,0,0:0:0:0:
64,192,82759,1,0,0:0:0:0:
192,192,82759,1,0,0:0:0:0:
448,192,82839,1,0,0:0:0:0:
64,192,82919,1,2,0:0:0:0:
320,192,82919,1,0,0:0:0:0:
192,192,82999,1,0,0:0:0:0:
320,192,83080,1,0,0:0:0:0:
448,192,83080,1,0,0:0:0:0:
192,192,83160,1,0,0:0:0:0:
64,192,83240,1,8,0:0:0:0:
320,192,83240,1,2,0:0:0:0:
448,192,83240,1,0,0:0:0:0:
192,192,83401,1,0,0:0:0:0:
320,192,83401,1,0,0:0:0:0:
64,192,83561,1,2,0:0:0:0:
448,192,83561,1,0,0:0:0:0:
192,192,83721,1,0,0:0:0:0:
448,192,83721,1,0,0:0:0:0:
64,192,83882,1,8,0:0:0:0:
192,192,83882,1,2,0:0:0:0:
320,192,83882,1,0,0:0:0:0:
320,192,84042,1,0,0:0:0:0:
448,192,84042,1,0,0:0:0:0:
64,192,84122,1,0,0:0:0:0:
192,192,84203,1,2,0:0:0:0:
448,192,84203,1,0,0:0:0:0:
320,192,84283,1,0,0:0:0:0:
64,192,84363,1,0,0:0:0:0:
192,192,84363,1,0,0:0:0:0:
320,192,84443,1,0,0:0:0:0:
64,192,84524,1,8,0:0:0:0:
192,192,84524,1,2,0:0:0:0:
448,192,84524,1,0,0:0:0:0:
320,192,84684,1,0,0:0:0:0:
448,192,84684,1,0,0:0:0:0:
64,192,84844,1,2,0:0:0:0:
320,192,84844,1,0,0:0:0:0:
192,192,85005,1,0,0:0:0:0:
64,192,85165,1,8,0:0:0:0:
320,192,85165,1,2,0:0:0:0:
448,192,85165,1,0,0:0:0:0:
64,192,85326,1,0,0:0:0:0:
192,192,85326,1,0,0:0:0:0:
320,192,85406,1,0,0:0:0:0:
192,192,85486,1,2,0:0:0:0:
448,192,85486,1,0,0:0:0:0:
64,192,85566,1,0,0:0:0:0:
320,192,85647,1,0,0:0:0:0:
448,192,85647,1,0,0:0:0:0:
192,192,85727,1,0,0:0:0:0:
64,192,85807,1,8,0:0:0:0:
320,192,85807,1,2,0:0:0:0:
448,192,85807,1,0,0:0:0:0:
64,192,85967,1,0,0:0:0:0:
192,192,85967,1,0,0:0:0:0:
448,192,86048,1,0,0:0:0:0:
192,192,86128,1,2,0:0:0:0:
320,192,86128,1,0,0:0:0:0:
64,192,86288,1,0,0:0:0:0:
320,192,86288,1,0,0:0:0:0:
64,192,86449,1,8,0:0:0:0:
192,192,86449,1,2,0:0:0:0:
448,192,86449,1,0,0:0:0:0:
320,192,86609,1,0,0:0:0:0:
448,192,86609,1,0,0:0:0:0:
64,192,86689,1,0,0:0:0:0:
192,192,86770,1,2,0:0:0:0:
320,192,86770,1,0,0:0:0:0:
448,192,86850,1,0,0:0:0:0:
64,192,86930,1,0,0:0:0:0:
192,192,86930,1,0,0:0:0:0:
320,192,87010,1,0,0:0:0:0:
64,192,87090,1,8,0:0:0:0:
192,192,87090,1,2,0:0:0:0:
448,192,87090,1,0,0:0:0:0:
320,192,87251,1,0,0:0:0:0:
448,192,87251,1,0,0:0:0:0:
64,192,87411,1,2,0:0:0:0:
192,192,87411,1,8,0:0:0:0:
320,192,87411,1,0,0:0:0:0:
192,192,87572,1,0,0:0:0:0:
64,192,87732,1,8,0:0:0:0:
320,192,87732,1,2,0:0:0:0:
448,192,87732,1,0,0:0:0:0:
64,192,87893,1,0,0:0:0:0:
192,192,87893,1,0,0:0:0:0:
448,192,87973,1,0,0:0:0:0:
64,192,88053,1,2,0:0:0:0:
192,192,88053,1,8,0:0:0:0:
320,192,88053,1,0,0:0:0:0:
320,192,88213,1,0,0:0:0:0:
448,192,88213,1,0,0:0:0:0:
64,192,88294,1,0,0:0:0:0:
192,192,88374,1,8,0:0:0:0:
320,192,88374,1,2,0:0:0:0:
448,192,88374,1,0,0:0:0:0:
192,192,88534,1,0,0:0:0:0:
64,192,88695,1,2,0:0:0:0:
320,192,88695,1,8,0:0:0:0:
448,192,88695,1,0,0:0:0:0:
192,192,88855,1,0,0:0:0:0:
320,192,88855,1,0,0:0:0:0:
64,192,89016,1,8,0:0:0:0:
192,192,89016,1,2,0:0:0:0:
448,192,89016,1,0,0:0:0:0:
320,192,89176,1,0,0:0:0:0:
448,192,89176,1,0,0:0:0:0:
64,192,89256,1,0,0:0:0:0:
192,192,89336,1,8,0:0:0:0:
320,192,89336,1,2,0:0:0:0:
448,192,89336,1,0,0:0:0:0:
64,192,89497,1,0,0:0:0:0:
192,192,89497,1,0,0:0:0:0:
448,192,89577,1,0,0:0:0:0:
64,192,89657,1,8,0:0:0:0:
192,192,89657,1,2,0:0:0:0:
320,192,89657,1,0,0:0:0:0:
320,192,89818,1,0,0:0:0:0:
448,192,89818,1,0,0:0:0:0:
64,192,89978,1,8,0:0:0:0:
192,192,89978,1,2,0:0:0:0:
320,192,90058,1,0,0:0:0:0:
64,192,90138,1,2,0:0:0:0:
448,192,90138,1,0,0:0:0:0:
192,192,90219,1,0,0:0:0:0:
320,192,90299,1,2,0:0:0:0:
448,192,90299,1,0,0:0:0:0:
192,192,90379,1,0,0:0:0:0:
64,192,90459,1,2,0:0:0:0:
448,192,90459,1,0,0:0:0:0:
320,192,90540,1,0,0:0:0:0:
64,192,90620,1,2,0:0:0:0:
192,192,90620,1,0,0:0:0:0:
320,192,90700,1,0,0:0:0:0:
64,192,90780,1,2,0:0:0:0:
448,192,90780,1,0,0:0:0:0:
192,192,90860,1,0,0:0:0:0:
320,192,90941,1,2,0:0:0:0:
448,192,90941,1,0,0:0:0:0:
64,192,91021,1,0,0:0:0:0:
192,192,91101,1,2,0:0:0:0:
320,192,91101,1,0,0:0:0:0:
448,192,91181,1,0,0:0:0:0:
64,192,91261,1,2,0:0:0:0:
192,192,91261,1,0,0:0:0:0:
64,192,91422,1,0,0:0:0:0:
448,192,91422,1,0,0:0:0:0:
320,192,91582,1,0,0:0:0:0:
448,192,91582,1,0,0:0:0:0:
64,192,91743,1,0,0:0:0:0:
192,192,91743,1,0,0:0:0:0:
64,192,91903,1,0,0:0:0:0:
448,192,91903,1,0,0:0:0:0:
320,192,92064,1,0,0:0:0:0:
448,192,92064,1,0,0:0:0:0:
64,192,92224,1,0,0:0:0:0:
192,192,92224,1,0,0:0:0:0:
320,192,92384,1,0,0:0:0:0:
448,192,92384,1,0,0:0:0:0:
64,192,92545,1,4,0:0:0:0:
192,192,92545,128,0,93828:0:0:0:0:
64,192,93026,1,0,0:0:0:0:
320,192,93187,128,0,93828:0:0:0:0:
448,192,93187,1,0,0:0:0:0:
64,192,93347,1,0,0:0:0:0:
448,192,93507,1,0,0:0:0:0:
64,192,93828,128,0,94470:0:0:0:0:
448,192,93989,1,0,0:0:0:0:
320,192,94149,1,0,0:0:0:0:
192,192,94310,1,0,0:0:0:0:
320,192,94470,1,0,0:0:0:0:
448,192,94470,128,0,94791:0:0:0:0:
192,192,94630,1,0,0:0:0:0:
64,192,94791,1,0,0:0:0:0:
192,192,94791,128,0,95112:0:0:0:0:
320,192,94951,1,0,0:0:0:0:
64,192,95112,128,0,95753:0:0:0:0:
448,192,95112,1,0,0:0:0:0:
448,192,95433,1,0,0:0:0:0:
192,192,95593,1,0,0:0:0:0:
448,192,95753,128,0,96395:0:0:0:0:
320,192,95914,1,0,0:0:0:0:
64,192,96074,1,0,0:0:0:0:
320,192,96315,1,0,0:0:0:0:
64,192,96395,128,0,96636:0:0:0:0:
192,192,96395,1,0,0:0:0:0:
320,192,96556,128,0,96716:0:0:0:0:
448,192,96556,1,0,0:0:0:0:
64,192,96716,1,0,0:0:0:0:
192,192,96716,128,0,96957:0:0:0:0:
320,192,96876,1,0,0:0:0:0:
448,192,96876,128,0,97037:0:0:0:0:
64,192,97037,128,0,97278:0:0:0:0:
192,192,97037,1,0,0:0:0:0:
320,192,97197,128,0,97358:0:0:0:0:
64,192,97358,1,0,0:0:0:0:
448,192,97358,128,0,97679:0:0:0:0:
192,192,97518,1,0,0:0:0:0:
64,192,97679,1,0,0:0:0:0:
320,192,97679,128,0,98962:0:0:0:0:
64,192,97999,1,0,0:0:0:0:
448,192,98160,1,0,0:0:0:0:
192,192,98320,128,0,98962:0:0:0:0:
448,192,98481,1,0,0:0:0:0:
64,192,98641,1,0,0:0:0:0:
64,192,98962,1,0,0:0:0:0:
448,192,98962,128,0,99604:0:0:0:0:
192,192,99122,1,0,0:0:0:0:
320,192,99283,1,0,0:0:0:0:
64,192,99443,1,0,0:0:0:0:
192,192,99604,128,0,99925:0:0:0:0:
320,192,99604,1,0,0:0:0:0:
64,192,99764,1,0,0:0:0:0:
320,192,99925,128,0,100245:0:0:0:0:
448,192,99925,1,0,0:0:0:0:
64,192,100085,1,0,0:0:0:0:
192,192,100245,128,0,101208:0:0:0:0:
448,192,100245,1,0,0:0:0:0:
448,192,100566,1,0,0:0:0:0:
64,192,100727,1,0,0:0:0:0:
64,192,101048,1,0,0:0:0:0:
448,192,101208,1,0,0:0:0:0:
320,192,101449,1,0,0:0:0:0:
64,192,101529,128,0,101689:0:0:0:0:
448,192,101529,128,0,102652:0:0:0:0:
192,192,101689,128,0,101850:0:0:0:0:
320,192,101850,128,0,102010:0:0:0:0:
64,192,102010,128,0,102171:0:0:0:0:
192,192,102171,128,0,102331:0:0:0:0:
320,192,102331,128,0,102491:0:0:0:0:
64,192,102491,128,0,102652:0:0:0:0:
192,192,102652,128,0,103775:0:0:0:0:
320,192,102652,128,0,103775:0:0:0:0:
