osu file format v14

[General]
AudioFilename: audio.mp3
AudioLeadIn: 0
PreviewTime: 72010
Countdown: 0
SampleSet: Soft
StackLeniency: 0.7
Mode: 3
LetterboxInBreaks: 0
SpecialStyle: 0
WidescreenStoryboard: 0

[Editor]
Bookmarks: 20673
DistanceSpacing: 1.5
BeatDivisor: 4
GridSize: 32
TimelineZoom: 2

[Metadata]
Title:Paved Garden
TitleUnicode:Paved Garden
Artist:ginkiha
ArtistUnicode:ginkiha
Creator:Rakh
Version:Easy
Source:OverRapid
Tags:CROSSING DELTA rhythm video game dnb drum & bass electronic instrumental Featured Artist FA osu! Syadow-
BeatmapID:2530234
BeatmapSetID:1215941

[Difficulty]
HPDrainRate:7
CircleSize:4
OverallDifficulty:6.8
ApproachRate:5
SliderMultiplier:1.4
SliderTickRate:1

[Events]
//Background and Video events
0,0,"paved all diff.png",0,0
//Break Periods
//Storyboard Layer 0 (Background)
//Storyboard Layer 1 (Fail)
//Storyboard Layer 2 (Pass)
//Storyboard Layer 3 (Foreground)
//Storyboard Layer 4 (Overlay)
//Storyboard Sound Samples

[TimingPoints]
139,320.855614973262,4,2,1,65,1,0
19390,-100,4,2,1,70,0,0
20673,-100,4,2,1,60,0,0
29657,-100,4,2,1,70,0,0
30941,-100,4,2,1,80,0,0
41208,-100,4,2,1,80,0,1
51475,-100,4,2,1,80,0,0
72010,-100,4,2,1,80,0,1
92545,-100,4,2,1,70,0,0
92866,-100,4,2,1,60,0,0

[HitObjects]
64,192,139,128,0,780:0:0:0:0:
320,192,780,128,0,1422:0:0:0:0:
448,192,1422,128,0,2064:0:0:0:0:
192,192,2064,128,0,2384:0:0:0:0:
320,192,2384,128,0,2705:0:0:0:0:
64,192,2705,128,0,3347:0:0:0:0:
448,192,3347,128,0,3989:0:0:0:0:
64,192,3989,128,0,4310:0:0:0:0:
192,192,4310,128,0,4630:0:0:0:0:
320,192,4630,128,0,4951:0:0:0:0:
448,192,4951,128,0,5272:0:0:0:0:
192,192,5272,128,0,5914:0:0:0:0:
320,192,5914,128,0,6556:0:0:0:0:
64,192,6556,128,0,7197:0:0:0:0:
320,192,7197,128,0,7518:0:0:0:0:
192,192,7518,128,0,7839:0:0:0:0:
448,192,7839,128,0,8802:0:0:0:0:
64,192,9122,128,0,9443:0:0:0:0:
192,192,9443,128,0,9764:0:0:0:0:
320,192,9764,128,0,10085:0:0:0:0:
448,192,10085,128,0,10406:0:0:0:0:
64,192,10406,1,2,0:0:0:0:
192,192,10406,1,4,0:0:0:0:
320,192,10727,1,8,0:0:0:0:
192,192,11208,1,2,0:0:0:0:
448,192,11368,1,8,0:0:0:0:
320,192,11689,1,2,0:0:0:0:
64,192,12010,1,8,0:0:0:0:
448,192,12491,1,2,0:0:0:0:
192,192,12652,1,8,0:0:0:0:
64,192,12973,1,2,0:0:0:0:
320,192,13294,1,8,0:0:0:0:
192,192,13775,1,2,0:0:0:0:
448,192,13935,1,8,0:0:0:0:
64,192,14256,1,2,0:0:0:0:
192,192,14577,1,8,0:0:0:0:
320,192,14898,1,0,0:0:0:0:
64,192,15058,1,2,0:0:0:0:
448,192,15219,1,8,0:0:0:0:
320,192,15540,1,2,0:0:0:0:
64,192,15860,1,8,0:0:0:0:
448,192,16342,1,2,0:0:0:0:
192,192,16502,1,8,0:0:0:0:
64,192,16823,1,2,0:0:0:0:
320,192,17144,1,8,0:0:0:0:
192,192,17625,1,2,0:0:0:0:
448,192,17786,1,8,0:0:0:0:
320,192,18106,1,2,0:0:0:0:
64,192,18427,1,8,0:0:0:0:
448,192,18909,1,2,0:0:0:0:
192,192,19069,1,8,0:0:0:0:
448,192,19390,128,0,19711:0:0:0:0:
320,192,19711,128,0,20032:0:0:0:0:
192,192,20032,128,0,20352:0:0:0:0:
64,192,20352,128,0,20673:0:0:0:0:
320,192,20673,128,4,20994:0:0:0:0:
192,192,20994,128,0,21315:0:0:0:0:
448,192,21315,1,0,0:0:0:0:
64,192,21475,1,0,0:0:0:0:
448,192,21796,1,0,0:0:0:0:
64,192,21957,128,0,22438:0:0:0:0:
320,192,22438,128,0,22919:0:0:0:0:
448,192,22919,128,0,23240:0:0:0:0:
192,192,23240,128,0,23561:0:0:0:0:
320,192,23561,128,0,23882:0:0:0:0:
64,192,23882,1,0,0:0:0:0:
448,192,24042,1,0,0:0:0:0:
64,192,24363,1,0,0:0:0:0:
448,192,24524,128,0,24844:0:0:0:0:
192,192,24844,1,0,0:0:0:0:
320,192,25005,1,0,0:0:0:0:
64,192,25326,1,0,0:0:0:0:
448,192,25486,1,0,0:0:0:0:
320,192,25807,128,0,26128:0:0:0:0:
192,192,26128,128,0,26449:0:0:0:0:
448,192,26449,1,0,0:0:0:0:
64,192,26609,1,0,0:0:0:0:
448,192,26930,1,0,0:0:0:0:
64,192,27090,128,0,27411:0:0:0:0:
320,192,27411,128,0,27732:0:0:0:0:
192,192,27732,128,0,28053:0:0:0:0:
448,192,28053,128,0,28374:0:0:0:0:
64,192,28374,128,0,29016:0:0:0:0:
320,192,29336,128,0,29657:0:0:0:0:
64,192,29657,1,2,0:0:0:0:
192,192,29978,1,2,0:0:0:0:
320,192,30299,1,2,0:0:0:0:
448,192,30620,1,2,0:0:0:0:
64,192,30780,1,2,0:0:0:0:
320,192,30941,1,2,0:0:0:0:
448,192,30941,1,0,0:0:0:0:
192,192,31261,1,8,0:0:0:0:
448,192,31743,1,2,0:0:0:0:
192,192,31903,1,8,0:0:0:0:
320,192,32224,1,2,0:0:0:0:
64,192,32545,1,8,0:0:0:0:
320,192,33026,1,2,0:0:0:0:
192,192,33187,1,8,0:0:0:0:
448,192,33507,1,2,0:0:0:0:
64,192,33828,1,8,0:0:0:0:
192,192,34310,1,2,0:0:0:0:
320,192,34470,1,8,0:0:0:0:
64,192,34791,1,2,0:0:0:0:
192,192,35112,1,8,0:0:0:0:
320,192,35433,1,0,0:0:0:0:
64,192,35593,1,2,0:0:0:0:
448,192,35753,1,12,0:0:0:0:
320,192,35914,1,2,0:0:0:0:
192,192,36074,1,6,0:0:0:0:
320,192,36395,1,2,0:0:0:0:
64,192,36716,1,2,0:0:0:0:
192,192,36716,1,4,0:0:0:0:
320,192,37037,1,2,0:0:0:0:
192,192,37197,1,2,0:0:0:0:
64,192,37358,1,6,0:0:0:0:
448,192,37679,1,2,0:0:0:0:
64,192,37999,1,2,0:0:0:0:
192,192,37999,1,4,0:0:0:0:
448,192,38320,1,2,0:0:0:0:
320,192,38481,1,2,0:0:0:0:
192,192,38641,128,6,39283:0:0:0:0:
320,192,39283,128,2,39925:0:0:0:0:
64,192,39925,1,2,0:0:0:0:
192,192,40245,1,8,0:0:0:0:
320,192,40566,1,0,0:0:0:0:
64,192,40727,1,2,0:0:0:0:
448,192,40887,1,8,0:0:0:0:
64,192,41208,1,4,0:0:0:0:
192,192,41208,1,2,0:0:0:0:
320,192,41529,1,8,0:0:0:0:
64,192,42010,1,2,0:0:0:0:
448,192,42171,1,8,0:0:0:0:
320,192,42491,1,2,0:0:0:0:
192,192,42812,1,8,0:0:0:0:
448,192,43294,1,2,0:0:0:0:
64,192,43454,1,8,0:0:0:0:
320,192,43775,1,2,0:0:0:0:
192,192,44096,1,8,0:0:0:0:
448,192,44577,1,2,0:0:0:0:
64,192,44737,1,8,0:0:0:0:
192,192,45058,1,2,0:0:0:0:
320,192,45379,1,8,0:0:0:0:
448,192,45700,1,0,0:0:0:0:
64,192,45860,1,2,0:0:0:0:
320,192,46021,1,8,0:0:0:0:
192,192,46181,1,0,0:0:0:0:
64,192,46342,1,2,0:0:0:0:
448,192,46663,1,8,0:0:0:0:
64,192,47144,1,2,0:0:0:0:
448,192,47304,1,8,0:0:0:0:
320,192,47625,1,2,0:0:0:0:
192,192,47946,1,8,0:0:0:0:
64,192,48427,1,2,0:0:0:0:
448,192,48588,1,8,0:0:0:0:
192,192,48909,1,2,0:0:0:0:
320,192,49229,1,8,0:0:0:0:
64,192,49711,1,2,0:0:0:0:
448,192,49871,1,8,0:0:0:0:
320,192,50192,1,2,0:0:0:0:
192,192,50513,1,8,0:0:0:0:
64,192,50834,1,0,0:0:0:0:
448,192,50994,1,2,0:0:0:0:
192,192,51155,1,8,0:0:0:0:
320,192,51315,1,0,0:0:0:0:
448,192,51475,1,6,0:0:0:0:
64,192,51796,1,10,0:0:0:0:
448,192,52117,1,2,0:0:0:0:
64,192,52438,1,10,0:0:0:0:
320,192,52759,1,2,0:0:0:0:
192,192,53080,1,10,0:0:0:0:
320,192,53401,1,2,0:0:0:0:
192,192,53721,1,10,0:0:0:0:
448,192,54042,1,2,0:0:0:0:
192,192,54363,1,10,0:0:0:0:
448,192,54684,1,2,0:0:0:0:
192,192,55005,1,10,0:0:0:0:
64,192,55326,1,2,0:0:0:0:
320,192,55647,1,10,0:0:0:0:
64,192,55967,1,2,0:0:0:0:
320,192,56288,1,10,0:0:0:0:
192,192,56609,1,2,0:0:0:0:
448,192,56930,1,10,0:0:0:0:
192,192,57251,1,2,0:0:0:0:
448,192,57572,1,10,0:0:0:0:
320,192,57893,1,2,0:0:0:0:
64,192,58213,1,10,0:0:0:0:
320,192,58534,1,2,0:0:0:0:
64,192,58855,1,10,0:0:0:0:
192,192,59176,1,2,0:0:0:0:
320,192,59497,1,10,0:0:0:0:
192,192,59818,1,2,0:0:0:0:
320,192,60138,1,10,0:0:0:0:
448,192,60459,128,10,60780:0:0:0:0:
320,192,60780,128,10,61101:0:0:0:0:
192,192,61101,128,10,61422:0:0:0:0:
64,192,61422,128,10,61743:0:0:0:0:
320,192,61743,1,10,0:0:0:0:
448,192,61743,1,4,0:0:0:0:
192,192,62064,1,10,0:0:0:0:
320,192,62384,1,2,0:0:0:0:
64,192,62705,1,10,0:0:0:0:
448,192,63026,1,2,0:0:0:0:
192,192,63347,1,10,0:0:0:0:
320,192,63668,1,2,0:0:0:0:
64,192,63989,1,10,0:0:0:0:
192,192,64310,1,2,0:0:0:0:
448,192,64630,1,10,0:0:0:0:
64,192,64951,1,2,0:0:0:0:
320,192,65272,1,10,0:0:0:0:
192,192,65593,1,2,0:0:0:0:
320,192,65914,1,10,0:0:0:0:
448,192,66235,1,2,0:0:0:0:
64,192,66556,1,10,0:0:0:0:
320,192,66876,1,10,0:0:0:0:
320,192,67197,1,10,0:0:0:0:
192,192,67518,1,10,0:0:0:0:
192,192,67839,1,10,0:0:0:0:
448,192,68160,1,10,0:0:0:0:
448,192,68481,1,10,0:0:0:0:
64,192,68802,1,10,0:0:0:0:
64,192,69122,1,10,0:0:0:0:
320,192,69443,128,10,70085:0:0:0:0:
192,192,70085,128,2,70727:0:0:0:0:
64,192,70727,1,10,0:0:0:0:
192,192,71048,1,10,0:0:0:0:
320,192,71368,1,10,0:0:0:0:
448,192,71689,1,2,0:0:0:0:
64,192,72010,128,2,72331:0:0:0:0:
192,192,72010,1,4,0:0:0:0:
320,192,72331,1,8,0:0:0:0:
192,192,72491,1,0,0:0:0:0:
64,192,72812,1,2,0:0:0:0:
448,192,72973,128,8,73294:0:0:0:0:
192,192,73294,128,2,73614:0:0:0:0:
320,192,73614,128,8,73935:0:0:0:0:
64,192,73935,1,0,0:0:0:0:
448,192,74096,1,2,0:0:0:0:
192,192,74256,1,8,0:0:0:0:
320,192,74417,1,0,0:0:0:0:
64,192,74577,128,2,74898:0:0:0:0:
192,192,74577,1,0,0:0:0:0:
448,192,74898,1,8,0:0:0:0:
192,192,75058,1,0,0:0:0:0:
64,192,75379,1,2,0:0:0:0:
320,192,75540,128,8,75860:0:0:0:0:
64,192,75860,128,2,76181:0:0:0:0:
192,192,76181,128,8,76502:0:0:0:0:
448,192,76502,1,0,0:0:0:0:
64,192,76663,1,2,0:0:0:0:
320,192,76823,1,8,0:0:0:0:
192,192,76983,1,0,0:0:0:0:
320,192,77144,1,2,0:0:0:0:
448,192,77144,128,0,77465:0:0:0:0:
64,192,77465,1,8,0:0:0:0:
192,192,77625,1,0,0:0:0:0:
448,192,77946,1,2,0:0:0:0:
64,192,78106,128,8,78427:0:0:0:0:
320,192,78427,128,2,78748:0:0:0:0:
192,192,78748,128,8,79069:0:0:0:0:
448,192,79069,1,0,0:0:0:0:
64,192,79229,1,2,0:0:0:0:
320,192,79390,1,8,0:0:0:0:
192,192,79550,1,0,0:0:0:0:
64,192,79711,1,2,0:0:0:0:
448,192,79711,128,0,80032:0:0:0:0:
192,192,80032,1,8,0:0:0:0:
320,192,80192,1,0,0:0:0:0:
64,192,80513,1,2,0:0:0:0:
448,192,80673,128,8,80994:0:0:0:0:
192,192,80994,128,2,81315:0:0:0:0:
320,192,81315,128,8,81636:0:0:0:0:
64,192,81636,1,0,0:0:0:0:
448,192,81796,1,2,0:0:0:0:
192,192,81957,1,8,0:0:0:0:
320,192,82117,1,0,0:0:0:0:
64,192,82278,1,2,0:0:0:0:
448,192,82598,1,10,0:0:0:0:
64,192,82919,1,2,0:0:0:0:
448,192,83240,1,10,0:0:0:0:
192,192,83561,1,2,0:0:0:0:
320,192,83882,1,10,0:0:0:0:
192,192,84203,1,2,0:0:0:0:
320,192,84524,1,10,0:0:0:0:
64,192,84844,1,2,0:0:0:0:
320,192,85165,1,10,0:0:0:0:
64,192,85486,1,2,0:0:0:0:
320,192,85807,1,10,0:0:0:0:
448,192,86128,1,2,0:0:0:0:
192,192,86449,1,10,0:0:0:0:
448,192,86770,1,2,0:0:0:0:
192,192,87090,1,10,0:0:0:0:
448,192,87411,1,10,0:0:0:0:
448,192,87732,1,10,0:0:0:0:
64,192,88053,1,10,0:0:0:0:
64,192,88374,1,10,0:0:0:0:
320,192,88695,1,10,0:0:0:0:
320,192,89016,1,10,0:0:0:0:
192,192,89336,1,10,0:0:0:0:
192,192,89657,1,10,0:0:0:0:
320,192,89978,128,10,90620:0:0:0:0:
192,192,90620,128,2,91261:0:0:0:0:
448,192,91261,128,2,91582:0:0:0:0:
64,192,91582,128,0,91903:0:0:0:0:
320,192,91903,128,0,92224:0:0:0:0:
192,192,92224,128,0,92545:0:0:0:0:
448,192,92545,128,4,93187:0:0:0:0:
320,192,93187,128,0,93828:0:0:0:0:
64,192,93828,128,0,94470:0:0:0:0:
320,192,94470,128,0,94791:0:0:0:0:
192,192,94791,128,0,95112:0:0:0:0:
448,192,95112,128,0,95753:0:0:0:0:
64,192,95753,128,0,96395:0:0:0:0:
448,192,96395,128,0,96716:0:0:0:0:
320,192,96716,128,0,97037:0:0:0:0:
64,192,97037,128,0,97358:0:0:0:0:
320,192,97358,128,0,97679:0:0:0:0:
64,192,97679,128,0,98320:0:0:0:0:
192,192,98320,128,0,98962:0:0:0:0:
448,192,98962,128,0,99604:0:0:0:0:
192,192,99604,128,0,99925:0:0:0:0:
320,192,99925,128,0,100245:0:0:0:0:
64,192,100245,128,0,101208:0:0:0:0:
448,192,101529,128,0,101850:0:0:0:0:
320,192,101850,128,0,102171:0:0:0:0:
64,192,102171,1,0,0:0:0:0:
192,192,102331,1,0,0:0:0:0:
320,192,102491,1,0,0:0:0:0:
448,192,102652,128,0,103775:0:0:0:0:
