osu file format v14

[General]
AudioFilename: audio.mp3
AudioLeadIn: 0
PreviewTime: 16129
Countdown: 1
SampleSet: Soft
StackLeniency: 0.5
Mode: 0
LetterboxInBreaks: 0
WidescreenStoryboard: 1

[Editor]
Bookmarks: 102777
DistanceSpacing: 0.4
BeatDivisor: 8
GridSize: 4
TimelineZoom: 3.099999

[Metadata]
Title:Oriens
TitleUnicode:Oriens
Artist:Ginkiha
ArtistUnicode:Ginkiha
Creator:Fursum
Version:Insane
Source:BMS
Tags:
BeatmapID:1760455
BeatmapSetID:840428

[Difficulty]
HPDrainRate:5
CircleSize:4
OverallDifficulty:7
ApproachRate:9
SliderMultiplier:1.4
SliderTickRate:1

[Events]
//Background and Video events
0,0,"BG.jpg",0,0
//Break Periods
2,57896,67474
//Storyboard Layer 0 (Background)
//Storyboard Layer 1 (Fail)
//Storyboard Layer 2 (Pass)
//Storyboard Layer 3 (Foreground)
//Storyboard Sound Samples

[TimingPoints]
754,428.571428571429,4,2,1,70,1,0
16183,324.324324324324,4,2,1,80,1,0
16507,-83.3333333333333,4,2,1,80,0,1
16588,-83.3333333333333,4,2,1,80,0,0
21737,-83.3333333333333,4,2,1,45,0,0
22182,-83.3333333333333,4,2,1,80,0,0
24007,-83.3333333333333,4,2,1,45,0,0
24291,-83.3333333333333,4,2,1,80,0,0
26237,-133.333333333333,4,2,1,80,0,0
26561,-83.3333333333333,4,2,1,80,0,0
32074,-57.1428571428571,4,2,1,80,0,0
32115,-57.1428571428571,4,2,1,45,0,0
32561,-83.3333333333333,4,2,1,80,0,0
34385,-66.6666666666667,4,2,1,45,0,0
34669,-83.3333333333333,4,2,1,80,0,0
36128,-83.3333333333333,4,2,2,80,0,0
36939,-83.3333333333333,4,2,2,80,0,0
37264,-83.3333333333333,4,2,1,80,0,0
57696,-83.3333333333333,4,2,2,80,0,0
58020,-100,4,2,1,50,0,0
65480,-100,4,2,1,60,0,0
66291,-100,4,2,1,65,0,0
66939,-100,4,2,1,65,0,0
68074,-133.333333333333,4,2,1,70,0,0
68237,-133.333333333333,4,2,1,50,0,0
70669,-133.333333333333,4,2,1,60,0,0
73264,-100,4,2,1,70,0,0
73588,-117.647058823529,4,2,1,65,0,0
74561,-100,4,2,1,70,0,0
74885,-111.111111111111,4,2,1,65,0,0
75858,-100,4,2,1,70,0,0
77155,-86.9565217391304,4,2,1,65,0,0
77642,-80,4,2,1,65,0,0
78453,-100,4,2,1,40,0,0
79101,-100,4,2,1,37,0,0
79182,-100,4,2,1,32,0,0
79264,-100,4,2,1,26,0,0
79345,-100,4,2,1,20,0,0
79750,-100,4,2,1,70,0,0
80074,-83.3333333333333,4,2,1,80,0,1
80155,-83.3333333333333,4,2,1,80,0,0
85304,-83.3333333333333,4,2,1,30,0,0
85750,-83.3333333333333,4,2,1,80,0,0
87534,-57.1428571428571,4,2,1,80,0,0
87574,-83.3333333333333,4,2,1,45,0,0
87858,-83.3333333333333,4,2,1,80,0,0
87899,-83.3333333333333,4,2,1,45,0,0
88182,-83.3333333333333,4,2,1,80,0,0
89804,-133.333333333333,4,2,1,80,0,0
90453,-83.3333333333333,4,2,1,85,0,0
95642,-57.1428571428571,4,2,1,85,0,0
95682,-83.3333333333333,4,2,1,45,0,0
96128,-83.3333333333333,4,2,1,85,0,0
97912,-57.1428571428571,4,2,1,85,0,0
97953,-83.3333333333333,4,2,1,45,0,0
98237,-83.3333333333333,4,2,1,85,0,0
98277,-83.3333333333333,4,2,1,45,0,0
98561,-83.3333333333333,4,2,1,85,0,0
99696,-83.3333333333333,4,2,2,85,0,0
100507,-76.9230769230769,4,2,2,90,0,1
100831,-76.9230769230769,4,2,1,90,0,1
110885,-76.9230769230769,4,2,2,90,0,1
111210,-76.9230769230769,4,2,1,90,0,1
120453,-76.9230769230769,4,2,2,90,0,1
121264,-83.3333333333333,4,2,2,80,0,0

[Colours]
Combo1 : 238,234,147
Combo2 : 231,193,247
Combo3 : 226,82,205
Combo4 : 216,61,131

[HitObjects]
379,280,754,5,4,1:2:0:0:
278,197,968,2,0,P|315:185|372:291,1,175,0|0,0:0|1:0,0:0:0:0:
286,287,1611,2,0,L|201:280,2,70,8|0|0,0:1|0:0|0:0,0:0:0:0:
341,357,2146,1,2,1:3:0:0:
327,210,2361,1,2,1:3:0:0:
327,210,2468,6,0,P|370:164|435:157,2,105,2|0|2,1:3|1:0|1:3,0:0:0:0:
152,291,3325,2,0,P|191:348|196:372,1,70,8|0,0:1|0:0,0:0:0:0:
215,165,3754,2,0,L|220:130,1,35,0|2,1:0|0:3,0:0:0:0:
215,165,4182,6,0,L|209:199,3,23.3333333333333,0|0|0|0,1:0|1:0|1:0|1:0,0:0:0:0:
438,52,4825,1,0,1:0:0:0:
368,228,5039,2,0,P|343:122|323:72,1,140,8|0,0:1|0:0,0:0:0:0:
276,27,5575,1,2,1:3:0:0:
434,136,5789,1,2,1:3:0:0:
434,136,5896,5,2,1:3:0:0:
268,180,6111,1,2,0:3:0:0:
268,180,6218,1,0,1:0:0:0:
268,180,6325,2,0,P|253:242|250:277,1,70,0|2,0:0|1:3,0:0:0:0:
420,346,6754,1,8,0:1:0:0:
396,329,6861,2,0,P|381:279|379:239,1,70,0|0,1:0|1:0,0:0:0:0:
451,216,7182,1,8,0:1:0:0:
296,346,7396,1,0,1:0:0:0:
243,348,7503,1,0,1:0:0:0:
192,359,7610,5,0,1:0:0:0:
63,309,7825,2,0,P|98:370|198:352,1,175,0|0,0:0|1:0,0:0:0:0:
221,274,8468,2,0,L|139:260,2,70,8|0|0,0:1|0:0|0:0,0:0:0:0:
291,212,9004,1,2,1:3:0:0:
100,179,9218,1,2,1:3:0:0:
100,179,9325,6,0,P|78:121|75:87,1,70,2|2,1:3|0:3,0:0:0:0:
166,115,9646,2,0,P|180:83|189:49,1,70,0|2,1:0|0:3,0:0:0:0:
102,26,9968,1,2,1:3:0:0:
277,128,10182,2,0,P|346:121|408:89,1,140,8|0,0:1|1:0,0:0:0:0:
408,87,11039,6,0,L|414:51,3,23.3333333333333,0|0|0|0,1:0|1:0|1:0|1:0,0:0:0:0:
362,345,11682,1,0,1:0:0:0:
249,215,11896,2,0,B|276:198|297:195|297:195|315:208|324:242,1,105,8|0,0:1|0:0,0:0:0:0:
246,307,12325,2,0,L|182:303,1,35,8|0,0:1|1:0,0:0:0:0:
246,307,12754,6,0,P|308:315|367:334,2,105,2|2|2,1:3|0:3|0:3,0:0:0:0:
34,349,13611,2,0,P|101:328|104:325,1,70,8|2,0:1|0:3,0:0:0:0:
180,150,14039,1,0,1:0:0:0:
161,197,14147,1,8,0:1:0:0:
128,157,14254,1,8,0:1:0:0:
219,76,14468,5,2,1:0:0:0:
65,99,14682,1,0,1:0:0:0:
88,253,14896,1,0,1:0:0:0:
242,230,15111,1,0,1:0:0:0:
143,21,15325,5,0,1:0:0:0:
139,56,15432,1,0,1:0:0:0:
142,91,15539,1,0,1:0:0:0:
152,124,15646,1,0,1:0:0:0:
169,155,15754,6,0,L|191:180,8,17.5,0|0|0|0|0|0|0|0|4,1:0|1:0|1:0|1:0|1:0|1:0|1:0|1:0|1:3,0:0:0:0:
499,278,16507,6,0,B|411:260|436:328|334:309,1,167.999994873047,12|2,1:1|0:0,0:0:0:0:
273,231,16993,1,0,1:0:0:0:
176,349,17155,1,8,0:1:0:0:
286,208,17318,1,0,0:0:0:0:
285,183,17399,1,0,0:0:0:0:
272,164,17480,6,0,P|191:161|163:245,1,167.999994873047,2|8,1:2|0:1,0:0:0:0:
362,211,17966,2,0,P|423:205|530:213,1,167.999994873047,2|2,0:0|1:2,0:0:0:0:
355,96,18453,2,0,P|302:78|267:60,1,83.9999974365235,8|2,0:1|0:0,0:0:0:0:
155,147,18777,5,2,1:1:0:0:
54,123,18939,1,2,0:1:0:0:
170,161,19101,2,0,P|224:157|262:162,1,83.9999974365235,10|2,0:1|0:1,0:0:0:0:
60,278,19426,5,2,0:1:0:0:
185,254,19588,1,2,1:1:0:0:
49,292,19750,2,0,P|7:311|-32:334,1,83.9999974365235,10|2,0:1|0:1,0:0:0:0:
216,346,20074,6,0,P|198:298|295:263,1,167.999994873047,2|8,1:2|0:1,0:0:0:0:
474,319,20561,2,0,P|384:314|307:350,1,167.999994873047,2|2,0:0|1:2,0:0:0:0:
300,161,21047,2,0,P|293:119|272:74,1,83.9999974365235,8|2,0:1|0:0,0:0:0:0:
170,252,21372,5,4,1:2:0:0:
170,252,21696,2,0,L|146:250,12,20.9999993591309,8|2|2|2|2|2|2|2|2|2|2|2|0,0:1|0:0|0:0|0:0|0:0|0:0|0:0|0:0|0:0|0:0|0:0|0:0|1:0,0:0:0:0:
76,127,22345,2,0,P|64:161|81:224,1,83.9999974365235,8|0,0:1|0:0,0:0:0:0:
254,280,22669,2,0,P|257:238|242:199,1,83.9999974365235,2|0,1:2|0:0,0:0:0:0:
71,207,22993,2,0,P|59:241|76:304,1,83.9999974365235,8|0,0:1|0:0,0:0:0:0:
242,199,23318,2,0,P|245:157|230:118,1,83.9999974365235,2|0,0:0|1:0,0:0:0:0:
66,287,23642,2,0,P|54:321|71:384,1,83.9999974365235,8|0,0:1|0:0,0:0:0:0:
152,222,23966,6,0,L|154:192,6,20.9999993591309,2|2|2|2|2|2|2,1:2|0:0|0:0|0:0|0:0|0:0|0:0,0:0:0:0:
157,253,24291,2,0,P|182:289|228:302,1,83.9999974365235,8|2,0:1|0:0,0:0:0:0:
249,289,24534,1,2,0:0:0:0:
249,289,24615,1,2,0:0:0:0:
363,352,24777,1,0,1:0:0:0:
312,219,24939,2,0,P|299:151|303:93,1,125.999996154785,8|0,0:1|0:0,0:0:0:0:
317,66,25264,6,0,P|285:87|225:94,1,83.9999974365235,2|0,1:2|0:0,0:0:0:0:
403,146,25588,1,8,0:1:0:0:
220,86,25750,6,0,P|188:65|128:58,1,83.9999974365235,2|0,0:0|0:0,0:0:0:0:
260,0,26074,1,2,1:2:0:0:
121,64,26237,6,0,P|114:86|115:121,1,52.5000020027161,8|0,0:1|0:0,0:0:0:0:
237,223,26561,5,4,1:2:0:0:
237,223,26885,2,0,B|334:202|305:266|401:246,1,167.999994873047,8|2,0:1|0:0,0:0:0:0:
442,153,27372,1,0,1:0:0:0:
490,291,27534,1,8,0:1:0:0:
426,134,27696,1,2,0:0:0:0:
407,117,27777,1,0,0:0:0:0:
387,103,27858,6,0,P|348:122|270:39,1,167.999994873047,2|8,1:2|0:1,0:0:0:0:
218,218,28345,2,0,P|285:207|385:224,1,167.999994873047,2|2,0:0|1:2,0:0:0:0:
184,120,28831,2,0,P|124:125|100:135,1,83.9999974365235,8|2,0:1|0:0,0:0:0:0:
255,39,29155,5,2,1:1:0:0:
338,130,29318,1,2,0:1:0:0:
232,29,29480,2,0,P|177:24|139:26,1,83.9999974365235,10|2,0:1|0:1,0:0:0:0:
230,168,29804,5,2,0:1:0:0:
123,257,29966,1,2,1:1:0:0:
247,155,30128,2,0,P|302:150|340:152,1,83.9999974365235,10|2,0:1|0:1,0:0:0:0:
89,123,30453,6,0,P|12:140|7:219,1,167.999994873047,2|8,1:2|0:1,0:0:0:0:
167,335,30939,2,0,P|157:238|165:162,1,167.999994873047,2|2,0:0|1:2,0:0:0:0:
345,298,31426,2,0,P|304:308|262:311,1,83.9999974365235,8|2,0:1|0:0,0:0:0:0:
53,368,31750,5,4,1:2:0:0:
53,368,32074,2,0,P|48:353|49:326,12,30.6250002920628,8|2|2|2|2|2|2|2|2|2|2|2|0,0:1|0:0|0:0|0:0|0:0|0:0|0:0|0:0|0:0|0:0|0:0|0:0|1:0,0:0:0:0:
143,260,32723,6,0,L|51:252,1,83.9999974365235,8|0,0:1|0:0,0:0:0:0:
251,362,33047,2,0,L|167:369,1,83.9999974365235,2|0,1:2|0:0,0:0:0:0:
154,246,33372,2,0,L|62:238,1,83.9999974365235,8|0,0:1|0:0,0:0:0:0:
326,338,33696,2,0,L|242:345,1,83.9999974365235,2|0,0:0|1:0,0:0:0:0:
83,224,34020,2,0,L|-9:216,1,83.9999974365235,8|0,0:1|0:0,0:0:0:0:
274,167,34345,6,0,P|283:178|288:200,6,20.9999993591309,2|2|2|2|2|2|2,1:2|0:0|0:0|0:0|0:0|0:0|0:0,0:0:0:0:
243,155,34669,2,0,P|234:118|243:56,1,83.9999974365235,8|2,0:1|0:0,0:0:0:0:
257,50,34912,1,2,0:0:0:0:
257,50,34993,1,2,0:0:0:0:
149,130,35155,1,0,1:0:0:0:
337,101,35318,2,0,P|393:95|467:98,1,125.999996154785,8|0,0:1|0:0,0:0:0:0:
489,113,35642,5,0,1:0:0:0:
435,220,35804,1,0,1:0:0:0:
477,334,35966,1,0,1:1:0:0:
410,201,36128,6,0,P|366:198|310:212,1,83.9999974365235,12|0,1:2|1:0,0:0:0:0:
301,228,36372,2,0,P|261:235|205:228,1,83.9999974365235,12|0,0:2|0:0,0:0:0:0:
191,215,36615,1,12,1:2:0:0:
98,86,36777,5,0,1:0:0:0:
144,100,36858,5,0,1:0:0:0:
192,93,36939,5,6,1:0:0:0:
200,82,37264,5,8,0:1:0:0:
281,55,37426,1,2,0:1:0:0:
332,123,37588,1,2,0:1:0:0:
283,192,37750,1,2,1:1:0:0:
202,166,37912,1,10,0:1:0:0:
138,223,38074,1,2,0:1:0:0:
156,308,38237,6,0,L|140:353,1,41.9999987182618,2|2,1:1|0:1,0:0:0:0:
238,334,38399,2,0,L|222:379,1,41.9999987182618,2|2,1:1|0:1,0:0:0:0:
324,294,38561,1,10,0:1:0:0:
324,294,38642,1,2,0:1:0:0:
324,294,38723,1,2,0:1:0:0:
324,294,38804,1,2,0:1:0:0:
324,294,38885,2,0,P|359:286|420:294,1,83.9999974365235,2|0,0:1|1:1,0:0:0:0:
504,175,39210,2,0,P|480:187|385:178,1,125.999996154785,10|0,0:1|0:1,0:0:0:0:
368,155,39534,5,0,1:1:0:0:
283,75,39696,1,2,0:1:0:0:
264,63,39777,1,2,0:1:0:0:
242,67,39858,2,0,P|219:91|215:111,1,41.9999987182618,10|2,0:1|0:1,0:0:0:0:
148,142,40020,2,0,P|157:173|172:187,1,41.9999987182618,2|2,0:1|0:1,0:0:0:0:
158,263,40182,2,0,P|190:270|209:264,1,41.9999987182618,2|2,0:1|0:1,0:0:0:0:
294,288,40345,1,2,1:1:0:0:
279,160,40507,2,0,L|269:201,3,41.9999987182618,10|2|2|2,0:1|0:1|0:1|0:1,0:0:0:0:
299,294,40831,5,2,1:1:0:0:
373,231,40993,1,2,1:1:0:0:
391,329,41155,2,0,L|381:241,1,83.9999974365235,10|2,0:1|0:1,0:0:0:0:
401,340,41642,5,2,1:1:0:0:
271,384,41804,2,0,P|242:375|226:362,1,41.9999987182618,10|2,0:1|0:1,0:0:0:0:
148,314,41966,2,0,P|119:323|103:336,1,41.9999987182618,2|2,0:1|0:1,0:0:0:0:
11,378,42128,6,0,P|58:337|46:226,1,167.999994873047,2|8,1:2|0:1,0:0:0:0:
94,69,42615,2,0,P|111:156|134:200,1,125.999996154785,2|0,0:0|0:0,0:0:0:0:
141,201,42939,1,2,1:2:0:0:
212,122,43101,2,0,B|299:110|265:167|362:160,1,146.999995513916,8|0,0:1|0:0,0:0:0:0:
373,155,43426,5,0,1:0:0:0:
459,125,43588,1,0,1:0:0:0:
512,280,43750,2,0,P|429:238|357:244,1,167.999994873047,8|2,0:1|0:3,0:0:0:0:
419,324,44237,1,0,1:0:0:0:
264,260,44399,2,0,P|224:274|178:270,1,83.9999974365235,8|2,0:1|0:3,0:0:0:0:
17,148,44723,6,0,P|75:111|128:189,1,167.999994873047,2|8,1:2|0:1,0:0:0:0:
62,373,45210,2,0,P|48:318|50:249,1,125.999996154785,2|0,0:0|0:0,0:0:0:0:
62,229,45534,1,2,1:2:0:0:
174,279,45696,2,0,B|261:267|227:324|324:317,1,146.999995513916,8|0,0:1|0:0,0:0:0:0:
335,312,46021,5,0,1:0:0:0:
436,273,46182,1,0,1:0:0:0:
356,137,46345,2,0,P|347:174|353:224,1,83.9999974365235,8|0,0:1|0:0,0:0:0:0:
454,47,46669,2,0,P|469:69|479:134,1,83.9999974365235,2|0,0:3|1:0,0:0:0:0:
277,31,46993,2,0,P|258:63|241:152,1,125.999996154785,8|0,0:1|0:0,0:0:0:0:
250,164,47318,5,4,1:0:0:0:
260,174,47642,5,8,0:1:0:0:
317,249,47804,1,2,0:1:0:0:
224,261,47966,1,2,0:1:0:0:
169,186,48128,1,2,1:1:0:0:
205,99,48290,1,10,0:1:0:0:
297,89,48452,1,2,0:1:0:0:
351,163,48615,6,0,L|405:158,1,41.9999987182618,2|2,1:1|0:1,0:0:0:0:
468,82,48777,2,0,L|414:77,1,41.9999987182618,2|2,1:1|0:1,0:0:0:0:
492,188,48939,1,10,0:1:0:0:
492,188,49020,1,2,0:1:0:0:
492,188,49101,1,2,0:1:0:0:
492,188,49182,1,2,0:1:0:0:
492,188,49264,2,0,P|503:230|507:282,1,83.9999974365235,2|0,0:1|1:0,0:0:0:0:
323,384,49588,2,0,P|316:322|320:249,1,125.999996154785,10|0,0:1|0:0,0:0:0:0:
336,241,49912,5,0,1:0:0:0:
229,291,50074,1,2,0:1:0:0:
205,289,50155,1,2,0:1:0:0:
188,275,50237,2,0,P|183:244|190:215,1,41.9999987182618,10|2,0:1|0:1,0:0:0:0:
110,195,50399,2,0,P|128:169|153:153,1,41.9999987182618,2|2,0:1|0:1,0:0:0:0:
104,83,50561,2,0,P|135:78|164:85,1,41.9999987182618,2|2,0:1|0:1,0:0:0:0:
184,5,50723,1,2,1:1:0:0:
228,136,50885,2,0,L|238:84,3,41.9999987182618,10|2|2|2,0:1|0:1|0:1|0:1,0:0:0:0:
196,13,51210,5,2,1:1:0:0:
299,31,51372,1,2,1:1:0:0:
328,132,51534,2,0,P|337:181|336:219,1,83.9999974365235,10|2,0:1|0:1,0:0:0:0:
339,121,52020,5,2,1:1:0:0:
427,203,52182,2,0,P|420:233|421:254,1,41.9999987182618,10|2,0:1|0:1,0:0:0:0:
346,307,52345,2,0,P|353:337|352:358,1,41.9999987182618,2|2,0:1|0:1,0:0:0:0:
442,376,52507,6,0,P|360:352|265:369,1,167.999994873047,2|8,1:1|0:1,0:0:0:0:
179,189,52993,2,0,P|174:224|185:324,1,125.999996154785,2|0,0:1|0:0,0:0:0:0:
195,332,53318,1,0,1:0:0:0:
89,379,53480,2,0,P|47:379|7:367,1,83.9999974365235,10|2,0:1|0:1,0:0:0:0:
76,247,53804,6,0,P|81:228|86:195,1,41.9999987182618,2|2,1:1|0:1,0:0:0:0:
0,134,53966,2,0,P|3:154|9:174,1,41.9999987182618,2|2,1:1|0:1,0:0:0:0:
91,116,54128,2,0,P|151:110|260:123,1,167.999994873047,10|0,0:1|0:0,0:0:0:0:
182,207,54615,1,0,1:0:0:0:
263,313,54777,2,0,P|283:264|280:220,1,83.9999974365235,8|2,0:1|0:3,0:0:0:0:
359,103,55101,6,0,P|356:137|458:186,1,167.999994873047,2|8,1:2|0:1,0:0:0:0:
511,341,55588,2,0,P|439:336|384:317,1,125.999996154785,2|0,0:0|0:0,0:0:0:0:
373,302,55912,1,2,1:2:0:0:
261,224,56074,2,0,B|245:289|299:287|269:361,1,125.999996154785,8|0,0:1|0:0,0:0:0:0:
260,364,56399,5,0,1:0:0:0:
260,364,56561,1,0,1:0:0:0:
149,273,56723,1,8,0:1:0:0:
153,278,56885,1,0,1:0:0:0:
274,213,57047,1,0,1:0:0:0:
300,208,57128,1,0,1:0:0:0:
326,204,57209,1,0,1:0:0:0:
352,202,57290,1,0,1:0:0:0:
378,201,57372,6,0,B|449:188|495:231|495:231|475:240|457:255,1,167.999994873047,8|2,0:1|1:0,0:0:0:0:
397,227,68074,6,0,P|391:264|390:284,1,52.5000020027161,4|0,1:0|0:0,0:0:0:0:
300,174,68399,2,0,P|306:211|307:231,1,52.5000020027161,8|0,0:0|3:0,0:0:0:0:
388,132,68723,1,0,3:0:0:0:
315,91,68885,2,0,P|294:93|213:67,1,105.000004005432,8|8,2:0|3:2,0:0:0:0:
135,45,69372,6,0,P|113:46|79:56,1,52.5000020027161,0|0,3:0|3:0,0:0:0:0:
176,149,69696,2,0,P|154:148|120:138,1,52.5000020027161,8|0,0:0|3:0,0:0:0:0:
227,62,70020,1,0,3:0:0:0:
277,151,70182,2,0,L|280:210,2,52.5000020027161,8|8|8,0:0|0:0|0:0,0:0:0:0:
330,62,70669,5,0,3:0:0:0:
330,62,70831,1,0,3:0:0:0:
330,62,70993,2,0,P|357:71|387:72,1,52.5000020027161,8|0,0:0|3:0,0:0:0:0:
466,36,71318,1,0,3:0:0:0:
449,125,71480,2,0,P|449:173|444:235,1,105.000004005432,8|8,3:2|0:2,0:0:0:0:
440,324,71966,6,0,P|418:322|390:313,1,52.5000020027161,0|0,3:0|3:0,0:0:0:0:
301,340,72291,2,0,P|279:342|251:351,1,52.5000020027161,8|0,0:0|0:0,0:0:0:0:
162,316,72615,2,0,P|140:314|112:305,1,52.5000020027161,0|8,3:0|3:2,0:0:0:0:
231,252,72939,1,8,0:0:0:0:
231,252,73101,1,8,0:0:0:0:
148,80,73264,6,0,B|125:126|125:126|143:220,1,140,4|8,1:0|0:0,0:0:0:0:
226,133,73750,2,0,P|234:82|238:62,1,59.5000011348725,0|0,3:0|3:0,0:0:0:0:
329,173,74074,2,0,P|321:122|317:102,1,59.5000011348725,8|0,0:0|0:0,0:0:0:0:
406,68,74399,1,8,0:0:0:0:
505,252,74561,6,0,B|469:236|469:236|365:254,1,140,4|8,1:0|0:0,0:0:0:0:
287,306,75047,1,0,3:0:0:0:
196,248,75210,2,0,L|189:214,2,31.4999990386963,0|8|0,3:0|0:0|3:0,0:0:0:0:
288,326,75534,1,8,0:0:0:0:
384,264,75696,1,8,0:0:0:0:
175,259,75858,6,0,B|143:229|143:229|158:110,1,140,4|8,1:0|0:0,0:0:0:0:
169,40,76345,1,0,3:0:0:0:
259,199,76507,2,0,L|263:164,1,35,4|8,3:2|0:0,0:0:0:0:
274,73,76669,1,8,0:0:0:0:
376,107,76831,2,0,L|371:141,2,35,8|8|8,0:0|0:0|0:0,0:0:0:0:
477,267,77155,6,0,B|501:230|501:230|477:126,1,120.750002303124,4|0,1:0|0:0,0:0:0:0:
477,130,77480,1,8,0:3:0:0:
375,250,77642,2,0,P|327:257|258:200,1,131.25,4|0,1:3|0:0,0:0:0:0:
250,188,77966,2,0,L|223:304,1,87.5,4|0,1:3|0:0,0:0:0:0:
58,352,78291,2,0,L|47:256,1,87.5,4|0,1:3|3:0,0:0:0:0:
256,192,78534,12,4,79750,1:3:0:0:
97,249,80074,6,0,B|195:231|167:294|259:278,1,167.999994873047,12|2,1:0|0:0,0:0:0:0:
329,214,80561,1,0,1:0:0:0:
494,281,80723,1,8,0:1:0:0:
377,329,80885,1,2,0:0:0:0:
378,299,80966,1,0,0:0:0:0:
396,274,81047,6,0,P|417:197|365:133,1,167.999994873047,2|8,1:2|0:1,0:0:0:0:
211,43,81534,2,0,P|280:63|376:40,1,167.999994873047,2|2,0:0|1:2,0:0:0:0:
221,142,82020,2,0,P|182:173|171:229,1,83.9999974365235,8|2,0:1|0:0,0:0:0:0:
297,229,82345,5,2,1:1:0:0:
206,355,82507,1,2,0:1:0:0:
306,217,82669,2,0,L|290:119,1,83.9999974365235,10|2,0:1|0:1,0:0:0:0:
170,203,82993,5,2,0:1:0:0:
219,360,83155,1,2,1:1:0:0:
163,192,83318,2,0,L|176:109,1,83.9999974365235,10|2,0:1|0:1,0:0:0:0:
391,97,83642,6,0,P|453:177|408:240,1,167.999994873047,2|8,1:2|0:1,0:0:0:0:
313,333,84128,2,0,P|311:267|318:175,1,125.999996154785,2|0,0:0|0:0,0:0:0:0:
319,189,84453,1,2,1:2:0:0:
242,81,84615,2,0,P|234:33|218:-19,1,83.9999974365235,8|2,0:1|0:0,0:0:0:0:
198,233,84939,5,4,1:0:0:0:
198,233,85264,2,0,L|218:235,12,20.9999993591309,8|2|2|2|2|2|2|2|2|2|2|2|0,0:1|0:0|0:0|0:0|0:0|0:0|0:0|0:0|0:0|0:0|0:0|0:0|1:0,0:0:0:0:
136,170,85912,2,0,L|52:179,1,83.9999974365235,8|0,0:1|0:0,0:0:0:0:
40,319,86237,2,0,L|123:310,1,83.9999974365235,2|0,1:2|0:0,0:0:0:0:
146,158,86561,2,0,L|238:148,1,83.9999974365235,8|0,0:1|0:0,0:0:0:0:
219,313,86886,2,0,L|134:321,1,83.9999974365235,2|0,0:0|1:0,0:0:0:0:
131,143,87210,2,0,L|47:151,1,83.9999974365235,8|0,0:1|0:0,0:0:0:0:
9,16,87534,6,0,L|48:41,6,30.6250002920628,2|2|2|2|2|2|2,1:2|0:0|0:0|0:0|0:0|0:0|0:0,0:0:0:0:
57,53,87858,2,0,P|96:31|137:28,1,83.9999974365235,8|2,0:1|0:0,0:0:0:0:
163,48,88101,1,2,0:0:0:0:
163,48,88182,1,2,0:0:0:0:
237,112,88345,1,0,1:0:0:0:
359,25,88507,2,0,P|350:63|365:153,1,125.999996154785,8|0,0:1|0:0,0:0:0:0:
360,170,88831,6,0,P|402:154|456:160,1,83.9999974365235,2|0,1:2|0:0,0:0:0:0:
364,294,89155,1,8,0:1:0:0:
438,175,89318,6,0,P|476:189|509:218,1,83.9999974365235,2|0,0:0|0:0,0:0:0:0:
370,279,89642,1,2,1:2:0:0:
501,234,89804,6,0,P|510:251|511:287,1,52.5000020027161,8|0,0:1|0:0,0:0:0:0:
281,229,90128,5,4,1:0:0:0:
281,229,90453,2,0,B|193:221|219:288|126:278,1,167.999994873047,8|2,0:1|0:0,0:0:0:0:
43,206,90939,1,0,1:0:0:0:
195,88,91101,1,8,0:1:0:0:
152,179,91264,1,2,0:0:0:0:
124,157,91345,1,0,0:0:0:0:
104,128,91426,5,2,1:2:0:0:
269,140,91588,2,0,P|325:133|362:133,1,83.9999974365235,2|8,0:3|0:1,0:0:0:0:
116,49,91912,2,0,P|74:47|32:41,1,83.9999974365235,2|0,0:3|0:0,0:0:0:0:
278,40,92237,1,2,1:3:0:0:
152,179,92399,2,0,P|148:234|150:306,1,125.999996154785,8|0,0:1|0:0,0:0:0:0:
159,321,92723,5,2,1:1:0:0:
51,232,92885,1,2,0:1:0:0:
174,330,93047,2,0,P|232:323|265:322,1,83.9999974365235,10|2,0:1|0:1,0:0:0:0:
346,221,93372,5,2,0:1:0:0:
452,327,93534,1,2,1:1:0:0:
332,212,93696,2,0,P|290:206|248:204,1,83.9999974365235,10|2,0:1|0:1,0:0:0:0:
122,273,94020,5,2,1:2:0:0:
146,110,94182,2,0,P|161:151|161:195,1,83.9999974365235,2|8,0:0|0:1,0:0:0:0:
35,315,94507,2,0,P|26:261|39:181,1,125.999996154785,2|0,0:0|0:0,0:0:0:0:
48,174,94831,1,2,1:2:0:0:
130,284,94993,2,0,P|172:288|227:302,1,83.9999974365235,8|2,0:1|0:0,0:0:0:0:
326,123,95318,5,4,1:0:0:0:
326,123,95642,2,0,P|320:144|321:162,12,30.6250002920628,8|2|2|2|2|2|2|2|2|2|2|2|0,0:1|0:0|0:0|0:0|0:0|0:0|0:0|0:0|0:0|0:0|0:0|0:0|1:0,0:0:0:0:
400,53,96291,2,0,P|422:102|427:145,1,83.9999974365235,8|0,0:1|0:0,0:0:0:0:
250,66,96615,2,0,P|228:115|223:158,1,83.9999974365235,2|0,1:2|0:0,0:0:0:0:
413,221,96939,2,0,P|435:172|440:129,1,83.9999974365235,8|0,0:1|0:0,0:0:0:0:
212,159,97264,2,0,P|220:200|238:237,1,83.9999974365235,2|0,0:0|1:0,0:0:0:0:
446,127,97588,2,0,P|437:85|419:48,1,83.9999974365235,8|0,0:1|0:0,0:0:0:0:
389,239,97912,6,0,P|372:236|354:236,6,30.6250002920628,2|2|2|2|2|2|2,1:2|0:0|0:0|0:0|0:0|0:0|0:0,0:0:0:0:
334,225,98237,2,0,P|343:270|347:315,1,83.9999974365235,8|2,0:1|0:0,0:0:0:0:
336,329,98480,1,2,0:0:0:0:
336,329,98561,1,2,0:0:0:0:
209,251,98723,1,0,1:0:0:0:
306,121,98885,2,0,P|360:121|435:136,1,125.999996154785,8|0,0:1|0:0,0:0:0:0:
448,153,99210,5,0,1:0:0:0:
382,24,99372,1,0,1:0:0:0:
288,136,99534,1,0,1:0:0:0:
169,45,99696,6,0,P|128:36|86:40,1,83.9999974365235,12|0,1:2|1:0,0:0:0:0:
56,44,99939,2,0,P|42:83|44:125,1,83.9999974365235,12|0,0:2|0:0,0:0:0:0:
62,152,100182,1,12,0:2:0:0:
187,259,100345,5,0,1:0:0:0:
170,209,100426,5,0,1:0:0:0:
175,157,100507,5,6,1:0:0:0:
173,145,100831,5,8,0:1:0:0:
272,206,100993,1,2,0:1:0:0:
360,130,101155,1,2,0:1:0:0:
314,22,101318,1,2,1:1:0:0:
197,32,101480,1,10,0:1:0:0:
266,106,101642,1,2,0:1:0:0:
418,45,101804,6,0,P|448:48|474:58,1,45.4999979171754,2|2,1:1|0:1,0:0:0:0:
490,163,101966,2,0,P|460:160|434:150,1,45.4999979171754,2|2,1:1|0:1,0:0:0:0:
381,240,102128,1,10,0:1:0:0:
381,240,102210,1,2,0:1:0:0:
381,240,102291,1,2,0:1:0:0:
381,240,102372,1,2,0:1:0:0:
381,240,102453,2,0,P|393:276|395:339,1,90.9999958343508,2|0,0:1|1:1,0:0:0:0:
234,373,102777,2,0,P|231:294|252:233,1,136.499993751526,10|0,0:1|0:1,0:0:0:0:
264,222,103101,5,0,1:1:0:0:
307,98,103264,1,2,0:1:0:0:
304,123,103345,1,2,0:1:0:0:
316,145,103426,2,0,P|342:149|366:147,1,45.4999979171754,10|2,0:1|0:1,0:0:0:0:
222,81,103588,2,0,P|196:77|172:79,1,45.4999979171754,2|2,0:1|0:1,0:0:0:0:
315,12,103750,2,0,P|341:8|365:10,1,45.4999979171754,2|2,0:1|0:1,0:0:0:0:
458,76,103912,1,2,1:1:0:0:
456,207,104074,2,0,L|449:155,3,45.4999979171754,10|2|2|2,0:1|0:1|0:1|0:1,0:0:0:0:
470,63,104399,5,2,1:1:0:0:
357,162,104561,1,2,1:1:0:0:
250,63,104723,2,0,P|199:60|146:49,1,90.9999958343508,10|2,0:1|0:1,0:0:0:0:
361,43,105047,1,2,0:3:0:0:
246,166,105210,1,0,1:1:0:0:
148,43,105372,2,0,P|117:49|95:65,1,45.4999979171754,10|2,0:1|0:1,0:0:0:0:
42,137,105534,2,0,P|11:131|-11:115,1,45.4999979171754,2|2,0:1|0:1,0:0:0:0:
146,151,105696,6,0,P|148:219|123:330,1,181.999991668702,2|8,1:2|0:1,0:0:0:0:
288,383,106182,2,0,P|225:332|250:274,1,136.499993751526,2|0,0:0|0:0,0:0:0:0:
256,276,106507,1,2,1:2:0:0:
378,322,106669,2,0,B|342:253|400:264|361:179,1,136.499993751526,8|0,0:1|0:0,0:0:0:0:
352,169,106993,5,0,1:0:0:0:
238,68,107155,1,0,1:0:0:0:
101,177,107318,2,0,P|197:154|273:203,1,181.999991668702,8|2,0:1|0:0,0:0:0:0:
175,265,107804,1,0,1:0:0:0:
334,279,107966,2,0,P|371:298|431:300,1,90.9999958343508,8|2,0:1|0:3,0:0:0:0:
512,165,108291,5,2,1:2:0:0:
504,183,108615,5,8,0:1:0:0:
330,81,108777,2,0,P|389:66|472:74,1,136.499993751526,2|0,0:0|0:0,0:0:0:0:
487,83,109101,1,2,1:2:0:0:
319,185,109264,2,0,B|242:172|266:229|177:208,1,136.499993751526,8|0,0:1|0:0,0:0:0:0:
168,200,109588,5,0,1:0:0:0:
239,91,109750,1,0,1:0:0:0:
306,276,109912,2,0,L|297:375,1,90.9999958343508,8|0,0:1|0:0,0:0:0:0:
100,294,110237,2,0,L|109:393,1,90.9999958343508,2|0,0:3|1:0,0:0:0:0:
247,181,110561,2,0,L|238:90,1,90.9999958343508,8|2,0:1|0:0,0:0:0:0:
204,327,110885,5,2,1:0:0:0:
214,341,111210,5,8,0:1:0:0:
306,276,111372,1,2,0:1:0:0:
241,184,111534,1,2,0:1:0:0:
149,249,111696,1,2,1:1:0:0:
58,181,111858,1,10,0:1:0:0:
94,74,112020,1,2,0:1:0:0:
207,75,112182,6,0,P|241:85|270:89,1,45.4999979171754,2|2,1:1|0:1,0:0:0:0:
370,150,112345,2,0,P|347:154|326:161,1,45.4999979171754,2|2,1:1|0:1,0:0:0:0:
239,265,112507,1,10,0:1:0:0:
255,269,112588,1,2,0:1:0:0:
272,272,112669,1,2,0:1:0:0:
289,275,112750,1,2,0:1:0:0:
308,277,112831,2,0,P|350:267|416:264,1,90.9999958343508,2|0,0:1|1:1,0:0:0:0:
234,178,113155,2,0,P|204:189|86:164,1,136.499993751526,10|0,0:1|0:1,0:0:0:0:
83,158,113480,5,0,1:1:0:0:
196,89,113642,1,2,0:1:0:0:
209,67,113723,1,2,0:1:0:0:
205,41,113804,2,0,P|174:27|150:26,1,45.4999979171754,10|2,0:1|0:1,0:0:0:0:
65,41,113966,2,0,P|37:60|24:81,1,45.4999979171754,2|2,0:1|0:1,0:0:0:0:
0,161,114128,2,0,P|3:194|14:216,1,45.4999979171754,2|2,0:1|0:1,0:0:0:0:
92,266,114291,1,2,1:1:0:0:
130,134,114453,2,0,L|123:188,3,45.4999979171754,10|2|2|2,0:1|0:1|0:1|0:1,0:0:0:0:
86,282,114777,5,2,1:1:0:0:
212,224,114939,1,2,1:1:0:0:
308,320,115101,2,0,P|344:340|406:350,1,90.9999958343508,10|2,0:1|0:1,0:0:0:0:
196,326,115426,1,2,0:3:0:0:
322,217,115588,1,2,1:1:0:0:
184,189,115750,2,0,P|201:216|226:230,1,45.4999979171754,10|2,0:1|0:1,0:0:0:0:
163,64,115912,2,0,P|145:78|135:98,1,45.4999979171754,2|2,0:1|0:1,0:0:0:0:
280,11,116074,5,2,1:1:0:0:
292,23,116399,5,8,0:1:0:0:
460,115,116561,2,0,P|358:105|319:112,1,136.499993751526,2|0,0:1|0:0,0:0:0:0:
302,125,116885,1,2,1:2:0:0:
211,223,117047,2,0,P|236:229|304:227,1,90.9999958343508,10|2,0:1|0:1,0:0:0:0:
472,213,117372,6,0,P|466:241|466:266,1,45.4999979171754,2|2,1:1|0:1,0:0:0:0:
381,344,117534,2,0,P|379:321|374:299,1,45.4999979171754,2|2,1:1|0:1,0:0:0:0:
300,227,117696,2,0,P|224:227|117:264,1,181.999991668702,10|2,0:1|0:0,0:0:0:0:
230,318,118182,1,0,1:0:0:0:
170,145,118345,2,0,P|175:103|192:40,1,90.9999958343508,8|2,0:1|0:3,0:0:0:0:
20,192,118669,6,0,P|60:221|40:348,1,181.999991668702,2|8,1:2|0:1,0:0:0:0:
193,384,119155,2,0,P|178:287|181:243,1,136.499993751526,2|0,0:0|0:0,0:0:0:0:
195,228,119480,1,2,1:2:0:0:
363,159,119642,2,0,B|289:167|315:117|229:126,1,136.499993751526,8|0,0:1|0:0,0:0:0:0:
215,136,119966,5,0,1:0:0:0:
330,257,120128,1,0,1:0:0:0:
361,68,120291,1,0,1:0:0:0:
197,146,120453,6,0,P|159:146|107:117,1,90.9999958343508,12|0,1:2|1:0,0:0:0:0:
89,101,120696,2,0,P|50:105|7:142,1,90.9999958343508,12|0,0:2|0:0,0:0:0:0:
7,169,120939,1,12,0:2:0:0:
101,288,121101,5,0,1:0:0:0:
148,277,121182,5,0,1:0:0:0:
197,273,121263,5,2,1:0:0:0:
