osu file format v14

[General]
AudioFilename: audio.mp3
AudioLeadIn: 0
PreviewTime: -1
Countdown: 0
SampleSet: Soft
StackLeniency: 0.7
Mode: 3
LetterboxInBreaks: 0
SpecialStyle: 0
WidescreenStoryboard: 0

[Editor]
DistanceSpacing: 0.8
BeatDivisor: 6
GridSize: 32
TimelineZoom: 1

[Metadata]
Title:Night Fall (Full Ver.)
TitleUnicode:Night Fall (Full Ver.)
Artist:Ginkiha
ArtistUnicode:Ginkiha
Creator:AetherKeys
Version:4k Another Harmonism
Source:
Tags:
BeatmapID:992478
BeatmapSetID:463494

[Difficulty]
HPDrainRate:5
CircleSize:4
OverallDifficulty:5
ApproachRate:5
SliderMultiplier:1.4
SliderTickRate:1

[Events]
//Background and Video events
0,0,"bg.jpg",0,0
//Break Periods
//Storyboard Layer 0 (Background)
//Storyboard Layer 1 (Fail)
//Storyboard Layer 2 (Pass)
//Storyboard Layer 3 (Foreground)
//Storyboard Sound Samples

[TimingPoints]
91,325.803649000869,4,2,0,0,1,0
114828,325.803649000869,4,2,0,0,1,0
134430,325.803649000869,4,2,0,0,1,0
229673,325.803649000869,4,2,0,0,1,0

[HitObjects]
64,192,91,5,0,0:0:0:0:
448,192,91,1,0,0:0:0:0:
192,192,416,1,0,0:0:0:0:
320,192,416,1,0,0:0:0:0:
448,192,742,1,0,0:0:0:0:
320,192,1068,1,0,0:0:0:0:
448,192,1394,1,0,0:0:0:0:
64,192,2045,1,0,0:0:0:0:
192,192,2697,1,0,0:0:0:0:
64,192,2697,1,0,0:0:0:0:
320,192,3023,1,0,0:0:0:0:
192,192,3349,1,0,0:0:0:0:
448,192,3674,1,0,0:0:0:0:
320,192,4000,1,0,0:0:0:0:
192,192,4652,1,0,0:0:0:0:
320,192,4978,1,0,0:0:0:0:
64,192,5303,1,0,0:0:0:0:
448,192,5303,1,0,0:0:0:0:
192,192,5629,1,0,0:0:0:0:
448,192,5955,1,0,0:0:0:0:
320,192,6281,1,0,0:0:0:0:
448,192,6607,1,0,0:0:0:0:
192,192,6607,1,0,0:0:0:0:
64,192,7258,1,0,0:0:0:0:
192,192,7910,1,0,0:0:0:0:
320,192,7910,1,0,0:0:0:0:
448,192,7910,1,0,0:0:0:0:
64,192,8236,1,0,0:0:0:0:
448,192,8561,1,0,0:0:0:0:
192,192,8561,1,0,0:0:0:0:
192,192,8887,1,0,0:0:0:0:
320,192,9213,1,0,0:0:0:0:
448,192,9213,1,0,0:0:0:0:
192,192,9539,1,0,0:0:0:0:
448,192,9539,1,0,0:0:0:0:
64,192,9865,1,0,0:0:0:0:
320,192,9865,1,0,0:0:0:0:
64,192,10190,1,0,0:0:0:0:
448,192,10516,1,0,0:0:0:0:
320,192,10516,1,0,0:0:0:0:
320,192,10842,1,0,0:0:0:0:
64,192,11168,1,0,0:0:0:0:
192,192,11494,1,0,0:0:0:0:
64,192,11819,1,0,0:0:0:0:
320,192,12471,1,0,0:0:0:0:
64,192,13123,1,0,0:0:0:0:
192,192,13123,1,0,0:0:0:0:
320,192,13448,1,0,0:0:0:0:
192,192,13774,1,0,0:0:0:0:
448,192,14100,1,0,0:0:0:0:
320,192,14426,1,0,0:0:0:0:
192,192,15077,1,0,0:0:0:0:
64,192,15403,1,0,0:0:0:0:
320,192,15729,1,0,0:0:0:0:
448,192,15729,1,0,0:0:0:0:
192,192,16055,1,0,0:0:0:0:
320,192,16381,1,0,0:0:0:0:
64,192,16706,1,0,0:0:0:0:
320,192,17032,1,0,0:0:0:0:
448,192,17032,1,0,0:0:0:0:
192,192,17684,1,0,0:0:0:0:
64,192,18336,1,0,0:0:0:0:
192,192,18336,1,0,0:0:0:0:
320,192,18336,1,0,0:0:0:0:
448,192,18661,1,0,0:0:0:0:
64,192,18987,1,0,0:0:0:0:
320,192,18987,1,0,0:0:0:0:
64,192,19313,1,0,0:0:0:0:
320,192,19639,1,0,0:0:0:0:
448,192,19639,1,0,0:0:0:0:
320,192,19965,1,0,0:0:0:0:
192,192,20290,1,0,0:0:0:0:
448,192,20290,1,0,0:0:0:0:
320,192,20399,1,0,0:0:0:0:
192,192,20508,1,0,0:0:0:0:
64,192,20616,1,0,0:0:0:0:
320,192,20616,1,0,0:0:0:0:
192,192,20725,1,0,0:0:0:0:
64,192,20833,1,0,0:0:0:0:
448,192,20942,128,0,21594:0:0:0:0:
320,192,20942,1,0,0:0:0:0:
320,192,21594,128,0,21756:0:0:0:0:
192,192,21756,1,0,0:0:0:0:
64,192,21756,128,0,21919:0:0:0:0:
192,192,21919,128,0,22082:0:0:0:0:
320,192,22082,1,0,0:0:0:0:
448,192,22164,1,0,0:0:0:0:
320,192,22245,128,0,22897:0:0:0:0:
192,192,22897,128,0,23548:0:0:0:0:
64,192,23548,128,0,24200:0:0:0:0:
320,192,23548,128,0,24200:0:0:0:0:
448,192,23548,1,0,0:0:0:0:
192,192,24526,128,0,24852:0:0:0:0:
64,192,24852,1,0,0:0:0:0:
320,192,24960,1,0,0:0:0:0:
448,192,25014,128,0,25177:0:0:0:0:
320,192,25177,128,0,25340:0:0:0:0:
192,192,25340,128,0,25503:0:0:0:0:
320,192,25503,128,0,25666:0:0:0:0:
192,192,25666,128,0,25829:0:0:0:0:
448,192,25829,128,0,25992:0:0:0:0:
64,192,25992,128,0,26155:0:0:0:0:
192,192,26155,128,0,26481:0:0:0:0:
320,192,26481,128,0,26806:0:0:0:0:
64,192,26806,128,0,27132:0:0:0:0:
448,192,27132,128,0,27458:0:0:0:0:
192,192,27404,1,0,0:0:0:0:
64,192,27458,128,0,28110:0:0:0:0:
192,192,28110,128,0,28761:0:0:0:0:
320,192,28761,128,0,29087:0:0:0:0:
448,192,28761,128,0,29087:0:0:0:0:
192,192,29087,128,0,29413:0:0:0:0:
64,192,29413,128,0,29739:0:0:0:0:
192,192,29739,128,0,30064:0:0:0:0:
320,192,30010,1,0,0:0:0:0:
448,192,30064,128,0,30390:0:0:0:0:
64,192,30390,128,0,30716:0:0:0:0:
192,192,30716,128,0,31042:0:0:0:0:
320,192,31042,128,0,31368:0:0:0:0:
64,192,31368,128,0,32019:0:0:0:0:
192,192,31368,128,0,32019:0:0:0:0:
448,192,32019,1,0,0:0:0:0:
320,192,32182,1,0,0:0:0:0:
448,192,32345,1,0,0:0:0:0:
192,192,32508,1,0,0:0:0:0:
320,192,32617,1,0,0:0:0:0:
448,192,32671,128,0,33322:0:0:0:0:
192,192,33322,128,0,33974:0:0:0:0:
64,192,33974,128,0,34734:0:0:0:0:
320,192,33974,1,0,0:0:0:0:
192,192,34951,1,0,0:0:0:0:
448,192,34951,128,0,35277:0:0:0:0:
192,192,35277,128,0,35440:0:0:0:0:
320,192,35386,1,0,0:0:0:0:
448,192,35440,128,0,35603:0:0:0:0:
320,192,35603,128,0,35766:0:0:0:0:
192,192,35766,128,0,35929:0:0:0:0:
448,192,35929,128,0,36092:0:0:0:0:
192,192,36092,128,0,36255:0:0:0:0:
320,192,36255,128,0,36418:0:0:0:0:
64,192,36418,128,0,36581:0:0:0:0:
320,192,36581,128,0,36906:0:0:0:0:
192,192,36581,128,0,36906:0:0:0:0:
448,192,36906,128,0,37232:0:0:0:0:
192,192,37232,128,0,37558:0:0:0:0:
64,192,37558,128,0,37884:0:0:0:0:
320,192,37829,1,0,0:0:0:0:
448,192,37884,128,0,38535:0:0:0:0:
320,192,38535,128,0,39187:0:0:0:0:
64,192,39187,128,0,39513:0:0:0:0:
192,192,39187,1,0,0:0:0:0:
448,192,39187,1,0,0:0:0:0:
192,192,39513,128,0,39839:0:0:0:0:
448,192,39839,1,0,0:0:0:0:
320,192,39839,128,0,40056:0:0:0:0:
192,192,40164,1,0,0:0:0:0:
320,192,40164,128,0,40490:0:0:0:0:
448,192,40490,128,0,40816:0:0:0:0:
320,192,40816,128,0,41142:0:0:0:0:
192,192,41142,128,0,41468:0:0:0:0:
64,192,41468,128,0,41793:0:0:0:0:
192,192,41793,1,0,0:0:0:0:
320,192,41793,1,0,0:0:0:0:
448,192,42445,1,0,0:0:0:0:
192,192,42608,1,0,0:0:0:0:
448,192,42771,1,0,0:0:0:0:
320,192,42934,1,0,0:0:0:0:
192,192,42988,1,0,0:0:0:0:
64,192,43042,1,0,0:0:0:0:
448,192,43097,1,0,0:0:0:0:
320,192,43748,1,0,0:0:0:0:
448,192,43748,1,0,0:0:0:0:
64,192,44400,1,0,0:0:0:0:
320,192,44400,1,0,0:0:0:0:
448,192,44400,1,0,0:0:0:0:
448,192,44726,1,0,0:0:0:0:
320,192,45051,1,0,0:0:0:0:
192,192,45377,1,0,0:0:0:0:
448,192,45377,1,0,0:0:0:0:
64,192,45377,1,0,0:0:0:0:
448,192,45703,1,0,0:0:0:0:
320,192,45703,1,0,0:0:0:0:
192,192,46029,1,0,0:0:0:0:
320,192,46192,1,0,0:0:0:0:
320,192,46680,1,0,0:0:0:0:
448,192,46843,1,0,0:0:0:0:
192,192,47006,1,0,0:0:0:0:
320,192,47006,1,0,0:0:0:0:
448,192,47006,1,0,0:0:0:0:
64,192,47332,1,0,0:0:0:0:
320,192,47658,1,0,0:0:0:0:
64,192,47658,1,0,0:0:0:0:
192,192,47658,1,0,0:0:0:0:
192,192,47984,1,0,0:0:0:0:
448,192,47984,1,0,0:0:0:0:
192,192,48309,1,0,0:0:0:0:
320,192,48309,1,0,0:0:0:0:
64,192,48961,1,0,0:0:0:0:
192,192,49124,1,0,0:0:0:0:
320,192,49287,1,0,0:0:0:0:
448,192,49450,1,0,0:0:0:0:
64,192,49613,1,0,0:0:0:0:
192,192,49613,1,0,0:0:0:0:
320,192,49613,1,0,0:0:0:0:
320,192,49993,1,0,0:0:0:0:
448,192,49993,1,0,0:0:0:0:
320,192,50319,1,0,0:0:0:0:
448,192,50319,1,0,0:0:0:0:
64,192,50644,1,0,0:0:0:0:
192,192,50644,1,0,0:0:0:0:
448,192,50644,1,0,0:0:0:0:
64,192,52219,1,0,0:0:0:0:
192,192,52219,1,0,0:0:0:0:
320,192,52219,1,0,0:0:0:0:
448,192,52871,1,0,0:0:0:0:
192,192,52871,1,0,0:0:0:0:
320,192,52979,1,0,0:0:0:0:
192,192,53088,1,0,0:0:0:0:
448,192,53196,1,0,0:0:0:0:
64,192,53196,1,0,0:0:0:0:
320,192,53305,1,0,0:0:0:0:
192,192,53414,1,0,0:0:0:0:
448,192,53522,128,0,54174:0:0:0:0:
320,192,53522,1,0,0:0:0:0:
192,192,54174,128,0,54826:0:0:0:0:
320,192,54174,1,0,0:0:0:0:
64,192,54826,128,0,55586:0:0:0:0:
320,192,54826,1,0,0:0:0:0:
192,192,55803,1,0,0:0:0:0:
448,192,55803,128,0,56129:0:0:0:0:
192,192,56129,128,0,56292:0:0:0:0:
320,192,56237,1,0,0:0:0:0:
448,192,56292,128,0,56455:0:0:0:0:
320,192,56455,128,0,56617:0:0:0:0:
64,192,56455,1,0,0:0:0:0:
192,192,56617,128,0,56780:0:0:0:0:
448,192,56617,1,0,0:0:0:0:
448,192,56780,128,0,56943:0:0:0:0:
192,192,56943,128,0,57106:0:0:0:0:
320,192,57106,128,0,57269:0:0:0:0:
64,192,57269,128,0,57432:0:0:0:0:
192,192,57269,1,0,0:0:0:0:
192,192,57432,128,0,57758:0:0:0:0:
320,192,57432,1,0,0:0:0:0:
448,192,57432,1,0,0:0:0:0:
448,192,57758,128,0,58084:0:0:0:0:
192,192,58084,128,0,58409:0:0:0:0:
64,192,58084,1,0,0:0:0:0:
64,192,58409,128,0,58735:0:0:0:0:
320,192,58409,1,0,0:0:0:0:
448,192,58409,1,0,0:0:0:0:
320,192,58681,1,0,0:0:0:0:
448,192,58735,128,0,59387:0:0:0:0:
320,192,59387,128,0,60038:0:0:0:0:
64,192,59387,1,0,0:0:0:0:
192,192,59550,1,0,0:0:0:0:
448,192,59713,1,0,0:0:0:0:
192,192,59875,1,0,0:0:0:0:
64,192,60038,128,0,60364:0:0:0:0:
192,192,60038,1,0,0:0:0:0:
448,192,60038,1,0,0:0:0:0:
192,192,60364,128,0,60690:0:0:0:0:
320,192,60364,1,0,0:0:0:0:
448,192,60364,1,0,0:0:0:0:
448,192,60690,1,0,0:0:0:0:
320,192,60690,128,0,60907:0:0:0:0:
192,192,61016,1,0,0:0:0:0:
320,192,61016,128,0,61342:0:0:0:0:
64,192,61016,1,0,0:0:0:0:
192,192,61233,1,0,0:0:0:0:
448,192,61342,128,0,61667:0:0:0:0:
64,192,61342,1,0,0:0:0:0:
320,192,61667,128,0,61993:0:0:0:0:
192,192,61667,1,0,0:0:0:0:
192,192,61993,128,0,62319:0:0:0:0:
64,192,61993,1,0,0:0:0:0:
64,192,62319,128,0,62645:0:0:0:0:
320,192,62319,1,0,0:0:0:0:
320,192,62645,1,0,0:0:0:0:
192,192,62645,1,0,0:0:0:0:
448,192,62645,128,0,65251:0:0:0:0:
192,192,62971,1,0,0:0:0:0:
64,192,63025,1,0,0:0:0:0:
320,192,63134,1,0,0:0:0:0:
192,192,63296,1,0,0:0:0:0:
320,192,63459,1,0,0:0:0:0:
192,192,63622,1,0,0:0:0:0:
64,192,63785,1,0,0:0:0:0:
320,192,63948,1,0,0:0:0:0:
192,192,64111,1,0,0:0:0:0:
64,192,64274,1,0,0:0:0:0:
192,192,64437,1,0,0:0:0:0:
320,192,64600,1,0,0:0:0:0:
64,192,64763,1,0,0:0:0:0:
320,192,64925,1,0,0:0:0:0:
192,192,65088,1,0,0:0:0:0:
320,192,65251,128,0,67858:0:0:0:0:
64,192,65251,1,0,0:0:0:0:
192,192,65414,1,0,0:0:0:0:
448,192,65577,1,0,0:0:0:0:
64,192,65740,1,0,0:0:0:0:
192,192,65903,1,0,0:0:0:0:
64,192,66066,1,0,0:0:0:0:
448,192,66229,1,0,0:0:0:0:
192,192,66392,1,0,0:0:0:0:
448,192,66554,1,0,0:0:0:0:
192,192,66717,1,0,0:0:0:0:
64,192,66880,1,0,0:0:0:0:
448,192,67043,1,0,0:0:0:0:
64,192,67206,1,0,0:0:0:0:
192,192,67369,1,0,0:0:0:0:
448,192,67532,1,0,0:0:0:0:
192,192,67695,1,0,0:0:0:0:
64,192,67858,128,0,70410:0:0:0:0:
192,192,67858,1,0,0:0:0:0:
448,192,67858,1,0,0:0:0:0:
320,192,68021,1,0,0:0:0:0:
192,192,68183,1,0,0:0:0:0:
448,192,68346,1,0,0:0:0:0:
320,192,68509,1,0,0:0:0:0:
448,192,68672,1,0,0:0:0:0:
192,192,68835,1,0,0:0:0:0:
192,192,68998,1,0,0:0:0:0:
448,192,69161,1,0,0:0:0:0:
192,192,69324,1,0,0:0:0:0:
320,192,69541,1,0,0:0:0:0:
448,192,69867,1,0,0:0:0:0:
192,192,70138,1,0,0:0:0:0:
64,192,70518,128,0,73071:0:0:0:0:
192,192,70518,1,0,0:0:0:0:
320,192,70518,1,0,0:0:0:0:
448,192,70844,1,0,0:0:0:0:
320,192,71007,1,0,0:0:0:0:
448,192,71170,1,0,0:0:0:0:
192,192,71333,1,0,0:0:0:0:
448,192,71496,1,0,0:0:0:0:
320,192,71604,1,0,0:0:0:0:
192,192,71822,1,0,0:0:0:0:
448,192,71822,1,0,0:0:0:0:
192,192,71985,1,0,0:0:0:0:
320,192,72147,1,0,0:0:0:0:
192,192,72310,1,0,0:0:0:0:
448,192,72473,1,0,0:0:0:0:
320,192,72636,1,0,0:0:0:0:
192,192,72799,1,0,0:0:0:0:
320,192,72962,1,0,0:0:0:0:
448,192,73071,128,0,75677:0:0:0:0:
192,192,73071,1,0,0:0:0:0:
192,192,73396,1,0,0:0:0:0:
64,192,73451,1,0,0:0:0:0:
320,192,73559,1,0,0:0:0:0:
192,192,73722,1,0,0:0:0:0:
320,192,73885,1,0,0:0:0:0:
192,192,74048,1,0,0:0:0:0:
64,192,74211,1,0,0:0:0:0:
320,192,74374,1,0,0:0:0:0:
192,192,74537,1,0,0:0:0:0:
64,192,74700,1,0,0:0:0:0:
192,192,74862,1,0,0:0:0:0:
320,192,75025,1,0,0:0:0:0:
64,192,75188,1,0,0:0:0:0:
320,192,75351,1,0,0:0:0:0:
192,192,75514,1,0,0:0:0:0:
320,192,75677,128,0,78283:0:0:0:0:
64,192,75677,1,0,0:0:0:0:
192,192,75840,1,0,0:0:0:0:
448,192,76003,1,0,0:0:0:0:
64,192,76166,1,0,0:0:0:0:
192,192,76329,1,0,0:0:0:0:
64,192,76491,1,0,0:0:0:0:
448,192,76654,1,0,0:0:0:0:
192,192,76817,1,0,0:0:0:0:
448,192,76980,1,0,0:0:0:0:
192,192,77143,1,0,0:0:0:0:
64,192,77306,1,0,0:0:0:0:
448,192,77469,1,0,0:0:0:0:
64,192,77632,1,0,0:0:0:0:
192,192,77795,1,0,0:0:0:0:
448,192,77958,1,0,0:0:0:0:
192,192,78120,1,0,0:0:0:0:
64,192,78283,128,0,80836:0:0:0:0:
192,192,78283,1,0,0:0:0:0:
448,192,78283,1,0,0:0:0:0:
320,192,78446,1,0,0:0:0:0:
192,192,78609,1,0,0:0:0:0:
448,192,78772,1,0,0:0:0:0:
320,192,78935,1,0,0:0:0:0:
448,192,79098,1,0,0:0:0:0:
192,192,79261,1,0,0:0:0:0:
192,192,79424,1,0,0:0:0:0:
448,192,79587,1,0,0:0:0:0:
192,192,79749,1,0,0:0:0:0:
320,192,79967,1,0,0:0:0:0:
448,192,80292,1,0,0:0:0:0:
192,192,80564,1,0,0:0:0:0:
64,192,80944,128,0,83496:0:0:0:0:
192,192,80944,1,0,0:0:0:0:
320,192,80944,1,0,0:0:0:0:
448,192,81270,1,0,0:0:0:0:
320,192,81433,1,0,0:0:0:0:
448,192,81596,1,0,0:0:0:0:
192,192,81759,1,0,0:0:0:0:
448,192,81922,1,0,0:0:0:0:
320,192,82030,1,0,0:0:0:0:
192,192,82247,1,0,0:0:0:0:
448,192,82247,1,0,0:0:0:0:
192,192,82410,1,0,0:0:0:0:
320,192,82573,1,0,0:0:0:0:
192,192,82736,1,0,0:0:0:0:
448,192,82899,1,0,0:0:0:0:
320,192,83062,1,0,0:0:0:0:
192,192,83225,1,0,0:0:0:0:
320,192,83388,1,0,0:0:0:0:
448,192,83496,128,0,84799:0:0:0:0:
192,192,83496,128,0,84799:0:0:0:0:
64,192,84799,128,0,86103:0:0:0:0:
320,192,84799,128,0,86103:0:0:0:0:
192,192,86157,128,0,86428:0:0:0:0:
320,192,86320,128,0,86428:0:0:0:0:
448,192,86320,1,0,0:0:0:0:
64,192,86646,128,0,86917:0:0:0:0:
192,192,86809,128,0,86917:0:0:0:0:
320,192,86809,1,0,0:0:0:0:
320,192,87134,128,0,87406:0:0:0:0:
448,192,87297,128,0,87406:0:0:0:0:
192,192,87623,128,0,87840:0:0:0:0:
64,192,87623,1,0,0:0:0:0:
320,192,87840,128,0,88003:0:0:0:0:
448,192,87840,1,0,0:0:0:0:
64,192,88003,128,0,88166:0:0:0:0:
192,192,88003,1,0,0:0:0:0:
448,192,88166,128,0,88329:0:0:0:0:
320,192,88329,128,0,88492:0:0:0:0:
192,192,88492,128,0,88655:0:0:0:0:
448,192,88492,1,0,0:0:0:0:
64,192,88655,128,0,88818:0:0:0:0:
320,192,88655,1,0,0:0:0:0:
320,192,88818,128,0,90012:0:0:0:0:
192,192,88818,1,0,0:0:0:0:
448,192,89035,1,0,0:0:0:0:
192,192,89198,1,0,0:0:0:0:
64,192,89361,1,0,0:0:0:0:
448,192,89524,1,0,0:0:0:0:
64,192,89687,1,0,0:0:0:0:
192,192,89849,1,0,0:0:0:0:
448,192,90012,128,0,91316:0:0:0:0:
64,192,90012,1,0,0:0:0:0:
320,192,90175,1,0,0:0:0:0:
192,192,90392,1,0,0:0:0:0:
64,192,90718,1,0,0:0:0:0:
320,192,90718,1,0,0:0:0:0:
64,192,91044,1,0,0:0:0:0:
320,192,91370,128,0,91533:0:0:0:0:
192,192,91533,128,0,91696:0:0:0:0:
448,192,91533,1,0,0:0:0:0:
64,192,91696,128,0,91859:0:0:0:0:
320,192,91859,128,0,92021:0:0:0:0:
192,192,92021,128,0,92184:0:0:0:0:
448,192,92184,128,0,92347:0:0:0:0:
320,192,92184,1,0,0:0:0:0:
64,192,92347,128,0,92510:0:0:0:0:
192,192,92510,128,0,92673:0:0:0:0:
320,192,92673,1,0,0:0:0:0:
64,192,92836,128,0,92999:0:0:0:0:
192,192,92836,1,0,0:0:0:0:
320,192,92999,1,0,0:0:0:0:
448,192,92999,128,0,93162:0:0:0:0:
192,192,93162,128,0,93325:0:0:0:0:
64,192,93162,1,0,0:0:0:0:
320,192,93325,128,0,93488:0:0:0:0:
448,192,93325,1,0,0:0:0:0:
64,192,93488,128,0,93650:0:0:0:0:
192,192,93488,1,0,0:0:0:0:
320,192,93650,128,0,93813:0:0:0:0:
448,192,93650,1,0,0:0:0:0:
192,192,93813,1,0,0:0:0:0:
64,192,93868,1,0,0:0:0:0:
192,192,93922,128,0,95225:0:0:0:0:
448,192,93922,128,0,95225:0:0:0:0:
320,192,95225,128,0,96528:0:0:0:0:
64,192,95225,128,0,96528:0:0:0:0:
192,192,96583,128,0,96854:0:0:0:0:
448,192,96746,1,0,0:0:0:0:
320,192,96746,128,0,96854:0:0:0:0:
64,192,97071,128,0,97343:0:0:0:0:
320,192,97234,1,0,0:0:0:0:
192,192,97234,128,0,97343:0:0:0:0:
320,192,97560,128,0,97832:0:0:0:0:
448,192,97723,128,0,97832:0:0:0:0:
64,192,98049,1,0,0:0:0:0:
192,192,98049,128,0,98266:0:0:0:0:
448,192,98266,1,0,0:0:0:0:
320,192,98266,128,0,98429:0:0:0:0:
192,192,98429,1,0,0:0:0:0:
64,192,98429,128,0,98592:0:0:0:0:
448,192,98592,128,0,98755:0:0:0:0:
320,192,98755,128,0,98918:0:0:0:0:
448,192,98918,1,0,0:0:0:0:
192,192,98918,128,0,99081:0:0:0:0:
320,192,99081,1,0,0:0:0:0:
64,192,99081,128,0,99243:0:0:0:0:
192,192,99243,1,0,0:0:0:0:
320,192,99243,128,0,100438:0:0:0:0:
448,192,99461,1,0,0:0:0:0:
192,192,99624,1,0,0:0:0:0:
64,192,99786,1,0,0:0:0:0:
448,192,99949,1,0,0:0:0:0:
64,192,100112,1,0,0:0:0:0:
192,192,100275,1,0,0:0:0:0:
64,192,100438,1,0,0:0:0:0:
448,192,100438,128,0,101741:0:0:0:0:
320,192,100601,1,0,0:0:0:0:
192,192,100818,1,0,0:0:0:0:
320,192,101144,1,0,0:0:0:0:
64,192,101144,1,0,0:0:0:0:
64,192,101470,1,0,0:0:0:0:
320,192,101796,128,0,101958:0:0:0:0:
64,192,101796,1,0,0:0:0:0:
192,192,101958,128,0,102121:0:0:0:0:
64,192,102121,128,0,102284:0:0:0:0:
320,192,102284,128,0,102447:0:0:0:0:
448,192,102284,1,0,0:0:0:0:
192,192,102447,128,0,102610:0:0:0:0:
448,192,102610,128,0,102773:0:0:0:0:
64,192,102773,128,0,102936:0:0:0:0:
320,192,102773,1,0,0:0:0:0:
192,192,102936,128,0,103099:0:0:0:0:
320,192,103099,1,0,0:0:0:0:
192,192,103262,1,0,0:0:0:0:
64,192,103262,128,0,103425:0:0:0:0:
448,192,103425,128,0,103587:0:0:0:0:
320,192,103425,1,0,0:0:0:0:
64,192,103587,1,0,0:0:0:0:
192,192,103587,128,0,103750:0:0:0:0:
448,192,103750,1,0,0:0:0:0:
320,192,103750,128,0,103913:0:0:0:0:
192,192,103913,1,0,0:0:0:0:
64,192,103913,128,0,104076:0:0:0:0:
448,192,104076,1,0,0:0:0:0:
320,192,104076,128,0,104239:0:0:0:0:
192,192,104239,1,0,0:0:0:0:
64,192,104293,1,0,0:0:0:0:
192,192,104348,1,0,0:0:0:0:
320,192,104402,1,0,0:0:0:0:
448,192,104456,1,0,0:0:0:0:
192,192,107008,128,0,109343:0:0:0:0:
320,192,107008,128,0,109343:0:0:0:0:
448,192,107008,128,0,109343:0:0:0:0:
64,192,109615,128,0,111950:0:0:0:0:
192,192,109615,128,0,111950:0:0:0:0:
320,192,109615,128,0,111950:0:0:0:0:
448,192,112221,1,0,0:0:0:0:
448,192,114828,1,0,0:0:0:0:
64,192,114828,128,0,117434:0:0:0:0:
192,192,115153,1,0,0:0:0:0:
320,192,115153,1,0,0:0:0:0:
448,192,115479,1,0,0:0:0:0:
320,192,115805,1,0,0:0:0:0:
448,192,116131,1,0,0:0:0:0:
448,192,116783,1,0,0:0:0:0:
320,192,117163,1,0,0:0:0:0:
192,192,117326,1,0,0:0:0:0:
448,192,117434,128,0,118737:0:0:0:0:
320,192,117814,1,0,0:0:0:0:
192,192,118140,1,0,0:0:0:0:
64,192,118466,1,0,0:0:0:0:
192,192,118466,1,0,0:0:0:0:
320,192,118792,1,0,0:0:0:0:
64,192,118792,128,0,120095:0:0:0:0:
192,192,119443,1,0,0:0:0:0:
320,192,119769,1,0,0:0:0:0:
192,192,120095,1,0,0:0:0:0:
448,192,120095,1,0,0:0:0:0:
320,192,120095,128,0,122701:0:0:0:0:
64,192,120421,1,0,0:0:0:0:
448,192,120746,1,0,0:0:0:0:
192,192,121072,1,0,0:0:0:0:
64,192,121398,1,0,0:0:0:0:
448,192,121398,1,0,0:0:0:0:
192,192,121995,1,0,0:0:0:0:
64,192,122701,1,0,0:0:0:0:
448,192,122701,1,0,0:0:0:0:
192,192,122701,128,0,124004:0:0:0:0:
64,192,123027,1,0,0:0:0:0:
448,192,123353,1,0,0:0:0:0:
320,192,123353,1,0,0:0:0:0:
320,192,123679,1,0,0:0:0:0:
64,192,124004,1,0,0:0:0:0:
448,192,124004,1,0,0:0:0:0:
320,192,124004,128,0,124330:0:0:0:0:
64,192,124330,1,0,0:0:0:0:
448,192,124330,1,0,0:0:0:0:
192,192,124330,128,0,124656:0:0:0:0:
448,192,124656,128,0,124982:0:0:0:0:
64,192,124656,1,0,0:0:0:0:
320,192,124656,1,0,0:0:0:0:
320,192,124982,1,0,0:0:0:0:
64,192,124982,128,0,125253:0:0:0:0:
320,192,125253,1,0,0:0:0:0:
448,192,125253,128,0,127806:0:0:0:0:
320,192,125634,1,0,0:0:0:0:
64,192,125959,1,0,0:0:0:0:
192,192,126285,1,0,0:0:0:0:
64,192,126611,1,0,0:0:0:0:
320,192,127208,1,0,0:0:0:0:
192,192,127643,1,0,0:0:0:0:
320,192,127751,1,0,0:0:0:0:
192,192,127806,1,0,0:0:0:0:
64,192,127914,128,0,130521:0:0:0:0:
320,192,128131,1,0,0:0:0:0:
448,192,128294,1,0,0:0:0:0:
320,192,128457,1,0,0:0:0:0:
192,192,128566,1,0,0:0:0:0:
448,192,128892,1,0,0:0:0:0:
320,192,129217,1,0,0:0:0:0:
192,192,129217,1,0,0:0:0:0:
192,192,129869,1,0,0:0:0:0:
320,192,130195,1,0,0:0:0:0:
320,192,130521,1,0,0:0:0:0:
448,192,130521,128,0,131824:0:0:0:0:
192,192,130846,1,0,0:0:0:0:
320,192,131172,1,0,0:0:0:0:
64,192,131498,1,0,0:0:0:0:
320,192,131824,1,0,0:0:0:0:
64,192,131824,1,0,0:0:0:0:
192,192,131824,128,0,132964:0:0:0:0:
448,192,132475,1,0,0:0:0:0:
64,192,133127,1,0,0:0:0:0:
320,192,133127,1,0,0:0:0:0:
448,192,133127,1,0,0:0:0:0:
192,192,133127,128,0,134322:0:0:0:0:
448,192,133453,1,0,0:0:0:0:
64,192,133779,1,0,0:0:0:0:
320,192,133779,1,0,0:0:0:0:
64,192,134104,1,0,0:0:0:0:
320,192,134322,1,0,0:0:0:0:
64,192,134430,128,0,135733:0:0:0:0:
192,192,134430,1,0,0:0:0:0:
448,192,134593,1,0,0:0:0:0:
192,192,134756,1,0,0:0:0:0:
320,192,134919,1,0,0:0:0:0:
448,192,135082,1,0,0:0:0:0:
192,192,135299,1,0,0:0:0:0:
448,192,135299,1,0,0:0:0:0:
320,192,135408,1,0,0:0:0:0:
192,192,135516,1,0,0:0:0:0:
320,192,135625,1,0,0:0:0:0:
448,192,135733,128,0,136385:0:0:0:0:
192,192,135733,1,0,0:0:0:0:
320,192,136385,128,0,136548:0:0:0:0:
192,192,136548,1,0,0:0:0:0:
64,192,136548,128,0,136711:0:0:0:0:
192,192,136711,128,0,136874:0:0:0:0:
320,192,136874,1,0,0:0:0:0:
448,192,136955,1,0,0:0:0:0:
320,192,137037,128,0,137688:0:0:0:0:
192,192,137688,128,0,138340:0:0:0:0:
64,192,137688,1,0,0:0:0:0:
64,192,138340,128,0,138991:0:0:0:0:
320,192,138340,128,0,138991:0:0:0:0:
448,192,138340,1,0,0:0:0:0:
192,192,139317,128,0,139643:0:0:0:0:
64,192,139643,1,0,0:0:0:0:
320,192,139752,1,0,0:0:0:0:
448,192,139806,128,0,139969:0:0:0:0:
320,192,139969,128,0,140132:0:0:0:0:
192,192,140132,128,0,140295:0:0:0:0:
64,192,140132,1,0,0:0:0:0:
320,192,140295,128,0,140458:0:0:0:0:
448,192,140295,1,0,0:0:0:0:
192,192,140458,128,0,140620:0:0:0:0:
64,192,140458,1,0,0:0:0:0:
448,192,140620,128,0,140783:0:0:0:0:
64,192,140783,128,0,140946:0:0:0:0:
320,192,140783,1,0,0:0:0:0:
192,192,140946,128,0,141272:0:0:0:0:
320,192,141272,128,0,141598:0:0:0:0:
448,192,141272,1,0,0:0:0:0:
64,192,141598,128,0,141924:0:0:0:0:
192,192,141598,1,0,0:0:0:0:
448,192,141924,128,0,142249:0:0:0:0:
192,192,142195,1,0,0:0:0:0:
64,192,142249,128,0,142901:0:0:0:0:
192,192,142901,128,0,143553:0:0:0:0:
320,192,142901,1,0,0:0:0:0:
320,192,143553,128,0,143879:0:0:0:0:
448,192,143553,128,0,143879:0:0:0:0:
192,192,143879,128,0,144204:0:0:0:0:
64,192,144204,128,0,144530:0:0:0:0:
320,192,144204,1,0,0:0:0:0:
192,192,144530,128,0,144856:0:0:0:0:
320,192,144802,1,0,0:0:0:0:
448,192,144856,128,0,145182:0:0:0:0:
64,192,144856,1,0,0:0:0:0:
64,192,145182,128,0,145508:0:0:0:0:
192,192,145508,128,0,145833:0:0:0:0:
320,192,145508,1,0,0:0:0:0:
320,192,145833,128,0,146159:0:0:0:0:
448,192,145833,1,0,0:0:0:0:
64,192,146159,128,0,146811:0:0:0:0:
192,192,146159,128,0,146811:0:0:0:0:
448,192,146811,1,0,0:0:0:0:
320,192,146974,1,0,0:0:0:0:
448,192,147137,1,0,0:0:0:0:
192,192,147299,1,0,0:0:0:0:
320,192,147408,1,0,0:0:0:0:
448,192,147462,128,0,148114:0:0:0:0:
192,192,148114,128,0,148766:0:0:0:0:
64,192,148766,128,0,149526:0:0:0:0:
320,192,148766,1,0,0:0:0:0:
192,192,149743,1,0,0:0:0:0:
448,192,149743,128,0,150069:0:0:0:0:
192,192,150069,128,0,150232:0:0:0:0:
320,192,150177,1,0,0:0:0:0:
448,192,150232,128,0,150395:0:0:0:0:
320,192,150395,128,0,150557:0:0:0:0:
192,192,150557,128,0,150720:0:0:0:0:
64,192,150557,1,0,0:0:0:0:
448,192,150720,128,0,150883:0:0:0:0:
192,192,150883,128,0,151046:0:0:0:0:
320,192,150883,1,0,0:0:0:0:
320,192,151046,128,0,151209:0:0:0:0:
64,192,151209,128,0,151372:0:0:0:0:
448,192,151209,1,0,0:0:0:0:
320,192,151372,128,0,151698:0:0:0:0:
192,192,151372,128,0,151698:0:0:0:0:
448,192,151698,128,0,152024:0:0:0:0:
192,192,152024,128,0,152349:0:0:0:0:
64,192,152349,128,0,152675:0:0:0:0:
320,192,152349,1,0,0:0:0:0:
320,192,152621,1,0,0:0:0:0:
448,192,152675,128,0,153327:0:0:0:0:
192,192,152675,1,0,0:0:0:0:
320,192,153327,128,0,153978:0:0:0:0:
64,192,153978,128,0,154304:0:0:0:0:
192,192,153978,1,0,0:0:0:0:
448,192,153978,1,0,0:0:0:0:
192,192,154304,128,0,154630:0:0:0:0:
448,192,154630,1,0,0:0:0:0:
320,192,154630,128,0,154847:0:0:0:0:
192,192,154956,1,0,0:0:0:0:
320,192,154956,128,0,155282:0:0:0:0:
448,192,155282,128,0,155607:0:0:0:0:
320,192,155607,128,0,155933:0:0:0:0:
64,192,155607,1,0,0:0:0:0:
192,192,155933,128,0,156259:0:0:0:0:
448,192,155933,1,0,0:0:0:0:
64,192,156259,128,0,156585:0:0:0:0:
320,192,156259,1,0,0:0:0:0:
192,192,156585,1,0,0:0:0:0:
320,192,156585,1,0,0:0:0:0:
192,192,157236,1,0,0:0:0:0:
448,192,157399,1,0,0:0:0:0:
64,192,157562,1,0,0:0:0:0:
192,192,157725,1,0,0:0:0:0:
320,192,157779,1,0,0:0:0:0:
448,192,157834,1,0,0:0:0:0:
64,192,157888,1,0,0:0:0:0:
192,192,158540,1,0,0:0:0:0:
64,192,158540,1,0,0:0:0:0:
448,192,159191,1,0,0:0:0:0:
192,192,159191,1,0,0:0:0:0:
64,192,159191,1,0,0:0:0:0:
64,192,159517,1,0,0:0:0:0:
192,192,159843,1,0,0:0:0:0:
64,192,160169,1,0,0:0:0:0:
448,192,160169,1,0,0:0:0:0:
320,192,160169,1,0,0:0:0:0:
64,192,160494,1,0,0:0:0:0:
192,192,160494,1,0,0:0:0:0:
320,192,160820,1,0,0:0:0:0:
192,192,160983,1,0,0:0:0:0:
192,192,161472,1,0,0:0:0:0:
64,192,161635,1,0,0:0:0:0:
320,192,161798,1,0,0:0:0:0:
192,192,161798,1,0,0:0:0:0:
64,192,161798,1,0,0:0:0:0:
448,192,162124,1,0,0:0:0:0:
192,192,162449,1,0,0:0:0:0:
448,192,162449,1,0,0:0:0:0:
320,192,162449,1,0,0:0:0:0:
320,192,162775,1,0,0:0:0:0:
64,192,162775,1,0,0:0:0:0:
320,192,163101,1,0,0:0:0:0:
192,192,163101,1,0,0:0:0:0:
448,192,163753,1,0,0:0:0:0:
320,192,163915,1,0,0:0:0:0:
192,192,164078,1,0,0:0:0:0:
64,192,164241,1,0,0:0:0:0:
320,192,164404,1,0,0:0:0:0:
192,192,164404,1,0,0:0:0:0:
448,192,164404,1,0,0:0:0:0:
192,192,164784,1,0,0:0:0:0:
64,192,164784,1,0,0:0:0:0:
448,192,165110,1,0,0:0:0:0:
320,192,165110,1,0,0:0:0:0:
448,192,165436,1,0,0:0:0:0:
192,192,165436,1,0,0:0:0:0:
64,192,165436,1,0,0:0:0:0:
320,192,167011,1,0,0:0:0:0:
192,192,167011,1,0,0:0:0:0:
64,192,167011,1,0,0:0:0:0:
192,192,167662,1,0,0:0:0:0:
448,192,167662,1,0,0:0:0:0:
320,192,167771,1,0,0:0:0:0:
192,192,167879,1,0,0:0:0:0:
64,192,167988,1,0,0:0:0:0:
448,192,167988,1,0,0:0:0:0:
320,192,168097,1,0,0:0:0:0:
192,192,168205,1,0,0:0:0:0:
320,192,168314,1,0,0:0:0:0:
448,192,168314,128,0,168965:0:0:0:0:
320,192,168965,1,0,0:0:0:0:
192,192,168965,128,0,169617:0:0:0:0:
320,192,169617,1,0,0:0:0:0:
64,192,169617,128,0,170377:0:0:0:0:
448,192,170594,128,0,170920:0:0:0:0:
320,192,170594,1,0,0:0:0:0:
192,192,170920,128,0,171083:0:0:0:0:
320,192,171029,1,0,0:0:0:0:
448,192,171083,128,0,171246:0:0:0:0:
64,192,171246,1,0,0:0:0:0:
320,192,171246,128,0,171409:0:0:0:0:
448,192,171409,1,0,0:0:0:0:
192,192,171409,128,0,171572:0:0:0:0:
448,192,171572,128,0,171735:0:0:0:0:
192,192,171735,128,0,171898:0:0:0:0:
320,192,171735,1,0,0:0:0:0:
320,192,171898,128,0,172061:0:0:0:0:
192,192,172061,1,0,0:0:0:0:
64,192,172061,128,0,172223:0:0:0:0:
448,192,172223,1,0,0:0:0:0:
320,192,172223,1,0,0:0:0:0:
192,192,172223,128,0,172549:0:0:0:0:
448,192,172549,128,0,172875:0:0:0:0:
64,192,172875,1,0,0:0:0:0:
192,192,172875,128,0,173201:0:0:0:0:
448,192,173201,1,0,0:0:0:0:
320,192,173201,1,0,0:0:0:0:
64,192,173201,128,0,173527:0:0:0:0:
320,192,173472,1,0,0:0:0:0:
448,192,173527,128,0,174178:0:0:0:0:
64,192,174178,1,0,0:0:0:0:
320,192,174178,128,0,174830:0:0:0:0:
192,192,174341,1,0,0:0:0:0:
448,192,174504,1,0,0:0:0:0:
192,192,174667,1,0,0:0:0:0:
448,192,174830,1,0,0:0:0:0:
192,192,174830,1,0,0:0:0:0:
64,192,174830,128,0,175156:0:0:0:0:
448,192,175156,1,0,0:0:0:0:
320,192,175156,1,0,0:0:0:0:
192,192,175156,128,0,175481:0:0:0:0:
320,192,175481,128,0,175699:0:0:0:0:
448,192,175481,1,0,0:0:0:0:
64,192,175807,1,0,0:0:0:0:
320,192,175807,128,0,176133:0:0:0:0:
192,192,175807,1,0,0:0:0:0:
192,192,176024,1,0,0:0:0:0:
64,192,176133,1,0,0:0:0:0:
448,192,176133,128,0,176459:0:0:0:0:
192,192,176459,1,0,0:0:0:0:
320,192,176459,128,0,176785:0:0:0:0:
64,192,176785,1,0,0:0:0:0:
192,192,176785,128,0,177110:0:0:0:0:
320,192,177110,1,0,0:0:0:0:
64,192,177110,128,0,177436:0:0:0:0:
448,192,177436,128,0,180043:0:0:0:0:
192,192,177436,1,0,0:0:0:0:
320,192,177436,1,0,0:0:0:0:
192,192,177762,1,0,0:0:0:0:
64,192,177816,1,0,0:0:0:0:
320,192,177925,1,0,0:0:0:0:
192,192,178088,1,0,0:0:0:0:
320,192,178251,1,0,0:0:0:0:
192,192,178414,1,0,0:0:0:0:
64,192,178577,1,0,0:0:0:0:
320,192,178740,1,0,0:0:0:0:
192,192,178902,1,0,0:0:0:0:
64,192,179065,1,0,0:0:0:0:
192,192,179228,1,0,0:0:0:0:
320,192,179391,1,0,0:0:0:0:
64,192,179554,1,0,0:0:0:0:
320,192,179717,1,0,0:0:0:0:
192,192,179880,1,0,0:0:0:0:
64,192,180043,1,0,0:0:0:0:
320,192,180043,128,0,182649:0:0:0:0:
192,192,180206,1,0,0:0:0:0:
448,192,180369,1,0,0:0:0:0:
64,192,180531,1,0,0:0:0:0:
192,192,180694,1,0,0:0:0:0:
64,192,180857,1,0,0:0:0:0:
448,192,181020,1,0,0:0:0:0:
192,192,181183,1,0,0:0:0:0:
448,192,181346,1,0,0:0:0:0:
192,192,181509,1,0,0:0:0:0:
64,192,181672,1,0,0:0:0:0:
448,192,181835,1,0,0:0:0:0:
64,192,181998,1,0,0:0:0:0:
192,192,182160,1,0,0:0:0:0:
448,192,182323,1,0,0:0:0:0:
192,192,182486,1,0,0:0:0:0:
448,192,182649,1,0,0:0:0:0:
192,192,182649,1,0,0:0:0:0:
64,192,182649,128,0,185201:0:0:0:0:
320,192,182812,1,0,0:0:0:0:
192,192,182975,1,0,0:0:0:0:
448,192,183138,1,0,0:0:0:0:
320,192,183301,1,0,0:0:0:0:
448,192,183464,1,0,0:0:0:0:
192,192,183627,1,0,0:0:0:0:
192,192,183789,1,0,0:0:0:0:
448,192,183952,1,0,0:0:0:0:
192,192,184115,1,0,0:0:0:0:
320,192,184332,1,0,0:0:0:0:
448,192,184658,1,0,0:0:0:0:
192,192,184930,1,0,0:0:0:0:
320,192,185310,1,0,0:0:0:0:
192,192,185310,1,0,0:0:0:0:
64,192,185310,128,0,187862:0:0:0:0:
448,192,185636,1,0,0:0:0:0:
320,192,185799,1,0,0:0:0:0:
448,192,185961,1,0,0:0:0:0:
192,192,186124,1,0,0:0:0:0:
448,192,186287,1,0,0:0:0:0:
320,192,186396,1,0,0:0:0:0:
448,192,186613,1,0,0:0:0:0:
192,192,186613,1,0,0:0:0:0:
192,192,186776,1,0,0:0:0:0:
320,192,186939,1,0,0:0:0:0:
192,192,187102,1,0,0:0:0:0:
448,192,187265,1,0,0:0:0:0:
320,192,187428,1,0,0:0:0:0:
192,192,187591,1,0,0:0:0:0:
320,192,187753,1,0,0:0:0:0:
192,192,187862,1,0,0:0:0:0:
448,192,187862,128,0,190468:0:0:0:0:
192,192,188188,1,0,0:0:0:0:
64,192,188242,1,0,0:0:0:0:
320,192,188351,1,0,0:0:0:0:
192,192,188514,1,0,0:0:0:0:
320,192,188677,1,0,0:0:0:0:
192,192,188839,1,0,0:0:0:0:
64,192,189002,1,0,0:0:0:0:
320,192,189165,1,0,0:0:0:0:
192,192,189328,1,0,0:0:0:0:
64,192,189491,1,0,0:0:0:0:
192,192,189654,1,0,0:0:0:0:
320,192,189817,1,0,0:0:0:0:
64,192,189980,1,0,0:0:0:0:
320,192,190143,1,0,0:0:0:0:
192,192,190306,1,0,0:0:0:0:
64,192,190468,1,0,0:0:0:0:
320,192,190468,128,0,193075:0:0:0:0:
192,192,190631,1,0,0:0:0:0:
448,192,190794,1,0,0:0:0:0:
64,192,190957,1,0,0:0:0:0:
192,192,191120,1,0,0:0:0:0:
64,192,191283,1,0,0:0:0:0:
448,192,191446,1,0,0:0:0:0:
192,192,191609,1,0,0:0:0:0:
448,192,191772,1,0,0:0:0:0:
192,192,191935,1,0,0:0:0:0:
64,192,192097,1,0,0:0:0:0:
448,192,192260,1,0,0:0:0:0:
64,192,192423,1,0,0:0:0:0:
192,192,192586,1,0,0:0:0:0:
448,192,192749,1,0,0:0:0:0:
192,192,192912,1,0,0:0:0:0:
448,192,193075,1,0,0:0:0:0:
192,192,193075,1,0,0:0:0:0:
64,192,193075,128,0,195627:0:0:0:0:
320,192,193238,1,0,0:0:0:0:
192,192,193401,1,0,0:0:0:0:
448,192,193564,1,0,0:0:0:0:
320,192,193726,1,0,0:0:0:0:
448,192,193889,1,0,0:0:0:0:
192,192,194052,1,0,0:0:0:0:
192,192,194215,1,0,0:0:0:0:
448,192,194378,1,0,0:0:0:0:
192,192,194541,1,0,0:0:0:0:
320,192,194758,1,0,0:0:0:0:
448,192,195084,1,0,0:0:0:0:
192,192,195355,1,0,0:0:0:0:
320,192,195736,1,0,0:0:0:0:
192,192,195736,1,0,0:0:0:0:
64,192,195736,128,0,198288:0:0:0:0:
448,192,196061,1,0,0:0:0:0:
320,192,196224,1,0,0:0:0:0:
448,192,196387,1,0,0:0:0:0:
192,192,196550,1,0,0:0:0:0:
448,192,196713,1,0,0:0:0:0:
320,192,196822,1,0,0:0:0:0:
448,192,197039,1,0,0:0:0:0:
192,192,197039,1,0,0:0:0:0:
192,192,197202,1,0,0:0:0:0:
320,192,197365,1,0,0:0:0:0:
192,192,197528,1,0,0:0:0:0:
448,192,197690,1,0,0:0:0:0:
320,192,197853,1,0,0:0:0:0:
192,192,198016,1,0,0:0:0:0:
320,192,198179,1,0,0:0:0:0:
448,192,198288,128,0,199591:0:0:0:0:
192,192,198288,128,0,199591:0:0:0:0:
64,192,199591,128,0,200894:0:0:0:0:
320,192,199591,128,0,200894:0:0:0:0:
192,192,200948,128,0,201220:0:0:0:0:
320,192,201111,128,0,201220:0:0:0:0:
448,192,201111,1,0,0:0:0:0:
64,192,201437,128,0,201709:0:0:0:0:
192,192,201600,128,0,201709:0:0:0:0:
320,192,201600,1,0,0:0:0:0:
320,192,201926,128,0,202197:0:0:0:0:
448,192,202089,128,0,202197:0:0:0:0:
192,192,202197,1,0,0:0:0:0:
192,192,202415,128,0,202632:0:0:0:0:
64,192,202415,1,0,0:0:0:0:
320,192,202632,128,0,202795:0:0:0:0:
448,192,202632,1,0,0:0:0:0:
64,192,202795,128,0,202958:0:0:0:0:
192,192,202795,1,0,0:0:0:0:
448,192,202958,128,0,203120:0:0:0:0:
192,192,202958,1,0,0:0:0:0:
320,192,203120,128,0,203283:0:0:0:0:
192,192,203283,128,0,203446:0:0:0:0:
448,192,203283,1,0,0:0:0:0:
64,192,203446,128,0,203609:0:0:0:0:
320,192,203446,1,0,0:0:0:0:
320,192,203609,128,0,204804:0:0:0:0:
192,192,203609,1,0,0:0:0:0:
448,192,203826,1,0,0:0:0:0:
192,192,203989,1,0,0:0:0:0:
64,192,204152,1,0,0:0:0:0:
448,192,204315,1,0,0:0:0:0:
64,192,204478,1,0,0:0:0:0:
192,192,204641,1,0,0:0:0:0:
448,192,204804,128,0,206107:0:0:0:0:
64,192,204804,1,0,0:0:0:0:
320,192,204967,1,0,0:0:0:0:
192,192,205184,1,0,0:0:0:0:
64,192,205510,1,0,0:0:0:0:
320,192,205510,1,0,0:0:0:0:
64,192,205836,1,0,0:0:0:0:
320,192,206161,128,0,206324:0:0:0:0:
192,192,206324,128,0,206487:0:0:0:0:
448,192,206324,1,0,0:0:0:0:
64,192,206487,128,0,206650:0:0:0:0:
320,192,206650,128,0,206813:0:0:0:0:
192,192,206813,128,0,206976:0:0:0:0:
448,192,206976,128,0,207139:0:0:0:0:
320,192,206976,1,0,0:0:0:0:
64,192,207139,128,0,207302:0:0:0:0:
192,192,207302,128,0,207465:0:0:0:0:
320,192,207465,1,0,0:0:0:0:
64,192,207627,128,0,207790:0:0:0:0:
192,192,207627,1,0,0:0:0:0:
320,192,207790,1,0,0:0:0:0:
448,192,207790,128,0,207953:0:0:0:0:
192,192,207953,128,0,208116:0:0:0:0:
64,192,207953,1,0,0:0:0:0:
320,192,208116,128,0,208279:0:0:0:0:
448,192,208116,1,0,0:0:0:0:
64,192,208279,128,0,208442:0:0:0:0:
192,192,208279,1,0,0:0:0:0:
320,192,208442,128,0,208605:0:0:0:0:
448,192,208442,1,0,0:0:0:0:
192,192,208605,1,0,0:0:0:0:
64,192,208659,1,0,0:0:0:0:
192,192,208713,128,0,210017:0:0:0:0:
448,192,208713,128,0,210017:0:0:0:0:
320,192,210017,128,0,211320:0:0:0:0:
64,192,210017,128,0,211320:0:0:0:0:
192,192,211374,128,0,211646:0:0:0:0:
448,192,211537,1,0,0:0:0:0:
320,192,211537,128,0,211646:0:0:0:0:
64,192,211863,128,0,212134:0:0:0:0:
320,192,212026,1,0,0:0:0:0:
192,192,212026,128,0,212134:0:0:0:0:
320,192,212352,128,0,212623:0:0:0:0:
448,192,212514,128,0,212623:0:0:0:0:
64,192,212840,1,0,0:0:0:0:
192,192,212840,128,0,213057:0:0:0:0:
448,192,213057,1,0,0:0:0:0:
320,192,213057,128,0,213220:0:0:0:0:
192,192,213220,1,0,0:0:0:0:
64,192,213220,128,0,213383:0:0:0:0:
448,192,213383,128,0,213546:0:0:0:0:
320,192,213383,1,0,0:0:0:0:
320,192,213546,128,0,213709:0:0:0:0:
448,192,213709,1,0,0:0:0:0:
192,192,213709,128,0,213872:0:0:0:0:
320,192,213872,1,0,0:0:0:0:
64,192,213872,128,0,214035:0:0:0:0:
192,192,214035,1,0,0:0:0:0:
320,192,214035,128,0,215230:0:0:0:0:
448,192,214252,1,0,0:0:0:0:
192,192,214415,1,0,0:0:0:0:
64,192,214578,1,0,0:0:0:0:
448,192,214741,1,0,0:0:0:0:
64,192,214904,1,0,0:0:0:0:
192,192,215067,1,0,0:0:0:0:
64,192,215230,1,0,0:0:0:0:
448,192,215230,128,0,216533:0:0:0:0:
320,192,215392,1,0,0:0:0:0:
192,192,215610,1,0,0:0:0:0:
320,192,215935,1,0,0:0:0:0:
64,192,215935,1,0,0:0:0:0:
64,192,216261,1,0,0:0:0:0:
320,192,216587,128,0,216750:0:0:0:0:
64,192,216587,1,0,0:0:0:0:
192,192,216750,128,0,216913:0:0:0:0:
448,192,216750,1,0,0:0:0:0:
64,192,216913,128,0,217076:0:0:0:0:
320,192,217076,128,0,217239:0:0:0:0:
448,192,217076,1,0,0:0:0:0:
192,192,217239,128,0,217402:0:0:0:0:
448,192,217402,128,0,217564:0:0:0:0:
64,192,217564,128,0,217727:0:0:0:0:
320,192,217564,1,0,0:0:0:0:
192,192,217727,128,0,217890:0:0:0:0:
320,192,217890,1,0,0:0:0:0:
192,192,218053,1,0,0:0:0:0:
64,192,218053,128,0,218216:0:0:0:0:
448,192,218216,128,0,218379:0:0:0:0:
320,192,218216,1,0,0:0:0:0:
64,192,218379,1,0,0:0:0:0:
192,192,218379,128,0,218542:0:0:0:0:
448,192,218542,1,0,0:0:0:0:
320,192,218542,128,0,218705:0:0:0:0:
192,192,218705,1,0,0:0:0:0:
64,192,218705,128,0,218868:0:0:0:0:
448,192,218868,1,0,0:0:0:0:
320,192,218868,128,0,219031:0:0:0:0:
192,192,219031,1,0,0:0:0:0:
64,192,219085,1,0,0:0:0:0:
192,192,219139,1,0,0:0:0:0:
320,192,219193,1,0,0:0:0:0:
448,192,219248,1,0,0:0:0:0:
192,192,221800,128,0,224135:0:0:0:0:
320,192,221800,128,0,224135:0:0:0:0:
448,192,221800,128,0,224135:0:0:0:0:
64,192,224406,128,0,226741:0:0:0:0:
192,192,224406,128,0,226741:0:0:0:0:
320,192,224406,128,0,226741:0:0:0:0:
448,192,227013,1,0,0:0:0:0:
64,192,229673,5,0,0:0:0:0:
448,192,229673,1,0,0:0:0:0:
320,192,229999,1,0,0:0:0:0:
192,192,229999,1,0,0:0:0:0:
448,192,230325,1,0,0:0:0:0:
320,192,230651,1,0,0:0:0:0:
448,192,230977,1,0,0:0:0:0:
64,192,231628,1,0,0:0:0:0:
64,192,232280,1,0,0:0:0:0:
192,192,232280,1,0,0:0:0:0:
320,192,232606,1,0,0:0:0:0:
192,192,232932,1,0,0:0:0:0:
448,192,233257,1,0,0:0:0:0:
320,192,233583,1,0,0:0:0:0:
192,192,234235,1,0,0:0:0:0:
320,192,234561,1,0,0:0:0:0:
448,192,234886,1,0,0:0:0:0:
64,192,234886,1,0,0:0:0:0:
192,192,235212,1,0,0:0:0:0:
448,192,235538,1,0,0:0:0:0:
320,192,235864,1,0,0:0:0:0:
192,192,236190,1,0,0:0:0:0:
448,192,236190,1,0,0:0:0:0:
64,192,236841,1,0,0:0:0:0:
448,192,237493,1,0,0:0:0:0:
320,192,237493,1,0,0:0:0:0:
192,192,237493,1,0,0:0:0:0:
64,192,237819,1,0,0:0:0:0:
192,192,238144,1,0,0:0:0:0:
448,192,238144,1,0,0:0:0:0:
64,192,238144,1,0,0:0:0:0:
192,192,238470,1,0,0:0:0:0:
448,192,238796,1,0,0:0:0:0:
320,192,238796,1,0,0:0:0:0:
64,192,238796,1,0,0:0:0:0:
448,192,239122,1,0,0:0:0:0:
192,192,239122,1,0,0:0:0:0:
320,192,239448,1,0,0:0:0:0:
64,192,239448,1,0,0:0:0:0:
64,192,239773,1,0,0:0:0:0:
320,192,240099,1,0,0:0:0:0:
448,192,240099,1,0,0:0:0:0:
320,192,240425,1,0,0:0:0:0:
64,192,240751,1,0,0:0:0:0:
192,192,241077,1,0,0:0:0:0:
64,192,241402,1,0,0:0:0:0:
320,192,242054,1,0,0:0:0:0:
192,192,242706,1,0,0:0:0:0:
64,192,242706,1,0,0:0:0:0:
320,192,243031,1,0,0:0:0:0:
192,192,243357,1,0,0:0:0:0:
448,192,243683,1,0,0:0:0:0:
320,192,244009,1,0,0:0:0:0:
192,192,244660,1,0,0:0:0:0:
64,192,244986,1,0,0:0:0:0:
448,192,245312,1,0,0:0:0:0:
320,192,245312,1,0,0:0:0:0:
192,192,245638,1,0,0:0:0:0:
320,192,245964,1,0,0:0:0:0:
64,192,246289,1,0,0:0:0:0:
448,192,246615,1,0,0:0:0:0:
320,192,246615,1,0,0:0:0:0:
192,192,247267,1,0,0:0:0:0:
320,192,247918,1,0,0:0:0:0:
192,192,247918,1,0,0:0:0:0:
64,192,247918,1,0,0:0:0:0:
448,192,248244,1,0,0:0:0:0:
320,192,248570,1,0,0:0:0:0:
64,192,248570,1,0,0:0:0:0:
448,192,248570,1,0,0:0:0:0:
64,192,248896,1,0,0:0:0:0:
448,192,249222,1,0,0:0:0:0:
320,192,249222,1,0,0:0:0:0:
192,192,249222,1,0,0:0:0:0:
320,192,249547,1,0,0:0:0:0:
448,192,249547,1,0,0:0:0:0:
192,192,249873,1,0,0:0:0:0:
320,192,249873,1,0,0:0:0:0:
64,192,250199,1,0,0:0:0:0:
192,192,250199,1,0,0:0:0:0:
320,192,251014,1,0,0:0:0:0:
448,192,251177,1,0,0:0:0:0:
192,192,251339,1,0,0:0:0:0:
320,192,251502,1,0,0:0:0:0:
64,192,251665,1,0,0:0:0:0:
192,192,251828,1,0,0:0:0:0:
448,192,251991,1,0,0:0:0:0:
320,192,252154,1,0,0:0:0:0:
64,192,252480,1,0,0:0:0:0:
320,192,252805,1,0,0:0:0:0:
64,192,253130,1,0,0:0:0:0:
320,192,253456,1,0,0:0:0:0:
