osu file format v14

[General]
AudioFilename: audio.mp3
AudioLeadIn: 0
PreviewTime: 3733
Countdown: 1
SampleSet: None
StackLeniency: 0.3
Mode: 0
LetterboxInBreaks: 0
WidescreenStoryboard: 1

[Editor]
DistanceSpacing: 1.5
BeatDivisor: 16
GridSize: 8
TimelineZoom: 4.299998

[Metadata]
Title:Anta,-mei wa. (Your name is...)
TitleUnicode:Anta,-mei wa. (Your name is...)
Artist:Gin
ArtistUnicode:Gin
Creator:-BlastTheKidd-
Version:ME
Source:
Tags:
BeatmapID:1879616
BeatmapSetID:899854

[Difficulty]
HPDrainRate:6
CircleSize:3
OverallDifficulty:9
ApproachRate:10
SliderMultiplier:1.4
SliderTickRate:1

[Events]
//Background and Video events
0,0,"big_1525563673_image.jpg",0,0
//Break Periods
//Storyboard Layer 0 (Background)
//Storyboard Layer 1 (Fail)
//Storyboard Layer 2 (Pass)
//Storyboard Layer 3 (Foreground)
//Storyboard Sound Samples

[TimingPoints]
67,333.333333333333,4,3,0,100,1,0
1066,-50,4,3,0,100,0,0
2066,-33.3333333333333,4,3,0,100,0,0
2400,-100,4,3,0,100,0,0
3733,-50,4,3,0,100,0,0
5733,-25,4,3,0,100,0,0
6400,-50,4,3,0,100,0,0

[Colours]
Combo1 : 128,128,128
Combo2 : 128,128,255

[HitObjects]
104,272,1066,6,0,L|192:128,1,140,4|0,0:0|0:0,0:0:0:0:
177,152,1317,1,8,0:0:0:0:
184,160,1400,6,0,L|256:40,1,140,4|0,0:0|0:0,0:0:0:0:
404,188,1734,6,0,P|419:132|364:148,1,140,8|4,0:0|0:0,0:0:0:0:
404,188,1984,1,2,0:0:0:0:
362,143,2067,2,0,P|351:229|400:184,1,210.000008010865,4|8,0:0|0:0,0:0:0:0:
312,240,2400,6,0,L|256:312,1,70,4|8,0:0|0:0,0:0:0:0:
224,328,2651,1,2,0:0:0:0:
216,288,2734,6,0,L|258:232,1,70,4|8,0:0|0:0,0:0:0:0:
256,192,2984,1,2,0:0:0:0:
208,208,3066,2,0,L|176:248,3,46.6666666666667,8|8|4|8,0:0|0:0|0:0|0:0,0:0:0:0:
184,136,3566,1,0,0:0:0:0:
256,192,3733,6,0,P|304:215|272:219,1,140,4|0,0:0|0:0,0:0:0:0:
256,192,3983,1,8,0:0:0:0:
256,192,4066,2,0,P|212:222|224:192,1,140,4|0,0:0|0:0,0:0:0:0:
416,112,4400,6,0,L|312:184,1,93.3333333333333,4|0,0:0|0:0,0:0:0:0:
440,64,4622,1,2,0:0:0:0:
320,136,4733,2,0,L|440:64,1,140,4|0,0:0|0:0,0:0:0:0:
432,272,5066,6,0,P|400:320|320:320,1,140
424,296,5316,1,0,0:0:0:0:
424,296,5400,6,0,P|376:328|288:296,1,140
256,280,5650,1,0,0:0:0:0:
256,280,5733,6,0,B|200:240|152:208|152:208|128:176|120:144|128:120|128:120|129:112|136:96|136:96|139:89|153:73|163:67|163:67|176:58|194:53|215:54|215:54|236:54|255:67|255:67|270:84|275:103|275:103|280:138|264:160|264:160|245:178|232:192|200:192|184:168,2,560
433,166,6566,5,0,0:0:0:0:
404,206,6650,1,0,0:0:0:0:
349,278,6733,2,0,L|434:164,1,140
256,280,7066,2,0,L|176:392,1,116.666666666667
152,296,7316,1,0,0:0:0:0:
152,296,7400,2,0,L|240:168,1,140
48,72,7733,6,0,L|-48:192,1,140
64,176,7983,1,0,0:0:0:0:
64,176,8066,2,0,L|-24:288,1,140
80,280,8316,1,0,0:0:0:0:
80,280,8400,2,0,L|168:168,1,140
160,312,8678,1,0,0:0:0:0:
248,200,8789,1,0,0:0:0:0:
160,312,8900,1,0,0:0:0:0:
256,128,9066,6,0,L|400:128,1,140
392,232,9316,1,0,0:0:0:0:
392,232,9400,2,0,L|248:232,1,140
72,128,9733,6,0,L|0:40,2,93.3333333333333
208,120,10066,2,0,B|208:80|208:80|264:32|264:32|304:32,1,140
328,96,10400,6,0,L|264:216,1,105.000004005432
368,240,10650,2,0,L|256:304,1,105.000004005432
344,360,10900,1,0,0:0:0:0:
288,216,11066,1,0,0:0:0:0:
320,112,11233,2,0,L|272:224,1,122.5
128,192,11483,2,0,L|80:288,1,105.000004005432
256,168,11733,1,0,0:0:0:0:
256,192,11816,12,0,13733,2:2:0:0:
