osu file format v14

[General]
AudioFilename: audio.mp3
AudioLeadIn: 0
PreviewTime: 87423
Countdown: 0
SampleSet: Soft
StackLeniency: 0.7
Mode: 0
LetterboxInBreaks: 0
WidescreenStoryboard: 1

[Editor]
Bookmarks: 16429,34055,54173,55423,66089,76756,86089,87423,106089,119422,130089,140756,150089,151423,162089,172756,183423,194089
DistanceSpacing: 0.9
BeatDivisor: 4
GridSize: 4
TimelineZoom: 1.5

[Metadata]
Title:Dedede Fusion Collab
TitleUnicode:Dedede Fusion Collab
Artist:GilvaSunner
ArtistUnicode:GilvaSunner
Creator:Cancel
Version:Insane?!
Source:
Tags:
BeatmapID:1618058
BeatmapSetID:448386

[Difficulty]
HPDrainRate:6
CircleSize:4.4
OverallDifficulty:8
ApproachRate:9.5
SliderMultiplier:1.6
SliderTickRate:2

[Events]
//Background and Video events
0,0,"roman_statue_wallpaper_aesthetic_by_nasenbaer97-d9ifu64.png",0,0
//Break Periods
//Storyboard Layer 0 (Background)
//Storyboard Layer 1 (Fail)
//Storyboard Layer 2 (Pass)
//Storyboard Layer 3 (Foreground)
//Storyboard Sound Samples

[TimingPoints]
3460.19944001147,332.55736614566,4,1,0,50,1,0
4790,-83.3333333333333,4,1,0,50,0,0
7450,-100,4,1,0,50,0,0
7617,-100,4,2,0,50,0,0
12771,-100,4,1,1,50,0,0
23413,-83.3333333333333,4,3,1,50,0,0
34090,333.333333333333,4,1,0,50,1,0
34090,-83.3333333333333,4,1,0,50,0,0
39423,-71.4285714285714,4,2,0,50,0,0
44756,-100,4,2,0,30,0,0
54089,-100,4,2,0,30,0,0
66089,-83.3333333333333,4,1,0,60,0,0
76756,-66.6666666666667,4,1,0,60,0,0
87423,666.666666666667,4,2,0,60,1,0
87423,-66.6666666666667,4,2,0,60,0,0
98089,-100,4,1,0,60,0,0
107423,-66.6666666666667,4,1,0,60,0,0
108756,333.333333333333,4,1,0,60,1,0
119422,-76.9230769230769,4,3,1,60,0,0
130089,-111.111111111111,4,2,1,80,0,0
140755,666.666666666667,4,1,0,60,1,0
151421,333.333333333333,4,1,0,80,1,0
151421,-76.9230769230769,4,1,0,80,0,0
162087,-62.5,4,1,0,80,0,0
172750,334.354973530231,4,1,0,80,1,0
172754,-64.1025641025641,4,1,0,80,0,0
183420,-100,4,1,0,80,0,0
183422,334.354973530231,4,1,0,80,1,0
183422,333.333333333333,4,1,0,80,1,0
194421,666.666666666667,4,1,0,60,1,0
196587,111.111111111111,4,1,0,60,1,0
196698,1333.33333333333,4,1,0,60,1,0

[Colours]
Combo1 : 255,255,121
Combo2 : 255,204,255
Combo3 : 151,255,255
Combo4 : 21,180,255

[HitObjects]
88,256,3460,5,0,0:0:0:0:
68,232,3543,1,0,0:0:0:0:
60,204,3626,1,0,0:0:0:0:
60,176,3709,1,0,0:0:0:0:
68,148,3792,1,0,0:0:0:0:
88,124,3875,1,0,0:0:0:0:
112,108,3959,1,0,0:0:0:0:
140,104,4042,1,0,0:0:0:0:
168,112,4125,6,0,L|164:88,15,20
180,76,4790,6,0,L|276:68,1,95.9999970703126,4|2,0:0|2:0,0:0:0:0:
208,228,5289,2,0,L|153:148,1,95.9999970703126,4|2,0:0|2:0,0:0:0:0:
324,128,5788,2,0,L|282:215,1,95.9999970703126,4|2,0:0|2:0,0:0:0:0:
320,292,6120,5,8,2:0:0:0:
440,192,6286,1,0,2:0:0:0:
432,172,6370,1,0,2:0:0:0:
424,152,6453,1,0,2:0:0:0:
416,132,6536,1,0,2:0:0:0:
408,112,6619,2,0,L|436:124,2,23.9999992675781,8|0|0,2:0|2:0|2:0,2:0:0:0:
304,40,6785,6,0,L|236:48,1,47.9999985351563,4|0,0:3|2:0,0:0:0:0:
204,100,6952,2,0,L|136:92,1,47.9999985351563,0|8,2:0|0:3,0:0:0:0:
120,32,7118,1,4,2:3:0:0:
248,188,7450,6,0,P|252:220|248:300,1,80,4|2,0:0|0:0,0:0:0:0:
192,320,7700,1,0,0:0:0:0:
192,320,7783,2,0,L|108:316,1,80,8|2,0:0|0:0,0:0:0:0:
48,352,8032,1,0,0:0:0:0:
48,352,8116,5,0,0:0:0:0:
20,124,8282,2,0,L|24:60,1,40,2|0,0:0|0:0,0:0:0:0:
96,32,8448,5,2,0:0:0:0:
116,52,8531,1,0,0:0:0:0:
140,68,8614,1,0,0:0:0:0:
172,80,8697,1,2,0:0:0:0:
208,84,8781,6,0,B|236:80|236:80|256:68|256:68|312:64,1,80,0|2,0:0|0:0,0:0:0:0:
328,128,9030,1,0,0:0:0:0:
328,128,9113,2,0,P|332:168|324:216,1,80,8|2,0:0|0:0,0:0:0:0:
284,264,9363,1,0,0:0:0:0:
284,264,9446,6,0,P|332:268|384:280,1,80,0|2,0:0|0:0,0:0:0:0:
408,328,9695,1,0,0:0:0:0:
480,160,9778,5,8,0:0:0:0:
448,140,9861,1,0,0:0:0:0:
424,112,9945,1,2,0:0:0:0:
408,80,10028,1,0,0:0:0:0:
396,44,10111,1,2,0:0:0:0:
256,192,10277,12,2,11109,0:0:0:0:
328,88,11441,5,0,0:0:0:0:
128,248,11774,1,0,0:0:0:0:
400,152,12106,1,0,0:0:0:0:
236,64,12272,5,2,0:0:0:0:
236,64,12356,1,2,0:0:0:0:
236,64,12439,2,0,P|244:116|232:196,1,120,10|0,0:0|0:0,0:0:0:0:
208,216,12771,6,0,P|268:208|316:216,1,80,4|2,0:0|2:0,0:0:0:0:
396,288,13104,1,8,0:0:0:0:
276,352,13270,1,2,2:0:0:0:
396,180,13436,5,0,0:0:0:0:
396,180,13520,1,0,0:0:0:0:
396,180,13603,1,0,0:0:0:0:
208,120,13769,1,0,0:0:0:0:
332,20,13935,2,0,P|340:56|340:112,1,80
216,272,14268,5,0,0:0:0:0:
200,256,14351,1,0,0:0:0:0:
184,240,14434,1,0,0:0:0:0:
96,76,14600,1,0,0:0:0:0:
136,328,14767,1,0,0:0:0:0:
36,148,14933,5,0,0:0:0:0:
228,84,15099,2,0,L|348:88,1,120
368,72,15432,6,0,P|376:44|372:12,2,40
248,176,15764,1,0,0:0:0:0:
332,328,15931,1,0,0:0:0:0:
472,148,16097,6,0,P|416:160|368:196,1,80
