osu file format v14

[General]
AudioFilename: audio.mp3
AudioLeadIn: 0
PreviewTime: 87423
Countdown: 0
SampleSet: Normal
StackLeniency: 0.7
Mode: 0
LetterboxInBreaks: 0
WidescreenStoryboard: 0

[Editor]
Bookmarks: 16429,34055,54173,55423,66089,76756,86089,87423,106089,119422,130089,140756,150089,151423,162089,172756,183423,194089
DistanceSpacing: 0.9
BeatDivisor: 4
GridSize: 4
TimelineZoom: 1.5

[Metadata]
Title:Dedede Fusion Collab
TitleUnicode:Dedede Fusion Collab
Artist:GilvaSunner
ArtistUnicode:GilvaSunner
Creator:Cancel
Version:Extreme?!
Source:
Tags:
BeatmapID:962365
BeatmapSetID:448386

[Difficulty]
HPDrainRate:6
CircleSize:4.4
OverallDifficulty:8
ApproachRate:9.5
SliderMultiplier:1.6
SliderTickRate:2

[Events]
//Background and Video events
0,0,"roman_statue_wallpaper_aesthetic_by_nasenbaer97-d9ifu64.png",0,0
//Break Periods
2,140955,145534
//Storyboard Layer 0 (Background)
//Storyboard Layer 1 (Fail)
//Storyboard Layer 2 (Pass)
//Storyboard Layer 3 (Foreground)
//Storyboard Sound Samples

[TimingPoints]
3460.19944001147,332.55736614566,4,1,0,50,1,0
4790,-83.3333333333333,4,1,0,50,0,0
7450,-100,4,1,0,50,0,0
7617,-100,4,2,0,50,0,0
12771,-100,4,1,1,50,0,0
23413,-83.3333333333333,4,3,1,50,0,0
34090,333.333333333333,4,1,0,50,1,0
34090,-83.3333333333333,4,1,0,50,0,0
39423,-71.4285714285714,4,2,0,50,0,0
44756,-100,4,2,0,30,0,0
54089,-100,4,2,0,30,0,0
66089,-83.3333333333333,4,1,0,60,0,0
76756,-66.6666666666667,4,1,0,60,0,0
87423,666.666666666667,4,2,0,60,1,0
87423,-66.6666666666667,4,2,0,60,0,0
98089,-100,4,1,0,60,0,0
107423,-66.6666666666667,4,1,0,60,0,0
108756,333.333333333333,4,1,0,60,1,0
119422,-76.9230769230769,4,3,1,60,0,0
130089,-111.111111111111,4,2,1,80,0,0
140755,666.666666666667,4,1,0,60,1,0
151421,333.333333333333,4,1,0,80,1,0
151421,-76.9230769230769,4,1,0,80,0,0
162087,-62.5,4,1,0,80,0,0
172750,334.354973530231,4,1,0,80,1,0
172754,-64.1025641025641,4,1,0,80,0,0
183420,-100,4,1,0,80,0,0
183422,334.354973530231,4,1,0,80,1,0
183422,333.333333333333,4,1,0,80,1,0
194421,666.666666666667,4,1,0,60,1,0
196587,111.111111111111,4,1,0,60,1,0
196698,1333.33333333333,4,1,0,60,1,0

[Colours]
Combo1 : 255,255,121
Combo2 : 255,204,255
Combo3 : 151,255,255
Combo4 : 21,180,255

[HitObjects]
128,224,3460,5,8,0:0:0:0:
136,188,3543,1,8,0:0:0:0:
152,156,3626,1,8,0:0:0:0:
180,132,3709,1,8,0:0:0:0:
216,120,3792,1,8,0:0:0:0:
252,128,3875,1,8,0:0:0:0:
284,144,3958,1,8,0:0:0:0:
308,172,4041,1,8,0:0:0:0:
316,204,4125,6,8,L|320:240,14,20
316,204,4790,6,0,L|420:208,1,95.9999970703126,4|2,0:0|2:0,0:0:0:0:
248,80,5289,6,0,L|144:76,1,95.9999970703126,4|2,0:0|2:0,0:0:0:0:
32,296,5788,6,0,L|136:300,1,95.9999970703126,4|2,0:0|2:0,0:0:0:0:
184,236,6120,5,8,2:1:0:0:
240,300,6286,1,2,2:2:0:0:
276,276,6370,1,8,2:1:0:0:
320,268,6453,1,2,2:0:0:0:
364,272,6536,1,8,2:1:0:0:
404,288,6619,2,8,L|408:320,3,23.9999992675781
420,324,6785,6,0,L|480:316,3,47.9999985351563,4|4|8|8,0:3|0:3|0:3|0:3,0:3:0:0:
496,196,7118,1,4,0:3:0:0:
496,196,7450,6,0,L|400:184,1,80,4|2,0:0|0:0,0:0:0:0:
400,156,7700,1,0,0:0:0:0:
400,156,7783,2,0,P|392:112|412:76,1,80,8|0,0:0|0:0,0:0:0:0:
436,60,8032,1,0,0:0:0:0:
436,60,8116,2,0,P|392:68|356:48,1,80,2|0,0:0|0:0,0:0:0:0:
336,28,8365,1,0,0:0:0:0:
336,28,8448,6,0,L|332:72,1,40,8|2,0:0|0:0,0:0:0:0:
264,120,8614,2,0,L|260:164,1,40,0|2,0:0|0:0,0:0:0:0:
188,220,8781,5,0,1:0:0:0:
188,220,8947,2,0,L|120:212,2,40,2|0|8,0:0|0:0|0:0,0:0:0:0:
288,328,9279,2,0,L|356:320,2,40,2|0|0,0:0|0:0|0:0,0:0:0:0:
176,368,9612,5,2,0:0:0:0:
152,352,9695,1,0,0:0:0:0:
128,336,9778,1,8,0:0:0:0:
104,320,9861,1,4,0:3:0:0:
80,304,9945,1,4,0:3:0:0:
56,288,10028,1,4,0:3:0:0:
32,272,10111,6,0,L|24:232,1,40,2|0,0:0|0:0,0:0:0:0:
143,312,10277,2,0,L|103:320,1,40,0|2,0:0|0:0,0:0:0:0:
192,200,10443,6,0,L|200:240,1,40,8|0,0:0|0:0,0:0:0:0:
81,160,10609,2,0,L|121:152,1,40,2|0,0:0|0:0,0:0:0:0:
176,64,10776,5,0,0:0:0:0:
208,84,10859,1,0,0:0:0:0:
244,92,10942,1,2,0:0:0:0:
280,88,11025,1,0,0:0:0:0:
312,72,11109,6,0,L|316:28,1,40,2|0,0:0|0:0,0:0:0:0:
392,88,11275,2,0,L|396:132,1,40,2|0,0:0|0:0,0:0:0:0:
452,212,11441,5,2,1:2:0:0:
416,200,11524,1,0,0:0:0:0:
380,204,11607,1,0,0:0:0:0:
348,220,11690,1,0,0:0:0:0:
328,248,11774,5,2,1:2:0:0:
300,228,11857,1,0,0:0:0:0:
264,224,11940,1,0,0:0:0:0:
228,232,12023,1,0,0:0:0:0:
200,256,12106,6,0,L|204:192,1,40,2|0,1:2|0:0,0:0:0:0:
136,152,12272,1,2,0:3:0:0:
136,152,12356,1,2,0:3:0:0:
136,152,12439,2,0,B|140:116|140:116|128:72|128:72|136:8,1,120,2|0,0:3|0:0,0:0:0:0:
164,16,12771,6,0,L|252:12,1,80,2|0,0:0|0:0,0:0:0:0:
404,124,13104,2,0,L|480:128,2,40,8|0|2,0:0|0:0|0:0,0:0:0:0:
312,208,13436,6,0,L|320:260,1,40,2|0,0:0|0:0,0:0:0:0:
288,224,13603,2,0,L|296:276,1,40,2|0,0:0|0:0,0:0:0:0:
200,308,13769,6,0,L|208:256,1,40,10|0,0:0|0:0,0:0:0:0:
176,292,13935,2,0,L|188:200,1,80,2|0,0:0|0:0,0:0:0:0:
112,84,14268,1,0,0:0:0:0:
44,232,14434,6,0,P|56:264|72:280,2,40,8|0|2,0:0|0:0|0:0,0:0:0:0:
208,116,14767,1,0,0:0:0:0:
80,0,14933,5,2,0:0:0:0:
186,212,15099,2,0,B|190:248|190:248|182:272|182:272|190:340,1,120,10|0,0:0|0:0,0:0:0:0:
212,356,15432,1,0,0:0:0:0:
212,356,15515,1,0,0:0:0:0:
212,356,15598,1,0,0:0:0:0:
380,280,15764,1,8,0:0:0:0:
144,240,15931,1,0,0:0:0:0:
324,148,16097,6,0,P|328:120|328:80,2,40
144,67,16429,2,0,L|224:60,1,80,8|0,0:0|0:0,0:0:0:0:
432,96,16762,5,0,0:0:0:0:
432,132,16845,1,0,0:0:0:0:
424,168,16928,2,0,L|432:256,1,80,0|8,0:0|0:0,0:0:0:0:
284,360,17261,1,0,0:0:0:0:
348,272,17427,6,0,L|352:220,1,40
276,176,17593,2,0,L|272:215,1,40
336,296,17760,6,0,L|340:244,1,40,8|0,0:0|0:0,0:0:0:0:
264,200,17926,2,0,L|260:239,1,40
324,316,18092,6,0,L|336:212,1,80,4|0,0:0|0:0,0:0:0:0:
232,96,18425,1,8,0:0:0:0:
232,96,18508,2,0,P|196:104|152:80,1,80
140,56,18757,2,0,L|144:4,2,40
60,160,19090,2,0,L|64:248,1,80,8|0,0:0|0:0,0:0:0:0:
76,364,19422,5,0,0:0:0:0:
244,280,19589,1,0,0:0:0:0:
96,340,19755,2,0,L|104:296,2,40,8|0|0,0:0|0:0|0:0,0:0:0:0:
272,288,20088,6,0,L|264:184,1,80
348,36,20420,2,0,L|354:115,1,80,8|0,0:0|0:0,0:0:0:0:
368,340,20753,5,4,0:0:0:0:
444,200,20919,1,0,0:0:0:0:
360,324,21085,6,0,L|256:332,1,80,8|0,0:0|0:0,0:0:0:0:
76,312,21418,2,0,P|48:296|32:276,2,40
192,284,21750,5,8,0:0:0:0:
268,156,21917,1,0,0:0:0:0:
136,56,22083,6,0,L|140:100,1,40,2|0,0:0|0:0,0:0:0:0:
112,80,22249,2,0,L|116:124,1,40,2|0,0:0|0:0,0:0:0:0:
244,132,22415,6,0,L|240:176,1,40,2|0,0:0|0:0,0:0:0:0:
268,156,22581,2,0,L|264:200,1,40,2|0,0:0|0:0,0:0:0:0:
344,312,22748,5,0,0:0:0:0:
448,112,22914,1,0,0:0:0:0:
436,80,22997,1,0,0:0:0:0:
424,44,23081,6,0,L|428:12,4,20
392,60,23330,1,0,0:0:0:0:
352,80,23413,6,0,B|276:72|276:72|244:52|244:52|140:44,1,191.999994140625,4|2,0:0|0:0,0:0:0:0:
76,112,23912,1,4,0:0:0:0:
176,316,24078,6,0,L|184:152,1,143.999995605469,8|4,1:1|0:0,0:0:0:0:
196,196,24411,2,0,L|188:328,1,95.9999970703126,4|2,0:0|0:2,0:0:0:0:
256,376,24743,5,2,0:0:0:0:
348,248,24910,1,4,0:0:0:0:
112,224,25076,2,4,L|104:316,2,47.9999985351563
72,136,25408,5,8,1:1:0:0:
212,60,25575,1,4,0:0:0:0:
212,60,25741,2,0,B|260:56|260:56|292:44|292:44|380:36,1,143.999995605469,2|0,0:0|0:2,0:0:0:0:
376,52,26074,6,0,L|248:64,1,95.9999970703126,4|4,0:0|0:0,0:0:0:0:
188,264,26406,2,0,L|283:255,1,95.9999970703126,4|4,0:0|0:0,0:0:0:0:
160,128,26739,6,0,L|32:140,1,95.9999970703126,8|4,1:1|0:0,0:0:0:0:
20,292,27071,1,0,0:0:0:0:
164,344,27238,6,0,P|216:344|252:212,1,191.999994140625,2|6,0:0|0:0,0:0:0:0:
112,120,27736,2,0,B|108:152|108:152|120:188|120:188|116:236,1,95.9999970703126,4|0,0:0|0:0,0:0:0:0:
24,72,28069,6,0,L|192:64,1,143.999995605469,8|0,0:1|0:0,0:0:0:0:
192,48,28402,2,0,L|196:12,2,31.9999990234375,0|0|0,1:0|1:0|1:0,1:0:0:0:
216,72,28568,2,0,L|220:36,2,31.9999990234375,0|0|0,1:0|1:0|1:0,1:0:0:0:
232,96,28734,6,0,L|360:88,1,95.9999970703126,4|0,0:0|0:0,0:0:0:0:
472,200,29067,6,0,L|284:212,1,143.999995605469,4|0,0:0|0:0,0:0:0:0:
304,192,29399,1,8,1:0:0:0:
172,332,29565,2,0,P|220:340|272:304,1,95.9999970703126,0|4,0:0|0:0,0:0:0:0:
184,136,29898,1,4,0:0:0:0:
184,136,30064,6,0,B|172:156|172:156|164:28,1,143.999995605469,2|0,0:0|0:0,0:0:0:0:
164,35,30397,2,4,L|152:88,2,47.9999985351563
280,200,30729,6,0,L|312:92,1,95.9999970703126,8|4,1:0|0:0,0:0:0:0:
428,216,31062,2,0,L|400:308,1,95.9999970703126,0|4,0:0|0:0,0:0:0:0:
256,332,31395,6,0,B|212:328|212:328|160:336|160:336|56:328,1,191.999994140625,4|2,0:0|0:0,0:0:0:0:
24,184,31893,6,8,L|20:124,2,47.9999985351563,8|8|8,0:2|0:2|0:2,0:2:0:0:
152,240,32226,1,8,0:0:0:0:
136,104,32392,6,0,L|128:-12,1,95.9999970703126,4|4,0:0|0:0,0:0:0:0:
280,112,32725,1,0,0:0:0:0:
276,156,32808,1,0,0:0:0:0:
272,200,32891,1,0,0:0:0:0:
268,244,32974,1,0,0:0:0:0:
264,288,33057,1,4,0:0:0:0:
392,128,33224,6,0,L|376:40,2,47.9999985351563,0|0|8,0:0|0:0|1:0,0:0:0:0:
480,216,33556,1,8,1:0:0:0:
360,336,33722,2,0,L|340:220,1,95.9999970703126,8|8,1:0|1:0,0:0:0:0:
300,32,34090,5,0,0:0:0:0:
120,104,34256,1,0,0:0:0:0:
284,48,34423,1,0,0:0:0:0:
104,120,34590,1,0,0:0:0:0:
268,64,34756,6,0,B|260:100|260:100|276:136|276:136|268:176|276:232,1,143.999995605469
292,220,35090,2,0,L|388:208,1,95.9999970703126,2|0,0:0|0:0,0:0:0:0:
472,120,35423,5,0,0:0:0:0:
436,308,35590,1,0,0:0:0:0:
452,100,35756,1,0,0:0:0:0:
416,288,35923,1,0,0:0:0:0:
432,84,36090,5,0,1:2:0:0:
396,60,36173,1,2,2:2:0:0:
352,52,36256,1,2,2:2:0:0:
308,52,36340,1,2,2:2:0:0:
268,64,36423,2,0,B|228:72|228:72|180:52|180:52|96:64,1,143.999995605469,2|0,0:0|0:0,0:0:0:0:
96,88,36756,6,0,P|92:120|156:148,1,95.9999970703126,4|0,0:0|0:0,0:0:0:0:
232,0,37090,1,8,0:0:0:0:
324,256,37256,1,0,0:0:0:0:
348,220,37340,1,0,0:0:0:0:
352,176,37423,6,0,B|344:132|344:132|352:96|352:96|344:16,1,143.999995605469
376,4,37756,2,0,L|392:144,1,95.9999970703126
416,328,38089,5,2,0:0:0:0:
380,304,38173,1,0,0:0:0:0:
340,292,38256,1,0,0:0:0:0:
296,288,38339,1,0,0:0:0:0:
252,296,38423,5,2,0:0:0:0:
208,304,38506,1,0,0:0:0:0:
164,296,38589,1,0,0:0:0:0:
124,280,38673,1,0,0:0:0:0:
92,252,38756,6,0,L|88:200,1,47.9999985351563,2|0,0:0|0:0,0:0:0:0:
168,108,38923,2,0,L|171:155,1,47.9999985351563,2|0,0:0|0:0,0:0:0:0:
60,220,39089,2,0,L|56:168,1,47.9999985351563,2|0,0:0|0:0,0:0:0:0:
136,76,39256,2,0,L|139:123,1,47.9999985351563,2|0,0:0|0:0,0:0:0:0:
228,212,39423,6,0,B|268:216|268:216|300:212|300:212|364:216,1,111.999996582031,4|0,1:0|0:0,0:0:0:0:
412,248,39673,1,0,0:0:0:0:
412,248,39756,2,0,P|420:200|384:148,1,111.999996582031,0|0,1:0|0:0,0:0:0:0:
112,124,40089,2,0,L|120:264,1,111.999996582031,0|0,1:0|0:0,0:0:0:0:
245,373,40423,5,0,1:0:0:0:
273,361,40506,1,2,0:0:0:0:
301,349,40589,1,2,0:0:0:0:
325,337,40673,1,2,0:0:0:0:
353,325,40756,6,0,L|337:197,1,111.999996582031,4|0,1:0|0:0,0:0:0:0:
280,160,41006,1,0,0:0:0:0:
280,160,41089,2,0,B|244:152|244:152|216:132|216:132|176:124,1,111.999996582031,0|0,1:0|0:0,0:0:0:0:
36,340,41423,2,0,B|72:332|72:332|100:312|100:312|140:304,1,111.999996582031,0|0,1:0|0:0,0:0:0:0:
316,368,41756,5,0,1:0:0:0:
364,380,41839,1,0,0:0:0:0:
404,348,41923,1,0,0:0:0:0:
400,296,42006,1,0,0:0:0:0:
356,268,42089,5,0,1:0:0:0:
276,112,42256,1,0,1:0:0:0:
328,284,42423,1,0,1:0:0:0:
300,92,42589,1,0,1:0:0:0:
300,300,42756,5,2,1:0:0:0:
264,264,42839,1,0,1:0:0:0:
216,252,42923,1,0,1:0:0:0:
168,256,43006,1,0,1:0:0:0:
124,280,43089,5,2,1:0:0:0:
148,236,43173,1,0,1:0:0:0:
156,188,43256,1,0,1:0:0:0:
144,140,43339,1,0,1:0:0:0:
112,100,43423,6,0,L|52:92,1,55.9999982910157,2|0,1:0|1:0,1:0:0:0:
168,32,43589,2,0,L|223:39,1,55.9999982910157,2|0,1:0|1:0,1:0:0:0:
316,136,43756,6,2,L|320:168,4,18.6666660970052,2|2|2|2|2,1:0|1:0|1:0|1:0|1:0,1:0:0:0:
328,120,43923,2,0,L|383:127,1,55.9999982910157,0|0,1:0|1:0,1:0:0:0:
488,228,44089,6,2,L|484:260,4,18.6666660970052,2|2|2|2|2,1:0|1:0|1:0|1:0|1:0,1:0:0:0:
476,212,44256,2,0,L|420:219,1,55.9999982910157,0|0,1:0|1:0,1:0:0:0:
312,304,44423,5,8,0:3:0:0:
272,276,44506,1,4,0:3:0:0:
224,264,44589,1,4,0:3:0:0:
172,264,44673,1,4,0:3:0:0:
124,280,44756,5,0,1:0:0:0:
112,296,45089,1,0,1:0:0:0:
44,152,45256,1,0,0:0:0:0:
96,312,45423,5,0,1:0:0:0:
64,164,45589,1,0,0:0:0:0:
76,332,45756,2,0,L|84:152,1,160,0|0,1:0|1:0,0:0:0:0:
104,160,46423,6,0,L|188:156,1,80,0|0,1:0|0:0,0:0:0:0:
324,72,46756,1,0,1:0:0:0:
164,28,46923,1,0,0:0:0:0:
120,184,47089,2,0,B|200:180|200:180|232:168|232:168|312:164,1,160,0|0,1:0|1:0,0:0:0:0:
300,184,47756,5,0,1:0:0:0:
344,336,47923,1,0,0:0:0:0:
392,208,48089,5,0,1:0:0:0:
240,252,48256,1,0,0:0:0:0:
416,288,48423,2,0,L|420:104,1,160,0|0,1:0|1:0,0:0:0:0:
444,96,49089,5,0,1:0:0:0:
220,32,49256,1,2,0:0:0:0:
432,112,49423,5,0,1:0:0:0:
208,48,49590,1,2,0:0:0:0:
324,200,49756,2,0,P|336:148|308:104,1,80,0|2,1:0|0:0,0:0:0:0:
168,280,50089,5,0,1:0:0:0:
180,296,50423,6,0,L|264:292,1,80,0|0,1:0|0:0,0:0:0:0:
144,200,50756,2,0,L|64:203,1,80,0|0,1:0|0:0,0:0:0:0:
196,312,51089,2,0,L|388:304,1,160,0|0,1:0|1:0,0:0:0:0:
356,304,51756,5,0,1:0:0:0:
416,140,51923,1,0,0:0:0:0:
480,216,52089,5,0,1:0:0:0:
316,156,52256,1,0,0:0:0:0:
196,312,52423,5,0,1:0:0:0:
208,280,52506,1,0,0:0:0:0:
212,244,52589,1,0,0:0:0:0:
204,208,52673,1,0,0:0:0:0:
188,176,52756,5,0,1:0:0:0:
28,120,52923,1,0,1:0:0:0:
112,240,53089,5,0,1:0:0:0:
168,80,53256,1,0,1:0:0:0:
56,144,53423,5,0,1:0:0:0:
216,200,53590,1,0,1:0:0:0:
248,180,53673,1,0,1:0:0:0:
284,172,53756,1,0,1:0:0:0:
320,176,53839,1,0,1:0:0:0:
356,188,53923,1,0,1:0:0:0:
384,212,54006,1,0,1:0:0:0:
396,244,54089,6,0,L|404:128,1,80,2|0,1:0|0:0,1:0:0:0:
440,96,54339,2,0,P|400:84|352:104,1,80,2|0,1:0|0:0,0:0:0:0:
244,174,54589,6,0,P|284:186|332:166,1,80,2|0,1:0|0:0,0:0:0:0:
276,36,54839,2,0,B|248:40|248:40|220:36|220:36|168:44,1,80,2|0,1:0|0:0,0:0:0:0:
176,64,55089,5,0,1:0:0:0:
200,280,55256,1,0,1:0:0:0:
92,156,55423,6,0,L|84:92,3,40,4|0|0|0,1:0|0:0|0:0|0:0,0:0:0:0:
188,152,55756,2,0,L|196:216,3,40,8|0|0|0,1:0|0:0|0:0|0:0,0:0:0:0:
160,76,56089,6,0,L|152:12,3,40,2|0|0|0,1:0|0:0|0:0|0:0,0:0:0:0:
256,72,56422,2,0,L|264:136,3,40,8|0|0|0,1:0|0:0|0:0|0:0,0:0:0:0:
320,196,56756,6,0,B|340:200|340:200|376:192,3,40,2|0|0|0,1:0|0:0|0:0|0:0,0:0:0:0:
264,256,57089,2,0,B|244:252|244:252|208:260,3,40,8|0|0|0,1:0|0:0|0:0|0:0,0:0:0:0:
136,288,57423,6,0,L|76:284,3,40,2|0|0|0,1:0|0:0|0:0|0:0,0:0:0:0:
44,184,57756,2,0,L|83:186,3,40,8|0|0|0,1:0|0:0|0:0|0:0,0:0:0:0:
152,120,58089,5,2,1:0:0:0:
176,92,58173,1,0,0:0:0:0:
208,76,58256,1,0,0:0:0:0:
244,68,58339,1,0,0:0:0:0:
280,68,58423,5,8,1:0:0:0:
312,80,58506,1,0,0:0:0:0:
344,96,58589,1,0,0:0:0:0:
368,124,58673,1,0,0:0:0:0:
384,156,58756,5,2,1:0:0:0:
388,192,58839,1,0,0:0:0:0:
384,228,58923,1,0,0:0:0:0:
368,260,59006,1,0,0:0:0:0:
340,284,59089,5,8,1:0:0:0:
304,292,59173,1,0,0:0:0:0:
268,284,59256,1,0,0:0:0:0:
240,260,59339,1,0,0:0:0:0:
228,224,59423,6,0,L|236:156,3,40,2|0|0|0,1:0|0:0|0:0|0:0,0:0:0:0:
148,80,59756,2,0,L|143:119,3,40,8|0|0|0,1:0|0:0|0:0|0:0,0:0:0:0:
88,268,60089,6,0,L|96:200,3,40,2|0|0|0,1:0|0:0|0:0|0:0,0:0:0:0:
8,124,60422,2,0,L|3:163,3,40,8|0|0|0,1:0|0:0|0:0|0:0,0:0:0:0:
20,328,60756,5,4,1:0:0:0:
48,348,60839,1,0,0:0:0:0:
84,360,60923,1,0,0:0:0:0:
120,360,61006,1,0,0:0:0:0:
152,344,61089,5,8,1:0:0:0:
176,316,61173,1,0,0:0:0:0:
188,284,61256,1,0,0:0:0:0:
192,248,61339,1,0,0:0:0:0:
188,212,61423,5,2,1:0:0:0:
196,176,61506,1,0,0:0:0:0:
216,148,61589,1,0,0:0:0:0:
248,128,61673,1,0,0:0:0:0:
284,120,61756,1,8,1:0:0:0:
320,124,61839,1,0,0:0:0:0:
356,136,61923,1,0,0:0:0:0:
380,164,62006,1,0,0:0:0:0:
392,196,62089,6,0,L|396:256,3,40,2|0|0|0,1:0|0:0|0:0|0:0,0:0:0:0:
316,324,62423,2,0,L|313:284,3,40,8|0|0|0,1:0|0:0|0:0|0:0,0:0:0:0:
232,168,62756,6,0,L|236:228,3,40,2|0|0|0,1:0|0:0|0:0|0:0,0:0:0:0:
156,296,63090,2,0,L|153:256,3,40,8|0|0|0,1:0|0:0|0:0|0:0,0:0:0:0:
64,108,63423,5,6,1:0:0:0:
100,120,63506,1,0,0:0:0:0:
136,124,63589,1,0,0:0:0:0:
172,120,63673,1,0,0:0:0:0:
204,104,63756,5,8,1:0:0:0:
240,96,63839,1,0,0:0:0:0:
276,92,63923,1,0,0:0:0:0:
312,100,64006,1,0,0:0:0:0:
344,116,64089,5,2,1:0:0:0:
368,144,64173,1,0,0:0:0:0:
380,176,64256,1,0,0:0:0:0:
380,212,64339,1,0,0:0:0:0:
372,248,64423,5,8,1:0:0:0:
356,280,64506,1,0,0:0:0:0:
332,304,64589,1,0,0:0:0:0:
300,320,64673,1,0,0:0:0:0:
264,328,64756,6,0,L|256:220,1,80,2|0,0:0|0:0,0:0:0:0:
104,128,65089,2,0,L|109:207,1,80,2|0,0:0|0:0,0:0:0:0:
284,148,65423,2,0,L|176:156,1,80,2|0,0:0|0:0,0:0:0:0:
84,308,65756,2,0,L|163:302,1,80,2|0,0:0|0:0,0:0:0:0:
304,112,66089,6,0,L|192:120,1,95.9999970703126,4|0,0:0|0:0,0:0:0:0:
48,76,66423,2,0,B|68:108|68:108|112:140|112:140|128:180|168:204,1,143.999995605469,8|0,0:0|2:0,0:0:0:0:
180,204,66756,2,0,L|275:197,1,95.9999970703126,0|0,2:0|0:0,0:0:0:0:
404,128,67089,1,8,0:0:0:0:
304,32,67256,6,0,P|248:12|128:60,1,191.999994140625,2|0,0:0|0:0,0:0:0:0:
56,268,67756,1,8,0:0:0:0:
200,344,67923,5,2,2:0:0:0:
200,344,68006,1,0,2:0:0:0:
200,344,68089,2,0,L|332:336,1,95.9999970703126,2|0,2:0|0:0,2:0:0:0:
384,220,68423,1,8,0:0:0:0:
280,120,68589,1,0,0:0:0:0:
280,120,68673,1,0,0:0:0:0:
280,120,68756,6,0,B|232:116|232:116|204:120|204:120|124:112,1,143.999995605469,4|0,0:0|2:0,0:0:0:0:
112,96,69089,1,8,0:0:0:0:
168,228,69256,1,2,2:0:0:0:
180,32,69423,5,2,2:0:0:0:
144,8,69506,1,0,2:0:0:0:
100,4,69589,1,0,0:0:0:0:
20,196,69756,1,8,0:0:0:0:
172,312,69923,6,0,B|200:312|220:300|220:300|256:328|256:328|296:292|380:312,1,191.999994140625,2|2,2:0|2:0,0:0:0:0:
460,192,70423,1,8,0:0:0:0:
308,140,70589,6,0,P|284:104|300:44,1,95.9999970703126,0|0,2:0|0:0,0:0:0:0:
376,188,70923,1,0,0:0:0:0:
232,172,71089,2,0,L|128:180,1,95.9999970703126,8|0,0:0|2:0,0:0:0:0:
116,168,71339,1,0,0:0:0:0:
116,168,71423,6,0,B|112:212|112:212|120:232|120:232|116:272,1,95.9999970703126,0|0,0:0|2:0,0:0:0:0:
48,336,71756,1,8,0:0:0:0:
20,80,71923,6,2,L|248:64,1,191.999994140625,2|0,2:1|0:0,0:0:0:0:
316,4,72423,1,8,0:0:0:0:
396,104,72589,2,0,P|368:144|404:208,1,95.9999970703126,2|0,2:0|0:0,0:0:0:0:
448,260,72923,5,0,2:0:0:0:
248,292,73089,1,8,0:0:0:0:
320,380,73256,5,0,2:0:0:0:
288,180,73422,1,0,2:0:0:0:
152,248,73589,5,0,0:0:0:0:
352,280,73756,1,8,0:0:0:0:
280,88,73923,1,0,0:0:0:0:
280,88,74006,1,0,0:0:0:0:
280,88,74089,6,0,L|184:96,1,95.9999970703126,2|0,0:0|2:0,0:0:0:0:
56,44,74423,1,8,0:0:0:0:
20,220,74589,6,0,L|116:228,1,95.9999970703126,2|0,2:1|2:0,0:0:0:0:
244,176,74923,1,0,0:0:0:0:
368,296,75089,6,0,L|272:304,1,95.9999970703126,10|0,1:1|2:0,0:0:0:0:
115,227,75423,6,0,B|143:239|143:239|123:119,1,143.999995605469,2|2,0:0|2:0,0:0:0:0:
80,68,75756,2,0,B|68:96|68:96|188:76,1,143.999995605469,2|2,0:0|2:0,0:0:0:0:
240,32,76089,2,0,B|212:20|212:20|232:140,1,143.999995605469,2|2,0:0|2:0,0:0:0:0:
220,208,76423,6,0,L|328:216,1,95.9999970703126,2|0,0:0|0:0,0:0:0:0:
404,164,76756,6,0,P|420:112|340:24,1,160.000006103516,4|2,0:0|2:0,0:0:0:0:
284,56,77089,2,0,B|220:64|220:64|184:52|184:52|116:60,1,160.000006103516,0|0,0:0|2:0,0:0:0:0:
80,132,77423,2,0,L|88:296,1,160.000006103516,0|0,0:0|2:0,0:0:0:0:
176,352,77756,2,0,L|183:192,1,160.000006103516,0|0,0:0|2:0,0:0:0:0:
284,56,78089,6,0,B|304:44|332:44|332:44|388:76|380:136,1,160.000006103516,2|0,0:0|2:0,0:0:0:0:
500,112,78423,2,0,B|512:132|512:160|512:160|480:216|420:208,1,160.000006103516,2|0,0:0|2:0,0:0:0:0:
452,328,78756,2,0,B|432:340|404:340|404:340|348:308|356:248,1,160.000006103516,2|0,0:0|2:0,0:0:0:0:
236,272,79090,2,0,B|224:252|224:224|224:224|256:168|316:176,1,160.000006103516,2|0,0:0|2:0,0:0:0:0:
284,344,79423,6,0,P|220:356|152:292,1,160.000006103516,4|0,0:0|2:0,0:0:0:0:
132,184,79756,2,0,L|124:20,1,160.000006103516,0|0,0:0|2:0,0:0:0:0:
243,112,80089,2,0,L|235:271,1,160.000006103516,0|0,0:0|2:0,0:0:0:0:
328,224,80423,2,0,B|396:192|412:252|492:212,1,160.000006103516
436,128,80756,5,2,0:0:0:0:
184,64,81089,1,2,0:0:0:0:
64,312,81312,1,0,0:0:0:0:
64,312,81423,2,0,L|52:200,2,80.0000030517579,2|4|0,0:0|0:3|0:0,0:0:0:0:
136,264,81756,2,0,L|124:152,2,80.0000030517579,2|4|0,0:0|0:3|0:0,0:0:0:0:
188,336,82089,6,0,L|356:332,1,160.000006103516,4|0,0:0|2:0,0:0:0:0:
492,260,82423,2,0,L|324:256,1,160.000006103516,0|0,0:0|2:0,0:0:0:0:
256,192,82756,2,0,P|236:148|304:56,1,160.000006103516
444,152,83089,2,0,P|408:180|312:120,1,160.000006103516
384,112,83423,5,2,0:0:0:0:
180,340,83645,2,0,L|188:248,1,80.0000030517579,2|2,2:0|0:0,0:0:0:0:
64,112,83978,6,0,L|57:191,1,80.0000030517579,2|2,2:0|0:0,0:0:0:0:
404,268,84312,2,0,L|410:188,1,80.0000030517579,2|2,2:0|0:0,0:0:0:0:
196,56,84645,1,2,0:0:0:0:
196,56,84756,6,0,B|204:128|204:128|196:156|196:156|204:224,1,160.000006103516,6|2,0:0|2:0,0:0:0:0:
272,276,85089,2,0,P|296:212|244:132,1,160.000006103516,2|2,0:0|2:0,0:0:0:0:
132,152,85423,2,0,P|108:216|160:296,1,160.000006103516,2|2,0:0|2:0,0:0:0:0:
224,352,85756,2,0,L|396:360,1,160.000006103516,2|0,0:0|2:0,0:0:0:0:
476,216,86089,5,4,3:0:0:0:
256,60,86312,1,0,0:0:0:0:
256,60,86423,1,4,3:0:0:0:
36,216,86645,1,0,0:0:0:0:
36,216,86756,6,0,L|44:56,1,160.000006103516,4|0,3:0|0:0,0:0:0:0:
132,152,87089,2,0,L|124:312,1,160.000006103516,4|0,3:0|0:0,0:0:0:0:
184,376,87423,6,0,P|228:380|288:308,1,120.000004577637,4|0,0:0|0:0,0:0:0:0:
240,196,87923,1,0,0:0:0:0:
240,196,88089,2,0,L|120:192,1,120.000004577637
56,60,88589,1,0,0:0:0:0:
56,60,88756,2,0,B|104:56|104:56|124:64|124:64|204:60,1,120.000004577637
336,52,89256,6,0,L|344:20,2,30.0000011444092
292,232,89756,1,0,0:0:0:0:
280,208,89839,1,0,0:0:0:0:
268,184,89923,1,0,0:0:0:0:
256,160,90006,1,0,0:0:0:0:
244,136,90089,6,0,B|193:138|193:138|173:130|173:130|125:134,1,120.000004577637
32,64,90589,1,0,0:0:0:0:
8,208,90756,6,0,P|4:252|28:328,1,120.000004577637
124,368,91256,1,0,0:0:0:0:
240,255,91423,5,0,0:0:0:0:
336,304,91589,2,0,P|340:332|332:356,2,30.0000011444092
176,80,92089,6,0,P|172:52|180:28,2,30.0000011444092
284,148,92423,1,0,0:0:0:0:
312,144,92506,1,0,0:0:0:0:
340,140,92589,1,0,0:0:0:0:
368,136,92673,1,0,0:0:0:0:
396,132,92756,6,0,B|392:176|392:176|400:196|400:196|396:264,1,120.000004577637
264,324,93423,6,0,P|248:292|264:228,1,60.0000022888184
328,336,93756,1,0,0:0:0:0:
304,348,93839,1,0,0:0:0:0:
276,352,93923,1,0,0:0:0:0:
248,352,94006,1,0,0:0:0:0:
220,344,94089,6,0,L|84:336,1,120.000004577637
32,232,94589,1,0,0:0:0:0:
32,232,94673,1,0,0:0:0:0:
32,232,94756,6,0,P|80:240|136:188,1,120.000004577637
144,172,95173,1,0,0:0:0:0:
148,144,95256,1,0,0:0:0:0:
148,116,95339,1,0,0:0:0:0:
144,88,95423,6,0,L|72:80,1,60.0000022888184
256,196,95923,1,0,0:0:0:0:
256,196,96006,1,0,0:0:0:0:
256,196,96089,6,0,L|328:188,1,60.0000022888184
420,272,96423,2,0,L|348:268,1,60.0000022888184
180,260,96756,6,0,P|160:216|188:132,1,120.000004577637,2|0,0:0|0:0,0:0:0:0:
356,212,97256,2,0,P|339:257|259:296,1,120.000004577637,2|0,0:0|0:0,0:0:0:0:
240,92,97756,1,0,0:0:0:0:
268,92,97839,1,0,0:0:0:0:
296,100,97923,1,0,0:0:0:0:
320,112,98006,1,0,0:0:0:0:
336,128,98089,5,4,0:3:0:0:
208,340,98756,2,0,L|112:332,1,80,0|2,0:0|2:0,0:0:0:0:
72,272,99256,1,2,2:0:0:0:
132,208,99423,6,0,L|124:120,1,80,2|0,2:0|2:0,0:0:0:0:
232,36,99923,2,0,L|224:124,1,80,2|0,2:0|2:0,0:0:0:0:
264,212,100423,1,2,2:0:0:0:
392,128,100756,5,2,2:0:0:0:
380,136,101423,6,0,P|372:168|384:224,1,80,2|2,2:0|2:0,0:0:0:0:
448,288,101923,1,2,2:0:0:0:
448,288,102089,6,0,L|316:280,2,120,2|2|2,2:0|2:0|2:0,2:0:0:0:
500,172,103423,5,2,2:0:0:0:
256,192,103589,12,2,106089,2:0:0:0:
200,236,107423,6,0,L|192:148,1,60.0000022888184
224,56,107756,1,0,0:0:0:0:
336,104,107923,6,0,P|340:132|328:168,1,60.0000022888184
184,212,108256,1,0,0:0:0:0:
104,88,108423,6,0,L|108:16,1,60.0000022888184
194,176,108756,6,0,L|94:180,1,80,4|0,0:0|0:0,0:0:0:0:
24,288,109089,2,0,B|92:320|108:264|184:304,1,160,8|2,0:0|0:0,0:0:0:0:
264,376,109589,1,0,0:0:0:0:
312,212,109756,1,8,0:0:0:0:
392,316,109922,6,0,L|400:144,1,160,2|0,0:0|0:0,0:0:0:0:
355,68,110422,6,0,P|321:56|264:79,1,80,8|0,0:0|0:0,0:0:0:0:
312,212,110756,2,0,P|323:178|300:121,1,80,2|0,0:0|0:0,0:0:0:0:
168,175,111089,2,0,P|201:186|258:163,1,80,8|0,0:0|0:0,0:0:0:0:
204,32,111422,6,0,P|192:65|215:122,1,80,2|0,0:0|0:0,0:0:0:0:
300,232,111756,1,8,0:0:0:0:
232,304,111922,2,0,B|204:308|180:300|180:300|152:308|152:308|112:296|72:308,1,160,2|0,0:0|0:0,0:0:0:0:
28,216,112422,1,8,0:0:0:0:
100,100,112589,6,0,L|264:104,1,160,2|0,0:0|0:0,0:0:0:0:
416,208,113089,2,0,L|256:204,1,160,2|0,0:0|0:0,0:0:0:0:
84,64,113589,6,0,L|192:68,1,80,2|0,0:0|0:0,0:0:0:0:
396,244,113922,2,0,L|284:240,1,80,0|4,0:0|0:0,0:0:0:0:
196,164,114256,5,0,0:0:0:0:
120,360,114422,2,0,L|112:196,1,160,8|2,0:0|0:0,0:0:0:0:
8,136,114922,1,0,0:0:0:0:
192,56,115089,1,8,0:0:0:0:
100,12,115256,6,0,L|292:8,1,160,2|0,0:0|0:0,0:0:0:0:
388,104,115756,2,0,P|352:120|284:100,1,80,8|0,0:0|0:0,0:0:0:0:
336,12,116089,6,0,L|452:20,1,80,2|0,0:0|0:0,0:0:0:0:
408,120,116422,2,0,L|524:128,1,80,8|0,0:0|0:0,0:0:0:0:
288,220,116755,6,0,L|472:232,1,160,6|8,0:0|0:0,0:0:0:0:
488,324,117255,1,0,0:0:0:0:
304,356,117422,6,0,P|228:356|172:272,1,160,2|8,0:0|0:0,0:0:0:0:
184,172,117922,1,0,0:0:0:0:
360,208,118089,6,0,P|372:245|367:284,1,80,2|0,0:0|0:0,0:0:0:0:
168,160,118422,2,0,P|155:122|160:83,1,80,2|0,0:0|0:0,0:0:0:0:
248,24,118755,5,10,0:0:0:0:
280,36,118839,1,0,0:0:0:0:
316,48,118922,1,10,0:0:0:0:
352,60,119005,1,0,0:0:0:0:
368,92,119089,1,10,0:0:0:0:
332,80,119172,1,8,0:0:0:0:
296,68,119255,1,10,0:0:0:0:
264,56,119339,1,8,0:0:0:0:
280,88,119422,6,0,L|456:144,1,155.999992858887,4|0,0:0|0:0,0:0:0:0:
440,180,119755,2,0,L|304:136,1,103.999995239258,2|8,0:0|0:0,0:0:0:0:
176,40,120089,6,0,B|184:84|184:84|164:148|164:148|176:220,1,155.999992858887,8|0,0:1|0:0,0:0:0:0:
232,232,120422,2,0,L|208:100,1,103.999995239258,4|0,0:0|0:0,0:0:0:0:
64,212,120755,6,0,P|88:276|208:300,1,155.999992858887,2|0,0:0|0:0,0:0:0:0:
196,304,121089,1,4,0:0:0:0:
356,216,121255,1,0,0:0:0:0:
436,360,121422,1,8,0:1:0:0:
504,152,121589,5,4,0:0:0:0:
444,108,121755,1,4,0:0:0:0:
380,64,121922,1,4,0:0:0:0:
380,64,122089,6,0,L|272:72,1,103.999995239258,4|2,0:0|2:0,0:0:0:0:
224,144,122339,2,0,L|332:152,1,103.999995239258,4|2,0:0|2:0,0:0:0:0:
380,228,122589,6,0,L|272:236,1,103.999995239258,4|8,0:0|2:1,0:0:0:0:
176,328,122922,1,0,0:0:0:0:
104,120,123089,1,4,0:0:0:0:
56,244,123255,1,0,0:0:0:0:
232,104,123422,6,0,P|220:56|172:8,1,103.999995239258,2|0,0:2|0:0,0:0:0:0:
40,224,123755,2,0,L|164:216,1,103.999995239258,4|0,0:0|0:0,0:0:0:0:
332,276,124089,6,0,P|292:232|272:304,1,155.999992858887,8|0,0:1|0:0,0:0:0:0:
348,288,124422,2,0,P|352:248|304:196,1,103.999995239258,2|0,0:0|0:0,0:0:0:0:
208,364,124755,6,0,L|376:372,1,155.999992858887,4|0,0:0|0:0,0:0:0:0:
396,356,125089,1,4,0:0:0:0:
240,164,125255,1,4,0:0:0:0:
136,288,125422,2,0,P|80:296|88:208,1,155.999992858887,8|0,0:1|0:0,0:0:0:0:
88,228,125755,2,0,P|108:180|76:132,1,103.999995239258,4|0,0:0|0:0,0:0:0:0:
0,68,126089,6,0,L|172:52,1,155.999992858887,2|0,0:0|0:0,0:0:0:0:
184,24,126422,2,0,L|68:36,1,103.999995239258,4|0,0:0|0:0,0:0:0:0:
24,140,126755,1,8,0:1:0:0:
36,152,126922,5,4,0:0:0:0:
128,140,127089,1,4,0:0:0:0:
220,128,127255,1,4,0:0:0:0:
312,116,127422,6,0,P|292:192|232:220,1,103.999995239258,4|0,0:0|0:0,0:0:0:0:
208,248,127672,2,0,P|247:280|298:285,1,103.999995239258,4|0,0:0|0:0,0:0:0:0:
368,232,127922,1,4,0:0:0:0:
264,32,128089,6,0,L|148:44,1,103.999995239258,8|0,0:1|0:0,0:0:0:0:
104,152,128422,2,0,L|207:141,1,103.999995239258,4|0,0:0|0:0,0:0:0:0:
24,60,128755,5,2,1:2:0:0:
120,336,129089,1,2,2:0:0:0:
392,236,129422,2,0,P|400:208|376:140,2,103.999995239258,2|0|2,2:0|2:0|2:0,2:0:0:0:
380,244,130089,5,4,1:0:0:0:
352,256,130172,1,0,0:0:0:0:
320,256,130255,1,0,0:0:0:0:
288,244,130339,1,0,0:0:0:0:
264,220,130422,1,0,0:0:0:0:
256,188,130505,1,0,0:0:0:0:
260,156,130589,1,0,1:0:0:0:
276,128,130672,1,0,0:0:0:0:
300,108,130755,6,0,L|296:40,1,35.9999989013672,8|0,0:0|0:0,0:0:0:0:
200,24,130922,2,0,L|202:59,1,35.9999989013672
280,88,131089,6,0,L|276:20,1,35.9999989013672
180,4,131256,2,0,L|182:39,1,35.9999989013672,0|0,1:0|0:0,0:0:0:0:
112,140,131422,6,0,L|56:132,3,35.9999989013672,4|0|0|0,1:0|0:0|0:0|0:0,0:0:0:0:
24,212,131755,2,0,L|59:217,3,35.9999989013672,0|0|0|0,0:0|0:0|1:0|0:0,0:0:0:0:
108,296,132089,5,8,1:0:0:0:
136,276,132172,1,0,0:0:0:0:
168,272,132255,1,0,0:0:0:0:
200,280,132339,1,0,0:0:0:0:
224,300,132422,1,2,0:0:0:0:
252,312,132505,1,0,0:0:0:0:
284,312,132589,1,0,0:0:0:0:
312,296,132672,1,0,0:0:0:0:
328,268,132755,6,0,L|324:200,3,35.9999989013672,4|0|0|0,1:0|0:0|0:0|0:0,0:0:0:0:
384,136,133089,2,0,L|386:171,3,35.9999989013672,0|0|0|0,0:0|0:0|1:0|0:0,0:0:0:0:
304,244,133422,6,0,L|300:176,3,35.9999989013672,8|0|0|0,1:0|0:0|0:0|0:0,0:0:0:0:
360,112,133756,2,0,L|362:147,3,35.9999989013672,2|0|0|0,0:0|0:0|0:0|0:0,0:0:0:0:
208,208,134089,5,0,1:0:0:0:
176,200,134172,1,0,0:0:0:0:
148,184,134255,1,0,0:0:0:0:
124,164,134339,1,0,0:0:0:0:
108,136,134422,1,0,0:0:0:0:
96,108,134505,1,0,0:0:0:0:
92,76,134589,1,0,1:0:0:0:
96,44,134672,1,0,0:0:0:0:
108,16,134755,6,0,L|156:12,1,35.9999989013672,8|0,0:0|0:0,0:0:0:0:
252,48,134922,2,0,L|216:50,1,35.9999989013672,0|0,1:0|1:0,1:0:0:0:
128,36,135089,6,0,L|176:32,1,35.9999989013672,8|0,1:0|0:0,0:0:0:0:
272,68,135256,2,0,L|236:70,1,35.9999989013672,8|0,1:0|0:0,0:0:0:0:
124,164,135422,5,4,1:0:0:0:
112,196,135505,1,0,0:0:0:0:
116,228,135589,1,0,0:0:0:0:
132,256,135672,1,0,0:0:0:0:
156,276,135755,1,0,0:0:0:0:
188,280,135839,1,0,0:0:0:0:
220,268,135922,1,0,0:0:0:0:
252,268,136005,1,0,0:0:0:0:
284,276,136089,5,8,1:0:0:0:
312,296,136172,1,0,0:0:0:0:
332,324,136255,1,0,0:0:0:0:
332,356,136339,1,0,0:0:0:0:
312,380,136422,6,0,L|308:328,1,35.9999989013672,2|0,0:0|0:0,0:0:0:0:
348,268,136589,2,0,L|344:216,1,35.9999989013672
400,152,136755,5,0,1:0:0:0:
368,148,136839,1,0,0:0:0:0:
336,144,136922,1,0,0:0:0:0:
304,140,137005,1,0,0:0:0:0:
280,116,137089,5,0,0:0:0:0:
312,120,137172,1,0,0:0:0:0:
344,124,137255,1,0,0:0:0:0:
376,128,137339,1,0,1:0:0:0:
352,104,137422,5,8,1:0:0:0:
320,100,137506,1,0,0:0:0:0:
288,96,137589,1,0,0:0:0:0:
256,92,137672,1,0,0:0:0:0:
232,72,137755,5,8,1:0:0:0:
264,76,137838,1,0,0:0:0:0:
296,80,137921,1,0,0:0:0:0:
328,84,138005,1,0,0:0:0:0:
312,56,138089,6,0,L|256:48,3,35.9999989013672,4|0|0|0,1:0|0:0|0:0|0:0,0:0:0:0:
196,84,138422,2,0,L|140:76,3,35.9999989013672,0|0|0|0,0:0|0:0|1:0|1:0,0:0:0:0:
84,32,138755,5,0,1:0:0:0:
72,64,138839,1,0,1:0:0:0:
72,96,138922,1,0,1:0:0:0:
84,124,139005,1,0,1:0:0:0:
108,148,139089,1,0,1:0:0:0:
136,160,139172,1,0,1:0:0:0:
160,180,139255,1,0,1:0:0:0:
180,208,139339,1,0,1:0:0:0:
192,240,139422,5,4,0:0:0:0:
188,272,139505,1,0,0:0:0:0:
176,300,139589,1,0,0:0:0:0:
156,324,139672,1,0,0:0:0:0:
124,336,139755,6,0,L|72:328,3,35.9999989013672,4|0|0|0,0:0|0:0|0:0|0:0,0:0:0:0:
48,240,140089,2,0,L|83:245,3,35.9999989013672,4|0|0|0,0:0|0:0|0:0|0:0,0:0:0:0:
196,324,140422,2,0,L|100:312,1,71.9999978027344,4|0,0:0|0:0,0:0:0:0:
0,160,140755,5,4,0:0:0:0:
196,292,146088,5,0,0:0:0:0:
220,160,146421,1,2,2:0:0:0:
304,244,146755,5,0,0:0:0:0:
172,220,147088,1,2,2:0:0:0:
248,148,147421,5,0,0:0:0:0:
224,280,147754,1,2,2:0:0:0:
144,200,148088,5,0,0:0:0:0:
276,224,148421,1,2,2:0:0:0:
184,336,148755,5,0,0:0:0:0:
148,332,149088,1,0,0:0:0:0:
112,328,149421,1,0,0:0:0:0:
76,324,149755,1,0,0:0:0:0:
40,320,150088,6,0,L|32:248,1,53.3333333333333,2|2,0:0|0:0,0:0:0:0:
100,144,150532,1,8,0:3:0:0:
124,152,150643,1,8,0:3:0:0:
148,160,150755,2,0,L|244:156,1,80,8|4,0:0|0:3,0:0:0:0:
244,144,151421,6,0,P|268:104|236:40,1,103.999995239258,4|2,0:0|0:0,0:0:0:0:
80,168,151754,2,0,P|91:213|159:235,1,103.999995239258,0|2,0:0|0:0,0:0:0:0:
288,224,152087,6,0,L|396:216,1,103.999995239258,2|2,0:0|0:0,0:0:0:0:
424,244,152337,1,0,0:0:0:0:
424,244,152421,2,0,L|320:251,1,103.999995239258,2|2,0:0|0:0,0:0:0:0:
212,132,152754,5,2,0:0:0:0:
160,288,152921,1,0,0:0:0:0:
192,112,153087,5,2,0:0:0:0:
140,268,153254,1,0,0:0:0:0:
172,92,153421,6,0,P|216:100|288:84,1,103.999995239258,2|0,0:0|0:0,0:0:0:0:
492,136,153754,2,0,P|448:128|376:144,1,103.999995239258,2|0,0:0|0:0,0:0:0:0:
284,236,154087,5,2,0:0:0:0:
284,236,154171,1,0,0:0:0:0:
284,236,154254,2,0,L|296:352,1,103.999995239258,0|2,0:0|0:0,0:0:0:0:
412,380,154587,1,0,0:0:0:0:
468,256,154754,6,0,P|424:236|372:248,1,103.999995239258,2|2,0:0|0:0,0:0:0:0:
200,344,155087,1,2,0:0:0:0:
80,232,155254,6,0,B|84:184|84:184|76:152|76:152|84:48,1,155.999992858887,2|0,0:0|0:0,0:0:0:0:
60,52,155587,2,0,L|52:200,1,103.999995239258,2|2,0:0|0:0,0:0:0:0:
36,336,155921,1,2,0:0:0:0:
188,228,156087,6,0,P|184:200|152:164,2,51.999997619629,0|0|2,0:0|0:0|0:0,0:0:0:0:
152,328,156421,2,0,P|200:336|252:312,1,103.999995239258,2|2,0:0|0:0,0:0:0:0:
328,120,156754,5,2,0:0:0:0:
328,120,156921,2,0,L|336:224,1,103.999995239258,2|0,0:0|0:0,0:0:0:0:
464,156,157254,1,2,0:0:0:0:
464,156,157337,1,0,0:0:0:0:
464,156,157421,2,2,L|472:52,1,103.999995239258,2|2,0:0|0:0,0:0:0:0:
348,4,157754,2,0,P|308:40|244:40,1,103.999995239258,2|0,0:0|0:0,0:0:0:0:
132,16,158087,5,2,0:0:0:0:
80,164,158254,1,0,0:0:0:0:
24,88,158421,5,2,0:0:0:0:
172,140,158588,1,0,0:0:0:0:
88,188,158754,5,2,0:0:0:0:
140,40,158921,1,0,0:0:0:0:
196,116,159088,5,2,0:0:0:0:
48,64,159255,1,0,0:0:0:0:
24,272,159421,6,0,L|136:268,1,103.999995239258,6|0,0:0|0:0,0:0:0:0:
152,288,159671,1,0,0:0:0:0:
152,288,159754,2,0,L|264:284,1,103.999995239258,2|0,0:0|0:0,0:0:0:0:
400,224,160087,5,8,0:3:0:0:
412,200,160171,1,8,0:3:0:0:
412,172,160254,1,4,0:3:0:0:
404,148,160337,1,4,0:3:0:0:
392,128,160421,1,4,0:3:0:0:
368,112,160504,1,4,0:3:0:0:
336,108,160587,1,4,0:3:0:0:
296,120,160671,1,4,0:3:0:0:
276,152,160754,6,0,B|272:176|284:200|284:200|276:212|276:212|288:240|284:256,1,103.999995239258,6|0,0:0|0:0,0:0:0:0:
184,116,161087,2,0,B|188:92|176:68|176:68|184:56|184:56|172:28|176:12,1,103.999995239258,6|0,0:0|0:0,0:0:0:0:
256,172,161421,6,0,B|252:196|264:220|264:220|256:232|256:232|268:260|264:276,1,103.999995239258,6|0,0:0|0:0,0:0:0:0:
164,136,161754,2,0,B|168:112|156:88|156:88|164:76|164:76|152:48|156:32,1,103.999995239258,6|0,0:0|0:0,0:0:0:0:
236,184,162087,6,0,P|192:220|116:204,1,128,4|0,0:0|0:0,0:0:0:0:
100,184,162337,2,0,P|108:232|92:284,1,64,2|0,0:0|0:0,0:0:0:0:
20,336,162587,1,2,0:0:0:0:
8,92,162754,5,0,0:0:0:0:
8,92,162837,1,0,0:0:0:0:
8,92,162921,2,0,B|56:88|56:88|88:96|88:96|168:92,1,128,2|2,0:0|0:0,0:0:0:0:
284,24,163254,1,0,0:0:0:0:
300,40,163337,1,2,0:0:0:0:
316,56,163421,6,0,P|328:108|292:180,1,128,4|0,0:0|0:0,0:0:0:0:
264,192,163671,1,0,0:0:0:0:
264,192,163754,2,0,L|408:180,1,128,2|2,0:0|0:0,0:0:0:0:
472,308,164087,5,0,0:0:0:0:
308,364,164254,1,2,0:0:0:0:
176,248,164421,2,0,L|184:108,1,128,2|0,0:0|0:0,0:0:0:0:
168,96,164671,1,2,0:0:0:0:
168,96,164754,6,0,B|212:92|212:92|252:108|252:108|328:104,1,128,2|0,0:0|0:0,0:0:0:0:
468,196,165087,2,0,B|424:200|424:200|384:184|384:184|308:188,1,128,2|0,0:0|0:0,0:0:0:0:
160,272,165421,6,0,P|160:308|184:356,2,64,0|0|2,0:0|0:0|0:0,0:0:0:0:
256,92,165754,1,2,0:0:0:0:
116,192,165920,1,2,0:0:0:0:
320,164,166087,5,0,0:0:0:0:
140,104,166254,1,2,0:0:0:0:
256,248,166420,2,0,L|248:376,1,128,2|0,0:0|0:0,0:0:0:0:
232,44,166754,5,2,0:0:0:0:
348,188,166920,2,0,L|340:316,1,128,2|8,0:0|0:3,0:0:0:0:
360,308,167170,1,8,0:3:0:0:
380,300,167254,1,4,0:3:0:0:
400,292,167337,1,4,0:3:0:0:
420,284,167420,5,2,0:0:0:0:
468,156,167587,1,2,0:0:0:0:
352,68,167754,1,2,0:0:0:0:
336,80,168087,6,0,L|328:8,2,64,0|0|2,0:0|0:0|0:0,0:0:0:0:
208,64,168420,2,0,L|204:196,1,128,2|0,0:0|0:0,0:0:0:0:
76,364,168754,6,0,P|28:332|36:244,1,128,2|0,0:0|0:0,0:0:0:0:
60,248,169004,1,0,0:0:0:0:
60,248,169087,2,0,B|104:260|104:260|136:256|136:256|204:272,1,128,2|0,0:0|0:0,0:0:0:0:
316,336,169420,6,0,P|384:340|328:272,1,192,2|0,0:0|0:0,0:0:0:0:
209,198,169754,2,0,P|141:194|197:262,1,192,2|2,0:0|0:0,0:0:0:0:
220,240,170087,2,0,P|224:200|156:156,1,128,2|2,0:0|0:0,0:0:0:0:
28,202,170420,6,0,L|20:282,2,64,4|0|0,0:0|0:0|0:0,0:0:0:0:
0,40,170754,1,2,0:0:0:0:
208,76,170920,1,0,0:0:0:0:
208,76,171004,1,0,0:0:0:0:
208,76,171087,6,0,L|304:68,1,64,2|0,0:0|0:0,0:0:0:0:
232,52,171254,2,0,L|328:44,1,64,2|0,0:0|0:0,0:0:0:0:
432,172,171420,5,2,0:0:0:0:
448,208,171504,1,0,0:0:0:0:
444,248,171587,1,0,0:0:0:0:
416,280,171670,1,0,0:0:0:0:
380,292,171754,6,0,L|248:288,1,128,6|0,0:0|0:0,0:0:0:0:
48,360,172087,2,0,L|175:363,1,128,2|0,0:0|0:0,0:0:0:0:
148,216,172420,1,0,0:0:0:0:
111,214,172504,1,0,0:0:0:0:
75,213,172587,1,0,0:0:0:0:
39,211,172670,1,0,0:0:0:0:
16,184,172754,6,0,L|28:48,1,128,4|0,0:0|0:0,0:0:0:0:
60,40,173000,1,0,0:0:0:0:
60,40,173084,2,0,L|48:167,1,128
28,328,173418,5,0,0:0:0:0:
28,328,173502,2,0,B|72:324|72:324|104:312|104:312|180:308,1,128
176,292,173753,2,0,B|220:288|220:288|252:276|252:276|328:272,1,128
400,336,174087,5,0,0:0:0:0:
500,172,174254,2,0,P|512:132|492:72,2,64
372,196,174588,1,0,0:0:0:0:
268,104,174756,6,0,L|132:112,1,128,2|0,0:0|0:0,0:0:0:0:
12,224,175090,2,0,L|204:212,1,192,2|0,0:0|0:0,0:0:0:0:
236,232,175424,6,0,P|248:280|184:288,1,128,4|0,0:0|0:0,0:0:0:0:
196,248,175675,1,0,0:0:0:0:
196,248,175759,2,0,B|200:208|200:208|192:184|192:184|196:116,1,128
316,24,176093,5,0,0:0:0:0:
316,24,176177,2,0,L|448:48,1,128
456,88,176427,2,0,L|330:65,1,128
100,24,176762,6,0,L|124:156,1,128,2|0,0:0|0:0,0:0:0:0:
164,164,177013,2,0,L|141:38,1,128,2|0,0:0|0:0,0:0:0:0:
176,52,177263,2,0,L|200:184,1,128,2|0,0:0|0:0,0:0:0:0:
240,192,177514,2,0,L|217:66,1,128,2|0,0:0|0:0,0:0:0:0:
256,76,177765,2,0,L|279:202,1,128,2|0,0:0|0:0,0:0:0:0:
392,288,178099,5,4,0:0:0:0:
472,164,178266,2,0,L|480:60,2,64
372,300,178601,2,0,B|324:296|324:296|300:304|300:304|200:296,1,128
220,312,178851,2,0,B|172:308|172:308|148:316|148:316|48:308,1,128
76,288,179102,1,0,0:0:0:0:
100,112,179269,1,0,0:0:0:0:
148,180,179437,6,0,P|104:196|28:148,1,128
8,16,179771,1,0,0:0:0:0:
224,112,179938,1,0,0:0:0:0:
155,305,180105,6,0,B|147:265|147:265|155:225|155:225|147:177,1,128,2|0,0:0|0:0,0:0:0:0:
304,72,180440,2,0,B|312:112|312:112|304:152|304:152|312:200,1,128,2|0,0:0|0:0,0:0:0:0:
256,192,180774,12,0,181774,0:0:0:0:
152,248,182111,5,0,0:0:0:0:
84,88,182362,1,0,0:0:0:0:
256,116,182613,1,0,0:0:0:0:
152,164,182780,6,0,P|96:184|68:252,1,128
96,308,183031,1,0,0:0:0:0:
96,308,183115,2,0,P|149:333|217:305,1,128
264,204,183416,5,0,0:0:0:0:
292,184,183490,1,0,0:0:0:0:
328,176,183573,1,0,0:0:0:0:
364,180,183656,1,0,0:0:0:0:
396,196,183740,2,0,L|404:88,1,80
304,4,184073,2,0,L|316:128,1,120
284,104,184406,2,0,P|244:88|196:104,1,80
180,116,184656,1,0,0:0:0:0:
164,148,184740,5,2,2:0:0:0:
252,288,184906,1,0,2:0:0:0:
396,196,185073,5,2,2:0:0:0:
236,100,185240,1,0,0:0:0:0:
208,76,185323,1,0,0:0:0:0:
176,64,185406,6,0,P|128:68|80:136,1,120
80,156,185740,1,0,0:0:0:0:
92,188,185823,1,0,0:0:0:0:
116,216,185906,1,0,0:0:0:0:
152,228,185990,1,0,0:0:0:0:
188,224,186073,6,0,L|284:232,1,80
292,256,186323,2,0,L|212:249,1,80
164,148,186573,5,0,0:0:0:0:
164,148,186656,1,0,0:0:0:0:
164,148,186740,2,0,L|68:156,1,80
60,180,186990,2,0,L|139:173,1,80
280,72,187240,5,0,0:0:0:0:
280,72,187323,1,0,0:0:0:0:
280,72,187406,6,0,P|320:60|368:76,1,80
308,200,187656,2,0,P|271:180|248:134,1,80
400,160,187906,2,0,L|404:268,1,80
432,260,188156,5,0,0:0:0:0:
416,292,188240,1,0,0:0:0:0:
388,316,188323,1,0,0:0:0:0:
356,328,188406,1,0,0:0:0:0:
320,332,188490,1,0,0:0:0:0:
284,332,188573,1,0,0:0:0:0:
248,320,188656,1,0,0:0:0:0:
216,304,188740,6,0,L|116:300,1,80
108,276,188990,1,0,0:0:0:0:
100,240,189073,1,0,0:0:0:0:
196,136,189240,6,0,P|204:108|200:68,2,40
48,92,189573,2,0,P|40:64|44:24,2,40
228,212,189906,5,0,0:0:0:0:
264,204,189990,1,0,0:0:0:0:
300,196,190073,5,0,0:0:0:0:
332,212,190156,1,0,0:0:0:0:
368,220,190240,1,0,0:0:0:0:
404,212,190323,1,0,0:0:0:0:
432,192,190406,5,0,0:0:0:0:
448,160,190490,1,0,0:0:0:0:
444,124,190573,1,0,0:0:0:0:
424,92,190656,1,0,0:0:0:0:
392,76,190740,5,0,0:0:0:0:
356,84,190823,1,0,0:0:0:0:
328,108,190906,1,0,0:0:0:0:
324,144,190990,1,0,0:0:0:0:
336,176,191073,6,0,L|332:280,1,80
384,336,191323,1,0,0:0:0:0:
384,336,191406,6,0,L|304:344,1,80
160,272,191740,2,0,L|240:280,1,80
412,247,192073,2,0,L|332:255,1,80
188,183,192407,2,0,L|268:191,1,80
368,136,192740,6,0,P|388:84|356:40,1,80,2|0,0:0|0:0,0:0:0:0:
360,40,192990,1,2,0:0:0:0:
267,190,193240,6,0,P|247:242|279:286,1,80,2|0,0:0|0:0,0:0:0:0:
275,286,193490,1,2,0:0:0:0:
272,84,193740,6,0,P|220:64|176:96,1,80,2|0,0:0|0:0,0:0:0:0:
176,92,193990,1,2,0:0:0:0:
164,124,194073,1,0,0:0:0:0:
152,156,194156,1,0,0:0:0:0:
140,192,194240,1,0,0:0:0:0:
128,224,194323,1,0,0:0:0:0:
116,256,194406,6,0,L|204:252,1,80,4|0,0:0|0:0,0:0:0:0:
304,336,194754,1,0,0:0:0:0:
396,184,194921,1,0,0:0:0:0:
484,284,195087,6,0,P|452:296|404:288,1,80,8|0,0:0|0:0,0:0:0:0:
312,148,195587,5,0,0:0:0:0:
324,120,195671,1,0,0:0:0:0:
328,88,195754,1,8,0:0:0:0:
228,4,195921,1,0,0:0:0:0:
144,152,196087,6,0,L|148:200,1,40
52,100,196421,1,12,0:0:0:0:
52,100,196587,6,0,L|56:0,1,80,6|0,0:0|0:0,0:0:0:0:
