osu file format v14

[General]
AudioFilename: audio.mp3
AudioLeadIn: 0
PreviewTime: 85645
Countdown: 1
SampleSet: Normal
StackLeniency: 0.7
Mode: 1
LetterboxInBreaks: 0
WidescreenStoryboard: 1

[Editor]
Bookmarks: 85945,178345,269545,346345
DistanceSpacing: 1.6
BeatDivisor: 4
GridSize: 32
TimelineZoom: 2.899999

[Metadata]
Title:HOC GochaMaze ParadoX
TitleUnicode:HOC GochaMaze ParadoX
Artist:GilLarM
ArtistUnicode:GilLarM
Creator:hoku
Version:HOC OTAKU COLLABORATION ^-^
Source:
Tags:shinchikuhome ler1211 komasy uone japanese Electronic Gil Tamolar​M J-Core Hardcore Nerdcore Techno LOLISTYLE GABBERS ANIMETIC LIVEWEAPON 06 jcore rinze lwpc-006
BeatmapID:4069056
BeatmapSetID:1963238

[Difficulty]
HPDrainRate:5
CircleSize:5
OverallDifficulty:6
ApproachRate:5
SliderMultiplier:1.4
SliderTickRate:1

[Events]
//Background and Video events
0,0,"brbrdgnren.png",0,50
//Break Periods
2,346577,352377
2,413777,417177
2,442577,447177
//Storyboard Layer 0 (Background)
//Storyboard Layer 1 (Fail)
//Storyboard Layer 2 (Pass)
//Storyboard Layer 3 (Foreground)
//Storyboard Layer 4 (Overlay)
//Storyboard Sound Samples

[TimingPoints]
777,300,4,1,0,5,1,0
6445,-133.333333333333,4,1,0,20,0,0
6670,-111.111111111111,4,1,0,20,0,0
7795,-76.923076923077,4,1,0,30,0,0
9070,-133.333333333333,4,1,0,70,0,0
13926,-133.333333333333,4,1,0,70,0,0
14226,-127.659574468085,4,1,0,71,0,0
14526,-122.448979591837,4,1,0,71,0,0
14826,-117.647058823529,4,1,0,72,0,0
15126,-113.207547169811,4,1,0,73,0,0
15426,-109.090909090909,4,1,0,73,0,0
15576,-107.142857142857,4,1,0,74,0,0
15726,-105.263157894737,4,1,0,74,0,0
16026,-101.694915254237,4,1,0,75,0,0
16326,-98.360655737705,4,1,0,75,0,0
16476,-96.774193548387,4,1,0,76,0,0
16626,-95.238095238095,4,1,0,76,0,0
16776,-93.75,4,1,0,76,0,0
16851,-93.023255813953,4,1,0,77,0,0
16926,-92.307692307692,4,1,0,77,0,0
17076,-90.909090909091,4,1,0,77,0,0
17226,-89.55223880597,4,1,0,77,0,0
17376,-88.235294117647,4,1,0,78,0,0
17526,-86.95652173913,4,1,0,78,0,0
17601,-86.330935251799,4,1,0,78,0,0
17676,-85.714285714286,4,1,0,78,0,0
17751,-85.106382978723,4,1,0,79,0,0
17826,-84.507042253521,4,1,0,79,0,0
17976,-83.333333333333,4,1,0,79,0,0
18126,-82.191780821918,4,1,0,79,0,0
18201,-81.632653061224,4,1,0,80,0,0
18276,-81.081081081081,4,1,0,80,0,0
18426,-80,4,1,0,80,0,0
18670,-90.909090909091,4,1,0,80,0,0
18777,-90.909090909091,4,1,0,90,0,1
27126,-90.909090909091,4,1,0,80,0,1
27145,-90.909090909091,4,1,0,80,0,1
27276,-94.117647058824,4,1,0,80,0,1
27576,-101.26582278481,4,1,0,80,0,1
27726,-105.263157894737,4,1,0,80,0,1
27801,-107.38255033557,4,1,0,80,0,1
27876,-109.58904109589,4,1,0,80,0,1
27951,-111.888111888112,4,1,0,80,0,1
28026,-114.285714285714,4,1,0,80,0,1
28326,-125,4,1,0,60,0,1
28377,-125,4,1,0,60,0,0
33070,-111.111111111111,4,1,0,70,0,0
35526,-111.111110153803,4,1,0,70,0,0
35676,-111.094288006291,4,1,0,70,0,0
35826,-111.056507598988,4,1,0,70,0,0
35976,-110.98426816285,4,1,0,70,0,0
36051,-110.692459092564,4,1,0,70,0,0
36126,-110.133473647506,4,1,0,70,0,0
36276,-109.228579412108,4,1,0,70,0,0
36426,-107.910099053133,4,1,0,70,0,0
36576,-106.126226575909,4,1,0,70,0,0
36651,-105.263157894737,4,1,0,70,0,0
36726,-103.845529984296,4,1,0,70,0,0
36801,-102.564102564103,4,1,0,70,0,0
36876,-101.060317546762,4,1,0,70,0,0
36951,-99.483018518074,4,1,0,70,0,0
37026,-97.788122696282,4,1,0,70,0,0
37176,-94.070835177896,4,1,0,70,0,0
37251,-92.064270564262,4,1,0,70,0,0
37326,-89.971427822505,4,1,0,70,0,0
37401,-87.802606101353,4,1,0,70,0,0
37476,-85.568690008987,4,1,0,70,0,0
37626,-80.950746651525,4,1,0,70,0,0
37701,-78.589494911578,4,1,0,70,0,0
37776,-76.208312198517,4,1,0,70,0,0
37851,-73.817936919342,4,1,0,90,0,0
37870,-73.212146071599,4,1,0,90,0,0
37926,-71.428571428571,4,1,0,90,0,0
37977,-66.666666666667,4,1,0,90,0,1
42126,-66.74023511065,4,1,0,90,0,1
42276,-68.633713423667,4,1,0,90,0,1
42426,-70.637768126281,4,1,0,90,0,1
42501,-71.684333424417,4,1,0,90,0,1
42576,-72.762376808253,4,1,0,90,0,1
42651,-73.873340135532,4,1,0,90,0,1
42726,-75.018754688672,4,1,0,90,0,1
46345,-75.018754688672,4,1,0,90,0,1
46626,-90.909090909091,4,1,0,70,0,1
46701,-93.023255813953,4,1,0,70,0,1
46776,-95.238095238095,4,1,0,70,0,1
46926,-100,4,1,0,70,0,1
47001,-102.564102564103,4,1,0,70,0,1
47076,-105.263157894737,4,1,0,70,0,1
47226,-111.111111111111,4,1,0,70,0,1
47526,-125,4,1,0,5,0,1
47577,-125,4,1,0,10,0,0
48745,-125,4,1,0,5,0,0
49945,-142.857142857143,4,1,0,5,0,0
51145,-166.666666666667,4,1,0,5,0,0
52270,-200,4,1,0,10,0,0
52326,-199.999999892793,4,1,0,10,0,0
52626,-199.985779847745,4,1,0,10,0,0
52926,-199.889605119522,4,1,0,10,0,0
53226,-199.631570270713,4,1,0,10,0,0
53376,-199.417232544631,4,1,0,10,0,0
53526,-199.13318500702,4,1,0,10,0,0
53826,-198.318952494576,4,1,0,10,0,0
53976,-197.771129976589,4,1,0,10,0,0
54126,-197.118481357938,4,1,0,10,0,0
54276,-196.353418955214,4,1,0,11,0,0
54351,-195.926536009539,4,1,0,11,0,0
54426,-195.469002237113,4,1,0,11,0,0
54576,-194.459024377046,4,1,0,11,0,0
54726,-193.318096038442,4,1,0,11,0,0
54876,-192.041724020838,4,1,0,11,0,0
55176,-189.069573579219,4,1,0,12,0,0
55326,-187.369877776123,4,1,0,12,0,0
55626,-183.541728714216,4,1,0,13,0,0
55776,-181.41606044455,4,1,0,13,0,0
55926,-179.153062912849,4,1,0,13,0,0
56076,-176.756903435811,4,1,0,14,0,0
56226,-174.232786792254,4,1,0,14,0,0
56376,-171.586888870845,4,1,0,15,0,0
56526,-168.826275337056,4,1,0,16,0,0
56826,-162.993035664011,4,1,0,17,0,0
57126,-156.803551210601,4,1,0,18,0,0
57426,-150.335606479852,4,1,0,20,0,0
57726,-143.670436451906,4,1,0,22,0,0
58026,-136.889035580904,4,1,0,24,0,0
58176,-133.479180909088,4,1,0,25,0,0
58326,-130.068906029492,4,1,0,26,0,0
58626,-123.281439315044,4,1,0,29,0,0
58776,-119.920113702607,4,1,0,30,0,0
58926,-116.590029082413,4,1,0,31,0,0
59076,-113.297671847974,4,1,0,33,0,0
59226,-110.048922751708,4,1,0,35,0,0
59301,-108.442573093584,4,1,0,35,0,0
59376,-106.849056391724,4,1,0,36,0,0
59526,-103.702748544197,4,1,0,38,0,0
59676,-100.614090254631,4,1,0,40,0,0
59826,-97.586607599409,4,1,0,41,0,0
59976,-94.623286058613,4,1,0,43,0,0
60126,-91.726598495452,4,1,0,45,0,0
60276,-88.898535810662,4,1,0,47,0,0
60351,-87.510737136405,4,1,0,49,0,0
60426,-86.14063942596,4,1,0,50,0,0
60576,-83.45403484399,4,1,0,52,0,0
60726,-80.839465628674,4,1,0,54,0,0
60876,-78.297327245931,4,1,0,57,0,0
61026,-75.827700297427,4,1,0,59,0,0
61101,-74.620025664361,4,1,0,60,0,0
61176,-73.43038276732,4,1,0,62,0,0
61326,-71.10492098228,4,1,0,64,0,0
61401,-69.968932689009,4,1,0,66,0,0
61476,-68.850639057632,4,1,0,67,0,0
61551,-67.749925438197,4,1,0,69,0,0
61626,-66.666666666667,4,1,0,70,0,0
61870,-100,4,1,0,80,0,0
71526,-100,4,1,0,80,0,0
71676,-98.902185738305,4,1,0,80,0,0
71751,-98.362268233905,4,1,0,80,0,0
71826,-97.828213656819,4,1,0,80,0,0
71976,-96.777315397271,4,1,0,80,0,0
72126,-95.748755266182,4,1,0,80,0,0
72201,-95.242630601457,4,1,0,80,0,0
72276,-94.74182851729,4,1,0,80,0,0
72351,-94.24626549173,4,1,0,80,0,0
72426,-93.755859741234,4,1,0,80,0,0
72576,-92.790201354737,4,1,0,80,0,0
72726,-91.844232182219,4,1,0,80,0,0
72876,-90.917356123284,4,1,0,80,0,0
72951,-90.46089827672,4,1,0,80,0,0
73026,-90.00900090009,4,1,0,80,0,0
73101,-89.561595987641,4,1,0,80,0,0
73176,-89.118616879066,4,1,0,80,0,0
73326,-88.245675961878,4,1,0,80,0,0
73476,-87.389670540942,4,1,0,80,0,0
73551,-86.967865373744,4,1,0,80,0,0
73626,-86.550112515146,4,1,0,80,0,0
73701,-86.136353848142,4,1,0,80,0,0
73776,-85.726532361766,4,1,0,80,0,0
73926,-84.91847826087,4,1,0,80,0,0
74076,-84.125515268781,4,1,0,80,0,0
74151,-83.734561440234,4,1,0,80,0,0
74226,-83.347224537423,4,1,0,80,0,0
74376,-82.583202576596,4,1,0,80,0,0
74526,-81.833060556465,4,1,0,80,0,0
74676,-81.096423647717,4,1,0,80,0,0
74751,-80.733056149841,4,1,0,80,0,0
74826,-80.372930397042,4,1,0,80,0,0
74976,-79.662232135744,4,1,0,80,0,0
75126,-78.963992419457,4,1,0,80,0,0
75276,-78.277886497065,4,1,0,80,0,0
75426,-77.603600807077,4,1,0,80,0,0
75576,-76.940832499808,4,1,0,80,0,0
75651,-76.613675541084,4,1,0,80,0,0
75726,-76.289288983827,4,1,0,80,0,0
75801,-75.967637786303,4,1,0,80,0,0
75876,-75.648687495272,4,1,0,80,0,0
76026,-75.018754688672,4,1,0,80,0,0
76270,-100,4,1,0,80,0,0
81126,-100,4,1,0,80,0,0
81351,-97.961182881283,4,1,0,80,0,0
81426,-97.299927025055,4,1,0,80,0,0
81576,-96.003840153606,4,1,0,80,0,0
81726,-94.74182851729,4,1,0,80,0,0
81801,-94.123183716689,4,1,0,80,0,0
81876,-93.512565751023,4,1,0,80,0,0
81951,-92.909819406539,4,1,0,80,0,0
82026,-92.31479344565,4,1,0,80,0,0
82176,-91.14731685086,4,1,0,80,0,0
82326,-90.00900090009,4,1,0,80,0,0
82401,-89.450438866216,4,1,0,80,0,0
82551,-88.353857198078,4,1,0,80,0,0
82626,-87.81558726674,4,1,0,80,0,0
82701,-87.283836124598,4,1,0,80,0,0
82776,-86.758486064418,4,1,0,80,0,0
82926,-85.726532361766,4,1,0,80,0,0
83076,-84.718839351901,4,1,0,80,0,0
83151,-84.223824814444,4,1,0,80,0,0
83226,-83.734561440234,4,1,0,80,0,0
83301,-83.250949581144,4,1,0,80,0,0
83376,-82.77289187791,4,1,0,80,0,0
83526,-81.833060556465,4,1,0,80,0,0
83601,-81.371103087016,4,1,0,80,0,0
83676,-80.914331951047,4,1,0,80,0,0
83751,-80.462660296706,4,1,0,80,0,0
83826,-80.01600320064,4,1,0,80,0,0
83901,-79.574277614761,4,1,0,80,0,0
83976,-79.137402314769,4,1,0,80,0,0
84051,-78.705297850362,4,1,0,80,0,0
84126,-78.277886497065,4,1,0,80,0,0
84201,-77.855092209625,4,1,0,80,0,0
84276,-77.436840576904,4,1,0,80,0,0
84351,-77.023058778222,4,1,0,80,0,0
84426,-76.613675541084,4,1,0,80,0,0
84501,-76.208621100262,4,1,0,80,0,0
84576,-75.807827158154,4,1,0,80,0,0
84726,-66.666666666667,4,1,0,80,0,0
85570,-57.1428571428571,4,1,0,80,0,0
85977,-100,4,1,0,100,0,1
93295,-98.765432098765,4,1,0,100,0,1
93370,-98.159509202454,4,1,0,100,0,1
93445,-97.560975609756,4,1,0,100,0,1
93595,-96.385542168675,4,1,0,100,0,1
93670,-95.808383233533,4,1,0,100,0,1
93745,-95.238095238095,4,1,0,100,0,1
93895,-94.117647058824,4,1,0,100,0,1
94045,-93.023255813953,4,1,0,100,0,1
94120,-92.485549132948,4,1,0,100,0,1
94195,-91.954022988506,4,1,0,100,0,1
94270,-91.428571428571,4,1,0,100,0,1
94345,-90.909090909091,4,1,0,100,0,1
94420,-90.395480225989,4,1,0,100,0,1
94495,-89.887640449438,4,1,0,100,0,1
94570,-89.385474860335,4,1,0,100,0,1
94645,-88.888888888889,4,1,0,100,0,1
94720,-88.397790055249,4,1,0,100,0,1
94795,-87.912087912088,4,1,0,100,0,1
94870,-87.431693989071,4,1,0,100,0,1
94945,-86.95652173913,4,1,0,100,0,1
95020,-86.486486486486,4,1,0,100,0,1
95095,-86.021505376344,4,1,0,100,0,1
95170,-85.561497326203,4,1,0,100,0,1
95245,-85.106382978723,4,1,0,100,0,1
95395,-84.210526315789,4,1,0,100,0,1
95545,-76.923076923077,4,1,0,100,0,1
95620,-100,4,1,0,100,0,1
99177,-76.923076923077,4,1,0,100,0,0
99445,-83.333333333333,4,1,0,100,0,0
99745,-90.909090909091,4,1,0,100,0,0
99895,-93.023255813953,4,1,0,100,0,0
99970,-94.117647058824,4,1,0,100,0,0
100045,-95.238095238095,4,1,0,100,0,0
100195,-97.560975609756,4,1,0,100,0,0
100377,-100,4,1,0,100,0,1
105295,-98.159509202454,4,1,0,100,0,1
105445,-96.385542168675,4,1,0,100,0,1
105520,-95.522388059701,4,1,0,100,0,1
105595,-94.674556213018,4,1,0,100,0,1
105670,-93.841642228739,4,1,0,100,0,1
105745,-93.023255813953,4,1,0,100,0,1
105895,-91.428571428571,4,1,0,100,0,1
105970,-90.651558073654,4,1,0,100,0,1
106045,-89.887640449438,4,1,0,100,0,1
106120,-89.136490250696,4,1,0,100,0,1
106195,-88.397790055249,4,1,0,100,0,1
106270,-87.671232876712,4,1,0,100,0,1
106345,-86.95652173913,4,1,0,100,0,1
106420,-86.253369272237,4,1,0,100,0,1
106495,-85.561497326203,4,1,0,100,0,1
106570,-84.880636604775,4,1,0,100,0,1
106645,-84.210526315789,4,1,0,100,0,1
106720,-83.55091383812,4,1,0,100,0,1
106795,-82.901554404145,4,1,0,100,0,1
106870,-82.262210796915,4,1,0,100,0,1
106945,-81.632653061224,4,1,0,100,0,1
107020,-81.012658227848,4,1,0,100,0,1
107095,-80.402010050251,4,1,0,100,0,1
107170,-79.800498753117,4,1,0,100,0,1
107245,-79.207920792079,4,1,0,100,0,1
107320,-78.624078624079,4,1,0,100,0,1
107395,-78.048780487805,4,1,0,100,0,1
107470,-77.481840193705,4,1,0,100,0,1
107545,-76.923076923077,4,1,0,100,0,1
107845,-95.808383233533,4,1,0,100,0,1
107995,-96.096096096096,4,1,0,100,0,1
108070,-96.240601503759,4,1,0,100,0,1
108145,-96.385542168675,4,1,0,100,0,1
108295,-96.676737160121,4,1,0,100,0,1
108445,-96.969696969697,4,1,0,100,0,1
108595,-97.26443768997,4,1,0,100,0,1
108670,-97.412480974125,4,1,0,100,0,1
108745,-97.560975609756,4,1,0,100,0,1
108895,-97.859327217125,4,1,0,100,0,1
109045,-98.159509202454,4,1,0,100,0,1
109120,-98.310291858679,4,1,0,100,0,1
109195,-98.461538461538,4,1,0,100,0,1
109270,-98.613251155624,4,1,0,100,0,1
109345,-98.765432098765,4,1,0,100,0,1
109495,-99.071207430341,4,1,0,100,0,1
109570,-99.22480620155,4,1,0,100,0,1
109645,-99.378881987578,4,1,0,100,0,1
109795,-99.688473520249,4,1,0,100,0,1
109945,-100,4,1,0,100,0,1
110095,-100.313479623824,4,1,0,100,0,1
110245,-100.62893081761,4,1,0,100,0,1
110395,-100.946372239748,4,1,0,100,0,1
110470,-101.105845181675,4,1,0,100,0,1
110545,-101.26582278481,4,1,0,100,0,1
110695,-101.587301587302,4,1,0,100,0,1
110845,-101.910828025478,4,1,0,100,0,1
110920,-102.07336523126,4,1,0,100,0,1
110995,-102.23642172524,4,1,0,100,0,1
111070,-102.4,4,1,0,100,0,1
111145,-102.564102564103,4,1,0,100,0,1
111295,-102.893890675241,4,1,0,100,0,1
111370,-103.059581320451,4,1,0,100,0,1
111445,-103.225806451613,4,1,0,100,0,1
111595,-103.559870550162,4,1,0,100,0,1
111745,-103.896103896104,4,1,0,100,0,1
111820,-104.065040650407,4,1,0,100,0,1
111895,-104.234527687296,4,1,0,100,0,1
111970,-104.404567699837,4,1,0,100,0,1
112045,-104.575163398693,4,1,0,100,0,1
112195,-104.918032786885,4,1,0,100,0,1
112345,-105.263157894737,4,1,0,100,0,1
112495,-104.575163398693,4,1,0,100,0,1
112570,-104.234527687296,4,1,0,100,0,1
112645,-103.896103896104,4,1,0,100,0,1
112795,-103.225806451613,4,1,0,100,0,1
112945,-102.564102564103,4,1,0,100,0,1
113020,-102.23642172524,4,1,0,100,0,1
113095,-101.910828025478,4,1,0,100,0,1
113170,-101.587301587302,4,1,0,100,0,1
113245,-101.26582278481,4,1,0,100,0,1
113395,-100.62893081761,4,1,0,100,0,1
113545,-100,4,1,0,100,0,1
113695,-99.378881987578,4,1,0,100,0,1
113770,-99.071207430341,4,1,0,100,0,1
113845,-98.765432098765,4,1,0,100,0,1
113995,-98.159509202454,4,1,0,100,0,1
114070,-97.859327217125,4,1,0,100,0,1
114145,-97.560975609756,4,1,0,100,0,1
114295,-96.969696969697,4,1,0,100,0,1
114445,-96.385542168675,4,1,0,100,0,1
114595,-95.808383233533,4,1,0,100,0,1
114777,-95.238095238095,4,1,0,100,0,0
116845,-76.923076923077,4,1,0,100,0,0
117177,-95.238095238095,4,1,0,100,0,1
117295,-95.522388059701,4,1,0,100,0,1
117445,-95.808383233533,4,1,0,100,0,1
117595,-96.096096096096,4,1,0,100,0,1
117670,-96.240601503759,4,1,0,100,0,1
117745,-96.385542168675,4,1,0,100,0,1
117895,-96.676737160121,4,1,0,100,0,1
118045,-96.969696969697,4,1,0,100,0,1
118195,-97.26443768997,4,1,0,100,0,1
118270,-97.412480974125,4,1,0,100,0,1
118345,-97.560975609756,4,1,0,100,0,1
118495,-97.859327217125,4,1,0,100,0,1
118570,-98.009188361409,4,1,0,100,0,1
118645,-98.159509202454,4,1,0,100,0,1
118795,-98.461538461538,4,1,0,100,0,1
118945,-98.765432098765,4,1,0,100,0,1
119020,-98.918083462133,4,1,0,100,0,1
119095,-99.071207430341,4,1,0,100,0,1
119170,-99.22480620155,4,1,0,100,0,1
119245,-99.378881987578,4,1,0,100,0,1
119395,-99.688473520249,4,1,0,100,0,1
119545,-100,4,1,0,100,0,1
119695,-100.313479623824,4,1,0,100,0,1
119770,-100.470957613815,4,1,0,100,0,1
119845,-100.62893081761,4,1,0,100,0,1
119920,-100.787401574803,4,1,0,100,0,1
119995,-100.946372239748,4,1,0,100,0,1
120070,-101.105845181675,4,1,0,100,0,1
120145,-101.26582278481,4,1,0,100,0,1
120295,-101.587301587302,4,1,0,100,0,1
120370,-101.748807631161,4,1,0,100,0,1
120445,-101.910828025478,4,1,0,100,0,1
120595,-102.23642172524,4,1,0,100,0,1
120745,-102.564102564103,4,1,0,100,0,1
120895,-102.893890675241,4,1,0,100,0,1
120970,-103.059581320451,4,1,0,100,0,1
121045,-103.225806451613,4,1,0,100,0,1
121195,-103.559870550162,4,1,0,100,0,1
121345,-103.896103896104,4,1,0,100,0,1
121420,-104.065040650407,4,1,0,100,0,1
121495,-104.234527687296,4,1,0,100,0,1
121570,-104.404567699837,4,1,0,100,0,1
121645,-104.575163398693,4,1,0,100,0,1
121795,-104.918032786885,4,1,0,100,0,1
121945,-105.263157894737,4,1,0,100,0,1
122095,-104.575163398693,4,1,0,100,0,1
122170,-104.234527687296,4,1,0,100,0,1
122245,-103.896103896104,4,1,0,100,0,1
122395,-103.225806451613,4,1,0,100,0,1
122545,-102.564102564103,4,1,0,100,0,1
122620,-102.23642172524,4,1,0,100,0,1
122695,-101.910828025478,4,1,0,100,0,1
122770,-101.587301587302,4,1,0,100,0,1
122845,-101.26582278481,4,1,0,100,0,1
122995,-100.62893081761,4,1,0,100,0,1
123145,-100,4,1,0,100,0,1
123295,-99.378881987578,4,1,0,100,0,1
123370,-99.071207430341,4,1,0,100,0,1
123445,-98.765432098765,4,1,0,100,0,1
123520,-98.461538461538,4,1,0,100,0,1
123595,-98.159509202454,4,1,0,100,0,1
123670,-97.859327217125,4,1,0,100,0,1
123745,-97.560975609756,4,1,0,100,0,1
123895,-96.969696969697,4,1,0,100,0,1
124045,-96.385542168675,4,1,0,100,0,1
124195,-95.808383233533,4,1,0,100,0,1
124377,-95.238095238095,4,1,0,100,0,0
126145,-111.111111111111,4,1,0,100,0,0
126220,-108.108108108108,4,1,0,100,0,0
126295,-105.263157894737,4,1,0,100,0,0
126370,-102.564102564103,4,1,0,100,0,0
126445,-100,4,1,0,100,0,0
126595,-95.238095238095,4,1,0,100,0,0
127345,-111.111111111111,4,1,0,100,0,0
127420,-108.108108108108,4,1,0,100,0,0
127495,-105.263157894737,4,1,0,100,0,0
127570,-102.564102564103,4,1,0,100,0,0
127645,-100,4,1,0,100,0,0
127795,-95.238095238095,4,1,0,100,0,0
128545,-76.923076923077,4,1,0,100,0,0
129177,-100,4,1,0,100,0,1
138777,-100,4,1,0,100,0,0
138895,-102.564102564103,4,1,0,100,0,0
139045,-105.263157894737,4,1,0,100,0,0
139195,-108.108108108108,4,1,0,100,0,0
139345,-111.111111111111,4,1,0,100,0,0
139420,-102.564102564103,4,1,0,100,0,0
139495,-95.238095238095,4,1,0,100,0,0
139545,-90.909090909091,4,1,0,100,0,0
139595,-86.95652173913,4,1,0,100,0,0
139645,-83.333333333333,4,1,0,100,0,0
139977,-100,4,1,0,100,0,0
149695,-99.43865276664,4,1,0,100,0,0
149770,-99.160335865654,4,1,0,100,0,0
149845,-98.883572567783,4,1,0,100,0,0
149995,-98.334655035686,4,1,0,100,0,0
150145,-97.791798107256,4,1,0,100,0,0
150220,-97.522611089265,4,1,0,100,0,0
150295,-97.254901960784,4,1,0,100,0,0
150370,-96.988658584278,4,1,0,100,0,0
150445,-96.723868954758,4,1,0,100,0,0
150595,-96.198603568658,4,1,0,100,0,0
150745,-95.679012345679,4,1,0,100,0,0
150820,-95.421315890727,4,1,0,100,0,0
150895,-95.165003837299,4,1,0,100,0,0
150970,-94.910065059319,4,1,0,100,0,0
151045,-94.656488549618,4,1,0,100,0,0
151195,-94.15337889142,4,1,0,100,0,0
151270,-93.903824308974,4,1,0,100,0,0
151345,-93.655589123867,4,1,0,100,0,0
151495,-93.163035311796,4,1,0,100,0,0
151645,-92.675635276532,4,1,0,100,0,0
151720,-92.433842713381,4,1,0,100,0,0
151795,-92.193308550186,4,1,0,100,0,0
151870,-91.954022988506,4,1,0,100,0,0
151945,-91.715976331361,4,1,0,100,0,0
152095,-91.243561442237,4,1,0,100,0,0
152170,-91.009174311927,4,1,0,100,0,0
152245,-90.775988286969,4,1,0,100,0,0
152395,-90.313182811362,4,1,0,100,0,0
152545,-89.855072463768,4,1,0,100,0,0
152620,-89.627755692085,4,1,0,100,0,0
152695,-89.401586157174,4,1,0,100,0,0
152770,-89.176555195973,4,1,0,100,0,0
152845,-88.952654232425,4,1,0,100,0,0
152920,-88.729874776386,4,1,0,100,0,0
152995,-88.508208422555,4,1,0,100,0,0
153070,-88.287646849413,4,1,0,100,0,0
153145,-88.068181818182,4,1,0,100,0,0
153295,-87.632508833922,4,1,0,100,0,0
153370,-87.416284807896,4,1,0,100,0,0
153445,-87.201125175809,4,1,0,100,0,0
153595,-86.773967809657,4,1,0,100,0,0
153670,-86.561954624782,4,1,0,100,0,0
153745,-86.350974930362,4,1,0,100,0,0
153895,-85.932085932086,4,1,0,100,0,0
154045,-85.51724137931,4,1,0,100,0,0
154120,-85.31131750946,4,1,0,100,0,0
154195,-85.106382978723,4,1,0,100,0,0
154270,-84.902430674427,4,1,0,100,0,0
154345,-84.699453551913,4,1,0,100,0,0
154495,-84.296397008838,4,1,0,100,0,0
154570,-84.096303831807,4,1,0,100,0,0
154645,-83.897158322057,4,1,0,100,0,0
154795,-83.501683501683,4,1,0,100,0,0
154945,-83.109919571046,4,1,0,100,0,0
155020,-82.915412905383,4,1,0,100,0,0
155095,-82.721814543029,4,1,0,100,0,0
155245,-82.337317397078,4,1,0,100,0,0
155320,-82.146406094733,4,1,0,100,0,0
155395,-81.956378056841,4,1,0,100,0,0
155470,-81.767227167821,4,1,0,100,0,0
155545,-81.578947368421,4,1,0,100,0,0
155695,-81.20497707924,4,1,0,100,0,0
155770,-81.019274746815,4,1,0,100,0,0
155845,-80.834419817471,4,1,0,100,0,0
155920,-80.650406504065,4,1,0,100,0,0
155995,-80.467229072031,4,1,0,100,0,0
156070,-80.284881838783,4,1,0,100,0,0
156145,-80.103359173127,4,1,0,100,0,0
156295,-79.742765273312,4,1,0,100,0,0
156370,-79.563683028553,4,1,0,100,0,0
156445,-79.385403329065,4,1,0,100,0,0
156595,-79.031230082855,4,1,0,100,0,0
156745,-78.680203045685,4,1,0,100,0,0
156820,-78.505856283634,4,1,0,100,0,0
156895,-78.332280480101,4,1,0,100,0,0
156970,-78.159470532619,4,1,0,100,0,0
157045,-77.987421383648,4,1,0,100,0,0
157120,-77.816128020082,4,1,0,100,0,0
157195,-77.645585472761,4,1,0,100,0,0
157270,-77.475788815995,4,1,0,100,0,0
157345,-77.306733167082,4,1,0,100,0,0
157420,-77.138413685848,4,1,0,100,0,0
157495,-76.970825574178,4,1,0,100,0,0
157570,-76.803964075565,4,1,0,100,0,0
157645,-76.63782447466,4,1,0,100,0,0
157720,-76.472402096824,4,1,0,100,0,0
157795,-76.307692307692,4,1,0,100,0,0
157870,-76.143690512742,4,1,0,100,0,0
157945,-75.980392156863,4,1,0,100,0,0
158020,-75.817792723938,4,1,0,100,0,0
158095,-75.655887736425,4,1,0,100,0,0
158170,-75.494672754947,4,1,0,100,0,0
158245,-75.334143377886,4,1,0,100,0,0
158320,-75.174295240982,4,1,0,100,0,0
158395,-75.015124016939,4,1,0,100,0,0
158470,-74.856625415032,4,1,0,100,0,0
158545,-74.698795180723,4,1,0,100,0,0
158620,-74.541629095281,4,1,0,100,0,0
158695,-74.385122975405,4,1,0,100,0,0
158770,-74.229272672852,4,1,0,100,0,0
158845,-74.074074074074,4,1,0,100,0,0
159177,-95.238095238095,4,1,0,100,0,1
175945,-94.182825484765,4,1,0,100,0,1
176095,-93.150684931507,4,1,0,100,0,1
176245,-92.140921409214,4,1,0,100,0,1
176395,-91.152815013405,4,1,0,100,0,1
176545,-90.185676392573,4,1,0,100,0,1
176695,-89.238845144357,4,1,0,100,0,1
176845,-88.311688311688,4,1,0,100,0,1
176995,-87.403598971722,4,1,0,100,0,1
177145,-86.513994910941,4,1,0,100,0,1
177295,-85.642317380353,4,1,0,100,0,1
177370,-85.213032581454,4,1,0,100,0,1
177445,-84.788029925187,4,1,0,100,0,1
177520,-84.367245657568,4,1,0,100,0,1
177595,-83.950617283951,4,1,0,100,0,1
177670,-83.538083538084,4,1,0,100,0,1
177745,-83.129584352078,4,1,0,100,0,1
177820,-82.725060827251,4,1,0,100,0,1
177895,-82.324455205811,4,1,0,100,0,1
177970,-81.927710843373,4,1,0,100,0,1
178045,-81.534772182254,4,1,0,100,0,1
178195,-80.760095011876,4,1,0,100,0,1
178377,-80,4,1,0,100,0,0
178420,-100,4,1,0,100,0,0
187020,-90.9090909090909,4,1,0,100,0,0
187070,-90.0900900900901,4,1,0,100,0,0
187120,-89.2857142857143,4,1,0,100,0,0
187170,-88.4955752212389,4,1,0,100,0,0
187245,-87.3362445414847,4,1,0,100,0,0
187320,-86.2068965517241,4,1,0,100,0,0
187445,-84.0336134453781,4,1,0,100,0,0
187595,-76.9230769230769,4,1,0,100,0,0
187795,-100,4,1,0,100,0,0
196343,-100,4,1,0,100,0,0
196418,-99.4060820831941,4,1,0,100,0,0
196493,-98.8156915513073,4,1,0,100,0,0
196568,-98.2288074545685,4,1,0,100,0,0
196643,-97.6454089676311,4,1,0,100,0,0
196718,-97.0654753888339,4,1,0,100,0,0
196793,-96.4889861394669,4,1,0,100,0,0
196868,-95.9159207630403,4,1,0,100,0,0
196943,-95.3462589245593,4,1,0,100,0,0
197018,-94.7799804098022,4,1,0,100,0,0
197093,-94.2170651246033,4,1,0,100,0,0
197168,-93.6574930941396,4,1,0,100,0,0
197243,-93.1012444622223,4,1,0,100,0,0
197318,-92.5482994905919,4,1,0,100,0,0
197393,-91.9986385582182,4,1,0,100,0,0
197468,-91.4522421606035,4,1,0,100,0,0
197543,-83.3333333333333,4,1,0,100,0,0
197618,-83.7087625162001,4,1,0,100,0,0
197693,-84.085883063923,4,1,0,100,0,0
197768,-84.4647025963549,4,1,0,100,0,0
197843,-84.8452287676769,4,1,0,100,0,0
197918,-85.2274692665536,4,1,0,100,0,0
197993,-85.6114318162881,4,1,0,100,0,0
198068,-85.9971241749783,4,1,0,100,0,0
198143,-86.3845541356731,4,1,0,100,0,0
198218,-86.7737295265307,4,1,0,100,0,0
198293,-87.1646582109761,4,1,0,100,0,0
198368,-87.5573480878602,4,1,0,100,0,0
198443,-87.9518070916194,4,1,0,100,0,0
198518,-88.3480431924362,4,1,0,100,0,0
198593,-88.7460643963996,4,1,0,100,0,0
198668,-89.1458787456673,4,1,0,100,0,0
198743,-89.5474943186285,4,1,0,100,0,0
198818,-89.9509192300662,4,1,0,100,0,0
198893,-90.3561616313221,4,1,0,100,0,0
198968,-90.7632297104608,4,1,0,100,0,0
199043,-91.1721316924353,4,1,0,100,0,0
199118,-91.5828758392535,4,1,0,100,0,0
199193,-91.9954704501445,4,1,0,100,0,0
199268,-92.409923861727,4,1,0,100,0,0
199343,-92.8262444481773,4,1,0,100,0,0
199418,-93.2444406213985,4,1,0,100,0,0
199493,-93.6645208311909,4,1,0,100,0,0
199568,-94.086493565422,4,1,0,100,0,0
199643,-94.5103673501988,4,1,0,100,0,0
199718,-94.9361507500394,4,1,0,100,0,0
199793,-95.3638523680467,4,1,0,100,0,0
199868,-95.7934808460815,4,1,0,100,0,0
199943,-96.2250448649375,4,1,0,100,0,0
200018,-96.6585531445171,4,1,0,100,0,0
200093,-97.0940144440066,4,1,0,100,0,0
200168,-97.5314375620543,4,1,0,100,0,0
200243,-97.9708313369472,4,1,0,100,0,0
200318,-98.4122046467905,4,1,0,100,0,0
200393,-98.8555664096864,4,1,0,100,0,0
200468,-99.3009255839147,4,1,0,100,0,0
200543,-99.7482911681133,4,1,0,100,0,0
200618,-100.19767220146,4,1,0,100,0,0
200693,-100.649077763857,4,1,0,100,0,0
200768,-101.102516976112,4,1,0,100,0,0
200843,-101.557999000121,4,1,0,100,0,0
200918,-102.015533039059,4,1,0,100,0,0
200993,-102.475128337562,4,1,0,100,0,0
201068,-102.936794181913,4,1,0,100,0,0
201143,-103.400539900233,4,1,0,100,0,0
201218,-103.866374862666,4,1,0,100,0,0
201293,-104.33430848157,4,1,0,100,0,0
201368,-104.804350211709,4,1,0,100,0,0
201443,-105.276509550439,4,1,0,100,0,0
201518,-105.750796037906,4,1,0,100,0,0
201593,-106.227219257234,4,1,0,100,0,0
201668,-106.705788834722,4,1,0,100,0,0
201743,-107.186514440034,4,1,0,100,0,0
201818,-107.669405786401,4,1,0,100,0,0
201893,-108.154472630811,4,1,0,100,0,0
201968,-108.641724774209,4,1,0,100,0,0
202043,-109.131172061695,4,1,0,100,0,0
202118,-109.622824382724,4,1,0,100,0,0
202193,-110.116691671303,4,1,0,100,0,0
202268,-110.612783906193,4,1,0,100,0,0
202343,-111.111111111111,4,1,0,100,0,0
204743,-111.111111111111,4,1,0,100,0,0
204768,-110.845990487552,4,1,0,100,0,0
204793,-110.581502464499,4,1,0,100,0,0
204818,-110.317645532512,4,1,0,100,0,0
204843,-110.054418185753,4,1,0,100,0,0
204868,-109.79181892198,4,1,0,100,0,0
204893,-109.529846242532,4,1,0,100,0,0
204918,-109.268498652325,4,1,0,100,0,0
204943,-109.007774659842,4,1,0,100,0,0
204968,-108.747672777127,4,1,0,100,0,0
204993,-108.488191519772,4,1,0,100,0,0
205018,-108.229329406911,4,1,0,100,0,0
205043,-107.971084961214,4,1,0,100,0,0
205068,-107.713456708872,4,1,0,100,0,0
205093,-107.456443179597,4,1,0,100,0,0
205118,-107.200042906607,4,1,0,100,0,0
205143,-106.944254426618,4,1,0,100,0,0
205168,-106.689076279842,4,1,0,100,0,0
205193,-106.43450700997,4,1,0,100,0,0
205218,-106.18054516417,4,1,0,100,0,0
205243,-105.927189293076,4,1,0,100,0,0
205268,-105.674437950781,4,1,0,100,0,0
205293,-105.422289694827,4,1,0,100,0,0
205318,-105.170743086199,4,1,0,100,0,0
205343,-104.919796689315,4,1,0,100,0,0
205368,-104.669449072017,4,1,0,100,0,0
205393,-104.419698805567,4,1,0,100,0,0
205418,-104.170544464635,4,1,0,100,0,0
205443,-103.92198462729,4,1,0,100,0,0
205468,-103.674017874998,4,1,0,100,0,0
205493,-103.426642792605,4,1,0,100,0,0
205518,-103.179857968337,4,1,0,100,0,0
205543,-102.933661993787,4,1,0,100,0,0
205568,-102.68805346391,4,1,0,100,0,0
205593,-102.443030977013,4,1,0,100,0,0
205618,-102.198593134746,4,1,0,100,0,0
205643,-101.954738542097,4,1,0,100,0,0
205668,-101.711465807384,4,1,0,100,0,0
205693,-101.468773542242,4,1,0,100,0,0
205718,-101.226660361623,4,1,0,100,0,0
205743,-100.98512488378,4,1,0,100,0,0
205768,-100.744165730266,4,1,0,100,0,0
205793,-100.503781525921,4,1,0,100,0,0
205818,-100.263970898867,4,1,0,100,0,0
205843,-100.024732480501,4,1,0,100,0,0
205868,-99.7860649054817,4,1,0,100,0,0
205893,-99.5479668117296,4,1,0,100,0,0
205918,-99.3104368404133,4,1,0,100,0,0
205943,-99.073473635944,4,1,0,100,0,0
205968,-98.8370758459674,4,1,0,100,0,0
205993,-98.6012421213563,4,1,0,100,0,0
206018,-98.3659711162022,4,1,0,100,0,0
206043,-98.1312614878085,4,1,0,100,0,0
206068,-97.8971118966821,4,1,0,100,0,0
206093,-97.6635210065261,4,1,0,100,0,0
206118,-97.4304874842323,4,1,0,100,0,0
206143,-97.1980099998731,4,1,0,100,0,0
206168,-96.9660872266945,4,1,0,100,0,0
206193,-96.734717841108,4,1,0,100,0,0
206218,-96.5039005226836,4,1,0,100,0,0
206243,-96.2736339541416,4,1,0,100,0,0
206268,-96.0439168213458,4,1,0,100,0,0
206293,-95.8147478132954,4,1,0,100,0,0
206318,-95.5861256221178,4,1,0,100,0,0
206343,-95.3580489430612,4,1,0,100,0,0
206368,-95.1305164744869,4,1,0,100,0,0
206393,-94.9035269178622,4,1,0,100,0,0
206418,-94.6770789777526,4,1,0,100,0,0
206443,-94.4511713618147,4,1,0,100,0,0
206468,-94.225802780789,4,1,0,100,0,0
206493,-94.0009719484918,4,1,0,100,0,0
206518,-93.7766775818086,4,1,0,100,0,0
206543,-93.5529184006867,4,1,0,100,0,0
206568,-93.3296931281274,4,1,0,100,0,0
206593,-93.1070004901792,4,1,0,100,0,0
206618,-92.8848392159303,4,1,0,100,0,0
206643,-92.6632080375015,4,1,0,100,0,0
206668,-92.4421056900387,4,1,0,100,0,0
206693,-92.221530911706,4,1,0,100,0,0
206718,-92.0014824436781,4,1,0,100,0,0
206743,-91.7819590301339,4,1,0,100,0,0
206768,-91.5629594182482,4,1,0,100,0,0
206793,-91.3444823581854,4,1,0,100,0,0
206818,-91.1265266030922,4,1,0,100,0,0
206843,-76.9230769230769,4,1,0,100,0,0
207177,-100,4,1,0,100,0,1
215727,-82.644628099174,4,1,0,100,0,0
215770,-84.745762711864,4,1,0,100,0,0
215920,-86.95652173913,4,1,0,100,0,0
216220,-91.743119266055,4,1,0,100,0,0
216520,-97.087378640777,4,1,0,100,0,0
216777,-100,4,1,0,100,0,1
226377,-76.923076923077,4,1,0,100,0,1
226977,-100,4,1,0,100,0,0
227277,-76.923076923077,4,1,0,100,0,1
227877,-100,4,1,0,100,0,0
228177,-76.923076923077,4,1,0,100,0,1
228777,-109.89010989011,4,1,0,100,0,0
228895,-109.89010989011,4,1,0,100,0,0
229195,-106.382978723404,4,1,0,100,0,0
229495,-103.092783505155,4,1,0,100,0,0
229977,-100,4,1,0,100,0,1
239277,-100,4,1,0,100,0,0
239577,-100,4,1,0,100,0,1
246743,-83.333333333333,4,1,0,100,0,1
246893,-82.534320401803,4,1,0,100,0,1
247043,-81.742968530249,4,1,0,100,0,1
247193,-80.95920426324,4,1,0,100,0,1
247343,-80.182954849647,4,1,0,100,0,1
247493,-79.414148235888,4,1,0,100,0,1
247643,-78.652713059244,4,1,0,100,0,1
247793,-77.898578641233,4,1,0,100,0,1
247943,-77.151674981046,4,1,0,100,0,1
248093,-76.411932749057,4,1,0,100,0,1
248243,-75.679283280379,4,1,0,100,0,1
248393,-74.953658568499,4,1,0,100,0,1
248543,-74.234991258958,4,1,0,100,0,1
248693,-73.523214643102,4,1,0,100,0,1
248843,-72.818262651892,4,1,0,100,0,1
248993,-72.120069849766,4,1,0,100,0,1
249143,-71.428571428572,4,1,0,100,0,1
250377,-71.428571428571,4,1,0,100,0,0
250493,-72.183587979891,4,1,0,100,0,0
250643,-72.94658523111,4,1,0,100,0,0
250793,-73.717647540074,4,1,0,100,0,0
250943,-74.496860156314,4,1,0,100,0,0
251093,-75.284309230465,4,1,0,100,0,0
251243,-76.080081823797,4,1,0,100,0,0
251393,-76.884265917835,4,1,0,100,0,0
251543,-77.696950424091,4,1,0,100,0,0
251693,-78.518225193893,4,1,0,100,0,0
251843,-79.348181028316,4,1,0,100,0,0
251993,-80.186909688225,4,1,0,100,0,0
252143,-81.034503904418,4,1,0,100,0,0
252293,-81.891057387879,4,1,0,100,0,0
252443,-82.756664840141,4,1,0,100,0,0
252593,-83.631421963749,4,1,0,100,0,0
252743,-84.515425472852,4,1,0,100,0,0
252893,-85.408773103885,4,1,0,100,0,0
253043,-86.311563626384,4,1,0,100,0,0
253193,-87.223896853899,4,1,0,100,0,0
253343,-88.145873655033,4,1,0,100,0,0
253493,-89.077595964595,4,1,0,100,0,0
253643,-90.019166794865,4,1,0,100,0,0
253793,-90.970690246991,4,1,0,100,0,0
253943,-91.932271522492,4,1,0,100,0,0
254093,-92.904016934891,4,1,0,100,0,0
254243,-93.88603392147,4,1,0,100,0,0
254393,-94.878431055148,4,1,0,100,0,0
254543,-95.881318056487,4,1,0,100,0,0
254693,-96.894805805817,4,1,0,100,0,0
254843,-97.919006355501,4,1,0,100,0,0
254993,-98.954032942322,4,1,0,100,0,0
255143,-100,4,1,0,100,0,0
259977,-100,4,1,0,100,0,1
264777,-100,4,1,0,100,0,0
276595,-98.0392156862745,4,1,0,100,0,0
276745,-96.1538461538461,4,1,0,100,0,0
276895,-94.3396226415094,4,1,0,100,0,0
277045,-92.5925925925926,4,1,0,100,0,0
277195,-90.9090909090909,4,1,0,100,0,0
277495,-89.2857142857143,4,1,0,100,0,0
277645,-87.719298245614,4,1,0,100,0,0
277945,-86.2068965517241,4,1,0,100,0,0
278020,-85.4700854700855,4,1,0,100,0,0
278095,-84.7457627118644,4,1,0,100,0,0
278170,-84.0336134453781,4,1,0,100,0,0
278245,-83.3333333333333,4,1,0,100,0,0
278320,-82.6446280991736,4,1,0,100,0,0
278395,-81.9672131147541,4,1,0,100,0,0
278470,-81.3008130081301,4,1,0,100,0,0
278545,-80.6451612903226,4,1,0,100,0,0
278620,-80,4,1,0,100,0,0
278695,-79.3650793650794,4,1,0,100,0,0
278770,-78.7401574803149,4,1,0,100,0,0
278845,-78.125,4,1,0,100,0,0
278920,-77.5193798449612,4,1,0,100,0,0
278995,-76.9230769230769,4,1,0,100,0,0
279070,-76.3358778625954,4,1,0,100,0,0
279177,-50,4,1,0,100,0,1
279777,-100,4,1,0,100,0,0
283495,-98.0392156862745,4,1,0,100,0,0
283645,-96.1538461538461,4,1,0,100,0,0
283795,-94.3396226415094,4,1,0,100,0,0
283977,-92.5925925925926,4,1,0,100,0,1
286377,-105.263157894737,4,1,0,70,0,0
289077,-90.9090909090909,4,1,0,100,0,1
292795,-92.5925925925926,4,1,0,100,0,1
292945,-94.3396226415094,4,1,0,100,0,1
293095,-96.1538461538461,4,1,0,100,0,1
293245,-98.0392156862745,4,1,0,100,0,1
293545,-125,4,1,0,100,0,1
293695,-121.951219512195,4,1,0,100,0,1
293845,-119.047619047619,4,1,0,100,0,1
293995,-116.279069767442,4,1,0,100,0,1
294295,-113.636363636364,4,1,0,100,0,1
294445,-111.111111111111,4,1,0,100,0,1
294595,-108.695652173913,4,1,0,100,0,1
294895,-106.382978723404,4,1,0,100,0,1
295045,-104.166666666667,4,1,0,100,0,1
295195,-102.040816326531,4,1,0,100,0,1
295270,-101.010101010101,4,1,0,100,0,1
295345,-100,4,1,0,100,0,1
295420,-99.009900990099,4,1,0,100,0,1
295495,-98.0392156862745,4,1,0,100,0,1
295645,-96.1538461538461,4,1,0,100,0,1
295795,-94.3396226415094,4,1,0,100,0,1
295870,-93.4579439252336,4,1,0,100,0,1
295945,-92.5925925925926,4,1,0,100,0,1
296470,-90.9090909090909,4,1,0,100,0,1
296695,-89.2857142857143,4,1,0,100,0,1
297145,-87.719298245614,4,1,0,100,0,1
297220,-86.9565217391304,4,1,0,100,0,1
297295,-86.2068965517241,4,1,0,100,0,1
297370,-85.4700854700855,4,1,0,100,0,1
297445,-84.7457627118644,4,1,0,100,0,1
297520,-84.0336134453781,4,1,0,100,0,1
297595,-83.3333333333333,4,1,0,100,0,1
297670,-82.6446280991736,4,1,0,100,0,1
297745,-81.9672131147541,4,1,0,100,0,1
297820,-81.3008130081301,4,1,0,100,0,1
297895,-80.6451612903226,4,1,0,100,0,1
297970,-80,4,1,0,100,0,1
298045,-79.3650793650794,4,1,0,100,0,1
298120,-78.7401574803149,4,1,0,100,0,1
298195,-78.125,4,1,0,100,0,1
298270,-77.5193798449612,4,1,0,100,0,1
298377,-76.9230769230769,4,1,0,100,0,0
298945,-78.125,4,1,0,100,0,0
299245,-79.3650793650794,4,1,0,100,0,0
299545,-80.6451612903226,4,1,0,100,0,0
299845,-81.9672131147541,4,1,0,100,0,0
300145,-83.3333333333333,4,1,0,100,0,0
300445,-84.7457627118644,4,1,0,100,0,0
300745,-86.2068965517241,4,1,0,100,0,0
301045,-87.719298245614,4,1,0,100,0,0
301345,-89.2857142857143,4,1,0,100,0,0
301645,-90.9090909090909,4,1,0,100,0,0
301945,-92.5925925925926,4,1,0,100,0,0
302245,-94.3396226415094,4,1,0,100,0,0
302545,-96.1538461538461,4,1,0,100,0,0
302695,-98.0392156862745,4,1,0,100,0,0
302845,-100,4,1,0,100,0,0
302995,-102.040816326531,4,1,0,100,0,0
303145,-104.166666666667,4,1,0,100,0,0
303445,-106.382978723404,4,1,0,100,0,0
303745,-108.695652173913,4,1,0,100,0,0
304045,-111.111111111111,4,1,0,100,0,0
304345,-113.636363636364,4,1,0,100,0,0
304645,-116.279069767442,4,1,0,100,0,0
304945,-119.047619047619,4,1,0,100,0,0
305245,-121.951219512195,4,1,0,100,0,0
305545,-125,4,1,0,100,0,0
305845,-128.205128205128,4,1,0,100,0,0
306145,-131.578947368421,4,1,0,100,0,0
308245,-128.205128205128,4,1,0,100,0,0
308545,-125,4,1,0,100,0,0
308845,-121.951219512195,4,1,0,100,0,0
308995,-119.047619047619,4,1,0,100,0,0
309145,-116.279069767442,4,1,0,100,0,0
309445,-113.636363636364,4,1,0,100,0,0
309745,-111.111111111111,4,1,0,100,0,0
310045,-108.695652173913,4,1,0,100,0,0
310345,-106.382978723404,4,1,0,100,0,0
310645,-104.166666666667,4,1,0,100,0,0
310795,-102.040816326531,4,1,0,100,0,0
311095,-100,4,1,0,100,0,0
311245,-98.0392156862745,4,1,0,100,0,0
311545,-96.1538461538461,4,1,0,100,0,0
311845,-94.3396226415094,4,1,0,100,0,0
312145,-92.5925925925926,4,1,0,100,0,0
312445,-90.9090909090909,4,1,0,100,0,0
312745,-100,4,1,0,100,0,0
316270,-99.009900990099,4,1,0,100,0,0
316345,-98.0392156862745,4,1,0,100,0,0
316420,-97.0873786407767,4,1,0,100,0,0
316495,-96.1538461538461,4,1,0,100,0,0
316570,-95.2380952380952,4,1,0,100,0,0
316645,-94.3396226415094,4,1,0,100,0,0
316720,-93.4579439252336,4,1,0,100,0,0
316795,-92.5925925925926,4,1,0,100,0,0
316870,-91.743119266055,4,1,0,100,0,0
316945,-90.9090909090909,4,1,0,100,0,0
317020,-90.0900900900901,4,1,0,100,0,0
317095,-89.2857142857143,4,1,0,100,0,0
317170,-88.4955752212389,4,1,0,100,0,0
317245,-87.719298245614,4,1,0,100,0,0
317577,-95.2380952380952,4,1,0,100,0,1
335620,-94.3396226415094,4,1,0,100,0,1
335695,-93.4579439252336,4,1,0,100,0,1
335770,-92.5925925925926,4,1,0,100,0,1
335845,-91.743119266055,4,1,0,100,0,1
335920,-90.9090909090909,4,1,0,100,0,1
335995,-90.0900900900901,4,1,0,100,0,1
336070,-89.2857142857143,4,1,0,100,0,1
336145,-88.4955752212389,4,1,0,100,0,1
336220,-87.719298245614,4,1,0,100,0,1
336295,-86.9565217391304,4,1,0,100,0,1
336370,-86.2068965517241,4,1,0,100,0,1
336445,-85.4700854700855,4,1,0,100,0,1
336777,-100,4,1,0,100,0,0
341545,-98.0392156862745,4,1,0,100,0,0
341695,-96.1538461538461,4,1,0,100,0,0
341995,-94.3396226415094,4,1,0,100,0,0
342295,-92.5925925925926,4,1,0,100,0,0
342595,-90.9090909090909,4,1,0,100,0,0
342745,-89.2857142857143,4,1,0,100,0,0
342895,-87.719298245614,4,1,0,100,0,0
343345,-86.2068965517241,4,1,0,100,0,0
343945,-84.7457627118644,4,1,0,100,0,0
344095,-83.3333333333333,4,1,0,100,0,0
344545,-81.9672131147541,4,1,0,100,0,0
345145,-80.6451612903226,4,1,0,100,0,0
345295,-79.3650793650794,4,1,0,100,0,0
345745,-78.125,4,1,0,100,0,0
345820,-77.5193798449612,4,1,0,100,0,0
345895,-76.9230769230769,4,1,0,100,0,0
345945,-76.3358778625954,4,1,0,100,0,0
345995,-75.7575757575758,4,1,0,100,0,0
346045,-75.187969924812,4,1,0,100,0,0
346195,-100,4,1,0,100,0,0
346868,-125,4,1,0,100,0,0
353310,-125,4,1,0,5,0,0
355870,-125,4,1,0,55,0,0
360970,-125,4,1,0,55,0,0
361045,-123.914662450264,4,1,0,55,0,0
361195,-121.799415850002,4,1,0,55,0,0
361345,-119.755315938475,4,1,0,55,0,0
361495,-117.778555116242,4,1,0,55,0,0
361570,-116.814514904364,4,1,0,55,0,0
361720,-114.932884941838,4,1,0,55,0,0
361795,-114.01468509144,4,1,0,55,0,0
361945,-112.221480313547,4,1,0,55,0,0
362095,-110.483930664704,4,1,0,55,0,0
362170,-109.635057783157,4,1,0,55,0,0
362245,-108.799247979598,4,1,0,55,0,0
362395,-107.165170462278,4,1,0,55,0,0
362545,-105.579563175115,4,1,0,55,0,0
362620,-104.804115867238,4,1,0,55,0,0
362695,-104.040084563781,4,1,0,55,0,0
362770,-103.287112350556,4,1,0,55,0,0
362845,-102.544960838079,4,1,0,55,0,0
362995,-101.092097933981,4,1,0,55,0,0
363070,-100.381046452333,4,1,0,55,0,0
363145,-99.6798283912074,4,1,0,55,0,0
363220,-98.9884371606553,4,1,0,55,0,0
363295,-98.3065710078193,4,1,0,55,0,0
363370,-97.6339391193809,4,1,0,55,0,0
363445,-96.9705432580745,4,1,0,55,0,0
363520,-96.3161017406246,4,1,0,55,0,0
363595,-95.6704344872782,4,1,0,55,0,0
363670,-95.0332759015569,4,1,0,55,0,0
363745,-94.4046371557771,4,1,0,55,0,0
363820,-93.7842605626868,4,1,0,55,0,0
363895,-93.1718974922784,4,1,0,55,0,0
363970,-92.5675650657415,4,1,0,55,0,0
364045,-91.9710217704606,4,1,0,55,0,0
364120,-91.3820344747863,4,1,0,55,0,0
364195,-90.800625434708,4,1,0,55,0,0
364270,-90.2265679347409,4,1,0,55,0,0
364345,-89.6597234176852,4,1,0,55,0,0
364495,-88.547057891181,4,1,0,55,0,0
364645,-87.4616699231562,4,1,0,55,0,0
364795,-86.4026432296617,4,1,0,55,0,0
364945,-85.3688832128067,4,1,0,55,0,0
365020,-84.8612603254939,4,1,0,55,0,0
365095,-84.3596386370519,4,1,0,55,0,0
365170,-83.8638420206489,4,1,0,55,0,0
365245,-83.373908635536,4,1,0,55,0,0
365483,-90.9090909090909,4,1,0,96,0,0
365577,-90.9090909090909,4,1,0,96,0,1
373977,-90.9090909090909,4,1,0,96,0,0
374170,-100,4,1,0,59,0,0
374245,-99.2414972366205,4,1,0,59,0,0
374395,-97.7583998905106,4,1,0,59,0,0
374545,-96.3189776318438,4,1,0,59,0,0
374620,-95.6150918861033,4,1,0,59,0,0
374695,-94.92141930303,4,1,0,59,0,0
374845,-93.5637496608314,4,1,0,59,0,0
374995,-92.2444551857988,4,1,0,94,0,0
375177,-90.96176604088,4,1,0,94,0,1
383577,-90.96176604088,4,1,0,94,0,0
383845,-90.9090909090909,4,1,0,94,0,0
383920,-89.2857142857143,4,1,0,94,0,0
383995,-88.4955752212389,4,1,0,94,0,0
384070,-87.719298245614,4,1,0,94,0,0
384145,-86.9565217391304,4,1,0,94,0,0
384220,-86.2068965517241,4,1,0,94,0,0
384295,-85.4700854700855,4,1,0,94,0,0
384370,-84.7457627118644,4,1,0,94,0,0
384445,-84.0336134453781,4,1,0,94,0,0
384520,-82.6446280991736,4,1,0,94,0,0
384670,-78.7401574803149,4,1,0,94,0,0
384777,-78.7401574803149,4,1,0,94,0,1
384820,-90.9090909090909,4,1,0,94,0,1
389770,-76.9230769230769,4,1,0,100,0,1
389985,-90.9090909090909,4,1,0,100,0,1
405520,-100,4,1,0,100,0,1
406795,-111.111111111111,4,1,0,100,0,1
411445,-109.89010989011,4,1,0,100,0,1
411595,-108.695652173913,4,1,0,100,0,1
411670,-107.52688172043,4,1,0,100,0,1
411745,-106.382978723404,4,1,0,100,0,1
411895,-105.263157894737,4,1,0,100,0,1
412045,-104.166666666667,4,1,0,100,0,1
412120,-103.092783505155,4,1,0,100,0,1
412195,-102.040816326531,4,1,0,100,0,1
412345,-100,4,1,0,100,0,1
413095,-95.2380952380952,4,1,0,100,0,1
413577,-86.9565217391304,4,1,0,100,0,0
418270,-133.333333333333,4,1,0,39,0,0
418870,-125,4,1,0,39,0,0
419470,-117.647058823529,4,1,0,39,0,0
420070,-111.111111111111,4,1,0,39,0,0
420670,-125,4,1,0,39,0,0
420978,-117.647058823529,4,1,0,39,0,0
421270,-111.111111111111,4,1,0,39,0,0
421570,-105.263157894737,4,1,0,39,0,0
421795,-104.166666666667,4,1,0,39,0,0
421870,-103.092783505155,4,1,0,39,0,0
421945,-102.040816326531,4,1,0,39,0,0
422020,-101.010101010101,4,1,0,39,0,0
422095,-100,4,1,0,39,0,0
422245,-99.009900990099,4,1,0,39,0,0
422395,-98.0392156862745,4,1,0,39,0,0
422470,-97.0873786407767,4,1,0,39,0,0
422545,-96.1538461538461,4,1,0,39,0,0
422695,-94.3396226415094,4,1,0,39,0,0
422845,-92.5925925925926,4,1,0,39,0,0
423177,-90.9090909090909,4,1,0,95,0,1
437845,-111.111111111111,4,1,0,95,0,1
437995,-109.89010989011,4,1,0,95,0,1
438070,-108.695652173913,4,1,0,95,0,1
438145,-107.52688172043,4,1,0,95,0,1
438295,-106.382978723404,4,1,0,95,0,1
438445,-105.263157894737,4,1,0,95,0,1
438595,-104.166666666667,4,1,0,95,0,1
438670,-103.092783505155,4,1,0,95,0,1
438745,-102.040816326531,4,1,0,95,0,1
438895,-101.010101010101,4,1,0,95,0,1
439045,-100,4,1,0,95,0,1
439195,-99.009900990099,4,1,0,95,0,1
439270,-98.0392156862745,4,1,0,95,0,1
439345,-97.0873786407767,4,1,0,95,0,1
439495,-96.1538461538461,4,1,0,95,0,1
439570,-95.2380952380952,4,1,0,95,0,1
439645,-94.3396226415094,4,1,0,95,0,1
439720,-93.4579439252336,4,1,0,95,0,1
439795,-92.5925925925926,4,1,0,95,0,1
439883,-86.9565217391304,4,1,0,5,0,1
442270,-76.9230769230769,4,1,0,85,0,1
442377,-76.9230769230769,4,1,0,85,0,0
448120,-12.5,4,1,0,5,0,0

[HitObjects]
256,192,6514,12,0,8877,0:0:0:0:
160,288,9177,5,4,0:0:0:0:
352,96,9477,5,8,0:0:0:0:
160,96,9777,5,0,0:0:0:0:
352,96,10077,5,8,0:0:0:0:
160,96,10377,5,0,0:0:0:0:
352,96,10677,5,8,0:0:0:0:
160,96,10977,5,0,0:0:0:0:
352,96,11277,5,8,0:0:0:0:
160,96,11427,5,0,0:0:0:0:
160,96,11577,5,0,0:0:0:0:
352,96,11877,5,8,0:0:0:0:
160,96,12177,5,0,0:0:0:0:
352,96,12477,5,8,0:0:0:0:
160,96,12777,5,0,0:0:0:0:
352,96,13077,5,8,0:0:0:0:
160,96,13377,5,0,0:0:0:0:
160,96,13527,5,0,0:0:0:0:
352,96,13677,5,8,0:0:0:0:
160,96,13827,5,0,0:0:0:0:
160,96,13902,5,0,0:0:0:0:
160,96,13977,5,0,0:0:0:0:
352,96,14277,5,8,0:0:0:0:
160,96,14577,5,0,0:0:0:0:
352,96,14877,5,8,0:0:0:0:
160,96,15177,5,0,0:0:0:0:
352,96,15477,5,8,0:0:0:0:
352,96,15627,5,8,0:0:0:0:
160,96,15777,5,0,0:0:0:0:
352,96,16077,5,8,0:0:0:0:
160,96,16377,5,0,0:0:0:0:
160,96,16527,5,0,0:0:0:0:
352,96,16677,5,8,0:0:0:0:
352,96,16827,5,8,0:0:0:0:
352,96,16902,5,8,0:0:0:0:
160,96,16977,5,0,0:0:0:0:
160,96,17127,5,0,0:0:0:0:
352,96,17277,5,8,0:0:0:0:
160,96,17427,5,0,0:0:0:0:
160,96,17577,5,0,0:0:0:0:
352,96,17652,5,8,0:0:0:0:
352,96,17727,5,8,0:0:0:0:
352,96,17802,5,8,0:0:0:0:
160,96,17877,5,0,0:0:0:0:
160,96,18027,5,0,0:0:0:0:
352,96,18177,5,8,0:0:0:0:
352,96,18252,5,8,0:0:0:0:
160,96,18327,5,0,0:0:0:0:
352,288,18477,5,12,0:0:0:0:
160,288,18777,5,4,0:0:0:0:
160,96,19002,5,0,0:0:0:0:
352,96,19077,5,8,0:0:0:0:
160,96,19227,5,0,0:0:0:0:
352,96,19377,5,8,0:0:0:0:
160,96,19527,5,0,0:0:0:0:
160,96,19602,5,0,0:0:0:0:
352,96,19677,5,8,0:0:0:0:
160,96,19827,5,0,0:0:0:0:
352,96,19977,5,8,0:0:0:0:
160,96,20127,5,0,0:0:0:0:
352,96,20202,5,8,0:0:0:0:
160,96,20277,5,0,0:0:0:0:
352,96,20427,5,8,0:0:0:0:
160,96,20577,5,0,0:0:0:0:
160,96,20727,5,0,0:0:0:0:
352,96,20877,5,8,0:0:0:0:
352,96,21027,5,8,0:0:0:0:
352,96,21102,5,8,0:0:0:0:
160,96,21177,5,0,0:0:0:0:
160,96,21402,5,0,0:0:0:0:
352,96,21477,5,8,0:0:0:0:
160,96,21627,5,0,0:0:0:0:
352,96,21777,5,8,0:0:0:0:
160,96,21927,5,0,0:0:0:0:
160,96,22002,5,0,0:0:0:0:
352,96,22077,5,8,0:0:0:0:
160,96,22227,5,0,0:0:0:0:
352,96,22377,5,8,0:0:0:0:
352,96,22452,5,8,0:0:0:0:
160,96,22527,5,0,0:0:0:0:
352,96,22677,5,8,0:0:0:0:
352,96,22752,5,8,0:0:0:0:
352,96,22902,5,8,0:0:0:0:
160,96,22977,5,0,0:0:0:0:
160,96,23127,5,0,0:0:0:0:
352,288,23277,5,12,0:0:0:0:
160,288,23577,5,4,0:0:0:0:
160,96,23802,5,0,0:0:0:0:
352,96,23877,5,8,0:0:0:0:
160,96,24027,5,0,0:0:0:0:
352,96,24177,5,8,0:0:0:0:
352,96,24252,5,8,0:0:0:0:
160,96,24327,5,0,0:0:0:0:
160,96,24402,5,0,0:0:0:0:
352,96,24477,5,8,0:0:0:0:
160,96,24627,5,0,0:0:0:0:
352,288,24777,5,12,0:0:0:0:
160,96,24927,5,0,0:0:0:0:
352,96,25002,5,8,0:0:0:0:
160,96,25077,5,0,0:0:0:0:
352,96,25227,5,8,0:0:0:0:
160,96,25377,5,0,0:0:0:0:
160,96,25452,5,0,0:0:0:0:
160,96,25527,5,0,0:0:0:0:
352,96,25677,5,8,0:0:0:0:
160,288,25977,5,4,0:0:0:0:
352,96,26277,5,8,0:0:0:0:
352,96,26427,5,8,0:0:0:0:
160,288,26577,5,4,0:0:0:0:
160,288,26877,5,4,0:0:0:0:
160,288,27027,5,4,0:0:0:0:
352,96,27177,5,8,0:0:0:0:
352,96,27327,5,8,0:0:0:0:
352,96,27627,5,8,0:0:0:0:
352,96,27777,5,8,0:0:0:0:
160,96,27852,5,0,0:0:0:0:
160,96,27927,5,0,0:0:0:0:
160,96,28002,5,0,0:0:0:0:
352,96,28077,5,8,0:0:0:0:
160,288,28377,5,4,0:0:0:0:
160,96,28527,5,0,0:0:0:0:
352,96,28677,5,8,0:0:0:0:
352,96,28902,5,8,0:0:0:0:
352,96,28977,5,8,0:0:0:0:
160,96,29127,5,0,0:0:0:0:
352,96,29277,5,8,0:0:0:0:
352,96,29352,5,8,0:0:0:0:
160,96,29427,5,0,0:0:0:0:
160,96,29727,5,0,0:0:0:0:
352,96,29877,5,8,0:0:0:0:
160,96,30027,5,0,0:0:0:0:
352,96,30177,5,8,0:0:0:0:
352,96,30252,5,8,0:0:0:0:
352,96,30327,5,8,0:0:0:0:
352,96,30402,5,8,0:0:0:0:
160,96,30477,5,0,0:0:0:0:
160,96,30627,5,0,0:0:0:0:
352,96,30702,5,8,0:0:0:0:
160,96,30777,5,0,0:0:0:0:
160,96,30927,5,0,0:0:0:0:
352,96,31077,5,8,0:0:0:0:
160,96,31227,5,0,0:0:0:0:
160,96,31377,5,0,0:0:0:0:
160,96,31452,5,0,0:0:0:0:
352,96,31527,5,8,0:0:0:0:
160,96,31677,5,0,0:0:0:0:
352,96,31977,5,8,0:0:0:0:
160,96,32127,5,0,0:0:0:0:
352,96,32277,5,8,0:0:0:0:
160,96,32427,5,0,0:0:0:0:
352,96,32502,5,8,0:0:0:0:
160,96,32577,5,0,0:0:0:0:
352,96,32652,5,8,0:0:0:0:
352,96,32727,5,8,0:0:0:0:
352,96,32877,5,8,0:0:0:0:
352,96,32927,5,8,0:0:0:0:
352,96,32977,5,8,0:0:0:0:
352,96,33027,5,8,0:0:0:0:
160,96,33177,5,0,0:0:0:0:
160,96,33327,5,0,0:0:0:0:
352,96,33477,5,8,0:0:0:0:
352,96,33627,5,8,0:0:0:0:
352,96,33702,5,8,0:0:0:0:
160,96,33777,5,0,0:0:0:0:
352,96,33852,5,8,0:0:0:0:
352,96,33927,5,8,0:0:0:0:
160,96,34077,5,0,0:0:0:0:
352,96,34227,5,8,0:0:0:0:
352,96,34302,5,8,0:0:0:0:
160,96,34377,5,0,0:0:0:0:
352,96,34527,5,8,0:0:0:0:
160,96,34677,5,0,0:0:0:0:
160,96,34752,5,0,0:0:0:0:
352,96,34827,5,8,0:0:0:0:
160,96,34977,5,0,0:0:0:0:
352,96,35052,5,8,0:0:0:0:
352,96,35202,5,8,0:0:0:0:
160,96,35277,5,0,0:0:0:0:
352,96,35427,5,8,0:0:0:0:
352,96,35502,5,8,0:0:0:0:
160,96,35577,5,0,0:0:0:0:
352,96,35727,5,8,0:0:0:0:
160,96,35877,5,0,0:0:0:0:
352,96,36027,5,8,0:0:0:0:
160,96,36102,5,0,0:0:0:0:
160,96,36177,5,0,0:0:0:0:
352,96,36327,5,8,0:0:0:0:
160,96,36477,5,0,0:0:0:0:
352,96,36627,5,8,0:0:0:0:
160,96,36702,5,0,0:0:0:0:
352,96,36777,5,8,0:0:0:0:
352,96,36852,5,8,0:0:0:0:
160,96,36927,5,0,0:0:0:0:
352,96,37077,5,8,0:0:0:0:
160,96,37227,5,0,0:0:0:0:
160,96,37302,5,0,0:0:0:0:
352,96,37377,5,8,0:0:0:0:
160,96,37527,5,0,0:0:0:0:
352,96,37677,5,8,0:0:0:0:
160,96,37752,5,0,0:0:0:0:
160,96,37827,5,0,0:0:0:0:
160,96,37902,5,0,0:0:0:0:
352,288,37977,5,12,0:0:0:0:
352,288,38277,5,12,0:0:0:0:
352,288,38577,5,12,0:0:0:0:
352,288,38877,5,12,0:0:0:0:
352,288,39177,5,12,0:0:0:0:
352,288,39477,5,12,0:0:0:0:
352,288,39777,5,12,0:0:0:0:
352,288,40077,5,12,0:0:0:0:
352,288,40227,5,12,0:0:0:0:
352,288,40377,5,12,0:0:0:0:
352,288,40677,5,12,0:0:0:0:
160,96,40827,5,0,0:0:0:0:
160,96,40902,5,0,0:0:0:0:
352,96,40977,5,8,0:0:0:0:
352,288,41277,5,12,0:0:0:0:
352,288,41577,5,12,0:0:0:0:
160,96,41727,5,0,0:0:0:0:
352,288,41877,5,12,0:0:0:0:
160,96,42027,5,0,0:0:0:0:
160,96,42102,5,0,0:0:0:0:
352,96,42177,5,8,0:0:0:0:
160,96,42327,5,0,0:0:0:0:
352,96,42477,5,8,0:0:0:0:
352,96,42552,5,8,0:0:0:0:
352,96,42627,5,8,0:0:0:0:
352,96,42702,5,8,0:0:0:0:
160,96,42777,5,0,0:0:0:0:
352,96,43002,5,8,0:0:0:0:
160,96,43077,5,0,0:0:0:0:
352,96,43227,5,8,0:0:0:0:
160,96,43377,5,0,0:0:0:0:
352,96,43452,5,8,0:0:0:0:
352,96,43527,5,8,0:0:0:0:
160,96,43677,5,0,0:0:0:0:
352,96,43827,5,8,0:0:0:0:
352,96,43902,5,8,0:0:0:0:
160,96,43977,5,0,0:0:0:0:
352,96,44127,5,8,0:0:0:0:
160,96,44277,5,0,0:0:0:0:
160,96,44352,5,0,0:0:0:0:
352,96,44427,5,8,0:0:0:0:
352,96,44502,5,8,0:0:0:0:
160,96,44577,5,0,0:0:0:0:
352,96,44652,5,8,0:0:0:0:
352,96,44802,5,8,0:0:0:0:
160,96,44877,5,0,0:0:0:0:
160,96,45027,5,0,0:0:0:0:
352,96,45102,5,8,0:0:0:0:
160,96,45177,5,0,0:0:0:0:
352,96,45327,5,8,0:0:0:0:
160,96,45477,5,0,0:0:0:0:
160,96,45552,5,0,0:0:0:0:
352,96,45627,5,8,0:0:0:0:
160,96,45777,5,0,0:0:0:0:
352,96,45927,5,8,0:0:0:0:
352,96,46002,5,8,0:0:0:0:
160,96,46077,5,0,0:0:0:0:
352,96,46152,5,8,0:0:0:0:
352,96,46227,5,8,0:0:0:0:
352,96,46302,5,8,0:0:0:0:
160,96,46377,5,0,0:0:0:0:
160,96,46677,5,0,0:0:0:0:
352,96,46752,5,8,0:0:0:0:
352,96,46827,5,8,0:0:0:0:
352,96,46977,5,8,0:0:0:0:
352,96,47052,5,8,0:0:0:0:
160,96,47127,5,0,0:0:0:0:
352,288,47277,5,12,0:0:0:0:
256,192,47577,12,0,51777,0:0:0:0:
160,96,52377,5,0,0:0:0:0:
352,96,52677,5,8,0:0:0:0:
160,96,52977,5,0,0:0:0:0:
352,96,53277,5,8,0:0:0:0:
352,96,53427,5,8,0:0:0:0:
160,96,53577,5,0,0:0:0:0:
352,96,53877,5,8,0:0:0:0:
160,96,54027,5,0,0:0:0:0:
352,96,54177,5,8,0:0:0:0:
160,96,54327,5,0,0:0:0:0:
352,96,54402,5,8,0:0:0:0:
352,96,54477,5,8,0:0:0:0:
352,96,54627,5,8,0:0:0:0:
160,96,54777,5,0,0:0:0:0:
352,96,54927,5,8,0:0:0:0:
352,96,55227,5,8,0:0:0:0:
160,96,55377,5,0,0:0:0:0:
160,96,55677,5,0,0:0:0:0:
352,96,55827,5,8,0:0:0:0:
160,96,55977,5,0,0:0:0:0:
160,96,56127,5,0,0:0:0:0:
352,96,56277,5,8,0:0:0:0:
352,96,56427,5,8,0:0:0:0:
160,96,56577,5,0,0:0:0:0:
352,96,56877,5,8,0:0:0:0:
160,96,57177,5,0,0:0:0:0:
352,96,57477,5,8,0:0:0:0:
160,96,57777,5,0,0:0:0:0:
352,96,58077,5,8,0:0:0:0:
160,96,58227,5,0,0:0:0:0:
352,96,58377,5,8,0:0:0:0:
160,96,58677,5,0,0:0:0:0:
352,96,58827,5,8,0:0:0:0:
160,96,58977,5,0,0:0:0:0:
160,96,59127,5,0,0:0:0:0:
352,96,59277,5,8,0:0:0:0:
352,96,59352,5,8,0:0:0:0:
352,96,59427,5,8,0:0:0:0:
160,288,59577,5,4,0:0:0:0:
352,96,59727,5,8,0:0:0:0:
160,96,59877,5,0,0:0:0:0:
160,96,60027,5,0,0:0:0:0:
352,288,60177,5,12,0:0:0:0:
160,96,60327,5,0,0:0:0:0:
160,96,60402,5,0,0:0:0:0:
352,96,60477,5,8,0:0:0:0:
160,96,60627,5,0,0:0:0:0:
352,288,60777,5,12,0:0:0:0:
160,96,60927,5,0,0:0:0:0:
352,96,61077,5,8,0:0:0:0:
160,96,61152,5,0,0:0:0:0:
160,96,61227,5,0,0:0:0:0:
352,96,61377,5,8,0:0:0:0:
352,96,61452,5,8,0:0:0:0:
160,96,61527,5,0,0:0:0:0:
160,96,61602,5,0,0:0:0:0:
352,288,61677,5,12,0:0:0:0:
160,288,61977,5,4,0:0:0:0:
160,96,62202,5,0,0:0:0:0:
352,96,62277,5,8,0:0:0:0:
160,96,62427,5,0,0:0:0:0:
352,96,62577,5,8,0:0:0:0:
352,96,62652,5,8,0:0:0:0:
160,96,62727,5,0,0:0:0:0:
160,96,62802,5,0,0:0:0:0:
352,96,62877,5,8,0:0:0:0:
160,96,63027,5,0,0:0:0:0:
352,96,63177,5,8,0:0:0:0:
160,96,63327,5,0,0:0:0:0:
352,96,63402,5,8,0:0:0:0:
160,96,63477,5,0,0:0:0:0:
352,96,63627,5,8,0:0:0:0:
160,96,63777,5,0,0:0:0:0:
160,96,63927,5,0,0:0:0:0:
160,96,64002,5,0,0:0:0:0:
352,96,64077,5,8,0:0:0:0:
160,96,64227,5,0,0:0:0:0:
352,96,64377,5,8,0:0:0:0:
352,96,64452,5,8,0:0:0:0:
352,96,64602,5,8,0:0:0:0:
160,96,64677,5,0,0:0:0:0:
160,96,64827,5,0,0:0:0:0:
352,96,64977,5,8,0:0:0:0:
352,96,65052,5,8,0:0:0:0:
352,96,65127,5,8,0:0:0:0:
352,96,65202,5,8,0:0:0:0:
160,96,65277,5,0,0:0:0:0:
160,96,65427,5,0,0:0:0:0:
352,96,65577,5,8,0:0:0:0:
160,96,65727,5,0,0:0:0:0:
352,96,65802,5,8,0:0:0:0:
160,96,65877,5,0,0:0:0:0:
352,96,66027,5,8,0:0:0:0:
160,96,66177,5,0,0:0:0:0:
160,96,66252,5,0,0:0:0:0:
160,96,66327,5,0,0:0:0:0:
160,96,66402,5,0,0:0:0:0:
352,96,66477,5,8,0:0:0:0:
352,96,66627,5,8,0:0:0:0:
160,288,66777,5,4,0:0:0:0:
160,96,66927,5,0,0:0:0:0:
160,96,67002,5,0,0:0:0:0:
352,96,67077,5,8,0:0:0:0:
160,96,67227,5,0,0:0:0:0:
352,96,67377,5,8,0:0:0:0:
352,96,67452,5,8,0:0:0:0:
160,96,67527,5,0,0:0:0:0:
160,96,67602,5,0,0:0:0:0:
352,96,67677,5,8,0:0:0:0:
160,96,67827,5,0,0:0:0:0:
352,96,67977,5,8,0:0:0:0:
160,96,68052,5,0,0:0:0:0:
160,96,68202,5,0,0:0:0:0:
352,96,68277,5,8,0:0:0:0:
160,96,68427,5,0,0:0:0:0:
352,96,68577,5,8,0:0:0:0:
160,96,68652,5,0,0:0:0:0:
160,96,68727,5,0,0:0:0:0:
352,96,68802,5,8,0:0:0:0:
160,96,68877,5,0,0:0:0:0:
352,96,69027,5,8,0:0:0:0:
160,96,69177,5,0,0:0:0:0:
352,96,69327,5,8,0:0:0:0:
352,96,69402,5,8,0:0:0:0:
352,96,69477,5,8,0:0:0:0:
160,96,69627,5,0,0:0:0:0:
352,96,69777,5,8,0:0:0:0:
352,96,69852,5,8,0:0:0:0:
352,96,69927,5,8,0:0:0:0:
352,96,70002,5,8,0:0:0:0:
160,96,70077,5,0,0:0:0:0:
352,96,70227,5,8,0:0:0:0:
160,96,70377,5,0,0:0:0:0:
352,96,70527,5,8,0:0:0:0:
160,96,70602,5,0,0:0:0:0:
352,96,70677,5,8,0:0:0:0:
160,96,70827,5,0,0:0:0:0:
352,96,70977,5,8,0:0:0:0:
160,96,71052,5,0,0:0:0:0:
160,96,71127,5,0,0:0:0:0:
352,96,71202,5,8,0:0:0:0:
352,96,71277,5,8,0:0:0:0:
352,96,71427,5,8,0:0:0:0:
160,288,71577,5,4,0:0:0:0:
160,96,71727,5,0,0:0:0:0:
160,96,71802,5,0,0:0:0:0:
352,96,71877,5,8,0:0:0:0:
160,96,72027,5,0,0:0:0:0:
352,96,72177,5,8,0:0:0:0:
352,96,72252,5,8,0:0:0:0:
160,96,72327,5,0,0:0:0:0:
160,96,72402,5,0,0:0:0:0:
352,96,72477,5,8,0:0:0:0:
160,96,72627,5,0,0:0:0:0:
352,288,72777,5,12,0:0:0:0:
160,96,72927,5,0,0:0:0:0:
352,96,73002,5,8,0:0:0:0:
160,96,73077,5,0,0:0:0:0:
160,96,73152,5,0,0:0:0:0:
352,96,73227,5,8,0:0:0:0:
160,96,73377,5,0,0:0:0:0:
352,96,73527,5,8,0:0:0:0:
352,96,73602,5,8,0:0:0:0:
160,96,73677,5,0,0:0:0:0:
160,96,73752,5,0,0:0:0:0:
160,96,73827,5,0,0:0:0:0:
160,288,73977,5,4,0:0:0:0:
352,96,74127,5,8,0:0:0:0:
160,96,74202,5,0,0:0:0:0:
352,96,74277,5,8,0:0:0:0:
160,96,74427,5,0,0:0:0:0:
352,288,74577,5,12,0:0:0:0:
160,96,74727,5,0,0:0:0:0:
160,96,74802,5,0,0:0:0:0:
352,96,74877,5,8,0:0:0:0:
352,96,75027,5,8,0:0:0:0:
160,288,75177,5,4,0:0:0:0:
160,96,75327,5,0,0:0:0:0:
352,96,75477,5,8,0:0:0:0:
160,96,75627,5,0,0:0:0:0:
160,96,75702,5,0,0:0:0:0:
352,96,75777,5,8,0:0:0:0:
352,96,75852,5,8,0:0:0:0:
160,96,75927,5,0,0:0:0:0:
352,96,76077,5,8,0:0:0:0:
160,288,76377,5,4,0:0:0:0:
352,96,76602,5,8,0:0:0:0:
160,96,76677,5,0,0:0:0:0:
160,96,76827,5,0,0:0:0:0:
352,96,76902,5,8,0:0:0:0:
160,96,76977,5,0,0:0:0:0:
160,96,77052,5,0,0:0:0:0:
352,96,77127,5,8,0:0:0:0:
160,96,77277,5,0,0:0:0:0:
352,96,77427,5,8,0:0:0:0:
352,96,77502,5,8,0:0:0:0:
160,96,77577,5,0,0:0:0:0:
160,96,77727,5,0,0:0:0:0:
352,96,77802,5,8,0:0:0:0:
160,96,77877,5,0,0:0:0:0:
352,96,78027,5,8,0:0:0:0:
160,96,78177,5,0,0:0:0:0:
160,96,78252,5,0,0:0:0:0:
352,96,78327,5,8,0:0:0:0:
352,96,78402,5,8,0:0:0:0:
160,96,78477,5,0,0:0:0:0:
160,96,78627,5,0,0:0:0:0:
352,96,78777,5,8,0:0:0:0:
160,96,78927,5,0,0:0:0:0:
160,96,79002,5,0,0:0:0:0:
352,96,79077,5,8,0:0:0:0:
160,96,79227,5,0,0:0:0:0:
352,96,79377,5,8,0:0:0:0:
160,96,79452,5,0,0:0:0:0:
352,96,79527,5,8,0:0:0:0:
160,96,79677,5,0,0:0:0:0:
352,96,79827,5,8,0:0:0:0:
352,96,79902,5,8,0:0:0:0:
160,96,79977,5,0,0:0:0:0:
160,96,80127,5,0,0:0:0:0:
352,96,80202,5,8,0:0:0:0:
160,96,80277,5,0,0:0:0:0:
352,96,80427,5,8,0:0:0:0:
160,96,80577,5,0,0:0:0:0:
160,96,80652,5,0,0:0:0:0:
352,96,80727,5,8,0:0:0:0:
160,96,80802,5,0,0:0:0:0:
352,96,80877,5,8,0:0:0:0:
352,96,81027,5,8,0:0:0:0:
352,96,81102,5,8,0:0:0:0:
160,96,81177,5,0,0:0:0:0:
352,96,81402,5,8,0:0:0:0:
160,96,81477,5,0,0:0:0:0:
352,96,81627,5,8,0:0:0:0:
160,96,81777,5,0,0:0:0:0:
352,96,81852,5,8,0:0:0:0:
352,96,81927,5,8,0:0:0:0:
352,96,82002,5,8,0:0:0:0:
160,96,82077,5,0,0:0:0:0:
352,96,82227,5,8,0:0:0:0:
160,96,82377,5,0,0:0:0:0:
352,96,82452,5,8,0:0:0:0:
352,96,82602,5,8,0:0:0:0:
160,96,82677,5,0,0:0:0:0:
160,96,82752,5,0,0:0:0:0:
352,96,82827,5,8,0:0:0:0:
160,96,82977,5,0,0:0:0:0:
352,96,83127,5,8,0:0:0:0:
352,96,83202,5,8,0:0:0:0:
160,96,83277,5,0,0:0:0:0:
352,96,83352,5,8,0:0:0:0:
160,96,83427,5,0,0:0:0:0:
352,96,83577,5,8,0:0:0:0:
160,96,83652,5,0,0:0:0:0:
160,96,83727,5,0,0:0:0:0:
352,96,83802,5,8,0:0:0:0:
160,96,83877,5,0,0:0:0:0:
160,96,83952,5,0,0:0:0:0:
352,96,84027,5,8,0:0:0:0:
160,96,84102,5,0,0:0:0:0:
352,96,84177,5,8,0:0:0:0:
352,96,84252,5,8,0:0:0:0:
160,96,84327,5,0,0:0:0:0:
352,96,84402,5,8,0:0:0:0:
160,96,84477,5,0,0:0:0:0:
160,96,84552,5,0,0:0:0:0:
352,96,84627,5,8,0:0:0:0:
160,288,84777,5,4,0:0:0:0:
76,357,85077,6,0,L|123:289,6,52.5000020027161
352,288,85677,5,12,0:0:0:0:
256,192,85977,5,0,0:0:0:0:
256,192,86127,1,0,0:0:0:0:
256,192,86277,1,12,0:0:0:0:
256,192,86502,1,8,0:0:0:0:
256,192,86577,1,0,0:0:0:0:
256,192,86727,1,0,0:0:0:0:
256,192,86802,1,0,0:0:0:0:
256,192,86877,1,8,0:0:0:0:
256,192,87027,1,8,0:0:0:0:
256,192,87102,1,8,0:0:0:0:
256,192,87177,1,0,0:0:0:0:
256,192,87252,1,8,0:0:0:0:
256,192,87402,1,8,0:0:0:0:
256,192,87477,1,0,0:0:0:0:
256,192,87627,1,8,0:0:0:0:
256,192,87702,1,0,0:0:0:0:
256,192,87777,1,8,0:0:0:0:
256,192,87852,1,8,0:0:0:0:
256,192,87927,1,0,0:0:0:0:
256,192,88002,1,0,0:0:0:0:
256,192,88077,1,8,0:0:0:0:
256,192,88227,1,0,0:0:0:0:
256,192,88302,1,8,0:0:0:0:
256,192,88377,1,0,0:0:0:0:
256,192,88452,1,0,0:0:0:0:
256,192,88602,1,0,0:0:0:0:
256,192,88677,1,8,0:0:0:0:
256,192,88827,1,8,0:0:0:0:
256,192,88902,1,8,0:0:0:0:
256,192,88977,1,0,0:0:0:0:
256,192,89052,1,8,0:0:0:0:
256,192,89202,1,8,0:0:0:0:
256,192,89277,1,0,0:0:0:0:
256,192,89427,1,8,0:0:0:0:
256,192,89577,1,0,0:0:0:0:
256,192,89727,1,0,0:0:0:0:
256,192,89802,1,8,0:0:0:0:
256,192,89877,1,0,0:0:0:0:
256,192,90027,1,8,0:0:0:0:
256,192,90102,1,8,0:0:0:0:
256,192,90177,1,0,0:0:0:0:
256,192,90252,1,8,0:0:0:0:
256,192,90327,1,0,0:0:0:0:
256,192,90402,1,0,0:0:0:0:
256,192,90477,1,8,0:0:0:0:
256,192,90552,1,0,0:0:0:0:
256,192,90702,1,0,0:0:0:0:
256,192,90777,1,8,0:0:0:0:
256,192,90927,1,0,0:0:0:0:
256,192,91077,1,8,0:0:0:0:
256,192,91227,1,8,0:0:0:0:
256,192,91302,1,8,0:0:0:0:
256,192,91377,1,0,0:0:0:0:
256,192,91527,1,0,0:0:0:0:
256,192,91677,1,8,0:0:0:0:
256,192,91752,1,0,0:0:0:0:
256,192,91827,1,8,0:0:0:0:
256,192,91902,1,8,0:0:0:0:
256,192,91977,1,0,0:0:0:0:
256,192,92052,1,0,0:0:0:0:
256,192,92202,1,0,0:0:0:0:
256,192,92277,1,8,0:0:0:0:
256,192,92427,1,8,0:0:0:0:
256,192,92502,1,8,0:0:0:0:
256,192,92577,1,0,0:0:0:0:
256,192,92652,1,8,0:0:0:0:
256,192,92727,1,0,0:0:0:0:
256,192,92802,1,0,0:0:0:0:
256,192,92877,1,8,0:0:0:0:
256,192,93027,1,8,0:0:0:0:
256,192,93177,1,0,0:0:0:0:
256,192,93327,1,8,0:0:0:0:
256,192,93402,1,0,0:0:0:0:
256,192,93477,1,8,0:0:0:0:
256,192,93627,1,8,0:0:0:0:
256,192,93702,1,8,0:0:0:0:
256,192,93777,1,0,0:0:0:0:
256,192,93927,1,0,0:0:0:0:
256,192,94077,1,8,0:0:0:0:
256,192,94152,1,0,0:0:0:0:
256,192,94227,1,8,0:0:0:0:
256,192,94302,1,8,0:0:0:0:
256,192,94377,1,0,0:0:0:0:
256,192,94452,1,0,0:0:0:0:
256,192,94527,1,8,0:0:0:0:
256,192,94602,1,0,0:0:0:0:
256,192,94677,1,8,0:0:0:0:
256,192,94752,1,0,0:0:0:0:
256,192,94827,1,0,0:0:0:0:
256,192,94902,1,0,0:0:0:0:
256,192,94977,1,8,0:0:0:0:
256,192,95052,1,8,0:0:0:0:
256,192,95127,1,0,0:0:0:0:
256,192,95202,1,0,0:0:0:0:
256,192,95277,1,8,0:0:0:0:
256,192,95427,1,8,0:0:0:0:
256,192,95577,1,4,0:0:0:0:
256,192,95877,1,8,0:0:0:0:
256,192,96027,1,8,0:0:0:0:
256,192,96102,1,8,0:0:0:0:
256,192,96177,1,0,0:0:0:0:
256,192,96327,1,0,0:0:0:0:
256,192,96477,1,8,0:0:0:0:
256,192,96627,1,8,0:0:0:0:
256,192,96702,1,8,0:0:0:0:
256,192,96777,1,0,0:0:0:0:
256,192,96852,1,0,0:0:0:0:
256,192,96927,1,8,0:0:0:0:
256,192,97002,1,8,0:0:0:0:
256,192,97077,1,0,0:0:0:0:
256,192,97227,1,0,0:0:0:0:
256,192,97302,1,8,0:0:0:0:
256,192,97377,1,0,0:0:0:0:
256,192,97527,1,0,0:0:0:0:
256,192,97677,1,8,0:0:0:0:
256,192,97827,1,8,0:0:0:0:
256,192,97902,1,8,0:0:0:0:
256,192,97977,1,0,0:0:0:0:
256,192,98127,1,0,0:0:0:0:
256,192,98277,1,8,0:0:0:0:
256,192,98427,1,8,0:0:0:0:
256,192,98577,1,0,0:0:0:0:
256,192,98652,1,0,0:0:0:0:
256,192,98727,1,0,0:0:0:0:
256,192,98802,1,0,0:0:0:0:
256,192,98877,1,8,0:0:0:0:
256,192,99027,1,8,0:0:0:0:
256,192,99177,1,4,0:0:0:0:
256,192,99477,1,4,0:0:0:0:
256,192,99777,1,4,0:0:0:0:
256,192,99927,1,8,0:0:0:0:
256,192,100002,1,0,0:0:0:0:
256,192,100077,1,8,0:0:0:0:
256,192,100227,1,8,0:0:0:0:
256,192,100377,1,4,0:0:0:0:
256,192,100527,1,8,0:0:0:0:
256,192,100677,1,0,0:0:0:0:
256,192,100752,1,8,0:0:0:0:
256,192,100827,1,0,0:0:0:0:
256,192,100902,1,0,0:0:0:0:
256,192,100977,1,8,0:0:0:0:
256,192,101127,1,8,0:0:0:0:
256,192,101202,1,8,0:0:0:0:
256,192,101277,1,0,0:0:0:0:
256,192,101427,1,0,0:0:0:0:
256,192,101577,1,8,0:0:0:0:
256,192,101652,1,8,0:0:0:0:
256,192,101727,1,0,0:0:0:0:
256,192,101802,1,0,0:0:0:0:
256,192,101877,1,8,0:0:0:0:
256,192,102027,1,0,0:0:0:0:
256,192,102327,1,8,0:0:0:0:
256,192,102627,1,8,0:0:0:0:
256,192,102702,1,8,0:0:0:0:
256,192,102777,1,0,0:0:0:0:
256,192,102927,1,0,0:0:0:0:
256,192,103077,1,8,0:0:0:0:
256,192,103152,1,0,0:0:0:0:
256,192,103227,1,8,0:0:0:0:
256,192,103302,1,8,0:0:0:0:
256,192,103377,1,0,0:0:0:0:
256,192,103452,1,0,0:0:0:0:
256,192,103602,1,0,0:0:0:0:
256,192,103677,1,8,0:0:0:0:
256,192,103827,1,8,0:0:0:0:
256,192,103902,1,8,0:0:0:0:
256,192,103977,1,0,0:0:0:0:
256,192,104052,1,8,0:0:0:0:
256,192,104127,1,0,0:0:0:0:
256,192,104202,1,0,0:0:0:0:
256,192,104277,1,8,0:0:0:0:
256,192,104427,1,8,0:0:0:0:
256,192,104502,1,8,0:0:0:0:
256,192,104577,1,0,0:0:0:0:
256,192,104652,1,0,0:0:0:0:
256,192,104802,1,0,0:0:0:0:
256,192,104877,1,8,0:0:0:0:
256,192,105027,1,8,0:0:0:0:
256,192,105102,1,8,0:0:0:0:
256,192,105177,1,0,0:0:0:0:
256,192,105327,1,0,0:0:0:0:
256,192,105477,1,8,0:0:0:0:
256,192,105552,1,8,0:0:0:0:
256,192,105627,1,0,0:0:0:0:
256,192,105702,1,8,0:0:0:0:
256,192,105777,1,0,0:0:0:0:
256,192,105927,1,0,0:0:0:0:
256,192,106002,1,0,0:0:0:0:
256,192,106077,1,8,0:0:0:0:
256,192,106152,1,8,0:0:0:0:
256,192,106227,1,0,0:0:0:0:
256,192,106302,1,8,0:0:0:0:
256,192,106377,1,0,0:0:0:0:
256,192,106452,1,0,0:0:0:0:
256,192,106527,1,0,0:0:0:0:
256,192,106602,1,0,0:0:0:0:
256,192,106677,1,8,0:0:0:0:
256,192,106752,1,8,0:0:0:0:
256,192,106827,1,0,0:0:0:0:
256,192,106902,1,8,0:0:0:0:
256,192,106977,1,0,0:0:0:0:
256,192,107052,1,0,0:0:0:0:
256,192,107127,1,8,0:0:0:0:
256,192,107202,1,0,0:0:0:0:
256,192,107277,1,8,0:0:0:0:
256,192,107352,1,8,0:0:0:0:
256,192,107427,1,8,0:0:0:0:
256,192,107502,1,8,0:0:0:0:
256,192,107577,1,0,0:0:0:0:
256,192,107877,1,8,0:0:0:0:
256,192,108027,1,8,0:0:0:0:
256,192,108102,1,8,0:0:0:0:
256,192,108177,1,0,0:0:0:0:
256,192,108327,1,0,0:0:0:0:
256,192,108477,1,8,0:0:0:0:
256,192,108627,1,0,0:0:0:0:
256,192,108702,1,8,0:0:0:0:
256,192,108777,1,0,0:0:0:0:
256,192,108927,1,0,0:0:0:0:
256,192,109077,1,8,0:0:0:0:
256,192,109152,1,0,0:0:0:0:
256,192,109227,1,8,0:0:0:0:
256,192,109302,1,8,0:0:0:0:
256,192,109377,1,0,0:0:0:0:
256,192,109527,1,8,0:0:0:0:
256,192,109602,1,0,0:0:0:0:
256,192,109677,1,8,0:0:0:0:
256,192,109827,1,8,0:0:0:0:
256,192,109977,1,0,0:0:0:0:
256,192,110127,1,0,0:0:0:0:
256,192,110277,1,8,0:0:0:0:
256,192,110427,1,8,0:0:0:0:
256,192,110502,1,8,0:0:0:0:
256,192,110577,1,0,0:0:0:0:
256,192,110727,1,0,0:0:0:0:
256,192,110877,1,8,0:0:0:0:
256,192,110952,1,8,0:0:0:0:
256,192,111027,1,0,0:0:0:0:
256,192,111102,1,8,0:0:0:0:
256,192,111177,1,0,0:0:0:0:
256,192,111327,1,0,0:0:0:0:
256,192,111402,1,0,0:0:0:0:
256,192,111477,1,8,0:0:0:0:
256,192,111627,1,0,0:0:0:0:
256,192,111777,1,8,0:0:0:0:
256,192,111852,1,8,0:0:0:0:
256,192,111927,1,0,0:0:0:0:
256,192,112002,1,0,0:0:0:0:
256,192,112077,1,8,0:0:0:0:
256,192,112227,1,8,0:0:0:0:
256,192,112377,1,0,0:0:0:0:
256,192,112527,1,8,0:0:0:0:
256,192,112602,1,0,0:0:0:0:
256,192,112677,1,8,0:0:0:0:
256,192,112827,1,8,0:0:0:0:
256,192,112977,1,0,0:0:0:0:
256,192,113052,1,0,0:0:0:0:
256,192,113127,1,0,0:0:0:0:
256,192,113202,1,0,0:0:0:0:
256,192,113277,1,8,0:0:0:0:
256,192,113427,1,8,0:0:0:0:
256,192,113577,1,0,0:0:0:0:
256,192,113727,1,0,0:0:0:0:
256,192,113802,1,0,0:0:0:0:
256,192,113877,1,8,0:0:0:0:
256,192,114027,1,8,0:0:0:0:
256,192,114102,1,8,0:0:0:0:
256,192,114177,1,0,0:0:0:0:
256,192,114327,1,0,0:0:0:0:
256,192,114477,1,8,0:0:0:0:
256,192,114627,1,8,0:0:0:0:
256,192,114777,1,4,0:0:0:0:
256,192,115077,1,12,0:0:0:0:
256,192,115377,1,4,0:0:0:0:
256,192,115527,1,4,0:0:0:0:
256,192,115677,1,8,0:0:0:0:
256,192,115827,1,4,0:0:0:0:
256,192,116127,1,12,0:0:0:0:
256,192,116277,1,4,0:0:0:0:
256,192,116427,1,12,0:0:0:0:
256,192,116577,1,4,0:0:0:0:
256,192,116877,1,12,0:0:0:0:
188,158,117177,1,0,0:0:0:0:
256,192,117327,1,0,0:0:0:0:
256,192,117477,1,8,0:0:0:0:
256,192,117627,1,8,0:0:0:0:
256,192,117702,1,8,0:0:0:0:
256,192,117777,1,0,0:0:0:0:
256,192,117927,1,0,0:0:0:0:
256,192,118077,1,8,0:0:0:0:
256,192,118227,1,0,0:0:0:0:
256,192,118302,1,8,0:0:0:0:
256,192,118377,1,0,0:0:0:0:
256,192,118527,1,0,0:0:0:0:
256,192,118602,1,0,0:0:0:0:
256,192,118677,1,8,0:0:0:0:
256,192,118827,1,8,0:0:0:0:
256,192,118977,1,0,0:0:0:0:
256,192,119052,1,0,0:0:0:0:
256,192,119127,1,8,0:0:0:0:
256,192,119202,1,8,0:0:0:0:
256,192,119277,1,8,0:0:0:0:
256,192,119427,1,8,0:0:0:0:
256,192,119577,1,0,0:0:0:0:
256,192,119727,1,0,0:0:0:0:
256,192,119802,1,0,0:0:0:0:
256,192,119877,1,8,0:0:0:0:
256,192,119952,1,0,0:0:0:0:
256,192,120027,1,8,0:0:0:0:
256,192,120102,1,8,0:0:0:0:
256,192,120177,1,0,0:0:0:0:
256,192,120327,1,0,0:0:0:0:
256,192,120402,1,0,0:0:0:0:
256,192,120477,1,8,0:0:0:0:
256,192,120627,1,8,0:0:0:0:
256,192,120777,1,0,0:0:0:0:
256,192,120927,1,0,0:0:0:0:
256,192,121002,1,0,0:0:0:0:
256,192,121077,1,8,0:0:0:0:
256,192,121227,1,0,0:0:0:0:
256,192,121377,1,8,0:0:0:0:
256,192,121452,1,8,0:0:0:0:
256,192,121527,1,0,0:0:0:0:
256,192,121602,1,0,0:0:0:0:
256,192,121677,1,8,0:0:0:0:
256,192,121827,1,8,0:0:0:0:
256,192,121977,1,0,0:0:0:0:
256,192,122127,1,8,0:0:0:0:
256,192,122202,1,8,0:0:0:0:
256,192,122277,1,0,0:0:0:0:
256,192,122427,1,8,0:0:0:0:
256,192,122577,1,0,0:0:0:0:
256,192,122652,1,0,0:0:0:0:
256,192,122727,1,0,0:0:0:0:
256,192,122802,1,0,0:0:0:0:
256,192,122877,1,8,0:0:0:0:
256,192,123027,1,8,0:0:0:0:
256,192,123177,1,0,0:0:0:0:
256,192,123327,1,0,0:0:0:0:
256,192,123402,1,0,0:0:0:0:
256,192,123477,1,8,0:0:0:0:
256,192,123552,1,8,0:0:0:0:
256,192,123627,1,0,0:0:0:0:
256,192,123702,1,8,0:0:0:0:
256,192,123777,1,0,0:0:0:0:
256,192,123927,1,0,0:0:0:0:
256,192,124077,1,8,0:0:0:0:
256,192,124227,1,8,0:0:0:0:
256,192,124377,1,4,0:0:0:0:
256,192,124677,1,12,0:0:0:0:
256,192,124977,1,4,0:0:0:0:
256,192,125127,1,4,0:0:0:0:
256,192,125277,1,8,0:0:0:0:
256,192,125427,1,4,0:0:0:0:
256,192,125727,1,12,0:0:0:0:
256,192,125877,1,4,0:0:0:0:
256,192,126027,1,12,0:0:0:0:
256,192,126177,1,0,0:0:0:0:
256,192,126252,1,0,0:0:0:0:
256,192,126327,1,8,0:0:0:0:
256,192,126402,1,8,0:0:0:0:
256,192,126477,1,8,0:0:0:0:
256,192,126627,1,4,0:0:0:0:
256,192,126927,1,12,0:0:0:0:
256,192,127077,1,4,0:0:0:0:
256,192,127227,1,12,0:0:0:0:
256,192,127377,1,0,0:0:0:0:
256,192,127452,1,8,0:0:0:0:
256,192,127527,1,8,0:0:0:0:
256,192,127602,1,0,0:0:0:0:
256,192,127677,1,8,0:0:0:0:
256,192,127827,1,4,0:0:0:0:
256,192,128127,1,12,0:0:0:0:
256,192,128277,1,4,0:0:0:0:
256,192,128427,1,12,0:0:0:0:
256,192,128577,1,4,0:0:0:0:
256,192,128727,1,4,0:0:0:0:
256,192,128877,1,4,0:0:0:0:
256,192,129177,1,4,0:0:0:0:
256,192,129327,1,0,0:0:0:0:
256,192,129402,1,0,0:0:0:0:
256,192,129477,1,8,0:0:0:0:
256,192,129627,1,8,0:0:0:0:
256,192,129777,1,0,0:0:0:0:
256,192,129852,1,0,0:0:0:0:
256,192,129927,1,8,0:0:0:0:
256,192,130002,1,8,0:0:0:0:
256,192,130077,1,8,0:0:0:0:
256,192,130227,1,0,0:0:0:0:
256,192,130302,1,8,0:0:0:0:
256,192,130377,1,0,0:0:0:0:
256,192,130527,1,0,0:0:0:0:
256,192,130602,1,0,0:0:0:0:
256,192,130677,1,8,0:0:0:0:
256,192,130827,1,8,0:0:0:0:
256,192,130977,1,0,0:0:0:0:
256,192,131052,1,8,0:0:0:0:
256,192,131127,1,8,0:0:0:0:
256,192,131202,1,0,0:0:0:0:
256,192,131277,1,8,0:0:0:0:
256,192,131427,1,8,0:0:0:0:
256,192,131577,1,0,0:0:0:0:
256,192,131727,1,8,0:0:0:0:
256,192,131802,1,8,0:0:0:0:
256,192,131877,1,0,0:0:0:0:
256,192,132027,1,8,0:0:0:0:
256,192,132177,1,0,0:0:0:0:
256,192,132252,1,0,0:0:0:0:
256,192,132327,1,8,0:0:0:0:
256,192,132402,1,8,0:0:0:0:
256,192,132477,1,8,0:0:0:0:
256,192,132627,1,0,0:0:0:0:
256,192,132702,1,8,0:0:0:0:
256,192,132777,1,0,0:0:0:0:
256,192,132927,1,0,0:0:0:0:
256,192,133002,1,0,0:0:0:0:
256,192,133077,1,8,0:0:0:0:
256,192,133227,1,8,0:0:0:0:
256,192,133302,1,8,0:0:0:0:
256,192,133377,1,0,0:0:0:0:
256,192,133452,1,8,0:0:0:0:
256,192,133527,1,8,0:0:0:0:
256,192,133602,1,0,0:0:0:0:
256,192,133677,1,8,0:0:0:0:
256,192,133752,1,0,0:0:0:0:
256,192,133827,1,0,0:0:0:0:
256,192,133902,1,8,0:0:0:0:
256,192,133977,1,0,0:0:0:0:
256,192,134127,1,8,0:0:0:0:
256,192,134202,1,8,0:0:0:0:
256,192,134277,1,0,0:0:0:0:
256,192,134427,1,8,0:0:0:0:
256,192,134577,1,0,0:0:0:0:
256,192,134652,1,0,0:0:0:0:
256,192,134727,1,8,0:0:0:0:
256,192,134802,1,8,0:0:0:0:
256,192,134877,1,8,0:0:0:0:
256,192,135027,1,0,0:0:0:0:
256,192,135102,1,8,0:0:0:0:
256,192,135177,1,0,0:0:0:0:
256,192,135327,1,8,0:0:0:0:
256,192,135402,1,8,0:0:0:0:
256,192,135477,1,0,0:0:0:0:
256,192,135627,1,8,0:0:0:0:
256,192,135777,1,0,0:0:0:0:
256,192,135852,1,8,0:0:0:0:
256,192,135927,1,8,0:0:0:0:
256,192,136002,1,0,0:0:0:0:
256,192,136077,1,8,0:0:0:0:
256,192,136227,1,8,0:0:0:0:
256,192,136377,1,0,0:0:0:0:
256,192,136527,1,0,0:0:0:0:
256,192,136602,1,0,0:0:0:0:
256,192,136677,1,8,0:0:0:0:
256,192,136827,1,0,0:0:0:0:
256,192,136902,1,8,0:0:0:0:
256,192,136977,1,0,0:0:0:0:
256,192,137052,1,0,0:0:0:0:
256,192,137127,1,8,0:0:0:0:
256,192,137202,1,8,0:0:0:0:
256,192,137277,1,8,0:0:0:0:
256,192,137427,1,8,0:0:0:0:
256,192,137502,1,8,0:0:0:0:
256,192,137577,1,0,0:0:0:0:
256,192,137727,1,0,0:0:0:0:
256,192,137802,1,0,0:0:0:0:
256,192,137877,1,8,0:0:0:0:
256,192,138027,1,8,0:0:0:0:
256,192,138177,1,0,0:0:0:0:
256,192,138252,1,8,0:0:0:0:
256,192,138327,1,8,0:0:0:0:
256,192,138402,1,0,0:0:0:0:
256,192,138477,1,8,0:0:0:0:
256,192,138552,1,0,0:0:0:0:
256,192,138627,1,0,0:0:0:0:
256,192,138702,1,8,0:0:0:0:
256,192,138777,1,0,0:0:0:0:
256,192,138927,1,8,0:0:0:0:
256,192,139077,1,8,0:0:0:0:
256,192,139227,1,0,0:0:0:0:
256,192,139377,1,8,0:0:0:0:
256,192,139452,1,8,0:0:0:0:
256,192,139527,1,0,0:0:0:0:
256,192,139577,1,0,0:0:0:0:
256,192,139627,1,0,0:0:0:0:
256,192,139677,1,8,0:0:0:0:
256,192,139977,1,4,0:0:0:0:
256,192,140202,1,0,0:0:0:0:
256,192,140277,1,8,0:0:0:0:
256,192,140427,1,8,0:0:0:0:
256,192,140577,1,0,0:0:0:0:
256,192,140727,1,8,0:0:0:0:
256,192,140802,1,8,0:0:0:0:
256,192,140877,1,0,0:0:0:0:
256,192,141027,1,8,0:0:0:0:
256,192,141177,1,0,0:0:0:0:
256,192,141252,1,0,0:0:0:0:
256,192,141327,1,8,0:0:0:0:
256,192,141402,1,8,0:0:0:0:
256,192,141477,1,0,0:0:0:0:
256,192,141627,1,8,0:0:0:0:
256,192,141702,1,0,0:0:0:0:
256,192,141777,1,0,0:0:0:0:
256,192,141927,1,0,0:0:0:0:
256,192,142077,1,8,0:0:0:0:
256,192,142377,1,0,0:0:0:0:
256,192,142527,1,0,0:0:0:0:
256,192,142602,1,0,0:0:0:0:
256,192,142677,1,8,0:0:0:0:
256,192,142827,1,8,0:0:0:0:
256,192,142977,1,0,0:0:0:0:
256,192,143052,1,0,0:0:0:0:
256,192,143127,1,8,0:0:0:0:
256,192,143202,1,8,0:0:0:0:
256,192,143277,1,0,0:0:0:0:
256,192,143427,1,8,0:0:0:0:
256,192,143502,1,8,0:0:0:0:
256,192,143577,1,0,0:0:0:0:
256,192,143727,1,0,0:0:0:0:
256,192,143877,1,8,0:0:0:0:
256,192,143952,1,8,0:0:0:0:
256,192,144027,1,0,0:0:0:0:
256,192,144102,1,8,0:0:0:0:
256,192,144177,1,0,0:0:0:0:
256,192,144327,1,0,0:0:0:0:
256,192,144477,1,8,0:0:0:0:
256,192,144777,1,4,0:0:0:0:
256,192,145002,1,0,0:0:0:0:
256,192,145077,1,8,0:0:0:0:
256,192,145227,1,8,0:0:0:0:
256,192,145377,1,0,0:0:0:0:
256,192,145527,1,8,0:0:0:0:
256,192,145602,1,8,0:0:0:0:
256,192,145677,1,0,0:0:0:0:
256,192,145827,1,8,0:0:0:0:
256,192,145977,1,0,0:0:0:0:
256,192,146052,1,0,0:0:0:0:
256,192,146127,1,8,0:0:0:0:
256,192,146202,1,0,0:0:0:0:
256,192,146277,1,8,0:0:0:0:
256,192,146427,1,8,0:0:0:0:
256,192,146502,1,8,0:0:0:0:
256,192,146577,1,0,0:0:0:0:
256,192,146727,1,0,0:0:0:0:
256,192,146877,1,8,0:0:0:0:
256,192,147177,1,0,0:0:0:0:
256,192,147327,1,8,0:0:0:0:
256,192,147402,1,8,0:0:0:0:
256,192,147477,1,8,0:0:0:0:
256,192,147627,1,8,0:0:0:0:
256,192,147777,1,0,0:0:0:0:
256,192,147852,1,0,0:0:0:0:
256,192,147927,1,8,0:0:0:0:
256,192,148002,1,0,0:0:0:0:
256,192,148077,1,8,0:0:0:0:
256,192,148227,1,8,0:0:0:0:
256,192,148302,1,8,0:0:0:0:
256,192,148377,1,0,0:0:0:0:
256,192,148527,1,0,0:0:0:0:
256,192,148602,1,0,0:0:0:0:
256,192,148677,1,8,0:0:0:0:
256,192,148752,1,8,0:0:0:0:
256,192,148827,1,0,0:0:0:0:
256,192,148902,1,8,0:0:0:0:
256,192,148977,1,0,0:0:0:0:
256,192,149127,1,0,0:0:0:0:
256,192,149277,1,8,0:0:0:0:
256,192,149577,1,4,0:0:0:0:
256,192,149727,1,0,0:0:0:0:
256,192,149802,1,0,0:0:0:0:
256,192,149877,1,8,0:0:0:0:
256,192,150027,1,0,0:0:0:0:
256,192,150177,1,8,0:0:0:0:
256,192,150252,1,8,0:0:0:0:
256,192,150327,1,0,0:0:0:0:
256,192,150402,1,0,0:0:0:0:
256,192,150477,1,8,0:0:0:0:
256,192,150627,1,8,0:0:0:0:
256,192,150777,1,0,0:0:0:0:
256,192,150852,1,0,0:0:0:0:
256,192,150927,1,0,0:0:0:0:
256,192,151002,1,0,0:0:0:0:
256,192,151077,1,8,0:0:0:0:
256,192,151227,1,8,0:0:0:0:
256,192,151302,1,8,0:0:0:0:
256,192,151377,1,0,0:0:0:0:
256,192,151527,1,0,0:0:0:0:
256,192,151677,1,8,0:0:0:0:
256,192,151752,1,8,0:0:0:0:
256,192,151827,1,8,0:0:0:0:
256,192,151902,1,8,0:0:0:0:
256,192,151977,1,0,0:0:0:0:
256,192,152127,1,0,0:0:0:0:
256,192,152202,1,0,0:0:0:0:
256,192,152277,1,8,0:0:0:0:
256,192,152427,1,0,0:0:0:0:
256,192,152577,1,8,0:0:0:0:
256,192,152652,1,8,0:0:0:0:
256,192,152727,1,0,0:0:0:0:
256,192,152802,1,0,0:0:0:0:
256,192,152877,1,8,0:0:0:0:
256,192,152952,1,0,0:0:0:0:
256,192,153027,1,8,0:0:0:0:
256,192,153102,1,8,0:0:0:0:
256,192,153177,1,0,0:0:0:0:
256,192,153327,1,0,0:0:0:0:
256,192,153402,1,0,0:0:0:0:
256,192,153477,1,8,0:0:0:0:
256,192,153627,1,0,0:0:0:0:
256,192,153702,1,8,0:0:0:0:
256,192,153777,1,0,0:0:0:0:
256,192,153927,1,0,0:0:0:0:
256,192,154077,1,8,0:0:0:0:
256,192,154152,1,8,0:0:0:0:
256,192,154227,1,0,0:0:0:0:
256,192,154302,1,8,0:0:0:0:
256,192,154377,1,0,0:0:0:0:
256,192,154527,1,0,0:0:0:0:
256,192,154602,1,0,0:0:0:0:
256,192,154677,1,8,0:0:0:0:
256,192,154827,1,0,0:0:0:0:
256,192,154977,1,0,0:0:0:0:
256,192,155052,1,0,0:0:0:0:
256,192,155127,1,8,0:0:0:0:
256,192,155277,1,0,0:0:0:0:
256,192,155352,1,8,0:0:0:0:
256,192,155427,1,0,0:0:0:0:
256,192,155502,1,0,0:0:0:0:
256,192,155577,1,8,0:0:0:0:
256,192,155727,1,0,0:0:0:0:
256,192,155802,1,8,0:0:0:0:
256,192,155877,1,0,0:0:0:0:
256,192,155952,1,0,0:0:0:0:
256,192,156027,1,8,0:0:0:0:
256,192,156102,1,8,0:0:0:0:
256,192,156177,1,0,0:0:0:0:
256,192,156327,1,8,0:0:0:0:
256,192,156402,1,8,0:0:0:0:
256,192,156477,1,0,0:0:0:0:
256,192,156627,1,8,0:0:0:0:
256,192,156777,1,0,0:0:0:0:
256,192,156852,1,0,0:0:0:0:
256,192,156927,1,0,0:0:0:0:
256,192,157002,1,0,0:0:0:0:
256,192,157077,1,8,0:0:0:0:
256,192,157152,1,8,0:0:0:0:
256,192,157227,1,0,0:0:0:0:
256,192,157302,1,8,0:0:0:0:
256,192,157377,1,0,0:0:0:0:
256,192,157452,1,0,0:0:0:0:
256,192,157527,1,8,0:0:0:0:
256,192,157602,1,8,0:0:0:0:
256,192,157677,1,0,0:0:0:0:
256,192,157752,1,8,0:0:0:0:
256,192,157827,1,8,0:0:0:0:
256,192,157902,1,8,0:0:0:0:
256,192,157977,1,0,0:0:0:0:
256,192,158052,1,0,0:0:0:0:
256,192,158127,1,0,0:0:0:0:
256,192,158202,1,0,0:0:0:0:
256,192,158277,1,8,0:0:0:0:
256,192,158352,1,8,0:0:0:0:
256,192,158427,1,8,0:0:0:0:
256,192,158502,1,8,0:0:0:0:
256,192,158577,1,0,0:0:0:0:
256,192,158652,1,0,0:0:0:0:
256,192,158727,1,0,0:0:0:0:
256,192,158802,1,0,0:0:0:0:
256,192,158877,1,8,0:0:0:0:
181,130,159177,1,4,0:0:0:0:
256,192,159327,1,0,0:0:0:0:
256,192,159402,1,0,0:0:0:0:
256,192,159477,1,8,0:0:0:0:
256,192,159627,1,0,0:0:0:0:
256,192,159777,1,8,0:0:0:0:
256,192,159852,1,8,0:0:0:0:
256,192,159927,1,0,0:0:0:0:
256,192,160002,1,0,0:0:0:0:
256,192,160077,1,8,0:0:0:0:
256,192,160227,1,8,0:0:0:0:
256,192,160377,1,0,0:0:0:0:
256,192,160527,1,8,0:0:0:0:
256,192,160602,1,0,0:0:0:0:
256,192,160677,1,8,0:0:0:0:
256,192,160827,1,0,0:0:0:0:
256,192,160902,1,0,0:0:0:0:
256,192,160977,1,8,0:0:0:0:
256,192,161127,1,8,0:0:0:0:
256,192,161277,1,0,0:0:0:0:
256,192,161352,1,0,0:0:0:0:
256,192,161427,1,8,0:0:0:0:
256,192,161502,1,8,0:0:0:0:
256,192,161577,1,0,0:0:0:0:
256,192,161727,1,0,0:0:0:0:
256,192,161802,1,0,0:0:0:0:
256,192,161877,1,8,0:0:0:0:
256,192,162027,1,0,0:0:0:0:
256,192,162177,1,8,0:0:0:0:
256,192,162252,1,8,0:0:0:0:
256,192,162327,1,0,0:0:0:0:
256,192,162402,1,0,0:0:0:0:
256,192,162477,1,8,0:0:0:0:
256,192,162627,1,8,0:0:0:0:
256,192,162777,1,0,0:0:0:0:
256,192,162927,1,8,0:0:0:0:
256,192,163002,1,8,0:0:0:0:
256,192,163077,1,8,0:0:0:0:
256,192,163227,1,0,0:0:0:0:
256,192,163302,1,8,0:0:0:0:
256,192,163377,1,0,0:0:0:0:
256,192,163452,1,0,0:0:0:0:
256,192,163602,1,0,0:0:0:0:
256,192,163677,1,8,0:0:0:0:
256,192,163827,1,8,0:0:0:0:
256,192,163977,1,4,0:0:0:0:
256,192,164127,1,0,0:0:0:0:
256,192,164202,1,0,0:0:0:0:
256,192,164277,1,8,0:0:0:0:
256,192,164427,1,8,0:0:0:0:
256,192,164577,1,0,0:0:0:0:
256,192,164652,1,0,0:0:0:0:
256,192,164727,1,8,0:0:0:0:
256,192,164802,1,8,0:0:0:0:
256,192,164877,1,0,0:0:0:0:
256,192,165027,1,8,0:0:0:0:
256,192,165177,1,0,0:0:0:0:
256,192,165327,1,8,0:0:0:0:
256,192,165402,1,0,0:0:0:0:
256,192,165477,1,8,0:0:0:0:
256,192,165627,1,8,0:0:0:0:
256,192,165777,1,0,0:0:0:0:
256,192,165852,1,8,0:0:0:0:
256,192,165927,1,0,0:0:0:0:
256,192,166002,1,0,0:0:0:0:
256,192,166077,1,8,0:0:0:0:
256,192,166227,1,8,0:0:0:0:
256,192,166377,1,0,0:0:0:0:
256,192,166527,1,8,0:0:0:0:
256,192,166602,1,8,0:0:0:0:
256,192,166677,1,8,0:0:0:0:
256,192,166827,1,0,0:0:0:0:
256,192,166902,1,0,0:0:0:0:
256,192,166977,1,8,0:0:0:0:
256,192,167052,1,8,0:0:0:0:
256,192,167127,1,0,0:0:0:0:
256,192,167202,1,0,0:0:0:0:
256,192,167277,1,8,0:0:0:0:
256,192,167427,1,8,0:0:0:0:
256,192,167577,1,0,0:0:0:0:
256,192,167727,1,0,0:0:0:0:
256,192,167802,1,0,0:0:0:0:
256,192,167877,1,8,0:0:0:0:
256,192,168027,1,0,0:0:0:0:
256,192,168177,1,8,0:0:0:0:
256,192,168252,1,8,0:0:0:0:
256,192,168327,1,0,0:0:0:0:
256,192,168402,1,0,0:0:0:0:
256,192,168477,1,8,0:0:0:0:
256,192,168552,1,0,0:0:0:0:
256,192,168627,1,8,0:0:0:0:
256,192,168702,1,8,0:0:0:0:
256,192,168777,1,0,0:0:0:0:
256,192,168927,1,0,0:0:0:0:
256,192,169002,1,0,0:0:0:0:
256,192,169077,1,8,0:0:0:0:
256,192,169227,1,0,0:0:0:0:
256,192,169377,1,8,0:0:0:0:
256,192,169452,1,8,0:0:0:0:
256,192,169527,1,0,0:0:0:0:
256,192,169602,1,0,0:0:0:0:
256,192,169677,1,8,0:0:0:0:
256,192,169827,1,8,0:0:0:0:
256,192,169977,1,0,0:0:0:0:
256,192,170127,1,8,0:0:0:0:
256,192,170202,1,0,0:0:0:0:
256,192,170277,1,8,0:0:0:0:
256,192,170427,1,8,0:0:0:0:
256,192,170577,1,0,0:0:0:0:
256,192,170652,1,0,0:0:0:0:
256,192,170727,1,8,0:0:0:0:
256,192,170802,1,8,0:0:0:0:
256,192,170877,1,0,0:0:0:0:
256,192,171027,1,8,0:0:0:0:
256,192,171102,1,8,0:0:0:0:
256,192,171177,1,0,0:0:0:0:
256,192,171327,1,0,0:0:0:0:
256,192,171402,1,0,0:0:0:0:
256,192,171477,1,8,0:0:0:0:
256,192,171627,1,0,0:0:0:0:
256,192,171777,1,8,0:0:0:0:
256,192,171852,1,8,0:0:0:0:
256,192,171927,1,0,0:0:0:0:
256,192,172002,1,0,0:0:0:0:
256,192,172077,1,8,0:0:0:0:
256,192,172227,1,4,0:0:0:0:
256,192,172527,1,4,0:0:0:0:
256,192,172677,1,12,0:0:0:0:
256,192,172827,1,4,0:0:0:0:
256,192,173127,1,0,0:0:0:0:
256,192,173277,1,8,0:0:0:0:
256,192,173427,1,0,0:0:0:0:
256,192,173502,1,0,0:0:0:0:
256,192,173577,1,0,0:0:0:0:
256,192,173802,1,0,0:0:0:0:
256,192,173877,1,8,0:0:0:0:
256,192,174027,1,8,0:0:0:0:
256,192,174177,1,0,0:0:0:0:
256,192,174327,1,0,0:0:0:0:
256,192,174402,1,0,0:0:0:0:
256,192,174477,1,8,0:0:0:0:
256,192,174627,1,8,0:0:0:0:
256,192,174777,1,0,0:0:0:0:
256,192,174852,1,0,0:0:0:0:
256,192,174927,1,8,0:0:0:0:
256,192,175002,1,0,0:0:0:0:
256,192,175077,1,8,0:0:0:0:
256,192,175227,1,8,0:0:0:0:
256,192,175302,1,8,0:0:0:0:
256,192,175377,1,0,0:0:0:0:
256,192,175527,1,0,0:0:0:0:
256,192,175677,1,8,0:0:0:0:
256,192,175827,1,4,0:0:0:0:
256,192,176127,1,4,0:0:0:0:
256,192,176277,1,8,0:0:0:0:
256,192,176427,1,4,0:0:0:0:
256,192,176727,1,4,0:0:0:0:
256,192,176877,1,8,0:0:0:0:
256,192,177027,1,4,0:0:0:0:
256,192,177327,1,0,0:0:0:0:
256,192,177402,1,0,0:0:0:0:
256,192,177477,1,8,0:0:0:0:
256,192,177552,1,8,0:0:0:0:
256,192,177627,1,0,0:0:0:0:
256,192,177702,1,8,0:0:0:0:
256,192,177777,1,8,0:0:0:0:
256,192,177852,1,8,0:0:0:0:
256,192,177927,1,0,0:0:0:0:
256,192,178002,1,0,0:0:0:0:
256,192,178077,1,8,0:0:0:0:
256,192,178227,1,8,0:0:0:0:
256,192,178377,5,4,0:0:0:0:
256,192,178677,1,8,0:0:0:0:
256,192,178827,1,8,0:0:0:0:
256,192,178977,1,0,0:0:0:0:
256,192,179052,1,0,0:0:0:0:
256,192,179127,1,0,0:0:0:0:
256,192,179277,1,8,0:0:0:0:
256,192,179427,1,0,0:0:0:0:
256,192,179502,1,8,0:0:0:0:
256,192,179577,1,0,0:0:0:0:
256,192,179652,1,0,0:0:0:0:
256,192,179727,1,8,0:0:0:0:
256,192,179802,1,8,0:0:0:0:
256,192,179877,1,0,0:0:0:0:
256,192,180027,1,0,0:0:0:0:
256,192,180177,1,8,0:0:0:0:
256,192,180252,1,0,0:0:0:0:
256,192,180327,1,8,0:0:0:0:
256,192,180402,1,8,0:0:0:0:
256,192,180477,1,0,0:0:0:0:
256,192,180627,1,0,0:0:0:0:
256,192,180702,1,0,0:0:0:0:
256,192,180777,1,8,0:0:0:0:
256,192,180927,1,8,0:0:0:0:
256,192,181077,1,0,0:0:0:0:
256,192,181302,1,8,0:0:0:0:
256,192,181377,1,0,0:0:0:0:
256,192,181527,1,0,0:0:0:0:
256,192,181677,1,8,0:0:0:0:
256,192,181827,1,8,0:0:0:0:
256,192,181902,1,8,0:0:0:0:
256,192,181977,1,0,0:0:0:0:
256,192,182052,1,8,0:0:0:0:
256,192,182202,1,8,0:0:0:0:
256,192,182277,1,0,0:0:0:0:
256,192,182427,1,0,0:0:0:0:
256,192,182577,1,8,0:0:0:0:
256,192,182727,1,0,0:0:0:0:
256,192,182802,1,0,0:0:0:0:
256,192,182877,1,8,0:0:0:0:
256,192,183027,1,8,0:0:0:0:
256,192,183102,1,8,0:0:0:0:
256,192,183177,1,0,0:0:0:0:
256,192,183327,1,0,0:0:0:0:
256,192,183477,1,8,0:0:0:0:
256,192,183627,1,0,0:0:0:0:
256,192,183702,1,0,0:0:0:0:
256,192,183777,1,0,0:0:0:0:
256,192,183927,1,0,0:0:0:0:
256,192,184077,1,8,0:0:0:0:
256,192,184152,1,8,0:0:0:0:
256,192,184227,1,0,0:0:0:0:
256,192,184302,1,8,0:0:0:0:
256,192,184377,1,0,0:0:0:0:
256,192,184527,1,0,0:0:0:0:
256,192,184602,1,0,0:0:0:0:
256,192,184677,1,8,0:0:0:0:
256,192,184827,1,8,0:0:0:0:
256,192,184902,1,8,0:0:0:0:
256,192,185127,1,0,0:0:0:0:
256,192,185277,1,8,0:0:0:0:
256,192,185352,1,8,0:0:0:0:
256,192,185427,1,0,0:0:0:0:
256,192,185502,1,0,0:0:0:0:
256,192,185577,1,8,0:0:0:0:
256,192,185727,1,0,0:0:0:0:
256,192,185877,1,8,0:0:0:0:
256,192,186027,1,0,0:0:0:0:
256,192,186102,1,0,0:0:0:0:
256,192,186177,1,8,0:0:0:0:
256,192,186327,1,8,0:0:0:0:
256,192,186402,1,8,0:0:0:0:
256,192,186477,1,0,0:0:0:0:
256,192,186552,1,8,0:0:0:0:
256,192,186627,1,0,0:0:0:0:
256,192,186702,1,0,0:0:0:0:
256,192,186777,1,8,0:0:0:0:
256,192,186927,1,8,0:0:0:0:
256,192,187077,1,0,0:0:0:0:
256,192,187127,1,0,0:0:0:0:
256,192,187177,1,0,0:0:0:0:
256,192,187227,1,8,0:0:0:0:
256,192,187302,1,8,0:0:0:0:
256,192,187377,1,0,0:0:0:0:
256,192,187527,1,0,0:0:0:0:
256,192,187677,1,12,0:0:0:0:
256,192,187977,1,4,0:0:0:0:
256,192,188277,1,8,0:0:0:0:
256,192,188427,1,0,0:0:0:0:
256,192,188577,1,8,0:0:0:0:
256,192,188652,1,0,0:0:0:0:
256,192,188727,1,0,0:0:0:0:
256,192,188877,1,8,0:0:0:0:
256,192,189027,1,8,0:0:0:0:
256,192,189177,1,0,0:0:0:0:
256,192,189252,1,8,0:0:0:0:
256,192,189327,1,0,0:0:0:0:
256,192,189402,1,0,0:0:0:0:
256,192,189477,1,8,0:0:0:0:
256,192,189627,1,8,0:0:0:0:
256,192,189702,1,8,0:0:0:0:
256,192,189777,1,0,0:0:0:0:
256,192,189927,1,0,0:0:0:0:
256,192,190077,1,8,0:0:0:0:
256,192,190377,1,0,0:0:0:0:
256,192,190527,1,0,0:0:0:0:
256,192,190602,1,0,0:0:0:0:
256,192,190677,1,8,0:0:0:0:
256,192,190827,1,8,0:0:0:0:
256,192,190977,1,0,0:0:0:0:
256,192,191127,1,8,0:0:0:0:
256,192,191202,1,8,0:0:0:0:
256,192,191277,1,0,0:0:0:0:
256,192,191427,1,8,0:0:0:0:
256,192,191577,1,0,0:0:0:0:
256,192,191652,1,0,0:0:0:0:
256,192,191727,1,8,0:0:0:0:
256,192,191802,1,8,0:0:0:0:
256,192,191877,1,0,0:0:0:0:
256,192,191952,1,8,0:0:0:0:
256,192,192027,1,0,0:0:0:0:
256,192,192102,1,0,0:0:0:0:
256,192,192177,1,8,0:0:0:0:
256,192,192252,1,0,0:0:0:0:
256,192,192327,1,8,0:0:0:0:
256,192,192402,1,8,0:0:0:0:
256,192,192477,1,0,0:0:0:0:
256,192,192627,1,0,0:0:0:0:
256,192,192777,1,8,0:0:0:0:
256,192,192927,1,0,0:0:0:0:
256,192,193002,1,0,0:0:0:0:
256,192,193077,1,8,0:0:0:0:
256,192,193302,1,0,0:0:0:0:
256,192,193377,1,8,0:0:0:0:
256,192,193452,1,8,0:0:0:0:
256,192,193527,1,8,0:0:0:0:
256,192,193602,1,8,0:0:0:0:
256,192,193677,1,0,0:0:0:0:
256,192,193827,1,8,0:0:0:0:
256,192,193977,1,0,0:0:0:0:
256,192,194127,1,0,0:0:0:0:
256,192,194277,1,12,0:0:0:0:
256,192,194577,1,0,0:0:0:0:
256,192,194727,1,8,0:0:0:0:
256,192,194802,1,0,0:0:0:0:
256,192,194952,1,0,0:0:0:0:
256,192,195027,1,8,0:0:0:0:
256,192,195177,1,0,0:0:0:0:
256,192,195252,1,0,0:0:0:0:
256,192,195327,1,8,0:0:0:0:
256,192,195402,1,8,0:0:0:0:
256,192,195477,1,0,0:0:0:0:
256,192,195627,1,8,0:0:0:0:
256,192,195777,1,0,0:0:0:0:
256,192,195927,1,0,0:0:0:0:
256,192,196002,1,0,0:0:0:0:
256,192,196077,1,8,0:0:0:0:
256,192,196227,1,0,0:0:0:0:
256,192,196377,1,8,0:0:0:0:
256,192,196452,1,8,0:0:0:0:
256,192,196527,1,0,0:0:0:0:
256,192,196602,1,0,0:0:0:0:
256,192,196677,1,8,0:0:0:0:
256,192,196752,1,0,0:0:0:0:
256,192,196827,1,8,0:0:0:0:
256,192,196902,1,8,0:0:0:0:
256,192,196977,1,0,0:0:0:0:
256,192,197052,1,0,0:0:0:0:
256,192,197127,1,8,0:0:0:0:
256,192,197202,1,0,0:0:0:0:
256,192,197277,1,0,0:0:0:0:
256,192,197352,1,0,0:0:0:0:
256,192,197427,1,8,0:0:0:0:
256,192,197577,1,4,0:0:0:0:
256,192,197877,1,8,0:0:0:0:
256,192,198027,1,0,0:0:0:0:
256,192,198177,1,8,0:0:0:0:
256,192,198327,1,0,0:0:0:0:
256,192,198402,1,0,0:0:0:0:
256,192,198477,1,8,0:0:0:0:
256,192,198627,1,0,0:0:0:0:
256,192,198777,1,8,0:0:0:0:
256,192,198927,1,0,0:0:0:0:
256,192,199002,1,8,0:0:0:0:
256,192,199077,1,8,0:0:0:0:
256,192,199227,1,0,0:0:0:0:
256,192,199302,1,0,0:0:0:0:
256,192,199377,1,8,0:0:0:0:
256,192,199452,1,0,0:0:0:0:
256,192,199527,1,0,0:0:0:0:
256,192,199602,1,0,0:0:0:0:
256,192,199677,1,8,0:0:0:0:
256,192,199827,1,0,0:0:0:0:
256,192,199977,1,8,0:0:0:0:
256,192,200127,1,0,0:0:0:0:
256,192,200202,1,0,0:0:0:0:
256,192,200277,1,8,0:0:0:0:
256,192,200352,1,8,0:0:0:0:
256,192,200427,1,0,0:0:0:0:
256,192,200577,1,8,0:0:0:0:
256,192,200727,1,0,0:0:0:0:
256,192,200802,1,8,0:0:0:0:
256,192,200877,1,8,0:0:0:0:
256,192,200952,1,8,0:0:0:0:
256,192,201027,1,0,0:0:0:0:
256,192,201102,1,0,0:0:0:0:
256,192,201177,1,8,0:0:0:0:
256,192,201327,1,8,0:0:0:0:
256,192,201477,1,0,0:0:0:0:
256,192,201777,1,8,0:0:0:0:
256,192,201852,1,8,0:0:0:0:
256,192,201927,1,0,0:0:0:0:
256,192,202002,1,0,0:0:0:0:
256,192,202077,1,8,0:0:0:0:
256,192,202227,1,8,0:0:0:0:
256,192,202377,1,4,0:0:0:0:
256,192,202677,1,8,0:0:0:0:
256,192,202827,1,0,0:0:0:0:
256,192,202902,1,0,0:0:0:0:
256,192,202977,1,8,0:0:0:0:
256,192,203127,1,8,0:0:0:0:
256,192,203202,1,8,0:0:0:0:
256,192,203277,1,0,0:0:0:0:
256,192,203427,1,8,0:0:0:0:
256,192,203577,1,4,0:0:0:0:
256,192,203877,1,8,0:0:0:0:
256,192,204027,1,8,0:0:0:0:
256,192,204177,1,0,0:0:0:0:
256,192,204252,1,8,0:0:0:0:
256,192,204327,1,0,0:0:0:0:
256,192,204402,1,0,0:0:0:0:
256,192,204477,1,8,0:0:0:0:
256,192,204627,1,8,0:0:0:0:
256,192,204777,1,4,0:0:0:0:
256,192,205002,1,0,0:0:0:0:
256,192,205077,1,8,0:0:0:0:
256,192,205227,1,8,0:0:0:0:
256,192,205377,1,4,0:0:0:0:
256,192,205602,1,0,0:0:0:0:
256,192,205677,1,8,0:0:0:0:
256,192,205827,1,0,0:0:0:0:
256,192,205977,1,8,0:0:0:0:
256,192,206052,1,0,0:0:0:0:
256,192,206127,1,8,0:0:0:0:
256,192,206202,1,8,0:0:0:0:
256,192,206277,1,0,0:0:0:0:
256,192,206327,1,0,0:0:0:0:
256,192,206377,1,0,0:0:0:0:
256,192,206427,1,8,0:0:0:0:
256,192,206577,1,0,0:0:0:0:
256,192,206652,1,0,0:0:0:0:
256,192,206727,1,0,0:0:0:0:
256,192,206877,1,12,0:0:0:0:
256,192,207177,1,4,0:0:0:0:
256,192,207402,1,0,0:0:0:0:
256,192,207477,1,8,0:0:0:0:
256,192,207627,1,0,0:0:0:0:
256,192,207702,1,0,0:0:0:0:
256,192,207777,1,8,0:0:0:0:
256,192,207927,1,8,0:0:0:0:
256,192,208002,1,8,0:0:0:0:
256,192,208077,1,0,0:0:0:0:
256,192,208227,1,0,0:0:0:0:
256,192,208377,1,8,0:0:0:0:
256,192,208452,1,8,0:0:0:0:
256,192,208602,1,0,0:0:0:0:
256,192,208752,1,8,0:0:0:0:
256,192,208827,1,0,0:0:0:0:
256,192,208902,1,0,0:0:0:0:
256,192,208977,1,8,0:0:0:0:
256,192,209127,1,0,0:0:0:0:
256,192,209277,1,8,0:0:0:0:
256,192,209352,1,8,0:0:0:0:
256,192,209427,1,0,0:0:0:0:
256,192,209502,1,0,0:0:0:0:
256,192,209577,1,8,0:0:0:0:
256,192,209802,1,0,0:0:0:0:
256,192,209877,1,8,0:0:0:0:
256,192,210027,1,8,0:0:0:0:
256,192,210102,1,8,0:0:0:0:
256,192,210177,1,0,0:0:0:0:
256,192,210327,1,0,0:0:0:0:
256,192,210477,1,8,0:0:0:0:
256,192,210627,1,0,0:0:0:0:
256,192,210702,1,8,0:0:0:0:
256,192,210777,1,0,0:0:0:0:
256,192,210852,1,0,0:0:0:0:
256,192,211002,1,8,0:0:0:0:
256,192,211152,1,0,0:0:0:0:
256,192,211227,1,8,0:0:0:0:
256,192,211377,1,0,0:0:0:0:
256,192,211452,1,0,0:0:0:0:
256,192,211527,1,8,0:0:0:0:
256,192,211602,1,8,0:0:0:0:
256,192,211677,1,0,0:0:0:0:
256,192,211827,1,0,0:0:0:0:
256,192,211977,1,0,0:0:0:0:
256,192,212127,1,8,0:0:0:0:
256,192,212202,1,8,0:0:0:0:
256,192,212277,1,0,0:0:0:0:
256,192,212427,1,8,0:0:0:0:
256,192,212577,1,0,0:0:0:0:
256,192,212727,1,8,0:0:0:0:
256,192,212802,1,8,0:0:0:0:
256,192,213027,1,0,0:0:0:0:
256,192,213177,1,8,0:0:0:0:
256,192,213327,1,0,0:0:0:0:
256,192,213402,1,0,0:0:0:0:
256,192,213477,1,8,0:0:0:0:
256,192,213627,1,8,0:0:0:0:
256,192,213777,1,0,0:0:0:0:
256,192,213927,1,8,0:0:0:0:
256,192,214002,1,0,0:0:0:0:
256,192,214227,1,0,0:0:0:0:
256,192,214302,1,0,0:0:0:0:
256,192,214377,1,0,0:0:0:0:
256,192,214527,1,8,0:0:0:0:
256,192,214677,1,0,0:0:0:0:
256,192,214752,1,8,0:0:0:0:
256,192,214827,1,0,0:0:0:0:
256,192,214902,1,0,0:0:0:0:
256,192,214977,1,8,0:0:0:0:
256,192,215127,1,0,0:0:0:0:
256,192,215202,1,0,0:0:0:0:
256,192,215277,1,8,0:0:0:0:
256,192,215352,1,0,0:0:0:0:
256,192,215427,1,8,0:0:0:0:
256,192,215502,1,8,0:0:0:0:
256,192,215577,1,0,0:0:0:0:
256,192,215727,1,12,0:0:0:0:
256,192,215877,1,12,0:0:0:0:
256,192,216027,1,12,0:0:0:0:
256,192,216327,1,12,0:0:0:0:
256,192,216627,1,8,0:0:0:0:
256,192,216777,1,4,0:0:0:0:
256,192,217002,1,0,0:0:0:0:
256,192,217077,1,8,0:0:0:0:
256,192,217227,1,0,0:0:0:0:
256,192,217377,1,8,0:0:0:0:
256,192,217452,1,0,0:0:0:0:
256,192,217527,1,8,0:0:0:0:
256,192,217602,1,8,0:0:0:0:
256,192,217677,1,0,0:0:0:0:
256,192,217827,1,0,0:0:0:0:
256,192,217902,1,0,0:0:0:0:
256,192,217977,1,8,0:0:0:0:
256,192,218052,1,8,0:0:0:0:
256,192,218202,1,0,0:0:0:0:
256,192,218352,1,8,0:0:0:0:
256,192,218427,1,0,0:0:0:0:
256,192,218577,1,0,0:0:0:0:
256,192,218652,1,0,0:0:0:0:
256,192,218727,1,8,0:0:0:0:
256,192,218802,1,8,0:0:0:0:
256,192,218877,1,0,0:0:0:0:
256,192,219027,1,8,0:0:0:0:
256,192,219177,1,0,0:0:0:0:
256,192,219402,1,0,0:0:0:0:
256,192,219477,1,8,0:0:0:0:
256,192,219627,1,0,0:0:0:0:
256,192,219702,1,0,0:0:0:0:
256,192,219777,1,8,0:0:0:0:
256,192,219852,1,8,0:0:0:0:
256,192,219927,1,0,0:0:0:0:
256,192,220002,1,8,0:0:0:0:
256,192,220077,1,0,0:0:0:0:
256,192,220227,1,8,0:0:0:0:
256,192,220377,1,0,0:0:0:0:
256,192,220452,1,0,0:0:0:0:
256,192,220602,1,8,0:0:0:0:
256,192,220752,1,0,0:0:0:0:
256,192,220827,1,8,0:0:0:0:
256,192,220902,1,8,0:0:0:0:
256,192,220977,1,0,0:0:0:0:
256,192,221127,1,0,0:0:0:0:
256,192,221277,1,0,0:0:0:0:
256,192,221427,1,0,0:0:0:0:
256,192,221502,1,0,0:0:0:0:
256,192,221577,1,0,0:0:0:0:
256,192,221727,1,8,0:0:0:0:
256,192,221877,1,0,0:0:0:0:
256,192,221952,1,0,0:0:0:0:
256,192,222027,1,8,0:0:0:0:
256,192,222102,1,0,0:0:0:0:
256,192,222177,1,8,0:0:0:0:
256,192,222327,1,8,0:0:0:0:
256,192,222402,1,8,0:0:0:0:
256,192,222477,1,0,0:0:0:0:
256,192,222627,1,0,0:0:0:0:
256,192,222777,1,8,0:0:0:0:
256,192,222852,1,8,0:0:0:0:
256,192,222927,1,0,0:0:0:0:
256,192,223002,1,0,0:0:0:0:
256,192,223077,1,8,0:0:0:0:
256,192,223152,1,0,0:0:0:0:
256,192,223227,1,8,0:0:0:0:
256,192,223302,1,8,0:0:0:0:
256,192,223377,1,0,0:0:0:0:
256,192,223527,1,0,0:0:0:0:
256,192,223677,1,0,0:0:0:0:
256,192,223827,1,0,0:0:0:0:
256,192,223902,1,8,0:0:0:0:
256,192,223977,1,0,0:0:0:0:
256,192,224127,1,8,0:0:0:0:
256,192,224277,1,8,0:0:0:0:
256,192,224352,1,8,0:0:0:0:
256,192,224427,1,0,0:0:0:0:
256,192,224502,1,0,0:0:0:0:
256,192,224577,1,8,0:0:0:0:
256,192,224727,1,0,0:0:0:0:
256,192,224802,1,0,0:0:0:0:
256,192,224877,1,8,0:0:0:0:
256,192,225027,1,8,0:0:0:0:
256,192,225102,1,8,0:0:0:0:
256,192,225177,1,0,0:0:0:0:
256,192,225327,1,8,0:0:0:0:
256,192,225477,1,0,0:0:0:0:
256,192,225552,1,8,0:0:0:0:
256,192,225627,1,0,0:0:0:0:
256,192,225702,1,0,0:0:0:0:
256,192,225777,1,8,0:0:0:0:
256,192,225927,1,0,0:0:0:0:
256,192,226002,1,8,0:0:0:0:
256,192,226077,1,0,0:0:0:0:
256,192,226227,1,0,0:0:0:0:
256,192,226377,1,12,0:0:0:0:
256,192,226527,1,12,0:0:0:0:
256,192,226677,1,4,0:0:0:0:
256,192,226827,1,4,0:0:0:0:
256,192,227277,1,12,0:0:0:0:
256,192,227427,1,12,0:0:0:0:
256,192,227577,1,4,0:0:0:0:
256,192,227727,1,12,0:0:0:0:
256,192,228177,1,4,0:0:0:0:
256,192,228327,1,4,0:0:0:0:
256,192,228477,1,12,0:0:0:0:
256,192,228627,1,4,0:0:0:0:
256,192,229077,1,8,0:0:0:0:
256,192,229377,1,8,0:0:0:0:
256,192,229677,1,8,0:0:0:0:
256,192,229977,1,4,0:0:0:0:
256,192,230202,1,0,0:0:0:0:
256,192,230277,1,8,0:0:0:0:
256,192,230427,1,8,0:0:0:0:
256,192,230502,1,8,0:0:0:0:
256,192,230577,1,0,0:0:0:0:
256,192,230652,1,0,0:0:0:0:
256,192,230727,1,8,0:0:0:0:
256,192,230877,1,0,0:0:0:0:
256,192,231027,1,8,0:0:0:0:
256,192,231102,1,8,0:0:0:0:
256,192,231177,1,0,0:0:0:0:
256,192,231252,1,0,0:0:0:0:
256,192,231402,1,0,0:0:0:0:
256,192,231477,1,8,0:0:0:0:
256,192,231627,1,8,0:0:0:0:
256,192,231702,1,8,0:0:0:0:
256,192,231777,1,0,0:0:0:0:
256,192,231927,1,8,0:0:0:0:
256,192,232077,1,0,0:0:0:0:
256,192,232152,1,0,0:0:0:0:
256,192,232227,1,8,0:0:0:0:
256,192,232302,1,8,0:0:0:0:
256,192,232377,1,0,0:0:0:0:
256,192,232602,1,8,0:0:0:0:
256,192,232677,1,0,0:0:0:0:
256,192,232827,1,8,0:0:0:0:
256,192,232977,1,0,0:0:0:0:
256,192,233127,1,0,0:0:0:0:
256,192,233202,1,0,0:0:0:0:
256,192,233277,1,8,0:0:0:0:
256,192,233427,1,8,0:0:0:0:
256,192,233502,1,8,0:0:0:0:
256,192,233577,1,0,0:0:0:0:
256,192,233652,1,8,0:0:0:0:
256,192,233802,1,8,0:0:0:0:
256,192,233877,1,0,0:0:0:0:
256,192,234027,1,8,0:0:0:0:
256,192,234102,1,8,0:0:0:0:
256,192,234177,1,0,0:0:0:0:
256,192,234327,1,0,0:0:0:0:
256,192,234627,1,8,0:0:0:0:
256,192,234777,1,4,0:0:0:0:
256,192,235077,1,8,0:0:0:0:
256,192,235227,1,0,0:0:0:0:
256,192,235377,1,8,0:0:0:0:
256,192,235452,1,0,0:0:0:0:
256,192,235527,1,0,0:0:0:0:
256,192,235602,1,0,0:0:0:0:
256,192,235677,1,8,0:0:0:0:
256,192,235827,1,8,0:0:0:0:
256,192,235977,1,4,0:0:0:0:
256,192,236127,1,0,0:0:0:0:
256,192,236277,1,8,0:0:0:0:
256,192,236352,1,0,0:0:0:0:
256,192,236427,1,8,0:0:0:0:
256,192,236502,1,8,0:0:0:0:
256,192,236577,1,0,0:0:0:0:
256,192,236727,1,0,0:0:0:0:
256,192,236802,1,0,0:0:0:0:
256,192,236877,1,8,0:0:0:0:
256,192,237027,1,0,0:0:0:0:
256,192,237177,1,8,0:0:0:0:
256,192,237252,1,8,0:0:0:0:
256,192,237327,1,0,0:0:0:0:
256,192,237402,1,8,0:0:0:0:
256,192,237477,1,0,0:0:0:0:
256,192,237552,1,0,0:0:0:0:
256,192,237627,1,8,0:0:0:0:
256,192,237702,1,0,0:0:0:0:
256,192,237777,1,8,0:0:0:0:
256,192,237852,1,8,0:0:0:0:
256,192,237927,1,8,0:0:0:0:
256,192,238002,1,8,0:0:0:0:
256,192,238077,1,0,0:0:0:0:
256,192,238152,1,0,0:0:0:0:
256,192,238227,1,8,0:0:0:0:
256,192,238302,1,8,0:0:0:0:
256,192,238377,1,0,0:0:0:0:
256,192,238527,1,0,0:0:0:0:
256,192,238602,1,0,0:0:0:0:
256,192,238677,1,8,0:0:0:0:
256,192,238827,1,0,0:0:0:0:
256,192,238902,1,0,0:0:0:0:
256,192,238977,1,8,0:0:0:0:
256,192,239127,1,0,0:0:0:0:
256,192,239277,1,12,0:0:0:0:
256,192,239577,1,4,0:0:0:0:
256,192,239802,1,0,0:0:0:0:
256,192,239877,1,8,0:0:0:0:
256,192,240027,1,0,0:0:0:0:
256,192,240102,1,0,0:0:0:0:
256,192,240177,1,8,0:0:0:0:
256,192,240252,1,8,0:0:0:0:
256,192,240327,1,0,0:0:0:0:
256,192,240477,1,8,0:0:0:0:
256,192,240627,1,0,0:0:0:0:
256,192,240702,1,0,0:0:0:0:
256,192,240777,1,8,0:0:0:0:
256,192,240852,1,0,0:0:0:0:
256,192,241002,1,0,0:0:0:0:
256,192,241077,1,8,0:0:0:0:
256,192,241227,1,0,0:0:0:0:
256,192,241302,1,0,0:0:0:0:
256,192,241377,1,8,0:0:0:0:
256,192,241527,1,0,0:0:0:0:
256,192,241677,1,8,0:0:0:0:
256,192,241752,1,8,0:0:0:0:
256,192,241827,1,0,0:0:0:0:
256,192,241902,1,0,0:0:0:0:
256,192,241977,1,8,0:0:0:0:
256,192,242202,1,8,0:0:0:0:
256,192,242277,1,0,0:0:0:0:
256,192,242427,1,8,0:0:0:0:
256,192,242502,1,8,0:0:0:0:
256,192,242577,1,0,0:0:0:0:
256,192,242652,1,0,0:0:0:0:
256,192,242727,1,8,0:0:0:0:
256,192,242802,1,0,0:0:0:0:
256,192,242877,1,8,0:0:0:0:
256,192,243027,1,0,0:0:0:0:
256,192,243177,1,8,0:0:0:0:
256,192,243252,1,8,0:0:0:0:
256,192,243402,1,8,0:0:0:0:
256,192,243477,1,0,0:0:0:0:
256,192,243552,1,0,0:0:0:0:
256,192,243627,1,8,0:0:0:0:
256,192,243777,1,0,0:0:0:0:
256,192,243927,1,8,0:0:0:0:
256,192,244227,1,8,0:0:0:0:
256,192,244377,1,4,0:0:0:0:
256,192,244677,1,8,0:0:0:0:
256,192,244827,1,0,0:0:0:0:
256,192,244902,1,0,0:0:0:0:
256,192,244977,1,8,0:0:0:0:
256,192,245052,1,8,0:0:0:0:
256,192,245127,1,0,0:0:0:0:
256,192,245277,1,8,0:0:0:0:
256,192,245352,1,8,0:0:0:0:
256,192,245427,1,8,0:0:0:0:
256,192,245577,1,4,0:0:0:0:
256,192,245727,1,8,0:0:0:0:
256,192,245877,1,0,0:0:0:0:
256,192,245952,1,0,0:0:0:0:
256,192,246027,1,8,0:0:0:0:
256,192,246102,1,8,0:0:0:0:
256,192,246177,1,0,0:0:0:0:
256,192,246252,1,8,0:0:0:0:
256,192,246327,1,0,0:0:0:0:
256,192,246402,1,0,0:0:0:0:
256,192,246477,1,8,0:0:0:0:
256,192,246627,1,8,0:0:0:0:
256,192,246777,1,4,0:0:0:0:
256,192,247077,1,8,0:0:0:0:
256,192,247227,1,4,0:0:0:0:
256,192,247527,1,8,0:0:0:0:
256,192,247677,1,4,0:0:0:0:
256,192,247827,1,8,0:0:0:0:
256,192,247977,1,8,0:0:0:0:
256,192,248127,1,4,0:0:0:0:
256,192,248427,1,8,0:0:0:0:
256,192,248577,1,4,0:0:0:0:
256,192,248727,1,4,0:0:0:0:
256,192,248877,1,12,0:0:0:0:
256,192,249027,1,12,0:0:0:0:
256,192,249177,12,4,250227,0:0:0:0:
256,192,250377,5,4,0:0:0:0:
256,192,250677,1,4,0:0:0:0:
256,192,250977,1,4,0:0:0:0:
256,192,251277,1,4,0:0:0:0:
256,192,251577,1,4,0:0:0:0:
256,192,251877,1,4,0:0:0:0:
256,192,252177,1,4,0:0:0:0:
256,192,252477,1,4,0:0:0:0:
256,192,252627,1,4,0:0:0:0:
256,192,252777,1,4,0:0:0:0:
256,192,253077,1,4,0:0:0:0:
256,192,253377,1,4,0:0:0:0:
256,192,253677,1,4,0:0:0:0:
256,192,253977,1,4,0:0:0:0:
256,192,254277,1,4,0:0:0:0:
256,192,254577,1,4,0:0:0:0:
256,192,254877,1,4,0:0:0:0:
256,192,255027,1,4,0:0:0:0:
256,192,255177,1,12,0:0:0:0:
256,192,255477,1,8,0:0:0:0:
256,192,255552,1,8,0:0:0:0:
256,192,255627,1,0,0:0:0:0:
256,192,255777,1,8,0:0:0:0:
256,192,255852,1,0,0:0:0:0:
256,192,256002,1,0,0:0:0:0:
256,192,256077,1,8,0:0:0:0:
256,192,256227,1,8,0:0:0:0:
256,192,256377,1,0,0:0:0:0:
256,192,256452,1,8,0:0:0:0:
256,192,256527,1,0,0:0:0:0:
256,192,256602,1,0,0:0:0:0:
256,192,256677,1,8,0:0:0:0:
256,192,256752,1,8,0:0:0:0:
256,192,256827,1,0,0:0:0:0:
256,192,256977,1,8,0:0:0:0:
256,192,257052,1,0,0:0:0:0:
256,192,257127,1,0,0:0:0:0:
256,192,257202,1,0,0:0:0:0:
256,192,257277,1,8,0:0:0:0:
256,192,257427,1,8,0:0:0:0:
256,192,257577,1,0,0:0:0:0:
256,192,257652,1,0,0:0:0:0:
256,192,257727,1,0,0:0:0:0:
256,192,257802,1,0,0:0:0:0:
256,192,257877,1,8,0:0:0:0:
256,192,258027,1,8,0:0:0:0:
256,192,258177,1,0,0:0:0:0:
256,192,258252,1,0,0:0:0:0:
256,192,258327,1,0,0:0:0:0:
256,192,258402,1,0,0:0:0:0:
256,192,258477,1,8,0:0:0:0:
256,192,258552,1,0,0:0:0:0:
256,192,258627,1,8,0:0:0:0:
256,192,258702,1,8,0:0:0:0:
256,192,258777,1,0,0:0:0:0:
256,192,258927,1,0,0:0:0:0:
256,192,259002,1,0,0:0:0:0:
256,192,259077,1,8,0:0:0:0:
256,192,259152,1,8,0:0:0:0:
256,192,259227,1,0,0:0:0:0:
256,192,259377,1,8,0:0:0:0:
256,192,259452,1,8,0:0:0:0:
256,192,259527,1,0,0:0:0:0:
256,192,259602,1,0,0:0:0:0:
256,192,259677,1,8,0:0:0:0:
256,192,259977,1,4,0:0:0:0:
256,192,260127,1,8,0:0:0:0:
256,192,260277,1,0,0:0:0:0:
256,192,260352,1,0,0:0:0:0:
256,192,260427,1,8,0:0:0:0:
256,192,260577,1,0,0:0:0:0:
256,192,260652,1,0,0:0:0:0:
256,192,260727,1,8,0:0:0:0:
256,192,260802,1,8,0:0:0:0:
256,192,260877,1,0,0:0:0:0:
256,192,260952,1,0,0:0:0:0:
256,192,261027,1,8,0:0:0:0:
256,192,261102,1,0,0:0:0:0:
256,192,261177,1,8,0:0:0:0:
256,192,261327,1,0,0:0:0:0:
256,192,261477,1,8,0:0:0:0:
256,192,261552,1,8,0:0:0:0:
256,192,261627,1,8,0:0:0:0:
256,192,261777,1,0,0:0:0:0:
256,192,261852,1,0,0:0:0:0:
256,192,261927,1,8,0:0:0:0:
256,192,262002,1,8,0:0:0:0:
256,192,262077,1,0,0:0:0:0:
256,192,262152,1,8,0:0:0:0:
256,192,262227,1,8,0:0:0:0:
256,192,262377,1,0,0:0:0:0:
256,192,262452,1,8,0:0:0:0:
256,192,262602,1,8,0:0:0:0:
256,192,262677,1,0,0:0:0:0:
256,192,262752,1,0,0:0:0:0:
256,192,262827,1,8,0:0:0:0:
256,192,262977,1,0,0:0:0:0:
256,192,263052,1,0,0:0:0:0:
256,192,263127,1,8,0:0:0:0:
256,192,263202,1,8,0:0:0:0:
256,192,263277,1,0,0:0:0:0:
256,192,263352,1,8,0:0:0:0:
256,192,263427,1,8,0:0:0:0:
256,192,263502,1,8,0:0:0:0:
256,192,263577,1,0,0:0:0:0:
256,192,263652,1,0,0:0:0:0:
256,192,263727,1,8,0:0:0:0:
256,192,263802,1,0,0:0:0:0:
256,192,263877,1,8,0:0:0:0:
256,192,263952,1,8,0:0:0:0:
256,192,264027,1,0,0:0:0:0:
256,192,264177,1,8,0:0:0:0:
256,192,264252,1,0,0:0:0:0:
256,192,264327,1,0,0:0:0:0:
256,192,264402,1,0,0:0:0:0:
256,192,264477,1,8,0:0:0:0:
256,192,264552,1,8,0:0:0:0:
256,192,264627,1,8,0:0:0:0:
256,192,264702,1,8,0:0:0:0:
256,192,264777,1,0,0:0:0:0:
256,192,265077,1,8,0:0:0:0:
256,192,265227,1,8,0:0:0:0:
256,192,265377,1,0,0:0:0:0:
256,192,265452,1,0,0:0:0:0:
256,192,265527,1,8,0:0:0:0:
256,192,265677,1,0,0:0:0:0:
256,192,265752,1,8,0:0:0:0:
256,192,265827,1,0,0:0:0:0:
256,192,265902,1,0,0:0:0:0:
256,192,265977,1,8,0:0:0:0:
256,192,266127,1,0,0:0:0:0:
256,192,266277,1,8,0:0:0:0:
256,192,266427,1,8,0:0:0:0:
256,192,266502,1,8,0:0:0:0:
256,192,266577,1,0,0:0:0:0:
256,192,266727,1,0,0:0:0:0:
256,192,266802,1,0,0:0:0:0:
256,192,266877,1,8,0:0:0:0:
256,192,266952,1,0,0:0:0:0:
256,192,267027,1,8,0:0:0:0:
256,192,267102,1,8,0:0:0:0:
256,192,267177,1,0,0:0:0:0:
256,192,267327,1,8,0:0:0:0:
256,192,267477,1,8,0:0:0:0:
256,192,267552,1,8,0:0:0:0:
256,192,267627,1,0,0:0:0:0:
256,192,267702,1,0,0:0:0:0:
256,192,267777,1,8,0:0:0:0:
256,192,267927,1,0,0:0:0:0:
256,192,268077,1,8,0:0:0:0:
256,192,268152,1,0,0:0:0:0:
256,192,268227,1,8,0:0:0:0:
256,192,268302,1,8,0:0:0:0:
256,192,268377,1,0,0:0:0:0:
256,192,268527,1,8,0:0:0:0:
256,192,268677,1,8,0:0:0:0:
256,192,268752,1,0,0:0:0:0:
256,192,268827,1,8,0:0:0:0:
256,192,268902,1,0,0:0:0:0:
256,192,268977,1,8,0:0:0:0:
256,192,269052,1,0,0:0:0:0:
256,192,269127,1,8,0:0:0:0:
256,192,269202,1,8,0:0:0:0:
256,192,269277,1,0,0:0:0:0:
256,192,269352,1,0,0:0:0:0:
256,192,269427,1,8,0:0:0:0:
256,192,269577,5,4,0:0:0:0:
256,192,269727,1,8,0:0:0:0:
256,192,269802,1,0,0:0:0:0:
256,192,269877,1,8,0:0:0:0:
256,192,270027,1,0,0:0:0:0:
256,192,270102,1,0,0:0:0:0:
256,192,270177,1,8,0:0:0:0:
256,192,270327,1,0,0:0:0:0:
256,192,270477,1,8,0:0:0:0:
256,192,270552,1,0,0:0:0:0:
256,192,270702,1,0,0:0:0:0:
256,192,270777,1,8,0:0:0:0:
256,192,270852,1,8,0:0:0:0:
256,192,270927,1,0,0:0:0:0:
256,192,271077,1,8,0:0:0:0:
256,192,271152,1,8,0:0:0:0:
256,192,271227,1,0,0:0:0:0:
256,192,271377,1,8,0:0:0:0:
256,192,271452,1,8,0:0:0:0:
256,192,271527,1,8,0:0:0:0:
256,192,271602,1,0,0:0:0:0:
256,192,271677,1,8,0:0:0:0:
256,192,271827,1,0,0:0:0:0:
256,192,271977,1,8,0:0:0:0:
256,192,272052,1,8,0:0:0:0:
256,192,272127,1,8,0:0:0:0:
256,192,272277,1,0,0:0:0:0:
256,192,272427,1,8,0:0:0:0:
256,192,272502,1,0,0:0:0:0:
256,192,272577,1,8,0:0:0:0:
256,192,272727,1,8,0:0:0:0:
256,192,272877,1,0,0:0:0:0:
256,192,273027,1,0,0:0:0:0:
256,192,273177,1,8,0:0:0:0:
256,192,273252,1,8,0:0:0:0:
256,192,273327,1,0,0:0:0:0:
256,192,273402,1,0,0:0:0:0:
256,192,273477,1,8,0:0:0:0:
256,192,273552,1,0,0:0:0:0:
256,192,273627,1,0,0:0:0:0:
256,192,273702,1,0,0:0:0:0:
256,192,273777,1,8,0:0:0:0:
256,192,273852,1,8,0:0:0:0:
256,192,273927,1,0,0:0:0:0:
256,192,274077,1,8,0:0:0:0:
256,192,274377,1,8,0:0:0:0:
256,192,274452,1,8,0:0:0:0:
256,192,274527,1,8,0:0:0:0:
256,192,274677,1,8,0:0:0:0:
256,192,274827,1,8,0:0:0:0:
256,192,274902,1,8,0:0:0:0:
256,192,274977,1,8,0:0:0:0:
256,192,275277,1,8,0:0:0:0:
256,192,275577,1,8,0:0:0:0:
256,192,275877,1,8,0:0:0:0:
256,192,276177,1,8,0:0:0:0:
256,192,276477,1,8,0:0:0:0:
256,192,276627,1,8,0:0:0:0:
256,192,276777,1,0,0:0:0:0:
256,192,276927,1,0,0:0:0:0:
256,192,277077,1,8,0:0:0:0:
256,192,277227,1,0,0:0:0:0:
256,192,277302,1,0,0:0:0:0:
256,192,277377,1,0,0:0:0:0:
256,192,277527,1,0,0:0:0:0:
256,192,277677,1,8,0:0:0:0:
256,192,277752,1,8,0:0:0:0:
256,192,277827,1,0,0:0:0:0:
256,192,277977,1,8,0:0:0:0:
256,192,278052,1,8,0:0:0:0:
256,192,278127,1,0,0:0:0:0:
256,192,278202,1,0,0:0:0:0:
256,192,278277,1,8,0:0:0:0:
256,192,278352,1,8,0:0:0:0:
256,192,278427,1,0,0:0:0:0:
256,192,278502,1,0,0:0:0:0:
256,192,278577,1,8,0:0:0:0:
256,192,278652,1,8,0:0:0:0:
256,192,278727,1,8,0:0:0:0:
256,192,278802,1,8,0:0:0:0:
256,192,278877,1,0,0:0:0:0:
256,192,278952,1,0,0:0:0:0:
256,192,279027,1,0,0:0:0:0:
256,192,279102,1,0,0:0:0:0:
256,192,279177,12,0,279627,0:0:0:0:
256,192,279777,5,8,0:0:0:0:
256,192,279852,1,8,0:0:0:0:
256,192,279927,1,0,0:0:0:0:
256,192,280002,1,0,0:0:0:0:
256,192,280077,1,8,0:0:0:0:
256,192,280152,1,0,0:0:0:0:
256,192,280227,1,0,0:0:0:0:
256,192,280377,1,8,0:0:0:0:
256,192,280452,1,0,0:0:0:0:
256,192,280527,1,0,0:0:0:0:
256,192,280602,1,0,0:0:0:0:
256,192,280677,1,8,0:0:0:0:
256,192,280827,1,8,0:0:0:0:
256,192,280902,1,0,0:0:0:0:
256,192,280977,1,0,0:0:0:0:
256,192,281052,1,0,0:0:0:0:
256,192,281127,1,8,0:0:0:0:
256,192,281277,1,8,0:0:0:0:
256,192,281427,1,8,0:0:0:0:
256,192,281577,1,0,0:0:0:0:
256,192,281652,1,8,0:0:0:0:
256,192,281727,1,8,0:0:0:0:
256,192,281802,1,8,0:0:0:0:
256,192,281877,1,0,0:0:0:0:
256,192,282027,1,8,0:0:0:0:
256,192,282102,1,8,0:0:0:0:
256,192,282177,1,0,0:0:0:0:
256,192,282327,1,8,0:0:0:0:
256,192,282402,1,8,0:0:0:0:
256,192,282477,1,0,0:0:0:0:
256,192,282552,1,0,0:0:0:0:
256,192,282627,1,8,0:0:0:0:
256,192,282702,1,0,0:0:0:0:
256,192,282777,1,8,0:0:0:0:
256,192,282927,1,0,0:0:0:0:
256,192,283077,1,0,0:0:0:0:
256,192,283227,1,8,0:0:0:0:
256,192,283302,1,8,0:0:0:0:
256,192,283377,1,0,0:0:0:0:
256,192,283527,1,8,0:0:0:0:
256,192,283564,1,8,0:0:0:0:
256,192,283677,1,8,0:0:0:0:
256,192,283714,1,8,0:0:0:0:
256,192,283827,1,8,0:0:0:0:
256,192,283864,1,8,0:0:0:0:
256,192,283977,1,4,0:0:0:0:
256,192,284127,1,0,0:0:0:0:
256,192,284202,1,0,0:0:0:0:
256,192,284277,1,8,0:0:0:0:
256,192,284427,1,8,0:0:0:0:
256,192,284577,1,0,0:0:0:0:
256,192,284727,1,0,0:0:0:0:
256,192,284802,1,0,0:0:0:0:
256,192,284877,1,8,0:0:0:0:
256,192,285027,1,8,0:0:0:0:
256,192,285177,1,0,0:0:0:0:
256,192,285252,1,0,0:0:0:0:
256,192,285327,1,8,0:0:0:0:
256,192,285402,1,0,0:0:0:0:
256,192,285477,1,8,0:0:0:0:
256,192,285627,1,8,0:0:0:0:
256,192,285702,1,8,0:0:0:0:
256,192,285777,1,0,0:0:0:0:
256,192,285852,1,0,0:0:0:0:
256,192,285927,1,8,0:0:0:0:
256,192,285977,1,0,0:0:0:0:
256,192,286027,1,0,0:0:0:0:
256,192,286077,1,8,0:0:0:0:
256,192,286377,1,12,0:0:0:0:
256,192,286527,1,0,0:0:0:0:
256,192,286602,1,0,0:0:0:0:
256,192,286677,1,8,0:0:0:0:
256,192,286827,1,8,0:0:0:0:
256,192,286902,1,0,0:0:0:0:
256,192,286977,1,8,0:0:0:0:
256,192,287127,1,8,0:0:0:0:
256,192,287202,1,8,0:0:0:0:
256,192,287277,1,0,0:0:0:0:
256,192,287352,1,0,0:0:0:0:
256,192,287427,1,8,0:0:0:0:
256,192,287502,1,8,0:0:0:0:
256,192,287577,1,0,0:0:0:0:
256,192,287727,1,0,0:0:0:0:
256,192,287877,1,8,0:0:0:0:
256,192,287952,1,8,0:0:0:0:
256,192,288027,1,8,0:0:0:0:
256,192,288102,1,0,0:0:0:0:
256,192,288177,1,8,0:0:0:0:
256,192,288327,1,0,0:0:0:0:
256,192,288477,1,8,0:0:0:0:
256,192,288527,1,8,0:0:0:0:
256,192,288577,1,8,0:0:0:0:
256,192,288627,1,0,0:0:0:0:
256,192,288777,1,8,0:0:0:0:
256,192,289077,1,12,0:0:0:0:
256,192,289227,1,8,0:0:0:0:
256,192,289302,1,8,0:0:0:0:
256,192,289377,1,0,0:0:0:0:
256,192,289527,1,8,0:0:0:0:
256,192,289602,1,8,0:0:0:0:
256,192,289677,1,0,0:0:0:0:
256,192,289752,1,0,0:0:0:0:
256,192,289827,1,8,0:0:0:0:
256,192,289902,1,0,0:0:0:0:
256,192,289977,1,8,0:0:0:0:
256,192,290052,1,8,0:0:0:0:
256,192,290127,1,0,0:0:0:0:
256,192,290202,1,0,0:0:0:0:
256,192,290277,1,8,0:0:0:0:
256,192,290427,1,0,0:0:0:0:
256,192,290502,1,0,0:0:0:0:
256,192,290577,1,8,0:0:0:0:
256,192,290652,1,0,0:0:0:0:
256,192,290727,1,8,0:0:0:0:
256,192,290802,1,0,0:0:0:0:
256,192,290877,1,8,0:0:0:0:
256,192,290952,1,8,0:0:0:0:
256,192,291027,1,0,0:0:0:0:
256,192,291177,1,8,0:0:0:0:
256,192,291252,1,8,0:0:0:0:
256,192,291327,1,0,0:0:0:0:
256,192,291402,1,0,0:0:0:0:
256,192,291477,1,8,0:0:0:0:
256,192,291627,1,8,0:0:0:0:
256,192,291702,1,0,0:0:0:0:
256,192,291777,1,8,0:0:0:0:
256,192,291852,1,8,0:0:0:0:
256,192,291927,1,0,0:0:0:0:
256,192,292002,1,0,0:0:0:0:
256,192,292077,1,8,0:0:0:0:
256,192,292152,1,0,0:0:0:0:
256,192,292227,1,8,0:0:0:0:
256,192,292377,1,8,0:0:0:0:
256,192,292452,1,8,0:0:0:0:
256,192,292527,1,0,0:0:0:0:
256,192,292602,1,0,0:0:0:0:
256,192,292677,1,8,0:0:0:0:
256,192,292827,1,0,0:0:0:0:
256,192,292977,1,8,0:0:0:0:
256,192,293127,1,0,0:0:0:0:
256,192,293277,1,12,0:0:0:0:
256,192,293577,1,0,0:0:0:0:
256,192,293727,1,0,0:0:0:0:
256,192,293877,1,8,0:0:0:0:
256,192,294027,1,0,0:0:0:0:
256,192,294102,1,0,0:0:0:0:
256,192,294177,1,0,0:0:0:0:
256,192,294327,1,8,0:0:0:0:
256,192,294477,1,0,0:0:0:0:
256,192,294627,1,0,0:0:0:0:
256,192,294702,1,0,0:0:0:0:
256,192,294777,1,8,0:0:0:0:
256,192,294927,1,0,0:0:0:0:
256,192,295077,1,8,0:0:0:0:
256,192,295227,1,0,0:0:0:0:
256,192,295302,1,8,0:0:0:0:
256,192,295377,1,8,0:0:0:0:
256,192,295452,1,0,0:0:0:0:
256,192,295527,1,8,0:0:0:0:
256,192,295677,1,8,0:0:0:0:
256,192,295827,1,8,0:0:0:0:
256,192,295902,1,8,0:0:0:0:
256,192,295977,1,0,0:0:0:0:
256,192,296277,1,8,0:0:0:0:
256,192,296502,1,8,0:0:0:0:
256,192,296577,1,0,0:0:0:0:
256,192,296727,1,8,0:0:0:0:
256,192,296802,1,8,0:0:0:0:
256,192,296877,1,0,0:0:0:0:
256,192,296952,1,0,0:0:0:0:
256,192,297027,1,0,0:0:0:0:
256,192,297177,1,8,0:0:0:0:
256,192,297252,1,0,0:0:0:0:
256,192,297327,1,0,0:0:0:0:
256,192,297402,1,8,0:0:0:0:
256,192,297477,1,0,0:0:0:0:
256,192,297552,1,0,0:0:0:0:
256,192,297627,1,8,0:0:0:0:
256,192,297702,1,8,0:0:0:0:
256,192,297777,1,0,0:0:0:0:
256,192,297852,1,0,0:0:0:0:
256,192,297927,1,8,0:0:0:0:
256,192,298002,1,0,0:0:0:0:
256,192,298077,1,8,0:0:0:0:
256,192,298152,1,8,0:0:0:0:
256,192,298227,1,0,0:0:0:0:
256,192,298302,1,0,0:0:0:0:
256,192,298377,1,8,0:0:0:0:
256,192,298677,1,8,0:0:0:0:
256,192,298977,1,8,0:0:0:0:
256,192,299277,1,8,0:0:0:0:
256,192,299577,1,8,0:0:0:0:
256,192,299877,1,8,0:0:0:0:
256,192,300177,1,8,0:0:0:0:
256,192,300477,1,8,0:0:0:0:
256,192,300777,1,8,0:0:0:0:
256,192,301077,1,8,0:0:0:0:
256,192,301377,1,8,0:0:0:0:
256,192,301677,1,8,0:0:0:0:
256,192,301977,1,8,0:0:0:0:
256,192,302277,1,8,0:0:0:0:
256,192,302577,1,8,0:0:0:0:
256,192,302727,1,8,0:0:0:0:
256,192,302877,1,0,0:0:0:0:
256,192,303027,1,0,0:0:0:0:
256,192,303177,1,8,0:0:0:0:
256,192,303477,1,8,0:0:0:0:
256,192,303777,1,8,0:0:0:0:
256,192,304077,1,8,0:0:0:0:
256,192,304377,1,8,0:0:0:0:
256,192,304677,1,8,0:0:0:0:
256,192,304977,1,8,0:0:0:0:
256,192,305277,1,8,0:0:0:0:
256,192,305577,1,8,0:0:0:0:
256,192,305877,1,8,0:0:0:0:
256,192,306177,1,8,0:0:0:0:
256,192,306627,1,4,0:0:0:0:
256,192,306927,1,0,0:0:0:0:
256,192,307077,1,0,0:0:0:0:
256,192,307227,1,8,0:0:0:0:
256,192,307377,1,0,0:0:0:0:
256,192,307527,1,8,0:0:0:0:
256,192,307602,1,8,0:0:0:0:
256,192,307677,1,0,0:0:0:0:
256,192,307827,1,8,0:0:0:0:
256,192,307977,1,8,0:0:0:0:
256,192,308277,1,8,0:0:0:0:
256,192,308577,1,8,0:0:0:0:
256,192,308877,1,8,0:0:0:0:
256,192,309027,1,8,0:0:0:0:
256,192,309177,1,8,0:0:0:0:
256,192,309477,1,8,0:0:0:0:
256,192,309777,1,8,0:0:0:0:
256,192,310077,1,8,0:0:0:0:
256,192,310377,1,8,0:0:0:0:
256,192,310677,1,8,0:0:0:0:
256,192,310827,1,8,0:0:0:0:
256,192,311127,1,8,0:0:0:0:
256,192,311277,1,8,0:0:0:0:
256,192,311577,1,8,0:0:0:0:
256,192,311877,1,8,0:0:0:0:
256,192,312177,1,8,0:0:0:0:
256,192,312477,1,8,0:0:0:0:
256,192,312777,1,4,0:0:0:0:
256,192,312927,1,0,0:0:0:0:
256,192,313077,1,8,0:0:0:0:
256,192,313227,1,8,0:0:0:0:
256,192,313377,1,0,0:0:0:0:
256,192,313527,1,0,0:0:0:0:
256,192,313677,1,8,0:0:0:0:
256,192,313827,1,0,0:0:0:0:
256,192,313977,1,4,0:0:0:0:
256,192,314127,1,8,0:0:0:0:
256,192,314202,1,8,0:0:0:0:
256,192,314277,1,0,0:0:0:0:
256,192,314427,1,8,0:0:0:0:
256,192,314577,1,8,0:0:0:0:
256,192,314652,1,8,0:0:0:0:
256,192,314727,1,0,0:0:0:0:
256,192,314802,1,0,0:0:0:0:
256,192,314877,1,8,0:0:0:0:
256,192,315027,1,0,0:0:0:0:
256,192,315177,1,8,0:0:0:0:
256,192,315252,1,8,0:0:0:0:
256,192,315327,1,0,0:0:0:0:
256,192,315402,1,0,0:0:0:0:
256,192,315477,1,8,0:0:0:0:
256,192,315552,1,8,0:0:0:0:
256,192,315627,1,8,0:0:0:0:
256,192,315702,1,0,0:0:0:0:
256,192,315777,1,8,0:0:0:0:
256,192,315852,1,8,0:0:0:0:
256,192,315927,1,0,0:0:0:0:
256,192,316002,1,0,0:0:0:0:
256,192,316077,1,8,0:0:0:0:
256,192,316227,1,0,0:0:0:0:
256,192,316302,1,0,0:0:0:0:
256,192,316377,1,0,0:0:0:0:
256,192,316452,1,0,0:0:0:0:
256,192,316527,1,8,0:0:0:0:
256,192,316602,1,8,0:0:0:0:
256,192,316677,1,0,0:0:0:0:
256,192,316752,1,0,0:0:0:0:
256,192,316827,1,8,0:0:0:0:
256,192,316902,1,0,0:0:0:0:
256,192,316977,1,0,0:0:0:0:
256,192,317052,1,0,0:0:0:0:
256,192,317127,1,8,0:0:0:0:
256,192,317202,1,0,0:0:0:0:
256,192,317277,1,8,0:0:0:0:
256,192,317577,1,8,0:0:0:0:
256,192,317652,1,8,0:0:0:0:
256,192,317727,1,0,0:0:0:0:
256,192,317802,1,0,0:0:0:0:
256,192,317877,1,8,0:0:0:0:
256,192,317952,1,0,0:0:0:0:
256,192,318027,1,8,0:0:0:0:
256,192,318102,1,8,0:0:0:0:
256,192,318177,1,0,0:0:0:0:
256,192,318252,1,0,0:0:0:0:
256,192,318327,1,8,0:0:0:0:
256,192,318402,1,0,0:0:0:0:
256,192,318477,1,8,0:0:0:0:
256,192,318552,1,8,0:0:0:0:
256,192,318627,1,0,0:0:0:0:
256,192,318702,1,0,0:0:0:0:
256,192,318777,1,8,0:0:0:0:
256,192,318852,1,0,0:0:0:0:
256,192,318927,1,0,0:0:0:0:
256,192,319002,1,0,0:0:0:0:
256,192,319077,1,8,0:0:0:0:
256,192,319152,1,0,0:0:0:0:
256,192,319227,1,8,0:0:0:0:
256,192,319302,1,0,0:0:0:0:
256,192,319377,1,0,0:0:0:0:
256,192,319452,1,0,0:0:0:0:
256,192,319527,1,8,0:0:0:0:
256,192,319602,1,8,0:0:0:0:
256,192,319677,1,0,0:0:0:0:
256,192,319752,1,0,0:0:0:0:
256,192,319827,1,8,0:0:0:0:
256,192,319902,1,0,0:0:0:0:
256,192,319977,1,8,0:0:0:0:
256,192,320052,1,8,0:0:0:0:
256,192,320127,1,8,0:0:0:0:
256,192,320202,1,8,0:0:0:0:
256,192,320277,1,0,0:0:0:0:
256,192,320352,1,0,0:0:0:0:
256,192,320427,1,8,0:0:0:0:
256,192,320502,1,8,0:0:0:0:
256,192,320577,1,0,0:0:0:0:
256,192,320652,1,0,0:0:0:0:
256,192,320727,1,8,0:0:0:0:
256,192,320802,1,0,0:0:0:0:
256,192,320877,1,8,0:0:0:0:
256,192,320952,1,8,0:0:0:0:
256,192,321027,1,0,0:0:0:0:
256,192,321102,1,0,0:0:0:0:
256,192,321177,1,8,0:0:0:0:
256,192,321252,1,8,0:0:0:0:
256,192,321327,1,8,0:0:0:0:
256,192,321402,1,0,0:0:0:0:
256,192,321477,1,8,0:0:0:0:
256,192,321552,1,8,0:0:0:0:
256,192,321627,1,0,0:0:0:0:
256,192,321702,1,0,0:0:0:0:
256,192,321777,1,8,0:0:0:0:
256,192,321852,1,0,0:0:0:0:
256,192,321927,1,0,0:0:0:0:
256,192,322002,1,0,0:0:0:0:
256,192,322077,1,8,0:0:0:0:
256,192,322227,1,0,0:0:0:0:
256,192,322377,1,8,0:0:0:0:
256,192,322452,1,8,0:0:0:0:
256,192,322527,1,8,0:0:0:0:
256,192,322602,1,8,0:0:0:0:
256,192,322677,1,0,0:0:0:0:
256,192,322752,1,0,0:0:0:0:
256,192,322827,1,8,0:0:0:0:
256,192,322902,1,8,0:0:0:0:
256,192,322977,1,8,0:0:0:0:
256,192,323052,1,8,0:0:0:0:
256,192,323127,1,0,0:0:0:0:
256,192,323202,1,0,0:0:0:0:
256,192,323277,1,8,0:0:0:0:
256,192,323352,1,8,0:0:0:0:
256,192,323427,1,0,0:0:0:0:
256,192,323502,1,0,0:0:0:0:
256,192,323577,1,8,0:0:0:0:
256,192,323652,1,0,0:0:0:0:
256,192,323727,1,0,0:0:0:0:
256,192,323802,1,0,0:0:0:0:
256,192,323877,1,8,0:0:0:0:
256,192,323952,1,0,0:0:0:0:
256,192,324027,1,8,0:0:0:0:
256,192,324102,1,8,0:0:0:0:
256,192,324177,1,0,0:0:0:0:
256,192,324252,1,0,0:0:0:0:
256,192,324327,1,8,0:0:0:0:
256,192,324402,1,0,0:0:0:0:
256,192,324477,1,0,0:0:0:0:
256,192,324552,1,0,0:0:0:0:
256,192,324627,1,8,0:0:0:0:
256,192,324702,1,0,0:0:0:0:
256,192,324777,1,8,0:0:0:0:
256,192,324852,1,8,0:0:0:0:
256,192,324927,1,0,0:0:0:0:
256,192,325002,1,0,0:0:0:0:
256,192,325077,1,0,0:0:0:0:
256,192,325152,1,0,0:0:0:0:
256,192,325227,1,8,0:0:0:0:
256,192,325302,1,8,0:0:0:0:
256,192,325377,1,0,0:0:0:0:
256,192,325452,1,0,0:0:0:0:
256,192,325527,1,8,0:0:0:0:
256,192,325602,1,0,0:0:0:0:
256,192,325677,1,0,0:0:0:0:
256,192,325752,1,0,0:0:0:0:
256,192,325827,1,8,0:0:0:0:
256,192,325977,1,0,0:0:0:0:
256,192,326127,1,0,0:0:0:0:
256,192,326277,1,12,0:0:0:0:
256,192,326577,1,8,0:0:0:0:
256,192,326727,1,0,0:0:0:0:
256,192,326877,1,8,0:0:0:0:
256,192,326952,1,8,0:0:0:0:
256,192,327027,1,0,0:0:0:0:
256,192,327177,1,8,0:0:0:0:
256,192,327252,1,8,0:0:0:0:
256,192,327327,1,0,0:0:0:0:
256,192,327402,1,0,0:0:0:0:
256,192,327477,1,8,0:0:0:0:
256,192,327552,1,0,0:0:0:0:
256,192,327627,1,8,0:0:0:0:
256,192,327702,1,8,0:0:0:0:
256,192,327777,1,8,0:0:0:0:
256,192,327852,1,8,0:0:0:0:
256,192,327927,1,0,0:0:0:0:
256,192,328002,1,0,0:0:0:0:
256,192,328077,1,8,0:0:0:0:
256,192,328152,1,8,0:0:0:0:
256,192,328227,1,0,0:0:0:0:
256,192,328302,1,0,0:0:0:0:
256,192,328377,1,8,0:0:0:0:
256,192,328452,1,8,0:0:0:0:
256,192,328527,1,8,0:0:0:0:
256,192,328602,1,0,0:0:0:0:
256,192,328677,1,8,0:0:0:0:
256,192,328752,1,0,0:0:0:0:
256,192,328827,1,8,0:0:0:0:
256,192,328902,1,8,0:0:0:0:
256,192,328977,1,0,0:0:0:0:
256,192,329052,1,0,0:0:0:0:
256,192,329127,1,8,0:0:0:0:
256,192,329202,1,0,0:0:0:0:
256,192,329277,1,0,0:0:0:0:
256,192,329352,1,0,0:0:0:0:
256,192,329427,1,8,0:0:0:0:
256,192,329502,1,8,0:0:0:0:
256,192,329577,1,0,0:0:0:0:
256,192,329652,1,0,0:0:0:0:
256,192,329727,1,0,0:0:0:0:
256,192,329802,1,0,0:0:0:0:
256,192,329877,1,8,0:0:0:0:
256,192,330027,1,8,0:0:0:0:
256,192,330177,1,0,0:0:0:0:
256,192,330327,1,8,0:0:0:0:
256,192,330402,1,0,0:0:0:0:
256,192,330477,1,8,0:0:0:0:
256,192,330627,1,8,0:0:0:0:
256,192,330777,1,0,0:0:0:0:
256,192,330852,1,0,0:0:0:0:
256,192,330927,1,8,0:0:0:0:
256,192,331002,1,0,0:0:0:0:
256,192,331077,1,0,0:0:0:0:
256,192,331227,1,8,0:0:0:0:
256,192,331302,1,8,0:0:0:0:
256,192,331377,1,0,0:0:0:0:
256,192,331452,1,0,0:0:0:0:
256,192,331527,1,8,0:0:0:0:
256,192,331602,1,0,0:0:0:0:
256,192,331677,1,8,0:0:0:0:
256,192,331977,1,4,0:0:0:0:
256,192,332127,1,0,0:0:0:0:
256,192,332277,1,8,0:0:0:0:
256,192,332352,1,8,0:0:0:0:
256,192,332427,1,0,0:0:0:0:
256,192,332502,1,0,0:0:0:0:
256,192,332577,1,8,0:0:0:0:
256,192,332652,1,0,0:0:0:0:
256,192,332727,1,0,0:0:0:0:
256,192,332802,1,0,0:0:0:0:
256,192,332877,1,8,0:0:0:0:
256,192,332952,1,8,0:0:0:0:
256,192,333027,1,8,0:0:0:0:
256,192,333102,1,0,0:0:0:0:
256,192,333177,1,8,0:0:0:0:
256,192,333252,1,8,0:0:0:0:
256,192,333327,1,0,0:0:0:0:
256,192,333402,1,0,0:0:0:0:
256,192,333477,1,8,0:0:0:0:
256,192,333552,1,0,0:0:0:0:
256,192,333627,1,8,0:0:0:0:
256,192,333702,1,8,0:0:0:0:
256,192,333777,1,0,0:0:0:0:
256,192,333852,1,0,0:0:0:0:
256,192,333927,1,8,0:0:0:0:
256,192,334002,1,8,0:0:0:0:
256,192,334077,1,0,0:0:0:0:
256,192,334152,1,0,0:0:0:0:
256,192,334227,1,8,0:0:0:0:
256,192,334302,1,0,0:0:0:0:
256,192,334377,1,8,0:0:0:0:
256,192,334452,1,8,0:0:0:0:
256,192,334527,1,0,0:0:0:0:
256,192,334602,1,0,0:0:0:0:
256,192,334677,1,8,0:0:0:0:
256,192,334827,1,8,0:0:0:0:
256,192,334977,1,0,0:0:0:0:
256,192,335052,1,0,0:0:0:0:
256,192,335127,1,8,0:0:0:0:
256,192,335202,1,0,0:0:0:0:
256,192,335277,1,8,0:0:0:0:
256,192,335352,1,8,0:0:0:0:
256,192,335427,1,0,0:0:0:0:
256,192,335502,1,0,0:0:0:0:
256,192,335577,1,8,0:0:0:0:
256,192,335652,1,8,0:0:0:0:
256,192,335727,1,0,0:0:0:0:
256,192,335802,1,8,0:0:0:0:
256,192,335877,1,0,0:0:0:0:
256,192,335952,1,0,0:0:0:0:
256,192,336027,1,8,0:0:0:0:
256,192,336102,1,0,0:0:0:0:
256,192,336177,1,8,0:0:0:0:
256,192,336252,1,8,0:0:0:0:
256,192,336327,1,0,0:0:0:0:
256,192,336402,1,0,0:0:0:0:
256,192,336477,1,8,0:0:0:0:
256,192,336777,1,4,0:0:0:0:
256,192,336927,1,8,0:0:0:0:
256,192,337077,1,0,0:0:0:0:
256,192,337227,1,8,0:0:0:0:
256,192,337302,1,8,0:0:0:0:
256,192,337377,1,0,0:0:0:0:
256,192,337527,1,8,0:0:0:0:
256,192,337677,1,0,0:0:0:0:
256,192,337752,1,0,0:0:0:0:
256,192,337827,1,8,0:0:0:0:
256,192,337977,1,0,0:0:0:0:
256,192,338127,1,8,0:0:0:0:
256,192,338202,1,8,0:0:0:0:
256,192,338277,1,0,0:0:0:0:
256,192,338427,1,8,0:0:0:0:
256,192,338502,1,0,0:0:0:0:
256,192,338577,1,0,0:0:0:0:
256,192,338727,1,8,0:0:0:0:
256,192,338802,1,8,0:0:0:0:
256,192,338877,1,0,0:0:0:0:
256,192,338952,1,0,0:0:0:0:
256,192,339027,1,8,0:0:0:0:
256,192,339177,1,0,0:0:0:0:
256,192,339327,1,8,0:0:0:0:
256,192,339477,1,0,0:0:0:0:
256,192,339627,1,8,0:0:0:0:
256,192,339702,1,8,0:0:0:0:
256,192,339777,1,0,0:0:0:0:
256,192,339927,1,8,0:0:0:0:
256,192,340002,1,0,0:0:0:0:
256,192,340077,1,8,0:0:0:0:
256,192,340227,1,8,0:0:0:0:
256,192,340377,1,0,0:0:0:0:
256,192,340527,1,0,0:0:0:0:
256,192,340602,1,0,0:0:0:0:
256,192,340677,1,8,0:0:0:0:
256,192,340827,1,8,0:0:0:0:
256,192,340977,1,0,0:0:0:0:
256,192,341052,1,0,0:0:0:0:
256,192,341127,1,8,0:0:0:0:
256,192,341277,1,0,0:0:0:0:
256,192,341427,1,0,0:0:0:0:
256,192,341577,1,12,0:0:0:0:
256,192,341727,1,0,0:0:0:0:
256,192,341802,1,0,0:0:0:0:
256,192,341877,1,8,0:0:0:0:
256,192,342027,1,0,0:0:0:0:
256,192,342102,1,0,0:0:0:0:
256,192,342177,1,0,0:0:0:0:
256,192,342327,1,8,0:0:0:0:
256,192,342402,1,8,0:0:0:0:
256,192,342477,1,0,0:0:0:0:
256,192,342627,1,8,0:0:0:0:
256,192,342777,1,4,0:0:0:0:
256,192,342927,1,8,0:0:0:0:
256,192,343002,1,8,0:0:0:0:
256,192,343077,1,0,0:0:0:0:
256,192,343152,1,0,0:0:0:0:
256,192,343227,1,8,0:0:0:0:
256,192,343377,1,0,0:0:0:0:
256,192,343452,1,0,0:0:0:0:
256,192,343527,1,8,0:0:0:0:
256,192,343602,1,0,0:0:0:0:
256,192,343677,1,8,0:0:0:0:
256,192,343752,1,8,0:0:0:0:
256,192,343827,1,0,0:0:0:0:
256,192,343977,1,12,0:0:0:0:
256,192,344127,1,8,0:0:0:0:
256,192,344202,1,8,0:0:0:0:
256,192,344277,1,0,0:0:0:0:
256,192,344352,1,0,0:0:0:0:
256,192,344427,1,8,0:0:0:0:
256,192,344577,1,4,0:0:0:0:
256,192,344727,1,0,0:0:0:0:
256,192,344802,1,0,0:0:0:0:
256,192,344877,1,8,0:0:0:0:
256,192,345027,1,8,0:0:0:0:
256,192,345177,1,4,0:0:0:0:
256,192,345327,1,8,0:0:0:0:
256,192,345402,1,8,0:0:0:0:
256,192,345477,1,0,0:0:0:0:
256,192,345527,1,0,0:0:0:0:
256,192,345577,1,0,0:0:0:0:
256,192,345627,1,8,0:0:0:0:
256,192,345777,1,0,0:0:0:0:
256,192,345852,1,0,0:0:0:0:
256,192,345927,1,8,0:0:0:0:
256,192,345977,1,0,0:0:0:0:
256,192,346027,1,0,0:0:0:0:
256,192,346077,1,8,0:0:0:0:
211,114,346377,1,4,0:0:0:0:
256,192,353577,12,0,355677,0:0:0:0:
220,144,355977,5,12,0:0:0:0:
176,184,356202,1,0,0:0:0:0:
228,186,356277,1,8,0:0:0:0:
176,191,356427,1,0,0:0:0:0:
182,111,356577,1,8,0:0:0:0:
224,132,356802,1,0,0:0:0:0:
172,135,356877,1,8,0:0:0:0:
166,197,357027,1,8,0:0:0:0:
164,190,357177,1,0,0:0:0:0:
138,214,357402,1,0,0:0:0:0:
138,214,357477,1,8,0:0:0:0:
151,225,357627,1,0,0:0:0:0:
246,230,357777,1,8,0:0:0:0:
246,230,357852,1,0,0:0:0:0:
211,176,358002,1,0,0:0:0:0:
211,176,358077,1,8,0:0:0:0:
211,176,358227,1,8,0:0:0:0:
211,176,358377,1,0,0:0:0:0:
199,127,358602,1,0,0:0:0:0:
199,127,358677,1,8,0:0:0:0:
225,163,358827,1,0,0:0:0:0:
225,164,358977,1,8,0:0:0:0:
224,162,359202,1,0,0:0:0:0:
224,162,359277,1,8,0:0:0:0:
225,163,359427,1,8,0:0:0:0:
225,163,359577,1,0,0:0:0:0:
155,169,359802,1,8,0:0:0:0:
155,169,359877,1,0,0:0:0:0:
155,169,360027,1,8,0:0:0:0:
224,125,360177,1,0,0:0:0:0:
132,138,360252,1,0,0:0:0:0:
274,145,360402,1,0,0:0:0:0:
274,145,360477,1,8,0:0:0:0:
206,188,360627,1,8,0:0:0:0:
206,188,360777,1,4,0:0:0:0:
189,187,361002,1,8,0:0:0:0:
189,187,361077,1,0,0:0:0:0:
189,187,361227,1,8,0:0:0:0:
143,215,361377,1,0,0:0:0:0:
143,215,361527,1,8,0:0:0:0:
143,215,361602,1,0,0:0:0:0:
226,125,361752,1,0,0:0:0:0:
143,215,361827,1,8,0:0:0:0:
143,215,361977,1,0,0:0:0:0:
252,216,362127,1,0,0:0:0:0:
252,216,362202,1,0,0:0:0:0:
252,216,362277,1,8,0:0:0:0:
252,216,362427,1,0,0:0:0:0:
202,207,362577,1,8,0:0:0:0:
202,207,362652,1,0,0:0:0:0:
202,207,362727,1,8,0:0:0:0:
202,207,362802,1,8,0:0:0:0:
202,207,362877,1,0,0:0:0:0:
202,207,363027,1,0,0:0:0:0:
202,207,363102,1,0,0:0:0:0:
141,278,363177,1,8,0:0:0:0:
141,278,363252,1,8,0:0:0:0:
137,285,363327,1,0,0:0:0:0:
136,281,363402,1,0,0:0:0:0:
136,281,363477,1,8,0:0:0:0:
136,283,363552,1,0,0:0:0:0:
136,280,363627,1,8,0:0:0:0:
136,280,363702,1,8,0:0:0:0:
136,280,363777,1,0,0:0:0:0:
137,281,363852,1,8,0:0:0:0:
137,281,363927,1,0,0:0:0:0:
141,278,364002,1,0,0:0:0:0:
141,278,364077,1,8,0:0:0:0:
141,278,364152,1,0,0:0:0:0:
141,278,364227,1,8,0:0:0:0:
137,285,364302,1,8,0:0:0:0:
140,280,364377,1,0,0:0:0:0:
189,143,364527,1,8,0:0:0:0:
198,153,364677,1,8,0:0:0:0:
200,154,364827,1,8,0:0:0:0:
133,293,364977,1,8,0:0:0:0:
133,293,365052,1,8,0:0:0:0:
133,293,365127,1,0,0:0:0:0:
133,293,365202,1,0,0:0:0:0:
133,293,365277,1,8,0:0:0:0:
122,298,365577,1,4,0:0:0:0:
211,141,365727,5,8,0:0:0:0:
211,141,365802,1,8,0:0:0:0:
211,141,365877,1,0,0:0:0:0:
211,141,366027,1,8,0:0:0:0:
192,144,366177,1,0,0:0:0:0:
234,140,366252,1,0,0:0:0:0:
233,140,366327,1,8,0:0:0:0:
233,140,366402,1,0,0:0:0:0:
233,140,366477,1,8,0:0:0:0:
227,145,366627,1,8,0:0:0:0:
226,141,366702,1,8,0:0:0:0:
226,141,366777,1,0,0:0:0:0:
193,101,366927,1,8,0:0:0:0:
184,105,367002,1,8,0:0:0:0:
179,107,367077,1,0,0:0:0:0:
191,74,367227,1,8,0:0:0:0:
185,87,367377,1,0,0:0:0:0:
183,90,367452,1,8,0:0:0:0:
155,169,367527,1,0,0:0:0:0:
155,169,367602,1,0,0:0:0:0:
151,164,367677,1,8,0:0:0:0:
130,168,367827,1,8,0:0:0:0:
130,169,367902,1,8,0:0:0:0:
106,179,367977,1,0,0:0:0:0:
96,128,368127,1,8,0:0:0:0:
96,128,368202,1,8,0:0:0:0:
148,101,368277,1,0,0:0:0:0:
123,120,368427,1,0,0:0:0:0:
174,203,368502,1,0,0:0:0:0:
174,203,368577,1,8,0:0:0:0:
174,203,368652,1,0,0:0:0:0:
170,208,368727,1,8,0:0:0:0:
170,210,368802,1,8,0:0:0:0:
96,171,368877,1,0,0:0:0:0:
249,123,369027,1,8,0:0:0:0:
249,123,369102,1,8,0:0:0:0:
249,123,369177,1,0,0:0:0:0:
249,123,369252,1,0,0:0:0:0:
240,140,369327,1,8,0:0:0:0:
158,124,369402,1,0,0:0:0:0:
158,124,369477,1,8,0:0:0:0:
158,124,369627,1,0,0:0:0:0:
239,153,369777,1,8,0:0:0:0:
239,130,369927,1,8,0:0:0:0:
239,130,370002,1,8,0:0:0:0:
239,130,370077,1,0,0:0:0:0:
192,73,370227,1,8,0:0:0:0:
93,164,370377,1,0,0:0:0:0:
205,158,370602,1,8,0:0:0:0:
93,164,370677,1,0,0:0:0:0:
189,165,370827,1,8,0:0:0:0:
92,162,370977,1,0,0:0:0:0:
149,186,371052,1,0,0:0:0:0:
149,186,371127,1,8,0:0:0:0:
144,189,371202,1,8,0:0:0:0:
93,164,371277,1,0,0:0:0:0:
142,192,371427,1,8,0:0:0:0:
120,194,371502,1,8,0:0:0:0:
93,164,371577,1,0,0:0:0:0:
110,194,371727,1,0,0:0:0:0:
110,194,371802,1,0,0:0:0:0:
110,194,371877,1,8,0:0:0:0:
110,194,372027,1,0,0:0:0:0:
110,194,372177,1,8,0:0:0:0:
110,194,372252,1,0,0:0:0:0:
110,194,372327,1,8,0:0:0:0:
109,198,372402,1,8,0:0:0:0:
76,154,372477,1,0,0:0:0:0:
168,161,372627,1,8,0:0:0:0:
74,154,372777,1,0,0:0:0:0:
153,173,372927,1,0,0:0:0:0:
153,173,373002,1,0,0:0:0:0:
153,173,373077,1,8,0:0:0:0:
153,173,373227,1,8,0:0:0:0:
153,173,373302,1,0,0:0:0:0:
76,154,373377,1,0,0:0:0:0:
151,173,373452,1,0,0:0:0:0:
151,173,373527,1,8,0:0:0:0:
151,173,373602,1,0,0:0:0:0:
153,173,373677,1,8,0:0:0:0:
146,173,373827,1,8,0:0:0:0:
146,173,373902,1,8,0:0:0:0:
236,194,373977,1,0,0:0:0:0:
134,177,374202,1,0,0:0:0:0:
134,177,374277,1,8,0:0:0:0:
135,182,374427,1,8,0:0:0:0:
133,184,374577,1,0,0:0:0:0:
133,184,374652,1,8,0:0:0:0:
132,189,374727,1,0,0:0:0:0:
133,189,374877,1,8,0:0:0:0:
131,190,375027,1,8,0:0:0:0:
131,190,375177,1,4,0:0:0:0:
235,94,375402,1,0,0:0:0:0:
237,98,375477,1,8,0:0:0:0:
235,105,375627,1,8,0:0:0:0:
227,114,375702,1,8,0:0:0:0:
218,122,375777,1,0,0:0:0:0:
180,173,375852,1,8,0:0:0:0:
180,173,375927,1,0,0:0:0:0:
176,177,376002,1,0,0:0:0:0:
174,178,376077,1,8,0:0:0:0:
168,173,376227,1,8,0:0:0:0:
168,173,376302,1,8,0:0:0:0:
166,177,376377,1,0,0:0:0:0:
166,177,376527,1,0,0:0:0:0:
166,177,376602,1,0,0:0:0:0:
166,180,376677,1,8,0:0:0:0:
162,192,376827,1,0,0:0:0:0:
83,208,376977,1,8,0:0:0:0:
83,208,377052,1,0,0:0:0:0:
83,208,377127,1,8,0:0:0:0:
83,208,377202,1,8,0:0:0:0:
78,205,377277,1,0,0:0:0:0:
79,211,377427,1,8,0:0:0:0:
79,214,377577,1,0,0:0:0:0:
15,226,377802,1,8,0:0:0:0:
15,226,377877,1,0,0:0:0:0:
15,226,378027,1,8,0:0:0:0:
183,184,378177,1,0,0:0:0:0:
183,184,378252,1,0,0:0:0:0:
172,190,378327,1,8,0:0:0:0:
183,184,378402,1,0,0:0:0:0:
183,184,378477,1,8,0:0:0:0:
183,184,378627,1,8,0:0:0:0:
183,184,378702,1,8,0:0:0:0:
183,184,378777,1,0,0:0:0:0:
171,186,378927,1,8,0:0:0:0:
228,69,379002,1,8,0:0:0:0:
171,186,379077,1,0,0:0:0:0:
172,190,379152,1,0,0:0:0:0:
172,190,379227,1,8,0:0:0:0:
233,168,379302,1,8,0:0:0:0:
233,168,379377,1,0,0:0:0:0:
233,168,379527,1,0,0:0:0:0:
233,168,379602,1,0,0:0:0:0:
233,168,379677,1,8,0:0:0:0:
233,168,379827,1,8,0:0:0:0:
233,168,379977,1,4,0:0:0:0:
217,171,380202,1,8,0:0:0:0:
217,171,380277,1,0,0:0:0:0:
216,173,380427,1,8,0:0:0:0:
214,184,380502,1,0,0:0:0:0:
214,186,380577,1,8,0:0:0:0:
214,186,380652,1,8,0:0:0:0:
214,186,380727,1,0,0:0:0:0:
215,187,380802,1,0,0:0:0:0:
215,188,380877,1,8,0:0:0:0:
216,188,381027,1,8,0:0:0:0:
216,188,381177,1,4,0:0:0:0:
207,194,381402,1,8,0:0:0:0:
207,194,381477,1,0,0:0:0:0:
207,194,381627,1,0,0:0:0:0:
207,194,381702,1,0,0:0:0:0:
207,194,381777,1,8,0:0:0:0:
207,194,381852,1,0,0:0:0:0:
205,194,381927,1,0,0:0:0:0:
202,196,382002,1,0,0:0:0:0:
205,194,382077,1,8,0:0:0:0:
207,194,382227,1,8,0:0:0:0:
207,194,382377,1,4,0:0:0:0:
205,201,382602,1,8,0:0:0:0:
205,202,382677,1,0,0:0:0:0:
205,202,382827,1,8,0:0:0:0:
205,201,382977,1,4,0:0:0:0:
219,120,383127,1,0,0:0:0:0:
215,127,383202,1,0,0:0:0:0:
211,136,383277,1,8,0:0:0:0:
211,141,383352,1,0,0:0:0:0:
212,147,383427,1,8,0:0:0:0:
213,147,383502,1,8,0:0:0:0:
213,147,383577,1,0,0:0:0:0:
206,177,383727,1,8,0:0:0:0:
206,177,383877,1,0,0:0:0:0:
206,178,383952,1,0,0:0:0:0:
206,177,384027,1,8,0:0:0:0:
209,181,384102,1,8,0:0:0:0:
206,177,384177,1,0,0:0:0:0:
206,177,384252,1,0,0:0:0:0:
206,177,384327,1,8,0:0:0:0:
211,186,384402,1,0,0:0:0:0:
211,186,384477,1,8,0:0:0:0:
167,124,384627,1,8,0:0:0:0:
165,128,384777,1,4,0:0:0:0:
166,206,385002,1,0,0:0:0:0:
163,197,385077,1,8,0:0:0:0:
219,136,385227,1,8,0:0:0:0:
219,136,385302,1,8,0:0:0:0:
219,136,385377,1,0,0:0:0:0:
219,136,385527,1,0,0:0:0:0:
198,69,385677,1,8,0:0:0:0:
198,69,385752,1,0,0:0:0:0:
199,76,385827,1,8,0:0:0:0:
199,76,385902,1,8,0:0:0:0:
199,76,385977,1,0,0:0:0:0:
237,205,386127,1,8,0:0:0:0:
237,205,386202,1,0,0:0:0:0:
237,205,386352,1,0,0:0:0:0:
237,205,386427,1,8,0:0:0:0:
243,210,386577,1,0,0:0:0:0:
283,135,386727,1,8,0:0:0:0:
283,135,386802,1,8,0:0:0:0:
283,135,386877,1,0,0:0:0:0:
283,135,386952,1,0,0:0:0:0:
283,135,387027,1,8,0:0:0:0:
283,135,387102,1,0,0:0:0:0:
283,135,387177,1,8,0:0:0:0:
280,149,387327,1,8,0:0:0:0:
280,149,387402,1,8,0:0:0:0:
280,149,387477,1,0,0:0:0:0:
282,150,387627,1,8,0:0:0:0:
281,159,387777,1,0,0:0:0:0:
281,160,387852,1,8,0:0:0:0:
283,164,387927,1,0,0:0:0:0:
283,167,388002,1,0,0:0:0:0:
285,167,388077,1,8,0:0:0:0:
235,74,388227,1,8,0:0:0:0:
211,118,388302,1,8,0:0:0:0:
226,29,388377,1,0,0:0:0:0:
237,52,388527,1,0,0:0:0:0:
237,52,388677,1,8,0:0:0:0:
254,104,388827,1,8,0:0:0:0:
276,162,388902,1,0,0:0:0:0:
283,167,388977,1,0,0:0:0:0:
282,175,389127,1,0,0:0:0:0:
254,110,389202,1,0,0:0:0:0:
257,114,389277,1,8,0:0:0:0:
257,114,389352,1,8,0:0:0:0:
257,122,389427,1,0,0:0:0:0:
257,122,389502,1,8,0:0:0:0:
257,121,389577,1,0,0:0:0:0:
259,121,389727,1,0,0:0:0:0:
258,119,389877,1,12,0:0:0:0:
265,129,390102,1,8,0:0:0:0:
265,129,390177,1,0,0:0:0:0:
219,114,390327,1,8,0:0:0:0:
215,120,390402,1,0,0:0:0:0:
210,125,390477,1,8,0:0:0:0:
91,162,390552,1,8,0:0:0:0:
91,162,390627,1,0,0:0:0:0:
91,162,390702,1,0,0:0:0:0:
91,162,390777,1,8,0:0:0:0:
91,162,390927,1,0,0:0:0:0:
88,173,391077,1,8,0:0:0:0:
90,175,391227,1,8,0:0:0:0:
90,175,391302,1,8,0:0:0:0:
90,175,391377,1,0,0:0:0:0:
221,153,391527,1,0,0:0:0:0:
195,165,391602,1,8,0:0:0:0:
195,165,391677,1,0,0:0:0:0:
195,165,391752,1,0,0:0:0:0:
190,168,391827,1,8,0:0:0:0:
185,159,391902,1,8,0:0:0:0:
185,161,391977,1,0,0:0:0:0:
175,166,392127,1,8,0:0:0:0:
175,166,392277,1,0,0:0:0:0:
162,170,392427,1,8,0:0:0:0:
161,169,392502,1,8,0:0:0:0:
159,170,392577,1,0,0:0:0:0:
157,171,392652,1,8,0:0:0:0:
157,171,392727,1,0,0:0:0:0:
157,171,392802,1,0,0:0:0:0:
202,140,392877,1,8,0:0:0:0:
185,141,392952,1,0,0:0:0:0:
185,141,393027,1,8,0:0:0:0:
185,141,393102,1,8,0:0:0:0:
185,140,393177,1,0,0:0:0:0:
197,161,393327,1,8,0:0:0:0:
238,205,393477,1,0,0:0:0:0:
190,194,393552,1,0,0:0:0:0:
190,194,393627,1,8,0:0:0:0:
190,194,393777,1,0,0:0:0:0:
190,194,393927,1,8,0:0:0:0:
190,194,394002,1,0,0:0:0:0:
190,194,394152,1,0,0:0:0:0:
191,189,394227,1,8,0:0:0:0:
190,185,394377,1,4,0:0:0:0:
190,185,394602,1,8,0:0:0:0:
190,185,394677,1,0,0:0:0:0:
215,93,394827,1,8,0:0:0:0:
256,114,394977,1,0,0:0:0:0:
295,107,395052,1,8,0:0:0:0:
295,107,395127,1,0,0:0:0:0:
295,107,395202,1,0,0:0:0:0:
295,112,395277,1,8,0:0:0:0:
283,109,395427,1,8,0:0:0:0:
282,114,395502,1,8,0:0:0:0:
281,116,395577,1,0,0:0:0:0:
266,147,395727,1,0,0:0:0:0:
235,150,395802,1,8,0:0:0:0:
235,150,395952,1,8,0:0:0:0:
233,140,396027,1,0,0:0:0:0:
199,178,396102,1,0,0:0:0:0:
199,178,396177,1,8,0:0:0:0:
199,178,396327,1,0,0:0:0:0:
199,178,396402,1,8,0:0:0:0:
195,181,396477,1,0,0:0:0:0:
161,201,396627,1,8,0:0:0:0:
161,201,396777,1,0,0:0:0:0:
233,126,396927,1,8,0:0:0:0:
232,126,397002,1,0,0:0:0:0:
229,136,397152,1,0,0:0:0:0:
229,136,397227,1,8,0:0:0:0:
229,139,397302,1,8,0:0:0:0:
229,141,397377,1,0,0:0:0:0:
131,200,397527,1,0,0:0:0:0:
136,198,397602,1,0,0:0:0:0:
131,200,397677,1,8,0:0:0:0:
131,200,397827,1,8,0:0:0:0:
131,200,397902,1,8,0:0:0:0:
131,200,397977,1,0,0:0:0:0:
209,118,398127,1,0,0:0:0:0:
199,164,398202,1,8,0:0:0:0:
209,118,398277,1,8,0:0:0:0:
248,149,398352,1,8,0:0:0:0:
176,162,398427,1,0,0:0:0:0:
176,162,398577,1,0,0:0:0:0:
176,162,398652,1,0,0:0:0:0:
176,168,398802,1,0,0:0:0:0:
225,59,398877,1,8,0:0:0:0:
175,100,399027,1,8,0:0:0:0:
214,72,399177,1,4,0:0:0:0:
205,117,399327,1,8,0:0:0:0:
190,117,399627,1,8,0:0:0:0:
190,117,399777,1,0,0:0:0:0:
187,115,399927,1,0,0:0:0:0:
187,115,400002,1,0,0:0:0:0:
187,120,400077,1,8,0:0:0:0:
188,120,400227,1,8,0:0:0:0:
201,90,400377,1,4,0:0:0:0:
187,123,400527,1,8,0:0:0:0:
177,118,400827,1,8,0:0:0:0:
172,119,400977,1,0,0:0:0:0:
229,115,401052,1,8,0:0:0:0:
171,113,401127,1,0,0:0:0:0:
171,114,401202,1,0,0:0:0:0:
171,114,401277,1,8,0:0:0:0:
217,117,401427,1,8,0:0:0:0:
190,60,401577,1,4,0:0:0:0:
187,83,401802,1,8,0:0:0:0:
187,83,401877,1,0,0:0:0:0:
189,93,402027,1,8,0:0:0:0:
208,78,402177,1,0,0:0:0:0:
206,76,402252,1,0,0:0:0:0:
206,76,402327,1,8,0:0:0:0:
206,76,402402,1,0,0:0:0:0:
206,76,402477,1,8,0:0:0:0:
205,74,402627,1,8,0:0:0:0:
205,74,402702,1,8,0:0:0:0:
205,76,402777,1,0,0:0:0:0:
205,76,402927,1,0,0:0:0:0:
208,78,403077,1,8,0:0:0:0:
214,75,403152,1,0,0:0:0:0:
211,76,403227,1,0,0:0:0:0:
211,76,403377,1,8,0:0:0:0:
206,76,403452,1,0,0:0:0:0:
209,78,403527,1,8,0:0:0:0:
209,76,403602,1,8,0:0:0:0:
205,74,403677,1,0,0:0:0:0:
205,76,403827,1,8,0:0:0:0:
261,108,403977,1,0,0:0:0:0:
253,108,404127,1,0,0:0:0:0:
194,77,404277,1,8,0:0:0:0:
194,77,404352,1,8,0:0:0:0:
194,77,404427,1,0,0:0:0:0:
201,82,404577,1,0,0:0:0:0:
201,82,404727,1,8,0:0:0:0:
201,82,404802,1,0,0:0:0:0:
201,88,404877,1,0,0:0:0:0:
222,130,404952,1,0,0:0:0:0:
222,130,405027,1,8,0:0:0:0:
222,130,405327,1,0,0:0:0:0:
222,130,405477,1,12,0:0:0:0:
254,131,405702,1,0,0:0:0:0:
254,131,405777,1,8,0:0:0:0:
289,95,405927,1,0,0:0:0:0:
223,117,406077,1,8,0:0:0:0:
223,117,406152,1,8,0:0:0:0:
222,118,406227,1,0,0:0:0:0:
221,117,406302,1,8,0:0:0:0:
221,119,406377,1,0,0:0:0:0:
178,137,406527,1,0,0:0:0:0:
178,137,406677,1,12,0:0:0:0:
162,152,406902,1,0,0:0:0:0:
162,152,406977,1,8,0:0:0:0:
161,156,407127,1,0,0:0:0:0:
133,167,407277,1,8,0:0:0:0:
133,167,407427,1,8,0:0:0:0:
133,167,407577,1,0,0:0:0:0:
258,127,407727,1,0,0:0:0:0:
258,127,407802,1,0,0:0:0:0:
258,127,407877,1,8,0:0:0:0:
236,126,408027,1,0,0:0:0:0:
223,131,408177,1,8,0:0:0:0:
223,131,408252,1,8,0:0:0:0:
223,133,408327,1,0,0:0:0:0:
222,136,408402,1,0,0:0:0:0:
222,136,408477,1,8,0:0:0:0:
215,132,408627,1,8,0:0:0:0:
215,132,408702,1,8,0:0:0:0:
215,132,408777,1,0,0:0:0:0:
254,210,408927,1,0,0:0:0:0:
249,208,409077,1,8,0:0:0:0:
244,204,409227,1,0,0:0:0:0:
237,194,409302,1,8,0:0:0:0:
236,196,409377,1,0,0:0:0:0:
235,199,409527,1,0,0:0:0:0:
235,199,409602,1,0,0:0:0:0:
235,199,409677,1,8,0:0:0:0:
237,199,409827,1,0,0:0:0:0:
224,213,409977,1,8,0:0:0:0:
217,217,410127,1,8,0:0:0:0:
217,217,410202,1,8,0:0:0:0:
217,217,410277,1,0,0:0:0:0:
212,218,410427,1,8,0:0:0:0:
192,224,410577,1,0,0:0:0:0:
192,224,410652,1,0,0:0:0:0:
192,224,410727,1,8,0:0:0:0:
192,224,410802,1,0,0:0:0:0:
192,224,410877,1,8,0:0:0:0:
192,224,410952,1,8,0:0:0:0:
192,224,411027,1,0,0:0:0:0:
192,224,411102,1,8,0:0:0:0:
192,224,411177,1,0,0:0:0:0:
160,224,411477,1,8,0:0:0:0:
206,164,411627,1,0,0:0:0:0:
206,164,411702,1,0,0:0:0:0:
201,169,411777,1,8,0:0:0:0:
198,169,411927,1,0,0:0:0:0:
176,175,412077,1,8,0:0:0:0:
159,182,412152,1,8,0:0:0:0:
159,184,412227,1,0,0:0:0:0:
218,154,412377,1,12,0:0:0:0:
239,141,413277,5,8,0:0:0:0:
36,162,413577,1,4,0:0:0:0:
205,112,418377,5,4,0:0:0:0:
192,141,418977,1,0,0:0:0:0:
172,160,419577,1,0,0:0:0:0:
172,160,420177,1,0,0:0:0:0:
148,175,420777,1,4,0:0:0:0:
307,140,421077,1,0,0:0:0:0:
298,154,421377,1,4,0:0:0:0:
298,154,421677,1,0,0:0:0:0:
179,177,421827,1,8,0:0:0:0:
174,190,421902,1,8,0:0:0:0:
174,190,421977,1,0,0:0:0:0:
51,225,422052,1,8,0:0:0:0:
51,225,422127,1,0,0:0:0:0:
51,225,422277,1,8,0:0:0:0:
248,119,422427,1,0,0:0:0:0:
242,119,422502,1,0,0:0:0:0:
238,122,422577,1,0,0:0:0:0:
228,124,422727,1,0,0:0:0:0:
227,124,422877,1,8,0:0:0:0:
169,114,423177,1,4,0:0:0:0:
241,82,423477,1,8,0:0:0:0:
176,118,423627,1,8,0:0:0:0:
178,115,423702,1,8,0:0:0:0:
174,133,423777,1,0,0:0:0:0:
213,91,423927,1,0,0:0:0:0:
212,91,424077,1,8,0:0:0:0:
205,92,424227,1,0,0:0:0:0:
204,93,424302,1,8,0:0:0:0:
204,93,424377,1,0,0:0:0:0:
202,94,424527,1,0,0:0:0:0:
198,94,424677,1,8,0:0:0:0:
197,95,424827,1,8,0:0:0:0:
196,97,424902,1,8,0:0:0:0:
158,101,424977,1,0,0:0:0:0:
158,101,425052,1,8,0:0:0:0:
158,101,425127,1,0,0:0:0:0:
152,97,425277,1,8,0:0:0:0:
150,95,425427,1,0,0:0:0:0:
150,95,425502,1,0,0:0:0:0:
149,98,425577,1,0,0:0:0:0:
145,101,425727,1,0,0:0:0:0:
134,101,425877,1,8,0:0:0:0:
170,121,426027,1,0,0:0:0:0:
162,125,426102,1,8,0:0:0:0:
157,128,426177,1,0,0:0:0:0:
157,121,426327,1,0,0:0:0:0:
154,121,426402,1,0,0:0:0:0:
154,121,426477,1,8,0:0:0:0:
155,121,426627,1,8,0:0:0:0:
148,122,426702,1,8,0:0:0:0:
146,123,426777,1,0,0:0:0:0:
132,123,426927,1,0,0:0:0:0:
132,123,427077,1,8,0:0:0:0:
125,123,427227,1,0,0:0:0:0:
122,124,427302,1,0,0:0:0:0:
121,127,427377,1,0,0:0:0:0:
120,127,427452,1,8,0:0:0:0:
123,123,427527,1,0,0:0:0:0:
122,122,427677,1,8,0:0:0:0:
123,122,427827,1,8,0:0:0:0:
123,122,427902,1,8,0:0:0:0:
123,122,427977,1,0,0:0:0:0:
112,197,428277,1,8,0:0:0:0:
99,207,428427,1,8,0:0:0:0:
97,212,428502,1,8,0:0:0:0:
96,215,428577,1,0,0:0:0:0:
212,129,428727,1,0,0:0:0:0:
212,129,428877,1,8,0:0:0:0:
180,173,428952,1,0,0:0:0:0:
169,164,429027,1,8,0:0:0:0:
164,172,429102,1,8,0:0:0:0:
164,172,429177,1,0,0:0:0:0:
162,171,429327,1,0,0:0:0:0:
162,171,429402,1,0,0:0:0:0:
148,175,429477,1,8,0:0:0:0:
152,179,429627,1,0,0:0:0:0:
152,179,429777,1,8,0:0:0:0:
152,179,429852,1,8,0:0:0:0:
152,182,429927,1,0,0:0:0:0:
152,182,430002,1,0,0:0:0:0:
152,182,430077,1,8,0:0:0:0:
274,157,430152,1,8,0:0:0:0:
151,178,430227,1,0,0:0:0:0:
151,178,430302,1,8,0:0:0:0:
151,178,430377,1,0,0:0:0:0:
228,171,430527,1,0,0:0:0:0:
216,171,430602,1,0,0:0:0:0:
215,173,430677,1,8,0:0:0:0:
215,175,430827,1,0,0:0:0:0:
208,179,430977,1,8,0:0:0:0:
208,179,431052,1,8,0:0:0:0:
208,179,431127,1,0,0:0:0:0:
208,179,431277,1,8,0:0:0:0:
233,181,431427,1,8,0:0:0:0:
216,171,431577,1,0,0:0:0:0:
183,198,431727,1,0,0:0:0:0:
183,198,431802,1,0,0:0:0:0:
183,198,431877,1,8,0:0:0:0:
174,209,432027,1,0,0:0:0:0:
164,212,432102,1,8,0:0:0:0:
158,209,432252,1,8,0:0:0:0:
158,209,432327,1,0,0:0:0:0:
153,210,432477,1,8,0:0:0:0:
242,133,432527,1,8,0:0:0:0:
242,133,432577,1,8,0:0:0:0:
234,135,432627,1,0,0:0:0:0:
234,135,432777,1,12,0:0:0:0:
220,108,433077,1,8,0:0:0:0:
197,181,433227,1,0,0:0:0:0:
197,181,433302,1,8,0:0:0:0:
197,181,433377,1,0,0:0:0:0:
190,186,433527,1,0,0:0:0:0:
187,190,433677,1,8,0:0:0:0:
228,169,433752,1,0,0:0:0:0:
228,169,433827,1,8,0:0:0:0:
228,169,433902,1,8,0:0:0:0:
228,169,433977,1,0,0:0:0:0:
228,169,434127,1,0,0:0:0:0:
228,169,434202,1,0,0:0:0:0:
228,169,434277,1,8,0:0:0:0:
146,152,434427,1,0,0:0:0:0:
133,154,434577,1,8,0:0:0:0:
133,154,434727,1,0,0:0:0:0:
123,155,434802,1,0,0:0:0:0:
122,158,434877,1,8,0:0:0:0:
122,162,434952,1,0,0:0:0:0:
120,160,435027,1,8,0:0:0:0:
120,160,435102,1,8,0:0:0:0:
120,160,435177,1,0,0:0:0:0:
103,186,435327,1,0,0:0:0:0:
103,186,435477,1,8,0:0:0:0:
110,203,435627,1,0,0:0:0:0:
110,203,435702,1,0,0:0:0:0:
110,203,435777,1,0,0:0:0:0:
83,197,435927,1,0,0:0:0:0:
83,197,436002,1,0,0:0:0:0:
84,201,436077,1,8,0:0:0:0:
84,202,436152,1,8,0:0:0:0:
84,202,436227,1,0,0:0:0:0:
82,205,436302,1,8,0:0:0:0:
82,205,436377,1,0,0:0:0:0:
82,205,436527,1,0,0:0:0:0:
79,209,436677,1,8,0:0:0:0:
79,210,436827,1,0,0:0:0:0:
81,210,436902,1,8,0:0:0:0:
150,153,436977,1,0,0:0:0:0:
150,153,437052,1,0,0:0:0:0:
147,157,437127,1,8,0:0:0:0:
142,164,437277,1,8,0:0:0:0:
138,169,437427,1,0,0:0:0:0:
138,169,437502,1,0,0:0:0:0:
138,169,437577,1,0,0:0:0:0:
133,185,437877,1,0,0:0:0:0:
144,153,438027,1,8,0:0:0:0:
147,157,438102,1,8,0:0:0:0:
131,173,438177,1,0,0:0:0:0:
131,182,438327,1,0,0:0:0:0:
131,182,438477,1,8,0:0:0:0:
143,164,438627,1,0,0:0:0:0:
143,164,438702,1,0,0:0:0:0:
143,164,438777,1,0,0:0:0:0:
143,164,438927,1,0,0:0:0:0:
143,168,439077,1,8,0:0:0:0:
144,174,439227,1,0,0:0:0:0:
144,174,439302,1,0,0:0:0:0:
145,173,439377,1,8,0:0:0:0:
141,193,439527,1,8,0:0:0:0:
141,193,439602,1,8,0:0:0:0:
141,193,439677,1,0,0:0:0:0:
134,231,439752,1,8,0:0:0:0:
134,231,439827,1,0,0:0:0:0:
256,192,439977,12,12,442227,0:0:0:0:
133,233,442377,5,12,0:0:0:0:
256,192,448377,12,0,449577,0:0:0:0:
