osu file format v14

[General]
AudioFilename: luv.mp3
AudioLeadIn: 0
PreviewTime: 16621
Countdown: 0
SampleSet: Normal
StackLeniency: 0.7
Mode: 0
LetterboxInBreaks: 1
EpilepsyWarning: 1
WidescreenStoryboard: 1

[Editor]
Bookmarks: 9356,16880,24145,39380,50630,61880,69380,76880,78755,79223,79692,80630,81567,82505,85786,87895,89653,90005,93755,97505,99380,103130,106880,114380,121880,133130,136880,140278,144145,147895,153755,161255,162016,168755,176255,183755,191255
DistanceSpacing: 1.3
BeatDivisor: 4
GridSize: 8
TimelineZoom: 1.7

[Metadata]
Title:LUVORATORRRRRY! ver. Reol
TitleUnicode:LUVORATORRRRRY! ver. Reol
Artist:GigaP/Reol feat. nqrse
ArtistUnicode:GigaP/Reol feat. nqrse
Creator:happy30
Version:Insane Collab
Source:Vocaloid Laboratory
Tags:Dangaard vocaloid gumi rin gigap reol
BeatmapID:906027
BeatmapSetID:191602

[Difficulty]
HPDrainRate:7
CircleSize:4
OverallDifficulty:8
ApproachRate:9
SliderMultiplier:2.55999990463257
SliderTickRate:1

[Events]
//Background and Video events
0,0,"background.jpg",0,0
Video,0,"vid.avi"
//Break Periods
2,107080,113780
//Storyboard Layer 0 (Background)
//Storyboard Layer 1 (Fail)
//Storyboard Layer 2 (Pass)
//Storyboard Layer 3 (Foreground)
//Storyboard Sound Samples

[TimingPoints]
1880,468.75,4,1,0,100,1,0
22036,-66.6666666666667,4,1,0,100,0,0
22270,-100,4,1,0,100,0,0
23911,-66.6666666666667,4,1,0,100,0,0
24145,-100,4,1,0,100,0,0
46880,-200,4,1,0,100,0,0
54145,-133.333333333333,4,1,0,100,0,0
60005,-133.333333333333,4,1,0,100,0,0
61880,-100,4,1,0,100,0,0
69380,-133.333333333333,4,1,1,100,0,0
69380,-133.333333333333,4,1,1,100,0,0
75473,-100,4,1,0,100,0,0
80981,-66.6666666666667,4,1,0,100,0,0
81215,-100,4,1,0,100,0,0
81919,-66.6666666666667,4,1,0,100,0,0
82153,-100,4,1,1,100,0,0
90942,-133.333333333333,4,1,0,100,0,0
91411,-100,4,1,0,100,0,0
121880,-80,4,1,0,100,0,1
136880,-133.333333333333,4,2,0,75,0,0
153755,-100,4,1,1,100,0,0
166880,-76.9230769230769,4,1,1,100,0,0
169926,-80,4,1,0,100,0,1
183286,-80,4,1,0,100,0,0
183755,-80,4,1,0,100,0,1
190786,-66.6666666666667,4,1,0,100,0,1
191255,-100,4,1,0,100,0,0

[Colours]
Combo1 : 106,213,0
Combo2 : 255,226,21
Combo3 : 128,0,128

[HitObjects]
256,88,8911,5,0,0:0:0:0:
256,104,9145,2,0,L|256:208,1,63.9999976158143,2|0,0:0|2:0,0:0:0:0:
256,248,9380,6,0,P|312:280|376:264,1,127.999995231629,4|0,0:0|0:0,0:0:0:0:
184,56,9848,2,0,P|128:24|64:40,1,127.999995231629,0|0,0:0|1:0,0:0:0:0:
131,157,10200,1,0,1:0:0:0:
136,168,10317,2,0,B|149:206|149:206|128:304,1,127.999995231629
382,291,10786,2,0,L|512:287,1,127.999995231629
288,176,11255,22,0,P|232:192|168:176,1,63.9999976158143,0|0,0:0|2:0,0:0:0:0:
104,264,11489,2,0,P|160:248|224:264,1,63.9999976158143,0|0,0:0|2:0,0:0:0:0:
144,152,11723,2,0,P|72:136|16:96,1,127.999995231629
16,216,12075,2,0,L|32:344,1,127.999995231629
128,240,12426,2,0,L|144:368,1,127.999995231629
256,144,12895,1,0,0:0:0:0:
336,248,13130,6,0,P|280:280|216:264,1,127.999995231629,4|0,0:0|0:0,0:0:0:0:
328,56,13598,2,0,P|384:24|448:40,1,127.999995231629
422,158,13950,1,0,0:0:0:0:
416,168,14067,2,0,B|402:206|402:206|424:304,1,127.999995231629
248,72,14536,2,0,L|117:68,1,127.999995231629
48,256,15005,22,0,P|104:272|168:256,1,63.9999976158143,0|0,0:0|2:0,0:0:0:0:
216,360,15239,2,0,P|160:344|96:360,1,63.9999976158143,0|0,0:0|2:0,0:0:0:0:
296,344,15473,1,0,0:0:0:0:
362,295,15590,1,0,0:0:0:0:
397,220,15707,1,0,0:0:0:0:
391,138,15824,1,0,0:0:0:0:
346,69,15941,1,0,0:0:0:0:
274,31,16058,1,0,0:0:0:0:
191,32,16176,1,0,0:0:0:0:
120,73,16293,1,0,0:0:0:0:
83,148,16411,2,0,P|92:181|104:208,1,63.9999976158143
80,336,16645,2,0,P|68:312|57:277,1,63.9999976158143
176,168,16880,21,4,0:1:0:0:
256,176,16997,1,0,0:0:0:0:
328,208,17114,2,0,L|352:272,1,63.9999976158143,0|0,0:0|2:0,0:0:0:0:
176,168,17348,2,0,P|162:103|184:48,1,127.999995231629,2|0,1:2|0:0,0:0:0:0:
280,32,17700,1,0,0:0:0:0:
368,64,17817,2,0,P|360:101|350:131,1,63.9999976158143,0|0,0:0|2:0,0:0:0:0:
304,296,18051,1,0,0:0:0:0:
304,296,18286,2,0,P|376:300|392:256,1,127.999995231629,2|0,0:2|0:0,0:0:0:0:
256,176,18637,21,0,0:0:0:0:
176,168,18755,1,0,0:0:0:0:
104,200,18872,2,0,B|88:248|88:248|120:320,1,127.999995231629
264,384,19223,2,0,L|239:326,1,63.9999976158143,2|0,0:2|0:0,0:0:0:0:
336,176,19458,2,0,L|361:234,1,63.9999976158143
232,376,19692,2,0,L|207:318,1,63.9999976158143
352,352,19926,1,0,0:0:0:0:
72,376,20161,1,2,0:2:0:0:
16,120,20395,5,0,0:0:0:0:
72,64,20512,1,0,0:0:0:0:
144,32,20630,1,4,0:0:0:0:
104,280,20864,1,0,0:0:0:0:
256,80,21098,1,2,0:2:0:0:
216,328,21333,1,0,0:0:0:0:
368,32,21567,1,0,0:0:0:0:
328,280,21801,1,0,0:0:0:0:
48,152,22036,2,0,B|88:152|128:160|128:160|152:144|152:144|184:144|232:160,1,192.000000171661,2|0,0:2|0:0,0:0:0:0:
72,344,22505,21,0,0:0:0:0:
328,280,22739,1,0,0:0:0:0:
63,347,22973,2,0,P|129:326|186:313,1,127.999995231629,6|0,0:2|0:0,0:0:0:0:
200,232,23325,1,0,0:0:0:0:
112,8,23559,1,0,0:0:0:0:
96,88,23676,1,0,0:0:0:0:
96,88,23911,2,0,P|153:145|248:112,1,192.000000171661,2|0,0:2|0:0,0:0:0:0:
256,96,24262,1,0,0:0:0:0:
336,152,24380,22,0,L|329:223,1,63.9999976158143,0|0,0:0|2:0,0:0:0:0:
112,280,24614,2,0,L|119:209,1,63.9999976158143,0|0,0:0|1:0,0:0:0:0:
200,256,24848,2,0,L|216:385,1,127.999995231629,2|0,0:2|0:0,0:0:0:0:
231,376,25200,1,0,0:0:0:0:
328,312,25317,2,0,L|336:240,1,63.9999976158143
344,160,25551,1,0,0:0:0:0:
240,200,25669,1,0,0:0:0:0:
336,320,25786,2,0,L|352:191,1,127.999995231629,2|0,0:2|0:0,0:0:0:0:
368,72,26137,1,0,0:0:0:0:
432,144,26255,6,0,L|504:152,2,63.9999976158143
240,136,26606,1,0,0:0:0:0:
72,256,26723,2,0,P|144:296|192:280,1,127.999995231629,2|0,0:2|0:0,0:0:0:0:
232,120,27192,2,0,L|160:128,2,63.9999976158143
344,96,27544,1,0,0:0:0:0:
464,256,27661,2,0,P|392:296|344:280,1,127.999995231629,2|0,0:2|0:0,0:0:0:0:
288,232,28012,1,0,0:0:0:0:
337,159,28130,22,0,L|345:79,1,63.9999976158143
272,240,28364,2,0,L|264:320,1,63.9999976158143
128,352,28598,2,0,P|56:312|8:328,1,127.999995231629,2|0,0:2|0:0,0:0:0:0:
144,240,28950,2,0,P|184:184|200:168,1,63.9999976158143,0|0,0:0|2:0,0:0:0:0:
240,128,29184,2,0,P|200:72|184:56,1,63.9999976158143,0|0,0:0|2:0,0:0:0:0:
8,200,29419,2,0,P|80:240|128:224,1,127.999995231629,0|0,0:0|1:0,0:0:0:0:
224,288,29770,2,0,P|296:248|344:264,1,127.999995231629,0|4,0:0|0:0,0:0:0:0:
472,64,30239,5,0,0:0:0:0:
344,256,30473,1,0,0:0:0:0:
464,72,30708,2,0,L|472:152,1,63.9999976158143
328,272,30942,2,0,L|320:352,1,63.9999976158143
224,240,31176,1,0,0:0:0:0:
234,159,31294,1,0,0:0:0:0:
104,224,31411,2,0,L|88:376,1,127.999995231629
8,136,31880,21,4,0:0:0:0:
224,256,32114,2,0,P|296:272|336:208,1,127.999995231629,0|0,0:0|1:0,0:0:0:0:
488,152,32465,2,0,P|416:136|376:200,1,127.999995231629,0|0,1:0|1:0,0:0:0:0:
360,344,32817,2,0,P|440:368|488:248,1,191.999992847443
488,280,33286,1,0,0:0:0:0:
264,168,33520,2,0,L|120:160,1,127.999995231629,0|4,0:0|0:0,0:0:0:0:
312,80,33989,5,0,0:0:0:0:
136,248,34223,1,0,0:0:0:0:
128,256,34340,2,0,L|272:264,1,127.999995231629
40,352,34692,2,0,B|27:314|27:314|48:216,1,127.999995231629
168,72,35044,2,0,P|88:48|40:168,1,191.999992847443
34,142,35512,1,0,0:0:0:0:
40,160,35630,1,0,0:0:0:0:
323,304,35864,22,0,P|251:320|211:256,1,127.999995231629
378,234,36215,2,0,P|450:218|490:282,1,127.999995231629
292,215,36567,2,0,P|268:135|388:87,1,191.999992847443
356,87,37036,1,0,0:0:0:0:
423,319,37270,1,0,0:0:0:0:
201,354,37505,5,0,0:0:0:0:
126,250,37739,1,0,0:0:0:0:
153,125,37973,1,0,0:0:0:0:
268,69,38208,1,0,0:0:0:0:
289,291,38442,2,0,P|353:327|442:306,1,127.999995231629
120,240,38911,2,0,P|56:239|3:273,1,127.999995231629
48,32,39380,5,4,0:0:0:0:
56,32,39614,2,0,B|72:80|72:80|32:152,1,127.999995231629
192,208,39965,2,0,L|316:172,1,127.999995231629
456,272,40317,2,0,L|332:308,1,127.999995231629
328,320,40669,1,0,0:0:0:0:
160,96,41020,1,0,0:0:0:0:
384,64,41255,21,0,0:0:0:0:
372,64,41489,2,0,P|368:120|416:168,1,127.999995231629
304,24,41840,2,0,P|241:4|184:24,1,127.999995231629
160,208,42192,2,0,P|224:222|256:176,1,127.999995231629
248,160,42544,1,0,0:0:0:0:
240,144,42661,1,0,0:0:0:0:
136,304,42895,1,0,0:0:0:0:
80,80,43130,6,0,L|208:64,1,127.999995231629,4|0,0:0|0:0,0:0:0:0:
440,96,43598,2,0,L|312:112,1,127.999995231629
304,96,43950,1,0,0:0:0:0:
296,80,44067,1,0,0:0:0:0:
400,8,44301,1,0,0:0:0:0:
480,184,44536,2,0,B|488:200|488:200|360:216,1,127.999995231629
184,232,45004,1,0,0:0:0:0:
48,40,45239,22,0,L|32:104,1,63.9999976158143
56,240,45473,2,0,L|72:176,1,63.9999976158143
104,312,45708,1,0,0:0:0:0:
184,336,45825,1,0,0:0:0:0:
264,312,45942,1,0,0:0:0:0:
288,232,46059,1,0,0:0:0:0:
264,152,46176,1,0,0:0:0:0:
288,72,46294,1,0,0:0:0:0:
368,48,46411,2,0,L|424:80,1,63.9999976158143
480,200,46645,2,0,L|424:168,1,63.9999976158143
408,168,46880,6,0,P|384:224|368:288,1,127.999995231629,4|0,0:0|0:2,0:0:0:0:
376,296,47700,1,2,0:2:0:0:
496,112,48520,1,2,1:2:0:0:
448,40,48755,2,0,P|351:28|256:24,1,191.999992847443
248,32,49575,2,0,P|238:68|232:96,1,63.9999976158143
296,208,49926,2,0,P|306:172|312:144,1,63.9999976158143,0|2,0:0|0:2,0:0:0:0:
160,320,50630,6,0,P|128:264|88:200,1,127.999995231629
88,199,51450,1,2,0:2:0:0:
248,328,52270,1,2,0:2:0:0:
280,256,52505,2,0,P|328:232|464:192,1,191.999992847443
475,190,53325,2,0,P|488:232|496:256,1,63.9999976158143
328,144,53676,2,0,P|315:102|307:78,1,63.9999976158143,0|2,0:0|0:2,0:0:0:0:
32,112,54380,6,0,L|129:103,1,96.0000000858307,4|2,0:0|0:0,0:0:0:0:
280,224,54848,2,0,L|181:215,1,96.0000000858307,0|2,0:0|0:0,0:0:0:0:
120,88,55200,2,0,L|216:76,1,96.0000000858307,0|2,0:0|0:0,0:0:0:0:
416,72,55551,1,0,0:0:0:0:
352,128,55669,1,0,0:0:0:0:
304,64,55786,2,0,P|326:26|376:0,1,96.0000000858307,2|2,0:0|0:0,0:0:0:0:
80,208,56255,22,0,L|104:304,1,96.0000000858307,0|2,0:0|0:0,0:0:0:0:
256,248,56723,2,0,L|280:340,1,96.0000000858307,0|2,0:0|0:0,0:0:0:0:
400,200,57075,2,0,L|424:296,1,96.0000000858307,0|2,0:0|0:0,0:0:0:0:
192,184,57426,1,0,0:0:0:0:
253,239,57544,1,0,0:0:0:0:
304,176,57661,2,0,P|286:146|237:107,1,96.0000000858307,2|2,0:0|0:0,0:0:0:0:
104,40,58130,6,0,P|80:64|56:120,1,96.0000000858307,0|2,0:0|0:0,0:0:0:0:
408,192,58598,2,0,P|432:168|451:109,1,96.0000000858307,0|2,0:0|0:0,0:0:0:0:
184,192,58950,2,0,L|192:288,1,96.0000000858307,0|2,0:0|0:0,0:0:0:0:
384,312,59301,1,0,0:0:0:0:
323,367,59419,1,0,0:0:0:0:
272,304,59536,2,0,P|288:280|342:233,1,96.0000000858307,2|2,0:0|0:0,0:0:0:0:
304,64,60005,22,0,L|312:128,1,48.0000000429154,2|0,0:0|0:0,0:0:0:0:
200,96,60239,2,0,L|192:32,1,48.0000000429154,2|0,0:0|0:0,0:0:0:0:
392,104,60473,1,2,0:0:0:0:
406,182,60590,1,0,0:0:0:0:
418,262,60708,2,0,L|410:310,1,48.0000000429154,2|0,0:0|0:0,0:0:0:0:
192,272,60942,5,0,0:0:0:0:
160,352,61059,1,0,0:0:0:0:
112,288,61176,1,0,0:0:0:0:
72,360,61294,1,0,0:0:0:0:
32,288,61411,2,0,L|56:144,1,144.000000128746,0|0,2:0|2:0,2:0:0:0:
128,24,61880,6,0,L|112:120,1,63.9999976158143,0|0,1:0|0:0,0:0:0:0:
240,216,62114,2,0,L|224:120,1,63.9999976158143
408,112,62348,2,0,L|384:248,1,127.999995231629
476,144,62700,1,0,0:0:0:0:
408,104,62817,2,0,P|376:88|336:80,1,63.9999976158143
312,224,63051,1,0,0:0:0:0:
304,144,63169,2,0,P|240:123|176:120,1,127.999995231629
8,176,63520,2,0,P|40:192|80:192,1,63.9999976158143
112,24,63755,22,0,L|96:88,1,63.9999976158143
24,352,64106,2,0,L|40:288,1,63.9999976158143,0|0,0:0|2:0,0:0:0:0:
256,328,64340,2,0,L|272:264,1,63.9999976158143,0|0,0:0|2:0,0:0:0:0:
488,352,64575,2,0,L|504:288,1,63.9999976158143,0|0,0:0|2:0,0:0:0:0:
416,80,64809,2,0,B|396:160|396:160|432:216,1,127.999995231629
400,336,65161,2,0,L|364:282,1,63.9999976158143,0|0,0:0|2:0,0:0:0:0:
224,128,65395,2,0,L|260:182,1,63.9999976158143,0|0,0:0|2:0,0:0:0:0:
216,120,65630,6,0,L|88:136,1,127.999995231629,4|0,0:0|0:0,0:0:0:0:
264,192,65981,2,0,L|392:176,1,127.999995231629
368,40,66333,2,0,L|404:94,1,63.9999976158143
360,32,66567,2,0,B|232:48,1,127.999995231629,4|0,0:0|0:0,0:0:0:0:
64,208,66919,2,0,L|192:192,1,127.999995231629
144,40,67270,21,0,0:0:0:0:
72,16,67387,1,0,0:0:0:0:
24,72,67505,2,0,L|40:136,1,63.9999976158143
224,352,67856,2,0,L|192:224,1,127.999995231629
240,8,68208,6,0,L|272:136,1,127.999995231629
328,208,68559,1,0,0:0:0:0:
424,192,68676,1,0,0:0:0:0:
360,120,68794,1,0,0:0:0:0:
320,216,68911,2,0,P|303:254|296:280,1,63.9999976158143,0|0,0:0|2:0,0:0:0:0:
432,184,69145,2,0,P|449:146|456:120,1,63.9999976158143,0|0,0:0|2:0,0:0:0:0:
320,200,69380,5,4,0:0:0:0:
216,248,69536,1,0,0:0:0:0:
224,136,69692,1,2,3:0:0:0:
336,208,69848,5,8,0:0:0:0:
200,256,70005,1,0,0:0:0:0:
176,120,70161,1,0,0:0:0:0:
352,216,70317,21,0,0:0:0:0:
182,268,70473,1,0,0:0:0:0:
128,96,70630,1,2,3:0:0:0:
40,240,70786,6,0,L|16:400,1,128.000000114441,8|0,0:0|0:0,0:0:0:0:
192,200,71255,21,0,0:0:0:0:
296,248,71411,1,0,0:0:0:0:
288,136,71567,1,2,3:0:0:0:
176,208,71723,5,8,0:0:0:0:
312,256,71880,1,0,0:0:0:0:
336,120,72036,1,0,0:0:0:0:
160,216,72192,21,0,0:0:0:0:
328,266,72348,1,0,0:0:0:0:
384,96,72505,1,2,3:0:0:0:
472,240,72661,6,8,L|496:400,1,128.000000114441,8|0,0:0|0:0,0:0:0:0:
304,360,73130,21,0,0:0:0:0:
144,304,73286,1,0,0:0:0:0:
280,184,73442,1,2,3:0:0:0:
136,312,73598,6,0,P|72:328|8:280,1,128.000000114441,8|0,0:0|0:0,0:0:0:0:
192,200,74067,21,0,0:0:0:0:
352,144,74223,1,0,0:0:0:0:
208,32,74379,1,2,3:0:0:0:
360,152,74535,6,0,P|424:168|488:120,1,128.000000114441,8|0,0:0|0:0,0:0:0:0:
304,224,75005,22,0,L|289:312,1,48.0000000429154
208,352,75239,2,0,L|223:264,1,48.0000000429154
184,88,75473,6,0,L|200:181,1,63.9999976158143
280,216,75707,2,0,L|264:124,1,63.9999976158143
328,0,75942,22,0,L|311:91,1,63.9999976158143
392,120,76176,1,0,0:0:0:0:
416,40,76294,1,0,0:0:0:0:
388,132,76411,2,0,L|404:196,1,63.9999976158143,0|0,0:0|2:0,0:0:0:0:
496,284,76645,2,0,L|480:220,1,63.9999976158143,0|0,0:0|2:0,0:0:0:0:
280,216,76880,21,0,0:0:0:0:
224,276,76997,1,0,0:0:0:0:
252,352,77114,2,0,L|316:368,1,63.9999976158143
276,204,77348,2,0,L|144:172,1,127.999995231629,2|0,0:2|0:0,0:0:0:0:
320,288,77817,2,0,L|452:320,1,127.999995231629
280,192,78286,1,2,0:2:0:0:
336,136,78403,1,0,0:0:0:0:
416,128,78520,2,0,L|448:184,1,63.9999976158143
328,120,78755,5,0,0:0:0:0:
323,108,78872,1,0,0:0:0:0:
376,224,78989,2,0,L|408:280,1,63.9999976158143
416,128,79223,21,2,0:2:0:0:
421,116,79340,1,0,0:0:0:0:
320,280,79457,2,0,L|288:336,1,63.9999976158143
216,192,79692,5,0,0:0:0:0:
211,180,79809,1,0,0:0:0:0:
240,272,79926,1,0,0:0:0:0:
200,352,80044,1,0,0:0:0:0:
123,305,80161,2,0,L|152:248,1,63.9999976158143,2|0,0:2|0:0,0:0:0:0:
48,280,80395,2,0,L|19:337,1,63.9999976158143
88,208,80630,21,0,0:0:0:0:
236,284,80747,2,0,L|204:348,1,63.9999976158143
312,192,80981,2,0,L|504:192,1,192.000000171661
352,112,81333,2,0,L|288:112,1,63.9999976158143
360,272,81567,5,0,0:0:0:0:
448,112,81684,2,0,L|480:48,1,63.9999976158143
200,192,81919,2,0,L|8:192,1,192.000000171661
48,112,82270,1,0,0:0:0:0:
160,272,82387,1,0,0:0:0:0:
352,284,82505,5,4,0:0:0:0:
152,284,82739,1,0,0:0:0:0:
344,296,82973,2,0,P|408:304|448:260,1,127.999995231629,2|0,0:2|0:0,0:0:0:0:
264,272,83325,1,0,0:0:0:0:
260,284,83442,2,0,L|236:348,2,63.9999976158143
276,72,83794,2,0,B|253:131|253:131|185:159,1,127.999995231629
388,168,84145,6,0,L|455:141,1,63.9999976158143
280,60,84380,2,0,L|213:33,1,63.9999976158143
56,128,84614,2,0,L|123:101,1,63.9999976158143
276,200,84848,2,0,L|209:227,1,63.9999976158143,2|0,0:2|0:0,0:0:0:0:
120,96,85083,2,0,L|140:36,1,63.9999976158143
205,230,85317,1,0,0:0:0:0:
201,242,85551,2,0,L|181:302,1,63.9999976158143
384,339,85786,5,2,0:2:0:0:
416,256,85903,2,0,P|412:220|396:196,1,63.9999976158143
264,296,86137,1,0,0:0:0:0:
258,313,86255,2,0,L|238:373,1,63.9999976158143
124,206,86489,2,0,L|144:146,1,63.9999976158143
344,280,86723,6,0,P|368:316|376:344,1,63.9999976158143,2|0,0:2|0:0,0:0:0:0:
512,195,86958,2,0,P|472:179|444:167,1,63.9999976158143
316,123,87192,2,0,P|388:95|448:67,1,127.999995231629
316,206,87544,2,0,P|244:234|184:262,1,127.999995231629
20,248,87895,5,0,0:0:0:0:
16,168,88012,1,0,0:0:0:0:
92,200,88130,2,0,P|116:260|108:332,1,127.999995231629
16,152,88481,2,0,P|68:108|136:76,1,127.999995231629
304,96,88833,22,0,P|272:108|236:128,1,63.9999976158143
324,264,89067,1,0,0:0:0:0:
336,252,89184,2,0,P|324:220|312:192,1,63.9999976158143
136,80,89419,2,0,P|156:144|188:207,1,127.999995231629
404,152,89770,2,0,P|416:120|428:92,1,63.9999976158143
372,28,90005,21,4,0:0:0:0:
244,128,90239,1,8,0:0:0:0:
396,192,90473,1,0,0:0:0:0:
296,56,90708,1,8,0:0:0:0:
312,220,90942,6,0,L|296:372,1,144.000000128746,4|0,0:0|0:0,0:0:0:0:
380,341,91411,22,0,B|391:311|391:311|383:277,1,63.9999976158143
144,304,91645,2,0,B|133:334|133:334|141:368,1,63.9999976158143
212,224,91880,6,0,B|196:184|196:184|160:160|64:152,1,127.999995231629,4|0,0:0|0:0,0:0:0:0:
244,20,92348,1,0,0:0:0:0:
340,184,92583,1,0,0:0:0:0:
370,257,92700,1,0,0:0:0:0:
420,196,92817,2,0,P|400:128|332:92,1,127.999995231629
264,208,93169,2,0,B|244:256|264:284|248:340,1,127.999995231629
72,260,93520,2,0,P|75:223|84:192,1,63.9999976158143
72,36,93755,6,0,P|88:68|100:96,1,63.9999976158143
256,144,94106,2,0,P|272:176|284:204,1,63.9999976158143
440,36,94458,2,0,P|456:68|468:96,1,63.9999976158143
424,24,94692,2,0,P|368:44|312:88,1,127.999995231629
200,36,95044,2,0,P|144:56|88:100,1,127.999995231629
88,288,95395,1,0,0:0:0:0:
164,276,95512,1,0,0:0:0:0:
192,204,95630,22,0,L|68:176,1,127.999995231629,4|0,0:0|0:0,0:0:0:0:
56,156,96098,2,0,L|180:184,1,127.999995231629
412,328,96567,2,0,L|345:312,1,63.9999976158143
336,292,96919,2,0,L|460:320,1,127.999995231629
296,224,97270,2,0,P|304:192|316:160,1,63.9999976158143
336,80,97505,22,0,L|429:59,1,63.9999976158143,0|0,0:0|2:0,0:0:0:0:
320,72,97739,2,0,L|196:100,1,127.999995231629
152,344,98208,2,0,L|85:360,1,63.9999976158143
232,248,98442,2,0,L|165:264,1,63.9999976158143
336,352,98794,2,0,P|414:373|460:324,1,127.999995231629
488,280,99145,1,0,0:0:0:0:
464,200,99262,1,0,0:0:0:0:
384,168,99380,22,0,B|373:189|365:214|365:214|371:252|392:304,1,127.999995231629
216,376,99848,2,0,P|202:322|168:240,1,127.999995231629
200,136,100200,1,0,0:0:0:0:
136,184,100317,2,0,L|8:168,1,127.999995231629
192,240,100669,2,0,L|320:256,1,127.999995231629
432,328,101020,2,0,L|368:320,1,63.9999976158143
472,184,101255,22,0,P|465:216|456:248,1,63.9999976158143
456,168,101606,2,0,P|449:200|440:232,1,63.9999976158143
224,120,101958,2,0,P|231:88|240:56,1,63.9999976158143
424,240,102192,2,0,P|368:256|288:240,1,127.999995231629
256,48,102544,2,0,P|312:32|392:48,1,127.999995231629
208,136,102895,2,0,P|176:136|144:128,1,63.9999976158143
64,112,103130,22,0,L|80:240,1,127.999995231629
67,256,103598,2,0,L|51:128,1,127.999995231629
248,296,104067,2,0,L|232:363,1,63.9999976158143
424,288,104419,2,0,P|449:225|452:164,1,127.999995231629
176,208,104770,2,0,L|160:275,1,63.9999976158143
16,192,105005,6,0,L|0:64,1,127.999995231629
128,120,105356,1,0,0:0:0:0:
182,219,105473,2,0,L|166:286,1,63.9999976158143
336,352,105708,2,0,L|320:285,1,63.9999976158143
496,192,105942,22,0,L|512:64,1,127.999995231629
376,128,106294,1,0,0:0:0:0:
328,280,106411,2,0,P|361:294|407:281,1,63.9999976158143
400,208,106645,1,0,0:0:0:0:
320,184,106762,1,0,0:0:0:0:
248,224,106880,1,6,0:0:0:0:
368,216,114380,6,0,P|374:148|368:88,1,127.999995231629,0|2,0:0|0:0,0:0:0:0:
136,128,114848,2,0,P|130:196|136:256,1,127.999995231629,0|2,0:0|0:0,0:0:0:0:
123,246,115200,2,0,P|117:182|123:118,1,127.999995231629
216,152,115551,1,2,0:0:0:0:
40,320,115786,1,0,0:0:0:0:
128,136,116020,1,0,0:0:0:0:
232,368,116255,22,0,P|272:318|321:277,1,127.999995231629,0|2,0:0|0:0,0:0:0:0:
496,128,116723,2,0,P|432:134|368:128,1,127.999995231629,0|2,0:0|0:0,0:0:0:0:
194,196,117075,2,0,P|257:189|321:195,1,127.999995231629,0|2,0:0|0:0,0:0:0:0:
256,272,117426,1,0,0:0:0:0:
200,96,117661,2,0,L|184:24,1,63.9999976158143,0|0,0:0|2:0,0:0:0:0:
48,256,117895,2,0,L|32:184,1,63.9999976158143,0|0,0:0|2:0,0:0:0:0:
184,200,118130,6,0,P|168:288|160:344,1,127.999995231629,0|2,0:0|0:0,0:0:0:0:
392,176,118598,2,0,P|401:112|413:49,1,127.999995231629,0|2,0:0|0:0,0:0:0:0:
488,32,118950,1,0,0:0:0:0:
448,360,119301,22,0,L|432:280,1,63.9999976158143,0|0,0:0|2:0,0:0:0:0:
256,336,119536,2,0,L|240:256,1,63.9999976158143,0|0,0:0|2:0,0:0:0:0:
64,360,119770,2,0,L|48:280,1,63.9999976158143,0|0,0:0|2:0,0:0:0:0:
264,280,120005,6,0,L|280:360,1,63.9999976158143,2|0,0:0|2:0,0:0:0:0:
360,248,120239,1,0,0:0:0:0:
304,0,120473,1,0,0:0:0:0:
328,80,120590,1,0,0:0:0:0:
296,160,120708,1,0,0:0:0:0:
216,192,120825,1,0,0:0:0:0:
136,160,120942,22,0,L|128:128,7,31.9999988079071
136,160,121411,2,0,P|112:232|96:288,1,127.999995231629
32,72,121880,22,0,P|101:27|176:32,1,159.999994039536,6|0,0:0|0:0,0:0:0:0:
312,304,122348,2,0,P|243:349|168:344,1,159.999994039536
48,96,122700,2,0,P|117:51|192:56,1,159.999994039536,2|0,0:0|0:0,0:0:0:0:
312,136,123051,1,0,0:0:0:0:
416,296,123286,2,0,P|434:255|440:216,1,79.9999970197678,2|0,0:0|2:0,0:0:0:0:
296,144,123520,2,0,P|278:185|272:224,1,79.9999970197678,2|0,0:0|2:0,0:0:0:0:
400,136,123755,1,4,0:0:0:0:
200,336,123989,22,0,P|112:336|56:296,1,159.999994039536,2|0,0:0|0:0,0:0:0:0:
168,176,124340,2,0,P|163:221|144:248,1,79.9999970197678,0|0,0:0|2:0,0:0:0:0:
8,176,124575,2,0,B|3:132|32:104|32:104|96:40,1,159.999994039536,2|0,0:0|0:0,0:0:0:0:
208,32,124926,2,0,L|160:96,1,79.9999970197678,2|0,0:0|2:0,0:0:0:0:
312,168,125161,2,0,L|264:104,1,79.9999970197678,0|0,0:0|2:0,0:0:0:0:
416,40,125395,2,0,L|368:104,1,79.9999970197678,2|0,0:0|2:0,0:0:0:0:
432,248,125630,6,0,P|476:180|472:104,1,159.999994039536,4|0,0:0|0:0,0:0:0:0:
136,280,126098,2,0,B|154:313|192:320|192:320|278:286,1,159.999994039536,2|0,0:0|0:0,0:0:0:0:
376,144,126450,2,0,B|358:111|320:104|320:104|234:138,1,159.999994039536
112,200,126801,1,2,0:0:0:0:
400,280,127036,1,0,0:0:0:0:
112,360,127270,1,2,0:0:0:0:
400,200,127505,21,0,0:0:0:0:
112,120,127739,1,2,0:0:0:0:
400,40,127973,2,0,P|335:96|264:96,1,159.999994039536
204,44,128325,1,2,0:0:0:0:
132,8,128442,1,0,0:0:0:0:
52,24,128559,1,0,0:0:0:0:
8,92,128676,1,0,0:0:0:0:
96,320,128911,1,0,0:0:0:0:
0,112,129145,2,0,P|8:200|40:264,1,159.999994039536
296,160,129614,6,0,P|216:154|144:184,1,159.999994039536
256,344,129965,2,0,P|336:350|408:320,1,159.999994039536,2|0,0:0|0:0,0:0:0:0:
296,136,130317,2,0,P|216:130|144:160,1,159.999994039536
424,304,130786,2,0,P|439:263|456:224,1,79.9999970197678,2|0,0:0|2:0,0:0:0:0:
312,152,131020,2,0,P|297:193|280:232,1,79.9999970197678,2|0,0:0|2:0,0:0:0:0:
128,144,131255,1,0,0:0:0:0:
400,56,131489,21,0,0:0:0:0:
400,320,131723,2,0,P|292:364|176:336,1,239.999991059303,2|0,0:0|0:0,0:0:0:0:
144,168,132192,2,0,P|165:202|176:240,1,79.9999970197678,0|0,0:0|2:0,0:0:0:0:
64,360,132426,2,0,P|43:326|32:288,1,79.9999970197678,2|0,0:0|2:0,0:0:0:0:
160,152,132661,2,0,P|181:186|192:224,1,79.9999970197678,2|0,0:0|2:0,0:0:0:0:
80,344,132895,2,0,P|59:310|48:272,1,79.9999970197678,2|0,0:0|2:0,0:0:0:0:
48,128,133130,1,0,0:0:0:0:
272,296,133364,22,0,P|319:239|392:176,1,159.999994039536
440,96,133715,2,0,P|352:96|296:40,1,159.999994039536,2|0,0:0|0:0,0:0:0:0:
455,104,134067,2,0,P|472:150|471:192,1,79.9999970197678,0|0,0:0|2:0,0:0:0:0:
224,216,134301,2,0,P|226:176|241:139,1,79.9999970197678,0|0,0:0|2:0,0:0:0:0:
368,280,134536,2,0,L|384:376,1,79.9999970197678,2|0,0:0|2:2,0:0:0:0:
456,256,134770,1,0,0:0:0:0:
160,32,135005,6,0,B|120:80|120:80|136:120|136:200,1,159.999994039536,0|2,0:0|0:0,0:0:0:0:
88,264,135356,1,0,0:0:0:0:
0,216,135473,2,0,P|24:168|56:152,1,79.9999970197678
224,216,135708,1,0,0:0:0:0:
320,256,135825,1,0,0:0:0:0:
416,216,135942,2,0,P|456:184|488:168,1,79.9999970197678
240,352,136176,2,0,L|150:354,1,79.9999970197678,0|0,3:0|3:0,3:0:0:0:
151,346,136411,22,0,L|403:337,1,239.999991059303,0|0,3:0|3:0,3:0:0:0:
144,336,136880,21,0,1:0:0:0:
72,328,136997,1,0,0:0:0:0:
16,280,137114,2,0,L|56:192,1,96.0000000858307
168,128,137465,2,0,L|128:216,1,96.0000000858307
136,224,137817,1,0,1:0:0:0:
176,112,138051,21,0,0:0:0:0:
248,96,138169,1,0,0:0:0:0:
320,80,138286,2,0,P|330:105|336:136,1,48.0000000429154
456,224,138520,1,0,0:0:0:0:
384,240,138638,1,0,0:0:0:0:
312,256,138755,2,0,P|302:231|296:200,1,48.0000000429154,0|0,1:0|0:0,0:0:0:0:
248,320,138989,6,0,P|238:295|232:264,1,48.0000000429154
72,216,139223,2,0,P|112:240|160:240,1,96.0000000858307
256,336,139575,2,0,L|304:344,1,48.0000000429154,0|0,0:0|1:0,0:0:0:0:
312,336,139926,2,0,L|168:312,1,144.000000128746
320,192,140395,5,0,0:0:0:0:
390,204,140512,1,0,0:0:0:0:
463,216,140630,2,0,L|479:160,1,48.0000000429154,0|0,1:0|0:0,0:0:0:0:
316,184,140864,1,0,0:0:0:0:
192,240,140981,1,0,0:0:0:0:
259,94,141098,2,0,L|267:30,1,48.0000000429154
256,35,141333,6,0,L|240:170,1,96.0000000858307,0|0,1:0|1:0,0:0:0:0:
88,208,141684,2,0,L|80:272,1,48.0000000429154
10,168,141919,2,0,P|48:127|106:120,1,96.0000000858307
196,245,142270,2,0,L|256:256,1,48.0000000429154,0|0,1:0|0:0,0:0:0:0:
480,184,142505,22,0,B|438:218|416:264,1,96.0000000858307,0|0,1:0|0:0,0:0:0:0:
331,204,142856,2,0,P|291:236|259:276,1,96.0000000858307,0|0,1:0|0:0,0:0:0:0:
192,168,143208,2,0,L|120:168,1,48.0000000429154,0|0,1:0|0:0,0:0:0:0:
248,88,143442,5,0,1:0:0:0:
320,200,143559,1,0,0:0:0:0:
360,104,143676,1,0,1:0:0:0:
208,258,143794,2,0,L|216:386,1,96.0000000858307,0|0,1:0|0:0,0:0:0:0:
80,344,144145,6,0,L|24:336,1,48.0000000429154,0|0,1:0|0:0,0:0:0:0:
64,128,144380,2,0,P|80:176|88:240,1,96.0000000858307,0|0,1:0|0:0,0:0:0:0:
312,256,144731,2,0,L|216:240,1,96.0000000858307
160,328,145083,1,0,1:0:0:0:
264,344,145200,1,0,0:0:0:0:
328,248,145317,2,0,P|352:200|360:152,1,96.0000000858307,0|0,1:0|0:0,0:0:0:0:
472,328,145669,2,0,P|424:328|376:304,1,96.0000000858307
248,192,146020,22,0,P|253:169|264:144,1,48.0000000429154
448,80,146255,2,0,P|472:128|480:176,1,96.0000000858307,0|0,1:0|0:0,0:0:0:0:
368,296,146606,1,0,0:0:0:0:
240,272,146723,2,0,P|206:263|186:255,1,48.0000000429154,0|0,1:0|0:0,0:0:0:0:
272,128,146958,1,0,0:0:0:0:
384,288,147192,1,0,1:0:0:0:
72,160,147426,2,0,P|120:144|168:136,1,96.0000000858307,0|2,0:0|0:0,0:0:0:0:
400,184,147895,21,0,0:0:0:0:
400,184,148130,2,0,L|424:80,1,96.0000000858307,0|0,1:0|0:0,0:0:0:0:
320,208,148481,1,0,0:0:0:0:
248,168,148598,2,0,P|208:208|176:248,1,96.0000000858307,0|0,0:0|1:0,0:0:0:0:
64,304,148950,2,0,P|51:331|56:360,1,48.0000000429154,0|0,0:0|1:0,0:0:0:0:
79,297,149184,2,0,L|95:177,1,96.0000000858307
40,136,149536,1,0,0:0:0:0:
224,48,149770,1,0,1:0:0:0:
168,280,150005,6,0,P|216:320|272:296,1,96.0000000858307,0|0,1:0|0:0,0:0:0:0:
304,264,150356,1,0,1:0:0:0:
384,272,150473,2,0,L|392:336,1,48.0000000429154
464,184,150708,1,0,1:0:0:0:
384,160,150825,1,0,0:0:0:0:
304,136,150942,2,0,L|296:56,1,48.0000000429154,0|0,1:0|0:0,0:0:0:0:
176,160,151176,1,0,0:0:0:0:
96,184,151294,1,0,1:0:0:0:
16,200,151411,2,0,L|0:312,1,96.0000000858307,0|0,1:0|1:0,0:0:0:0:
16,304,151762,1,0,0:0:0:0:
352,32,153755,5,0,0:0:0:0:
432,56,153872,2,0,P|464:112|480:184,1,127.999995231629
280,248,154223,2,0,P|296:208|312:184,1,63.9999976158143,8|0,0:0|0:0,0:0:0:0:
392,216,154458,1,0,0:0:0:0:
360,296,154575,1,0,0:0:0:0:
280,264,154692,1,0,0:0:0:0:
200,232,154809,2,0,P|168:296|144:360,1,127.999995231629
312,376,155161,2,0,P|281:357|248:344,1,63.9999976158143,8|0,0:0|0:0,0:0:0:0:
88,168,155395,2,0,P|144:200|216:208,1,127.999995231629
376,32,155747,22,0,P|312:48|256:72,1,127.999995231629
392,192,156098,2,0,P|423:201|456:208,1,63.9999976158143,8|0,0:0|0:0,0:0:0:0:
272,304,156333,2,0,P|207:284|144:272,1,127.999995231629
128,280,156684,1,0,0:0:0:0:
368,336,156919,1,0,0:0:0:0:
472,112,157153,1,0,0:0:0:0:
488,120,157270,2,0,P|472:184|448:256,1,127.999995231629
160,160,157739,6,0,P|167:195|176:224,1,63.9999976158143
256,168,157973,1,8,0:0:0:0:
160,136,158090,1,0,0:0:0:0:
80,192,158208,2,0,P|87:227|96:256,1,63.9999976158143
240,80,158442,2,0,P|176:43|120:48,1,127.999995231629
96,272,158794,2,0,P|160:309|216:304,1,127.999995231629
328,120,159145,22,0,P|312:160|304:184,1,63.9999976158143
480,360,159380,2,0,P|456:296|416:240,1,127.999995231629
424,224,159848,2,0,P|448:256|464:280,1,63.9999976158143
384,328,160083,1,0,0:0:0:0:
296,352,160200,1,0,0:0:0:0:
208,328,160317,2,0,B|168:296|168:296|152:208,1,127.999995231629
272,8,160669,2,0,L|295:138,1,127.999995231629
144,144,161020,2,0,P|182:137|217:139,1,63.9999976158143
424,208,161255,22,0,P|360:232|304:272,1,127.999995231629,8|0,0:0|0:0,0:0:0:0:
367,149,161606,1,0,0:0:0:0:
376,138,161723,2,0,P|384:104|376:72,1,63.9999976158143,8|0,0:0|0:0,0:0:0:0:
304,272,161958,2,0,L|296:336,1,63.9999976158143
224,184,162192,2,0,L|232:120,1,63.9999976158143,8|0,0:0|0:0,0:0:0:0:
136,256,162426,2,0,L|128:320,1,63.9999976158143
40,216,162661,1,8,0:0:0:0:
40,216,162895,1,0,0:0:0:0:
392,328,163130,6,0,L|480:320,1,63.9999976158143,8|0,0:0|0:0,0:0:0:0:
296,272,163364,2,0,L|208:264,1,63.9999976158143
424,88,163598,1,8,0:0:0:0:
225,279,163833,1,0,0:0:0:0:
104,128,164067,1,8,0:0:0:0:
32,96,164184,1,0,0:0:0:0:
112,112,164301,2,0,L|136:184,1,63.9999976158143
256,104,164536,2,0,L|276:43,1,63.9999976158143,8|0,0:0|2:0,0:0:0:0:
408,160,164770,2,0,L|428:99,1,63.9999976158143,0|0,0:0|2:0,0:0:0:0:
232,192,165005,21,8,0:0:0:0:
256,280,165122,2,0,P|312:304|384:256,1,127.999995231629
152,200,165473,2,0,P|152:256|168:336,1,127.999995231629,8|0,0:0|0:0,0:0:0:0:
64,256,165825,1,0,0:0:0:0:
152,339,165942,2,0,P|139:276|138:212,1,127.999995231629,8|0,0:0|0:0,0:0:0:0:
373,212,166294,2,0,P|372:276|360:339,1,127.999995231629
256,360,166645,1,0,0:0:0:0:
216,144,166880,6,8,B|198:115|198:115|204:82|224:56,1,83.1999930919651,8|0,0:0|0:0,0:0:0:0:
304,24,167114,2,0,B|322:53|322:53|316:86|296:112,1,83.1999930919651
208,152,167348,1,8,0:0:0:0:
184,232,167465,1,0,0:0:0:0:
224,304,167583,1,0,0:0:0:0:
304,304,167700,1,0,0:0:0:0:
368,208,167817,2,0,B|339:190|339:190|306:196|280:216,1,83.1999930919651
384,368,168051,1,0,0:0:0:0:
480,264,168169,2,0,B|498:235|498:235|492:202|472:176,1,83.1999930919651
440,120,168403,1,0,0:0:0:0:
262,233,168520,2,0,L|254:329,1,83.1999930919651
262,233,169575,6,0,L|254:329,1,83.1999930919651
272,328,169926,1,0,0:0:0:0:
40,232,170161,2,2,P|104:280|184:264,1,159.999994039536,2|0,0:0|0:0,0:0:0:0:
248,112,170512,2,0,P|208:112|160:136,1,79.9999970197678
400,304,170864,22,0,P|360:232|352:152,1,159.999994039536,2|0,0:0|0:0,0:0:0:0:
440,120,171215,1,2,0:0:0:0:
312,352,171450,2,0,B|288:360|256:368|256:368|216:360|152:336,1,159.999994039536
240,184,171801,2,0,P|248:224|240:272,1,79.9999970197678,2|0,0:0|2:0,0:0:0:0:
144,328,172036,1,0,0:0:0:0:
32,56,172270,6,0,B|88:80|88:80|96:128|144:160,1,159.999994039536,2|0,0:0|0:0,0:0:0:0:
384,40,172739,2,0,P|296:24|216:64,2,159.999994039536
424,144,173325,2,0,B|408:200|408:200|432:240|456:296,1,159.999994039536,2|0,0:0|0:0,0:0:0:0:
400,136,173676,2,0,L|376:224,1,79.9999970197678,0|0,0:0|2:0,0:0:0:0:
208,328,173911,2,0,L|184:240,1,79.9999970197678,0|0,0:0|2:0,0:0:0:0:
440,304,174145,2,0,P|384:352|300:356,1,159.999994039536,2|0,0:0|0:0,0:0:0:0:
64,80,174614,21,0,0:0:0:0:
80,72,174848,2,0,P|120:144|104:216,1,159.999994039536
200,80,175200,2,0,P|232:64|280:48,1,79.9999970197678,2|0,0:0|0:0,0:0:0:0:
416,112,175434,1,0,0:0:0:0:
416,128,175551,2,0,P|384:144|336:160,1,79.9999970197678,0|0,0:0|2:0,0:0:0:0:
200,96,175786,1,2,0:0:0:0:
424,280,176020,2,0,P|368:336|280:320,1,159.999994039536
120,272,176489,21,2,0:0:0:0:
64,48,176723,1,0,0:0:0:0:
76,63,176840,2,0,B|92:119|92:119|68:159|44:215,1,159.999994039536
296,232,177192,2,0,P|336:160|320:88,1,159.999994039536,2|0,0:0|0:0,0:0:0:0:
144,192,177661,1,2,0:0:0:0:
352,144,177895,2,0,P|341:104|313:64,1,79.9999970197678,0|0,0:0|2:0,0:0:0:0:
296,240,178130,6,0,P|376:256|440:208,1,159.999994039536
152,184,178598,2,0,L|128:360,1,159.999994039536,2|0,0:0|0:0,0:0:0:0:
56,264,178950,1,0,0:0:0:0:
168,176,179067,2,0,P|186:129|176:96,1,79.9999970197678,2|0,0:0|2:2,0:0:0:0:
16,176,179301,1,0,0:0:0:0:
208,352,179536,1,2,0:0:0:0:
392,208,179770,2,0,L|408:120,1,79.9999970197678,0|0,0:0|2:0,0:0:0:0:
320,240,180005,1,0,0:0:0:0:
440,368,180239,22,0,P|482:303|466:226,1,159.999994039536,2|0,0:0|0:0,0:0:0:0:
248,232,180590,2,0,B|200:216|160:200|160:200|112:208|64:224,1,159.999994039536
24,128,180942,2,0,P|24:88|40:32,1,79.9999970197678,2|0,0:0|2:0,0:0:0:0:
240,240,181176,2,0,L|256:336,1,79.9999970197678,0|0,0:0|2:0,0:0:0:0:
344,248,181411,1,2,0:0:0:0:
224,256,181645,6,0,L|240:352,1,79.9999970197678,2|0,0:0|0:0,0:0:0:0:
144,352,181880,2,0,P|69:373|2:334,1,159.999994039536,0|2,0:0|0:0,0:0:0:0:
8,240,182231,1,0,0:0:0:0:
96,192,182348,2,0,L|120:88,1,79.9999970197678
0,224,182583,1,0,0:0:0:0:
176,256,182700,2,0,B|248:288|280:232|336:256,1,159.999994039536
416,288,183051,1,0,0:0:0:0:
280,72,183286,1,2,0:0:0:0:
104,200,183755,6,0,P|88:280|144:344,1,159.999994039536,6|0,0:0|0:0,0:0:0:0:
392,272,184223,2,0,P|408:192|352:128,1,159.999994039536,2|0,0:0|0:0,0:0:0:0:
120,192,184575,2,0,P|152:224|184:240,1,79.9999970197678,2|0,0:0|0:0,0:0:0:0:
256,32,184926,2,0,L|240:112,1,79.9999970197678,0|0,0:0|2:0,0:0:0:0:
120,168,185161,2,0,L|104:88,1,79.9999970197678,0|0,0:0|2:0,0:0:0:0:
377,89,185395,2,0,L|393:169,1,79.9999970197678,0|0,0:0|2:0,0:0:0:0:
392,72,185630,22,0,L|424:240,1,159.999994039536
144,232,186098,2,0,P|192:232|248:264,1,79.9999970197678,0|0,0:0|2:0,0:0:0:0:
72,152,186450,2,0,P|120:152|160:144,1,79.9999970197678,2|0,0:0|2:0,0:0:0:0:
64,136,186801,2,0,L|32:56,1,79.9999970197678,0|0,0:0|2:0,0:0:0:0:
128,240,187036,2,0,L|96:320,1,79.9999970197678,2|0,0:0|2:0,0:0:0:0:
128,64,187270,2,0,P|176:64|216:72,1,79.9999970197678,2|0,0:0|2:0,0:0:0:0:
112,48,187505,6,0,P|201:48|270:69,1,159.999994039536
440,264,187973,2,0,P|384:304|288:296,1,159.999994039536
272,160,188325,2,0,L|248:240,1,79.9999970197678,2|0,0:0|2:0,0:0:0:0:
224,248,188676,2,0,L|248:168,1,79.9999970197678,0|0,0:0|2:0,0:0:0:0:
144,288,188911,2,0,P|96:280|56:248,1,79.9999970197678,2|0,0:0|2:0,0:0:0:0:
48,64,189145,2,0,P|96:72|136:104,1,79.9999970197678,2|0,0:0|2:0,0:0:0:0:
32,72,189380,22,0,L|8:152,1,79.9999970197678,0|0,0:0|2:0,0:0:0:0:
56,256,189614,2,0,L|32:336,1,79.9999970197678,0|0,0:0|2:0,0:0:0:0:
112,184,189848,1,2,0:0:0:0:
192,160,189965,1,0,0:0:0:0:
272,136,190083,1,0,0:0:0:0:
352,112,190200,1,0,0:0:0:0:
432,88,190317,6,0,L|432:48,3,39.9999985098839
512,112,190551,2,0,L|512:152,3,39.9999985098839
432,176,190786,2,0,L|248:232,1,192.000000171661
72,88,191255,6,0,P|131:166|224:96,1,191.999992847443,4|0,0:0|2:0,0:0:0:0:
16,192,191723,2,0,P|-4:257|8:344,1,127.999995231629,0|0,0:0|2:0,0:0:0:0:
240,368,192075,2,0,P|260:303|248:216,1,127.999995231629,0|0,0:0|2:0,0:0:0:0:
269,237,192895,6,0,P|277:285|269:325,1,63.9999976158143,0|0,0:0|2:0,0:0:0:0:
176,192,193130,2,0,L|112:48,1,127.999995231629,0|0,0:0|1:0,0:0:0:0:
240,112,193598,1,0,0:0:0:0:
144,280,193833,1,0,0:0:0:0:
176,200,193950,2,0,P|128:168|48:192,1,127.999995231629
224,336,194301,2,0,P|272:368|352:344,1,127.999995231629
424,216,194770,1,0,0:0:0:0:
312,88,195005,22,0,L|160:72,1,127.999995231629
173,60,195473,2,0,L|300:73,1,127.999995231629
328,200,195825,2,0,P|272:256|200:208,1,127.999995231629,0|0,0:0|2:0,0:0:0:0:
104,168,196176,2,0,P|144:144|168:144,1,63.9999976158143,0|0,0:0|2:0,0:0:0:0:
240,256,196411,2,0,L|248:336,1,63.9999976158143,0|0,0:0|2:0,0:0:0:0:
320,360,196645,5,0,0:0:0:0:
496,224,196880,2,0,P|434:221|398:271,1,127.999995231629,0|0,0:0|2:0,0:0:0:0:
128,280,197348,2,0,P|72:264|0:224,1,127.999995231629,0|0,0:0|2:0,0:0:0:0:
40,152,197700,1,0,0:0:0:0:
232,240,197934,1,0,0:0:0:0:
304,200,198051,1,0,0:0:0:0:
464,256,198286,22,0,P|488:313|496:392,1,127.999995231629,0|0,0:0|2:0,0:0:0:0:
