osu file format v14

[General]
AudioFilename: isshin furan.mp3
AudioLeadIn: 0
PreviewTime: 71933
Countdown: 0
SampleSet: None
StackLeniency: 0.7
Mode: 3
LetterboxInBreaks: 0
SpecialStyle: 0
WidescreenStoryboard: 1

[Editor]
Bookmarks: 167849,175349
DistanceSpacing: 1
BeatDivisor: 4
GridSize: 4
TimelineZoom: 1.2

[Metadata]
Title:Isshin Furan
TitleUnicode:一心不乱
Artist:GigaP&96NEKO
ArtistUnicode:ギガP&96猫
Creator:SeonRae
Version:Normal
Source:SeonRae
Tags:
BeatmapID:994397
BeatmapSetID:464413

[Difficulty]
HPDrainRate:7.5
CircleSize:4
OverallDifficulty:7.5
ApproachRate:5
SliderMultiplier:1.4
SliderTickRate:1

[Events]
//Background and Video events
0,0,"bg.png",0,0
//Break Periods
//Storyboard Layer 0 (Background)
//Storyboard Layer 1 (Fail)
//Storyboard Layer 2 (Pass)
//Storyboard Layer 3 (Foreground)
//Storyboard Sound Samples

[TimingPoints]
1793,422.535211267606,4,3,0,50,1,0

[HitObjects]
192,192,1053,5,0,0:0:0:0:
320,192,1264,1,0,0:0:0:0:
192,192,1370,1,0,0:0:0:0:
320,192,1581,1,0,0:0:0:0:
64,192,1793,1,0,0:0:0:0:
448,192,1793,1,0,0:0:0:0:
192,192,2004,1,0,0:0:0:0:
448,192,2638,128,0,3166:0:0:0:0:
320,192,3166,1,0,0:0:0:0:
192,192,3271,1,0,0:0:0:0:
64,192,3483,128,0,3905:0:0:0:0:
192,192,3905,1,0,0:0:0:0:
320,192,4116,1,0,0:0:0:0:
192,192,4433,1,0,0:0:0:0:
320,192,4645,1,0,0:0:0:0:
192,192,4750,1,0,0:0:0:0:
320,192,4962,1,0,0:0:0:0:
448,192,5173,1,0,0:0:0:0:
320,192,5384,1,0,0:0:0:0:
192,192,5595,1,0,0:0:0:0:
64,192,6018,128,0,6546:0:0:0:0:
192,192,6546,1,0,0:0:0:0:
320,192,6652,1,0,0:0:0:0:
448,192,6863,128,0,7285:0:0:0:0:
320,192,7285,1,0,0:0:0:0:
192,192,7497,1,0,0:0:0:0:
320,192,7814,1,0,0:0:0:0:
192,192,8025,1,0,0:0:0:0:
320,192,8131,1,0,0:0:0:0:
192,192,8342,1,0,0:0:0:0:
448,192,8553,1,0,0:0:0:0:
64,192,8553,1,0,0:0:0:0:
320,192,8764,1,0,0:0:0:0:
192,192,8976,1,0,0:0:0:0:
320,192,9293,1,0,0:0:0:0:
448,192,9398,128,0,9926:0:0:0:0:
320,192,9926,1,0,0:0:0:0:
192,192,10032,1,0,0:0:0:0:
64,192,10243,128,0,10666:0:0:0:0:
192,192,10666,1,0,0:0:0:0:
448,192,10666,1,0,0:0:0:0:
320,192,10877,1,0,0:0:0:0:
448,192,10983,1,0,0:0:0:0:
192,192,11194,1,0,0:0:0:0:
320,192,11405,1,0,0:0:0:0:
192,192,11511,1,0,0:0:0:0:
320,192,11722,1,0,0:0:0:0:
64,192,11933,1,0,0:0:0:0:
192,192,12145,1,0,0:0:0:0:
320,192,12356,1,0,0:0:0:0:
192,192,12673,1,0,0:0:0:0:
64,192,12778,128,0,13307:0:0:0:0:
192,192,13307,1,0,0:0:0:0:
320,192,13412,1,0,0:0:0:0:
448,192,13623,128,0,14046:0:0:0:0:
64,192,14046,1,0,0:0:0:0:
320,192,14046,1,0,0:0:0:0:
192,192,14257,1,0,0:0:0:0:
320,192,14469,128,0,14680:0:0:0:0:
192,192,14680,128,0,14891:0:0:0:0:
448,192,14891,128,0,15102:0:0:0:0:
64,192,15102,128,0,15314:0:0:0:0:
448,192,15314,1,0,0:0:0:0:
320,192,15314,1,0,0:0:0:0:
192,192,15525,1,0,0:0:0:0:
64,192,15736,1,0,0:0:0:0:
320,192,15736,1,0,0:0:0:0:
448,192,15947,1,0,0:0:0:0:
192,192,16159,1,0,0:0:0:0:
320,192,16370,1,0,0:0:0:0:
64,192,16581,1,0,0:0:0:0:
192,192,16581,1,0,0:0:0:0:
448,192,16793,1,0,0:0:0:0:
320,192,17004,1,0,0:0:0:0:
64,192,17215,1,0,0:0:0:0:
192,192,17426,1,0,0:0:0:0:
448,192,17426,1,0,0:0:0:0:
320,192,17638,1,0,0:0:0:0:
64,192,17849,1,0,0:0:0:0:
448,192,18060,1,0,0:0:0:0:
320,192,18271,1,0,0:0:0:0:
192,192,18271,1,0,0:0:0:0:
64,192,18483,1,0,0:0:0:0:
192,192,18694,1,0,0:0:0:0:
448,192,18694,1,0,0:0:0:0:
320,192,18905,1,0,0:0:0:0:
64,192,19116,1,0,0:0:0:0:
192,192,19116,1,0,0:0:0:0:
448,192,19328,1,0,0:0:0:0:
64,192,19539,1,0,0:0:0:0:
320,192,19750,1,0,0:0:0:0:
192,192,19962,1,0,0:0:0:0:
448,192,19962,1,0,0:0:0:0:
320,192,20173,1,0,0:0:0:0:
192,192,20384,1,0,0:0:0:0:
64,192,20384,1,0,0:0:0:0:
448,192,20595,1,0,0:0:0:0:
320,192,20807,1,0,0:0:0:0:
64,192,20807,1,0,0:0:0:0:
192,192,21018,1,0,0:0:0:0:
320,192,21229,1,0,0:0:0:0:
448,192,21229,1,0,0:0:0:0:
64,192,21440,1,0,0:0:0:0:
192,192,21652,1,0,0:0:0:0:
448,192,21652,1,0,0:0:0:0:
64,192,21863,1,0,0:0:0:0:
320,192,22074,1,0,0:0:0:0:
448,192,22074,1,0,0:0:0:0:
192,192,22285,1,0,0:0:0:0:
64,192,22497,1,0,0:0:0:0:
320,192,22497,1,0,0:0:0:0:
448,192,22708,1,0,0:0:0:0:
192,192,22919,1,0,0:0:0:0:
320,192,23131,1,0,0:0:0:0:
64,192,23342,1,0,0:0:0:0:
448,192,23342,1,0,0:0:0:0:
192,192,23553,1,0,0:0:0:0:
64,192,23764,1,0,0:0:0:0:
448,192,23976,1,0,0:0:0:0:
320,192,24187,1,0,0:0:0:0:
64,192,24187,1,0,0:0:0:0:
192,192,24398,1,0,0:0:0:0:
448,192,24609,1,0,0:0:0:0:
320,192,24821,1,0,0:0:0:0:
64,192,25032,1,0,0:0:0:0:
192,192,25032,1,0,0:0:0:0:
448,192,25243,1,0,0:0:0:0:
320,192,25454,1,0,0:0:0:0:
192,192,25454,1,0,0:0:0:0:
64,192,25666,1,0,0:0:0:0:
448,192,25877,1,0,0:0:0:0:
320,192,25877,1,0,0:0:0:0:
64,192,26088,1,0,0:0:0:0:
192,192,26300,1,0,0:0:0:0:
448,192,26511,1,0,0:0:0:0:
64,192,26722,1,0,0:0:0:0:
320,192,26722,1,0,0:0:0:0:
192,192,26933,1,0,0:0:0:0:
448,192,27145,1,0,0:0:0:0:
320,192,27145,1,0,0:0:0:0:
192,192,27356,1,0,0:0:0:0:
64,192,27567,1,0,0:0:0:0:
320,192,27567,1,0,0:0:0:0:
448,192,27778,1,0,0:0:0:0:
192,192,27990,1,0,0:0:0:0:
64,192,27990,1,0,0:0:0:0:
448,192,28307,1,0,0:0:0:0:
320,192,28307,1,0,0:0:0:0:
64,192,28412,1,0,0:0:0:0:
192,192,28412,1,0,0:0:0:0:
448,192,28623,1,0,0:0:0:0:
64,192,28835,128,0,30525:0:0:0:0:
320,192,28835,128,0,29257:0:0:0:0:
448,192,29257,128,0,29680:0:0:0:0:
192,192,29680,128,0,30102:0:0:0:0:
320,192,30102,128,0,30525:0:0:0:0:
448,192,30525,128,0,31793:0:0:0:0:
192,192,30525,128,0,30947:0:0:0:0:
64,192,30947,128,0,31370:0:0:0:0:
320,192,31370,128,0,31793:0:0:0:0:
192,192,31793,1,0,0:0:0:0:
320,192,31898,1,0,0:0:0:0:
64,192,32004,1,0,0:0:0:0:
320,192,32215,1,0,0:0:0:0:
448,192,32215,1,0,0:0:0:0:
192,192,32426,1,0,0:0:0:0:
64,192,32638,1,0,0:0:0:0:
320,192,32638,1,0,0:0:0:0:
448,192,32849,1,0,0:0:0:0:
192,192,33060,1,0,0:0:0:0:
320,192,33271,1,0,0:0:0:0:
64,192,33483,1,0,0:0:0:0:
448,192,33483,1,0,0:0:0:0:
192,192,33694,1,0,0:0:0:0:
448,192,33905,1,0,0:0:0:0:
64,192,34116,1,0,0:0:0:0:
320,192,34328,1,0,0:0:0:0:
192,192,34328,1,0,0:0:0:0:
64,192,34539,1,0,0:0:0:0:
448,192,34750,1,0,0:0:0:0:
192,192,34962,1,0,0:0:0:0:
320,192,35173,1,0,0:0:0:0:
448,192,35173,1,0,0:0:0:0:
64,192,35384,1,0,0:0:0:0:
192,192,35595,1,0,0:0:0:0:
320,192,35807,1,0,0:0:0:0:
448,192,36018,1,0,0:0:0:0:
64,192,36018,1,0,0:0:0:0:
192,192,36229,1,0,0:0:0:0:
64,192,36440,1,0,0:0:0:0:
320,192,36652,1,0,0:0:0:0:
448,192,36863,1,0,0:0:0:0:
192,192,36863,1,0,0:0:0:0:
320,192,37074,1,0,0:0:0:0:
64,192,37285,1,0,0:0:0:0:
448,192,37497,1,0,0:0:0:0:
320,192,37708,1,0,0:0:0:0:
192,192,37708,1,0,0:0:0:0:
64,192,37919,1,0,0:0:0:0:
448,192,38131,1,0,0:0:0:0:
192,192,38342,1,0,0:0:0:0:
320,192,38553,1,0,0:0:0:0:
448,192,38553,1,0,0:0:0:0:
64,192,38764,1,0,0:0:0:0:
192,192,38976,1,0,0:0:0:0:
448,192,39187,1,0,0:0:0:0:
320,192,39398,1,0,0:0:0:0:
64,192,39398,1,0,0:0:0:0:
192,192,39609,1,0,0:0:0:0:
448,192,39821,1,0,0:0:0:0:
320,192,40032,1,0,0:0:0:0:
64,192,40243,1,0,0:0:0:0:
192,192,40243,1,0,0:0:0:0:
448,192,40454,1,0,0:0:0:0:
192,192,40666,1,0,0:0:0:0:
320,192,40877,1,0,0:0:0:0:
64,192,41088,1,0,0:0:0:0:
448,192,41088,1,0,0:0:0:0:
192,192,41300,1,0,0:0:0:0:
320,192,41511,1,0,0:0:0:0:
64,192,41722,1,0,0:0:0:0:
192,192,41933,1,0,0:0:0:0:
448,192,41933,1,0,0:0:0:0:
64,192,42145,1,0,0:0:0:0:
448,192,42356,1,0,0:0:0:0:
192,192,42567,1,0,0:0:0:0:
320,192,42778,1,0,0:0:0:0:
64,192,42778,1,0,0:0:0:0:
448,192,42990,1,0,0:0:0:0:
192,192,43201,1,0,0:0:0:0:
320,192,43412,1,0,0:0:0:0:
64,192,43623,1,0,0:0:0:0:
192,192,43623,1,0,0:0:0:0:
448,192,43835,1,0,0:0:0:0:
320,192,43835,1,0,0:0:0:0:
64,192,44257,1,0,0:0:0:0:
192,192,44363,1,0,0:0:0:0:
320,192,44469,1,0,0:0:0:0:
448,192,44469,1,0,0:0:0:0:
64,192,44680,1,0,0:0:0:0:
192,192,44891,1,0,0:0:0:0:
448,192,44891,1,0,0:0:0:0:
320,192,45102,1,0,0:0:0:0:
64,192,45102,1,0,0:0:0:0:
192,192,45314,1,0,0:0:0:0:
448,192,45314,1,0,0:0:0:0:
64,192,45736,1,0,0:0:0:0:
320,192,45736,1,0,0:0:0:0:
64,192,46159,1,0,0:0:0:0:
192,192,46264,1,0,0:0:0:0:
320,192,46370,1,0,0:0:0:0:
64,192,46581,1,0,0:0:0:0:
320,192,46793,1,0,0:0:0:0:
448,192,47004,1,0,0:0:0:0:
320,192,47215,1,0,0:0:0:0:
192,192,47321,1,0,0:0:0:0:
64,192,47426,1,0,0:0:0:0:
192,192,47638,1,0,0:0:0:0:
320,192,47849,1,0,0:0:0:0:
448,192,48060,1,0,0:0:0:0:
320,192,48166,1,0,0:0:0:0:
192,192,48271,1,0,0:0:0:0:
320,192,48483,1,0,0:0:0:0:
64,192,48694,1,0,0:0:0:0:
192,192,48905,1,0,0:0:0:0:
320,192,49011,1,0,0:0:0:0:
448,192,49116,1,0,0:0:0:0:
320,192,49328,1,0,0:0:0:0:
64,192,49539,1,0,0:0:0:0:
192,192,49645,1,0,0:0:0:0:
320,192,49750,1,0,0:0:0:0:
448,192,49962,1,0,0:0:0:0:
64,192,50173,1,0,0:0:0:0:
320,192,50384,1,0,0:0:0:0:
192,192,50595,1,0,0:0:0:0:
448,192,50807,1,0,0:0:0:0:
192,192,51018,1,0,0:0:0:0:
320,192,51229,1,0,0:0:0:0:
64,192,51440,1,0,0:0:0:0:
448,192,51652,1,0,0:0:0:0:
64,192,51863,1,0,0:0:0:0:
320,192,52074,1,0,0:0:0:0:
64,192,52285,1,0,0:0:0:0:
192,192,52391,1,0,0:0:0:0:
320,192,52497,1,0,0:0:0:0:
448,192,52708,1,0,0:0:0:0:
64,192,52919,1,0,0:0:0:0:
448,192,53131,1,0,0:0:0:0:
320,192,53236,1,0,0:0:0:0:
192,192,53342,1,0,0:0:0:0:
64,192,53553,1,0,0:0:0:0:
448,192,53764,1,0,0:0:0:0:
320,192,53870,1,0,0:0:0:0:
448,192,53976,1,0,0:0:0:0:
64,192,54187,1,0,0:0:0:0:
320,192,54398,1,0,0:0:0:0:
192,192,54609,1,0,0:0:0:0:
320,192,54821,1,0,0:0:0:0:
192,192,54926,1,0,0:0:0:0:
64,192,55032,1,0,0:0:0:0:
448,192,55243,1,0,0:0:0:0:
64,192,55454,1,0,0:0:0:0:
192,192,55666,1,0,0:0:0:0:
320,192,55771,1,0,0:0:0:0:
448,192,55877,1,0,0:0:0:0:
192,192,56088,1,0,0:0:0:0:
320,192,56300,1,0,0:0:0:0:
64,192,56511,1,0,0:0:0:0:
448,192,56722,1,0,0:0:0:0:
192,192,56933,1,0,0:0:0:0:
320,192,57145,1,0,0:0:0:0:
64,192,57356,1,0,0:0:0:0:
448,192,57567,1,0,0:0:0:0:
448,192,57778,1,0,0:0:0:0:
64,192,57990,1,0,0:0:0:0:
64,192,58201,1,0,0:0:0:0:
448,192,58412,1,0,0:0:0:0:
448,192,58623,1,0,0:0:0:0:
192,192,58835,1,0,0:0:0:0:
320,192,58940,1,0,0:0:0:0:
192,192,59046,1,0,0:0:0:0:
320,192,59152,1,0,0:0:0:0:
64,192,59257,128,0,60102:0:0:0:0:
448,192,59257,1,0,0:0:0:0:
320,192,59680,1,0,0:0:0:0:
192,192,60102,128,0,60947:0:0:0:0:
448,192,60102,1,0,0:0:0:0:
320,192,60525,1,0,0:0:0:0:
320,192,60947,128,0,61581:0:0:0:0:
64,192,60947,1,0,0:0:0:0:
192,192,61370,1,0,0:0:0:0:
448,192,61581,1,0,0:0:0:0:
448,192,61793,128,0,62426:0:0:0:0:
64,192,61793,1,0,0:0:0:0:
192,192,62215,1,0,0:0:0:0:
64,192,62638,1,0,0:0:0:0:
320,192,62638,1,0,0:0:0:0:
192,192,63060,1,0,0:0:0:0:
448,192,63060,1,0,0:0:0:0:
64,192,63483,1,0,0:0:0:0:
192,192,63483,1,0,0:0:0:0:
320,192,63905,1,0,0:0:0:0:
448,192,63905,1,0,0:0:0:0:
448,192,64328,1,0,0:0:0:0:
64,192,64328,128,0,64962:0:0:0:0:
320,192,64750,1,0,0:0:0:0:
64,192,65173,1,0,0:0:0:0:
192,192,65384,1,0,0:0:0:0:
320,192,65595,1,0,0:0:0:0:
448,192,65807,1,0,0:0:0:0:
320,192,66018,1,0,0:0:0:0:
192,192,66018,1,0,0:0:0:0:
320,192,66440,1,0,0:0:0:0:
64,192,66440,1,0,0:0:0:0:
192,192,66863,1,0,0:0:0:0:
448,192,66863,1,0,0:0:0:0:
320,192,67285,1,0,0:0:0:0:
448,192,67285,1,0,0:0:0:0:
64,192,67708,1,0,0:0:0:0:
448,192,67708,1,0,0:0:0:0:
320,192,68131,1,0,0:0:0:0:
64,192,68131,1,0,0:0:0:0:
320,192,68553,1,0,0:0:0:0:
192,192,68553,128,0,68976:0:0:0:0:
448,192,68976,1,0,0:0:0:0:
64,192,69398,1,0,0:0:0:0:
64,192,69609,1,0,0:0:0:0:
448,192,69821,1,0,0:0:0:0:
448,192,70032,1,0,0:0:0:0:
64,192,70243,1,0,0:0:0:0:
64,192,70454,1,0,0:0:0:0:
448,192,70666,1,0,0:0:0:0:
448,192,70877,1,0,0:0:0:0:
64,192,71088,1,0,0:0:0:0:
64,192,71300,1,0,0:0:0:0:
448,192,71511,1,0,0:0:0:0:
448,192,71722,1,0,0:0:0:0:
320,192,71933,128,0,72145:0:0:0:0:
192,192,72145,128,0,72356:0:0:0:0:
448,192,72356,128,0,72567:0:0:0:0:
64,192,72567,128,0,72778:0:0:0:0:
320,192,72778,1,0,0:0:0:0:
448,192,72778,1,0,0:0:0:0:
192,192,72990,1,0,0:0:0:0:
64,192,73201,1,0,0:0:0:0:
320,192,73201,1,0,0:0:0:0:
448,192,73412,1,0,0:0:0:0:
192,192,73623,1,0,0:0:0:0:
320,192,73835,1,0,0:0:0:0:
64,192,74046,1,0,0:0:0:0:
192,192,74046,1,0,0:0:0:0:
448,192,74257,1,0,0:0:0:0:
320,192,74469,1,0,0:0:0:0:
64,192,74680,1,0,0:0:0:0:
192,192,74891,1,0,0:0:0:0:
448,192,74891,1,0,0:0:0:0:
320,192,75102,1,0,0:0:0:0:
64,192,75314,1,0,0:0:0:0:
192,192,75525,1,0,0:0:0:0:
320,192,75736,1,0,0:0:0:0:
448,192,75736,1,0,0:0:0:0:
64,192,75947,1,0,0:0:0:0:
448,192,76159,1,0,0:0:0:0:
192,192,76159,1,0,0:0:0:0:
64,192,76370,1,0,0:0:0:0:
448,192,76581,1,0,0:0:0:0:
320,192,76581,1,0,0:0:0:0:
192,192,76793,1,0,0:0:0:0:
448,192,77004,1,0,0:0:0:0:
192,192,77215,1,0,0:0:0:0:
64,192,77426,1,0,0:0:0:0:
448,192,77426,1,0,0:0:0:0:
320,192,77638,1,0,0:0:0:0:
192,192,77849,1,0,0:0:0:0:
64,192,77849,1,0,0:0:0:0:
448,192,78060,1,0,0:0:0:0:
320,192,78271,1,0,0:0:0:0:
64,192,78483,1,0,0:0:0:0:
192,192,78694,1,0,0:0:0:0:
448,192,78694,1,0,0:0:0:0:
320,192,78905,1,0,0:0:0:0:
64,192,79116,1,0,0:0:0:0:
192,192,79328,1,0,0:0:0:0:
320,192,79539,1,0,0:0:0:0:
448,192,79539,1,0,0:0:0:0:
64,192,79750,1,0,0:0:0:0:
192,192,79962,1,0,0:0:0:0:
448,192,79962,1,0,0:0:0:0:
64,192,80173,1,0,0:0:0:0:
320,192,80384,1,0,0:0:0:0:
448,192,80595,1,0,0:0:0:0:
64,192,80807,1,0,0:0:0:0:
192,192,80807,1,0,0:0:0:0:
320,192,81018,1,0,0:0:0:0:
64,192,81229,1,0,0:0:0:0:
448,192,81440,1,0,0:0:0:0:
320,192,81652,1,0,0:0:0:0:
192,192,81652,1,0,0:0:0:0:
64,192,81863,1,0,0:0:0:0:
448,192,82074,1,0,0:0:0:0:
192,192,82285,1,0,0:0:0:0:
320,192,82497,1,0,0:0:0:0:
448,192,82497,1,0,0:0:0:0:
64,192,82708,1,0,0:0:0:0:
192,192,82919,1,0,0:0:0:0:
448,192,82919,1,0,0:0:0:0:
320,192,83131,1,0,0:0:0:0:
64,192,83342,1,0,0:0:0:0:
192,192,83342,1,0,0:0:0:0:
448,192,83553,1,0,0:0:0:0:
192,192,83764,1,0,0:0:0:0:
320,192,83976,1,0,0:0:0:0:
64,192,84187,1,0,0:0:0:0:
448,192,84187,1,0,0:0:0:0:
192,192,84398,1,0,0:0:0:0:
320,192,84609,1,0,0:0:0:0:
64,192,84609,1,0,0:0:0:0:
448,192,84821,1,0,0:0:0:0:
192,192,85032,1,0,0:0:0:0:
320,192,85032,1,0,0:0:0:0:
64,192,85243,1,0,0:0:0:0:
448,192,85454,1,0,0:0:0:0:
192,192,85454,1,0,0:0:0:0:
320,192,85666,1,0,0:0:0:0:
64,192,85877,1,0,0:0:0:0:
192,192,85877,1,0,0:0:0:0:
448,192,86088,1,0,0:0:0:0:
320,192,86300,1,0,0:0:0:0:
64,192,86300,128,0,86722:0:0:0:0:
448,192,86722,128,0,87145:0:0:0:0:
64,192,87145,128,0,87356:0:0:0:0:
192,192,87356,128,0,87567:0:0:0:0:
320,192,87567,128,0,87778:0:0:0:0:
448,192,87778,128,0,87990:0:0:0:0:
64,192,88201,1,0,0:0:0:0:
192,192,88201,1,0,0:0:0:0:
320,192,88412,1,0,0:0:0:0:
448,192,88412,1,0,0:0:0:0:
192,192,88623,1,0,0:0:0:0:
448,192,88835,1,0,0:0:0:0:
64,192,89046,1,0,0:0:0:0:
320,192,89257,1,0,0:0:0:0:
192,192,89257,1,0,0:0:0:0:
64,192,89469,1,0,0:0:0:0:
448,192,89680,1,0,0:0:0:0:
192,192,89891,1,0,0:0:0:0:
320,192,90102,1,0,0:0:0:0:
64,192,90102,1,0,0:0:0:0:
192,192,90314,1,0,0:0:0:0:
448,192,90525,1,0,0:0:0:0:
64,192,90736,1,0,0:0:0:0:
320,192,90947,1,0,0:0:0:0:
448,192,90947,1,0,0:0:0:0:
192,192,91159,1,0,0:0:0:0:
448,192,91370,1,0,0:0:0:0:
64,192,91581,1,0,0:0:0:0:
448,192,91793,1,0,0:0:0:0:
320,192,91793,1,0,0:0:0:0:
192,192,92004,1,0,0:0:0:0:
64,192,92215,1,0,0:0:0:0:
448,192,92426,1,0,0:0:0:0:
320,192,92638,1,0,0:0:0:0:
64,192,92638,1,0,0:0:0:0:
448,192,92849,1,0,0:0:0:0:
192,192,93060,1,0,0:0:0:0:
320,192,93271,1,0,0:0:0:0:
64,192,93483,1,0,0:0:0:0:
192,192,93483,1,0,0:0:0:0:
448,192,93694,1,0,0:0:0:0:
320,192,93905,1,0,0:0:0:0:
64,192,94116,1,0,0:0:0:0:
192,192,94328,1,0,0:0:0:0:
448,192,94328,1,0,0:0:0:0:
64,192,94539,1,0,0:0:0:0:
320,192,94750,1,0,0:0:0:0:
320,192,94962,1,0,0:0:0:0:
192,192,95173,128,0,95595:0:0:0:0:
448,192,95595,128,0,96018:0:0:0:0:
64,192,96018,128,0,96440:0:0:0:0:
192,192,96440,1,0,0:0:0:0:
192,192,96652,1,0,0:0:0:0:
320,192,96863,128,0,97285:0:0:0:0:
64,192,97285,128,0,97708:0:0:0:0:
320,192,97708,1,0,0:0:0:0:
192,192,97814,1,0,0:0:0:0:
320,192,97919,1,0,0:0:0:0:
192,192,98025,1,0,0:0:0:0:
320,192,98131,1,0,0:0:0:0:
448,192,98131,1,0,0:0:0:0:
64,192,98553,1,0,0:0:0:0:
64,192,98764,1,0,0:0:0:0:
192,192,98976,128,0,99398:0:0:0:0:
320,192,99398,128,0,99821:0:0:0:0:
64,192,99821,1,0,0:0:0:0:
192,192,100032,1,0,0:0:0:0:
320,192,100243,1,0,0:0:0:0:
448,192,100454,1,0,0:0:0:0:
64,192,100666,1,0,0:0:0:0:
448,192,100807,1,0,0:0:0:0:
64,192,100947,1,0,0:0:0:0:
448,192,101088,1,0,0:0:0:0:
320,192,101088,1,0,0:0:0:0:
64,192,101511,128,0,102356:0:0:0:0:
448,192,101511,1,0,0:0:0:0:
320,192,101933,1,0,0:0:0:0:
448,192,102356,1,0,0:0:0:0:
192,192,102356,128,0,103201:0:0:0:0:
320,192,102778,1,0,0:0:0:0:
320,192,103201,128,0,103835:0:0:0:0:
64,192,103201,1,0,0:0:0:0:
192,192,103623,1,0,0:0:0:0:
448,192,103835,1,0,0:0:0:0:
448,192,104046,128,0,104680:0:0:0:0:
64,192,104046,1,0,0:0:0:0:
192,192,104469,1,0,0:0:0:0:
64,192,104891,1,0,0:0:0:0:
320,192,104891,1,0,0:0:0:0:
192,192,105314,1,0,0:0:0:0:
448,192,105314,1,0,0:0:0:0:
192,192,105736,1,0,0:0:0:0:
64,192,105736,1,0,0:0:0:0:
320,192,106159,1,0,0:0:0:0:
448,192,106159,1,0,0:0:0:0:
192,192,106581,128,0,107004:0:0:0:0:
448,192,106581,1,0,0:0:0:0:
320,192,107004,1,0,0:0:0:0:
64,192,107426,1,0,0:0:0:0:
448,192,107426,1,0,0:0:0:0:
192,192,107638,1,0,0:0:0:0:
320,192,107849,1,0,0:0:0:0:
64,192,107849,1,0,0:0:0:0:
448,192,108060,1,0,0:0:0:0:
320,192,108271,1,0,0:0:0:0:
192,192,108271,1,0,0:0:0:0:
64,192,108694,1,0,0:0:0:0:
192,192,108694,1,0,0:0:0:0:
320,192,109116,1,0,0:0:0:0:
448,192,109116,1,0,0:0:0:0:
320,192,109539,1,0,0:0:0:0:
64,192,109539,1,0,0:0:0:0:
192,192,109962,1,0,0:0:0:0:
448,192,109962,1,0,0:0:0:0:
448,192,110384,1,0,0:0:0:0:
64,192,110384,1,0,0:0:0:0:
192,192,110807,1,0,0:0:0:0:
320,192,110807,128,0,112497:0:0:0:0:
64,192,111229,1,0,0:0:0:0:
192,192,111652,1,0,0:0:0:0:
64,192,111863,1,0,0:0:0:0:
192,192,112074,1,0,0:0:0:0:
64,192,112285,1,0,0:0:0:0:
192,192,112497,1,0,0:0:0:0:
64,192,112708,1,0,0:0:0:0:
192,192,112814,1,0,0:0:0:0:
320,192,112919,1,0,0:0:0:0:
192,192,113131,128,0,113342:0:0:0:0:
448,192,113342,128,0,113764:0:0:0:0:
64,192,113764,128,0,114187:0:0:0:0:
320,192,114187,128,0,114398:0:0:0:0:
192,192,114398,128,0,114609:0:0:0:0:
448,192,114609,128,0,114821:0:0:0:0:
64,192,114821,128,0,115032:0:0:0:0:
192,192,115032,1,0,0:0:0:0:
448,192,115032,1,0,0:0:0:0:
320,192,115243,1,0,0:0:0:0:
64,192,115454,1,0,0:0:0:0:
192,192,115454,1,0,0:0:0:0:
448,192,115666,1,0,0:0:0:0:
64,192,115877,1,0,0:0:0:0:
192,192,116088,1,0,0:0:0:0:
448,192,116300,1,0,0:0:0:0:
320,192,116300,1,0,0:0:0:0:
64,192,116511,1,0,0:0:0:0:
320,192,116722,1,0,0:0:0:0:
192,192,116933,1,0,0:0:0:0:
448,192,117145,1,0,0:0:0:0:
64,192,117145,1,0,0:0:0:0:
320,192,117356,1,0,0:0:0:0:
64,192,117567,1,0,0:0:0:0:
192,192,117778,1,0,0:0:0:0:
320,192,117990,1,0,0:0:0:0:
64,192,117990,1,0,0:0:0:0:
448,192,118201,1,0,0:0:0:0:
64,192,118412,1,0,0:0:0:0:
192,192,118412,1,0,0:0:0:0:
448,192,118623,1,0,0:0:0:0:
320,192,118835,1,0,0:0:0:0:
64,192,118835,1,0,0:0:0:0:
192,192,119046,1,0,0:0:0:0:
448,192,119257,1,0,0:0:0:0:
64,192,119469,1,0,0:0:0:0:
448,192,119680,1,0,0:0:0:0:
320,192,119680,1,0,0:0:0:0:
192,192,119891,1,0,0:0:0:0:
448,192,120102,1,0,0:0:0:0:
64,192,120102,1,0,0:0:0:0:
320,192,120314,1,0,0:0:0:0:
192,192,120525,1,0,0:0:0:0:
64,192,120525,1,0,0:0:0:0:
448,192,120736,1,0,0:0:0:0:
320,192,120947,1,0,0:0:0:0:
64,192,120947,1,0,0:0:0:0:
192,192,121159,1,0,0:0:0:0:
320,192,121370,1,0,0:0:0:0:
448,192,121370,1,0,0:0:0:0:
64,192,121581,1,0,0:0:0:0:
192,192,121793,1,0,0:0:0:0:
448,192,121793,1,0,0:0:0:0:
320,192,122004,1,0,0:0:0:0:
64,192,122215,1,0,0:0:0:0:
192,192,122215,1,0,0:0:0:0:
448,192,122426,1,0,0:0:0:0:
192,192,122638,1,0,0:0:0:0:
320,192,122849,1,0,0:0:0:0:
64,192,123060,1,0,0:0:0:0:
448,192,123060,1,0,0:0:0:0:
192,192,123271,1,0,0:0:0:0:
448,192,123483,1,0,0:0:0:0:
64,192,123694,1,0,0:0:0:0:
448,192,123905,1,0,0:0:0:0:
320,192,123905,1,0,0:0:0:0:
192,192,124116,1,0,0:0:0:0:
448,192,124328,1,0,0:0:0:0:
320,192,124539,1,0,0:0:0:0:
64,192,124750,1,0,0:0:0:0:
192,192,124750,1,0,0:0:0:0:
448,192,124962,1,0,0:0:0:0:
320,192,125173,1,0,0:0:0:0:
64,192,125173,1,0,0:0:0:0:
192,192,125384,1,0,0:0:0:0:
448,192,125595,1,0,0:0:0:0:
64,192,125595,1,0,0:0:0:0:
320,192,125807,1,0,0:0:0:0:
192,192,126018,1,0,0:0:0:0:
448,192,126229,1,0,0:0:0:0:
64,192,126440,1,0,0:0:0:0:
192,192,126440,1,0,0:0:0:0:
320,192,126652,1,0,0:0:0:0:
448,192,126863,1,0,0:0:0:0:
64,192,126863,1,0,0:0:0:0:
320,192,127074,1,0,0:0:0:0:
192,192,127285,1,0,0:0:0:0:
448,192,127285,1,0,0:0:0:0:
320,192,127497,1,0,0:0:0:0:
64,192,127708,1,0,0:0:0:0:
192,192,127708,1,0,0:0:0:0:
448,192,127919,1,0,0:0:0:0:
320,192,128131,1,0,0:0:0:0:
64,192,128131,1,0,0:0:0:0:
192,192,128342,1,0,0:0:0:0:
64,192,128553,1,0,0:0:0:0:
448,192,128553,1,0,0:0:0:0:
192,192,128976,1,0,0:0:0:0:
64,192,129187,1,0,0:0:0:0:
64,192,129398,128,0,129821:0:0:0:0:
192,192,129821,1,0,0:0:0:0:
320,192,129926,1,0,0:0:0:0:
448,192,130243,128,0,130666:0:0:0:0:
320,192,130666,1,0,0:0:0:0:
64,192,130666,1,0,0:0:0:0:
192,192,130877,1,0,0:0:0:0:
448,192,130877,1,0,0:0:0:0:
320,192,131194,1,0,0:0:0:0:
192,192,131405,1,0,0:0:0:0:
320,192,131511,1,0,0:0:0:0:
192,192,131722,1,0,0:0:0:0:
448,192,131933,1,0,0:0:0:0:
64,192,131933,1,0,0:0:0:0:
320,192,132145,1,0,0:0:0:0:
192,192,132356,1,0,0:0:0:0:
64,192,132356,1,0,0:0:0:0:
448,192,132567,1,0,0:0:0:0:
320,192,132778,128,0,133201:0:0:0:0:
192,192,132778,1,0,0:0:0:0:
64,192,133201,1,0,0:0:0:0:
448,192,133201,1,0,0:0:0:0:
192,192,133307,1,0,0:0:0:0:
320,192,133412,1,0,0:0:0:0:
448,192,133623,128,0,134046:0:0:0:0:
64,192,133623,1,0,0:0:0:0:
320,192,134046,1,0,0:0:0:0:
192,192,134046,1,0,0:0:0:0:
64,192,134257,128,0,134469:0:0:0:0:
448,192,134469,1,0,0:0:0:0:
192,192,134680,128,0,134891:0:0:0:0:
320,192,134680,128,0,134891:0:0:0:0:
64,192,134891,1,0,0:0:0:0:
448,192,135102,1,0,0:0:0:0:
320,192,135208,1,0,0:0:0:0:
192,192,135314,1,0,0:0:0:0:
64,192,135314,1,0,0:0:0:0:
448,192,135525,1,0,0:0:0:0:
64,192,135736,1,0,0:0:0:0:
192,192,135736,1,0,0:0:0:0:
320,192,135947,1,0,0:0:0:0:
448,192,135947,1,0,0:0:0:0:
64,192,136159,128,0,136581:0:0:0:0:
192,192,136159,1,0,0:0:0:0:
192,192,136581,1,0,0:0:0:0:
320,192,136687,1,0,0:0:0:0:
448,192,136793,1,0,0:0:0:0:
