osu file format v13

[General]
AudioFilename: senbonzakura.mp3
AudioLeadIn: 0
PreviewTime: 45038
Countdown: 0
SampleSet: None
StackLeniency: 0.7
Mode: 1
LetterboxInBreaks: 0
WidescreenStoryboard: 0

[Editor]
Bookmarks: 268102
DistanceSpacing: 1
BeatDivisor: 4
GridSize: 16
TimelineZoom: 2.5

[Metadata]
Title:Senbonzakura
TitleUnicode:千本桜
Artist:GigaP feat. kradness
ArtistUnicode:ギガP feat. kradness
Creator:Soldsaga KunG
Version:Oni
Source:
Tags:黒うさP KurousaP Hatsune Miku Vocaloid Nico Nico Arrange rew0825 KantoKun qoot8123 [I]MMoRTal[S]
BeatmapID:463089
BeatmapSetID:186878

[Difficulty]
HPDrainRate:5
CircleSize:4
OverallDifficulty:5
ApproachRate:5
SliderMultiplier:1.4
SliderTickRate:1

[Events]
//Background and Video events
0,0,"maxresdefault.jpg",0,0
//Break Periods
//Storyboard Layer 0 (Background)
//Storyboard Layer 1 (Fail)
//Storyboard Layer 2 (Pass)
//Storyboard Layer 3 (Foreground)
//Storyboard Sound Samples
//Background Colour Transformations
3,100,163,162,255

[TimingPoints]
210,342.857142857143,4,1,0,100,1,0
45467,-100,4,1,0,100,0,1
67410,-100,4,1,0,100,0,0
116781,-100,4,1,0,100,0,1
127752,-100,4,1,0,100,0,0
129124,-100,4,1,0,100,0,1
152095,-100,4,1,0,100,0,0

[HitObjects]
256,192,1581,5,4,0:0:0:0:
256,192,1752,1,4,0:0:0:0:
256,192,3810,1,4,0:0:0:0:
256,192,4152,1,4,0:0:0:0:
256,192,4324,1,4,0:0:0:0:
256,192,4495,1,4,0:0:0:0:
256,192,5695,1,4,0:0:0:0:
256,192,6038,1,4,0:0:0:0:
256,192,6381,1,4,0:0:0:0:
256,192,6552,1,4,0:0:0:0:
256,192,6724,1,8,0:0:0:0:
256,192,7067,1,0,0:0:0:0:
256,192,7238,1,8,0:0:0:0:
256,192,7410,1,0,0:0:0:0:
256,192,7495,1,0,0:0:0:0:
256,192,7667,1,0,0:0:0:0:
256,192,7752,1,0,0:0:0:0:
256,192,7924,1,8,0:0:0:0:
256,192,8095,1,0,0:0:0:0:
256,192,8181,1,8,0:0:0:0:
256,192,8352,1,8,0:0:0:0:
256,192,8438,1,0,0:0:0:0:
256,192,8610,1,8,0:0:0:0:
256,192,8781,1,8,0:0:0:0:
256,192,8867,1,8,0:0:0:0:
256,192,8952,1,8,0:0:0:0:
256,192,9038,1,8,0:0:0:0:
256,192,9124,1,0,0:0:0:0:
256,192,9295,1,8,0:0:0:0:
256,192,9381,1,0,0:0:0:0:
256,192,9467,1,0,0:0:0:0:
256,192,9638,1,0,0:0:0:0:
256,192,9810,1,8,0:0:0:0:
256,192,9981,1,8,0:0:0:0:
256,192,10067,1,8,0:0:0:0:
256,192,10152,1,0,0:0:0:0:
256,192,10324,1,0,0:0:0:0:
256,192,10410,1,0,0:0:0:0:
256,192,10495,1,8,0:0:0:0:
256,192,10667,1,8,0:0:0:0:
256,192,10838,1,0,0:0:0:0:
256,192,10924,1,8,0:0:0:0:
256,192,11010,1,0,0:0:0:0:
256,192,11095,1,8,0:0:0:0:
256,192,11181,1,0,0:0:0:0:
256,192,11352,1,0,0:0:0:0:
256,192,11438,1,0,0:0:0:0:
256,192,11524,1,8,0:0:0:0:
256,192,11695,1,0,0:0:0:0:
256,192,11867,1,8,0:0:0:0:
256,192,12038,1,8,0:0:0:0:
256,192,12210,1,0,0:0:0:0:
256,192,12381,1,8,0:0:0:0:
256,192,12552,1,0,0:0:0:0:
256,192,12724,1,8,0:0:0:0:
256,192,12895,1,0,0:0:0:0:
256,192,12981,1,8,0:0:0:0:
256,192,13152,1,8,0:0:0:0:
256,192,13238,1,0,0:0:0:0:
256,192,13410,1,8,0:0:0:0:
256,192,13581,1,0,0:0:0:0:
256,192,13667,1,8,0:0:0:0:
256,192,13838,1,8,0:0:0:0:
256,192,13924,1,0,0:0:0:0:
256,192,14095,1,8,0:0:0:0:
256,192,14267,1,0,0:0:0:0:
256,192,14352,1,8,0:0:0:0:
256,192,14524,1,0,0:0:0:0:
256,192,14610,1,8,0:0:0:0:
256,192,14781,1,8,0:0:0:0:
256,192,14867,1,8,0:0:0:0:
256,192,14952,1,0,0:0:0:0:
256,192,15124,1,0,0:0:0:0:
256,192,15295,1,0,0:0:0:0:
256,192,15467,1,8,0:0:0:0:
256,192,15638,1,0,0:0:0:0:
256,192,15724,1,8,0:0:0:0:
256,192,15810,1,0,0:0:0:0:
256,192,15981,1,0,0:0:0:0:
256,192,16152,1,8,0:0:0:0:
256,192,16324,1,8,0:0:0:0:
256,192,16410,1,0,0:0:0:0:
256,192,16495,1,8,0:0:0:0:
256,192,16667,1,0,0:0:0:0:
256,192,16838,1,0,0:0:0:0:
256,192,17010,1,8,0:0:0:0:
256,192,17181,1,8,0:0:0:0:
256,192,17352,1,8,0:0:0:0:
256,192,17438,1,8,0:0:0:0:
256,192,17524,1,0,0:0:0:0:
256,192,17610,1,8,0:0:0:0:
256,192,17695,1,0,0:0:0:0:
256,192,17867,1,0,0:0:0:0:
256,192,18038,1,0,0:0:0:0:
256,192,18210,1,8,0:0:0:0:
256,192,18381,1,0,0:0:0:0:
256,192,18467,1,0,0:0:0:0:
256,192,18552,1,0,0:0:0:0:
256,192,18724,1,0,0:0:0:0:
256,192,18895,1,8,0:0:0:0:
256,192,19067,1,0,0:0:0:0:
256,192,19152,1,0,0:0:0:0:
256,192,19238,1,0,0:0:0:0:
256,192,19410,1,0,0:0:0:0:
256,192,19581,1,8,0:0:0:0:
256,192,19752,1,0,0:0:0:0:
256,192,19838,1,0,0:0:0:0:
256,192,19924,1,0,0:0:0:0:
256,192,20095,1,8,0:0:0:0:
256,192,20267,1,0,0:0:0:0:
256,192,20352,1,0,0:0:0:0:
256,192,20438,1,8,0:0:0:0:
256,192,20610,1,8,0:0:0:0:
256,192,20781,1,0,0:0:0:0:
256,192,20952,1,0,0:0:0:0:
256,192,21038,1,8,0:0:0:0:
256,192,21210,1,0,0:0:0:0:
256,192,21295,1,8,0:0:0:0:
256,192,21467,1,0,0:0:0:0:
256,192,21638,1,0,0:0:0:0:
256,192,21810,1,8,0:0:0:0:
256,192,21981,1,8,0:0:0:0:
256,192,22152,1,4,0:0:0:0:
256,192,22410,1,4,0:0:0:0:
256,192,22667,1,4,0:0:0:0:
256,192,22838,1,4,0:0:0:0:
256,192,23181,1,8,0:0:0:0:
256,192,23524,1,0,0:0:0:0:
256,192,23867,1,8,0:0:0:0:
256,192,24038,1,0,0:0:0:0:
256,192,24124,1,0,0:0:0:0:
256,192,24210,1,0,0:0:0:0:
256,192,24381,1,0,0:0:0:0:
256,192,24552,1,8,0:0:0:0:
256,192,24724,1,0,0:0:0:0:
256,192,24895,1,0,0:0:0:0:
256,192,25067,1,0,0:0:0:0:
256,192,25152,1,8,0:0:0:0:
256,192,25324,1,0,0:0:0:0:
256,192,25410,1,8,0:0:0:0:
256,192,25495,1,8,0:0:0:0:
256,192,25581,1,0,0:0:0:0:
256,192,25752,1,0,0:0:0:0:
256,192,25924,1,8,0:0:0:0:
256,192,26096,1,8,0:0:0:0:
256,192,26267,1,0,0:0:0:0:
256,192,26610,1,8,0:0:0:0:
256,192,26781,1,0,0:0:0:0:
256,192,26867,1,8,0:0:0:0:
256,192,27038,1,8,0:0:0:0:
256,192,27124,1,0,0:0:0:0:
256,192,27210,1,0,0:0:0:0:
256,192,27295,1,8,0:0:0:0:
256,192,27467,1,0,0:0:0:0:
256,192,27638,1,8,0:0:0:0:
256,192,27981,1,0,0:0:0:0:
256,192,28324,1,8,0:0:0:0:
256,192,28667,1,8,0:0:0:0:
256,192,29010,1,0,0:0:0:0:
256,192,29267,1,0,0:0:0:0:
256,192,29352,1,8,0:0:0:0:
256,192,29524,1,0,0:0:0:0:
256,192,29695,1,8,0:0:0:0:
256,192,29867,1,8,0:0:0:0:
256,192,29952,1,8,0:0:0:0:
256,192,30038,1,0,0:0:0:0:
256,192,30210,1,0,0:0:0:0:
256,192,30381,1,8,0:0:0:0:
256,192,30552,1,0,0:0:0:0:
256,192,30638,1,8,0:0:0:0:
256,192,30724,1,0,0:0:0:0:
256,192,30895,1,0,0:0:0:0:
256,192,30981,1,8,0:0:0:0:
256,192,31152,1,0,0:0:0:0:
256,192,31238,1,8,0:0:0:0:
256,192,31324,1,8,0:0:0:0:
256,192,31410,1,0,0:0:0:0:
256,192,31581,1,0,0:0:0:0:
256,192,31667,1,0,0:0:0:0:
256,192,31752,1,8,0:0:0:0:
256,192,31924,1,0,0:0:0:0:
256,192,32010,1,8,0:0:0:0:
256,192,32095,1,0,0:0:0:0:
256,192,32267,1,0,0:0:0:0:
256,192,32438,1,8,0:0:0:0:
256,192,32610,1,8,0:0:0:0:
256,192,32695,1,8,0:0:0:0:
256,192,32781,1,0,0:0:0:0:
256,192,32952,1,0,0:0:0:0:
256,192,33124,1,8,0:0:0:0:
256,192,33467,1,0,0:0:0:0:
256,192,33810,1,8,0:0:0:0:
256,192,34152,1,0,0:0:0:0:
256,192,34495,1,8,0:0:0:0:
256,192,35010,1,0,0:0:0:0:
256,192,35181,1,8,0:0:0:0:
256,192,35524,1,0,0:0:0:0:
256,192,35867,1,0,0:0:0:0:
256,192,36038,1,0,0:0:0:0:
256,192,36124,1,0,0:0:0:0:
256,192,36210,1,0,0:0:0:0:
256,192,36381,1,0,0:0:0:0:
256,192,36552,1,8,0:0:0:0:
256,192,36895,1,0,0:0:0:0:
256,192,37067,1,0,0:0:0:0:
256,192,37238,1,8,0:0:0:0:
256,192,37410,1,0,0:0:0:0:
256,192,37581,1,8,0:0:0:0:
256,192,37752,1,0,0:0:0:0:
256,192,37924,1,8,0:0:0:0:
256,192,38267,1,0,0:0:0:0:
256,192,38610,1,0,0:0:0:0:
256,192,38781,1,0,0:0:0:0:
256,192,38867,1,0,0:0:0:0:
256,192,38952,1,0,0:0:0:0:
256,192,39124,1,0,0:0:0:0:
256,192,39295,1,8,0:0:0:0:
256,192,39467,1,8,0:0:0:0:
256,192,39809,1,0,0:0:0:0:
256,192,39981,1,0,0:0:0:0:
256,192,40324,1,8,0:0:0:0:
256,192,40496,1,0,0:0:0:0:
256,192,40667,1,0,0:0:0:0:
256,192,41010,1,8,0:0:0:0:
256,192,41352,1,0,0:0:0:0:
256,192,41524,1,0,0:0:0:0:
256,192,41609,1,0,0:0:0:0:
256,192,41695,1,0,0:0:0:0:
256,192,41867,1,0,0:0:0:0:
256,192,42038,1,8,0:0:0:0:
256,192,42381,1,0,0:0:0:0:
256,192,42552,1,0,0:0:0:0:
256,192,42724,1,0,0:0:0:0:
256,192,42895,1,8,0:0:0:0:
256,192,43238,1,0,0:0:0:0:
256,192,43410,1,8,0:0:0:0:
256,192,43752,1,8,0:0:0:0:
256,192,44095,1,4,0:0:0:0:
256,192,44437,1,4,0:0:0:0:
256,192,44609,1,4,0:0:0:0:
256,192,44952,1,0,0:0:0:0:
256,192,45124,1,8,0:0:0:0:
256,192,45467,1,4,0:0:0:0:
256,192,45724,1,8,0:0:0:0:
256,192,45981,1,8,0:0:0:0:
256,192,46152,1,0,0:0:0:0:
256,192,46410,1,8,0:0:0:0:
256,192,46667,1,8,0:0:0:0:
256,192,46838,1,0,0:0:0:0:
256,192,47095,1,0,0:0:0:0:
256,192,47352,1,8,0:0:0:0:
256,192,47524,1,0,0:0:0:0:
256,192,47867,1,0,0:0:0:0:
256,192,48038,1,8,0:0:0:0:
256,192,48210,1,0,0:0:0:0:
256,192,48467,1,0,0:0:0:0:
256,192,48724,1,8,0:0:0:0:
256,192,48895,1,0,0:0:0:0:
256,192,49152,1,0,0:0:0:0:
256,192,49410,1,8,0:0:0:0:
256,192,49581,1,8,0:0:0:0:
256,192,49752,1,8,0:0:0:0:
256,192,49838,1,8,0:0:0:0:
256,192,49924,1,8,0:0:0:0:
256,192,50095,1,0,0:0:0:0:
256,192,50266,1,8,0:0:0:0:
256,192,50610,1,0,0:0:0:0:
256,192,50781,1,8,0:0:0:0:
256,192,50952,1,0,0:0:0:0:
256,192,51210,1,0,0:0:0:0:
256,192,51467,1,8,0:0:0:0:
256,192,51638,1,0,0:0:0:0:
256,192,51810,1,0,0:0:0:0:
256,192,51895,1,8,0:0:0:0:
256,192,51981,1,0,0:0:0:0:
256,192,52152,1,0,0:0:0:0:
256,192,52324,1,8,0:0:0:0:
256,192,52495,1,8,0:0:0:0:
256,192,52581,1,0,0:0:0:0:
256,192,52667,1,0,0:0:0:0:
256,192,52838,1,0,0:0:0:0:
256,192,53010,1,8,0:0:0:0:
256,192,53181,1,0,0:0:0:0:
256,192,53352,1,8,0:0:0:0:
256,192,53524,1,8,0:0:0:0:
256,192,53695,1,0,0:0:0:0:
256,192,54038,1,8,0:0:0:0:
256,192,54381,1,0,0:0:0:0:
256,192,54724,1,8,0:0:0:0:
256,192,55067,1,0,0:0:0:0:
256,192,55238,1,8,0:0:0:0:
256,192,55410,1,0,0:0:0:0:
256,192,55581,1,0,0:0:0:0:
256,192,55752,1,0,0:0:0:0:
256,192,55924,1,8,0:0:0:0:
256,192,56010,1,8,0:0:0:0:
256,192,56095,1,8,0:0:0:0:
256,192,56181,1,8,0:0:0:0:
256,192,56267,1,8,0:0:0:0:
256,192,56353,1,8,0:0:0:0:
256,192,56438,1,0,0:0:0:0:
256,192,56695,1,0,0:0:0:0:
256,192,56781,1,8,0:0:0:0:
256,192,56952,1,8,0:0:0:0:
256,192,57124,1,0,0:0:0:0:
256,192,57295,1,8,0:0:0:0:
256,192,57381,1,8,0:0:0:0:
256,192,57467,1,0,0:0:0:0:
256,192,57638,1,0,0:0:0:0:
256,192,57810,1,8,0:0:0:0:
256,192,57981,1,0,0:0:0:0:
256,192,58067,1,8,0:0:0:0:
256,192,58238,1,8,0:0:0:0:
256,192,58324,1,8,0:0:0:0:
256,192,58495,1,0,0:0:0:0:
256,192,58838,1,0,0:0:0:0:
256,192,59010,1,8,0:0:0:0:
256,192,59181,1,0,0:0:0:0:
256,192,59352,1,0,0:0:0:0:
256,192,59438,1,8,0:0:0:0:
256,192,59524,1,0,0:0:0:0:
256,192,59610,1,0,0:0:0:0:
256,192,59695,1,8,0:0:0:0:
256,192,59867,1,0,0:0:0:0:
256,192,60038,1,0,0:0:0:0:
256,192,60124,1,8,0:0:0:0:
256,192,60295,1,8,0:0:0:0:
256,192,60381,1,0,0:0:0:0:
256,192,60552,1,0,0:0:0:0:
256,192,60724,1,8,0:0:0:0:
256,192,60895,1,0,0:0:0:0:
256,192,60981,1,8,0:0:0:0:
256,192,61067,1,0,0:0:0:0:
256,192,61152,1,8,0:0:0:0:
256,192,61238,1,0,0:0:0:0:
256,192,61581,1,0,0:0:0:0:
256,192,61752,1,8,0:0:0:0:
256,192,61924,1,0,0:0:0:0:
256,192,62095,1,0,0:0:0:0:
256,192,62181,1,0,0:0:0:0:
256,192,62267,1,8,0:0:0:0:
256,192,62438,1,0,0:0:0:0:
256,192,62610,1,8,0:0:0:0:
256,192,62781,1,8,0:0:0:0:
256,192,62867,1,0,0:0:0:0:
256,192,62952,1,8,0:0:0:0:
256,192,63124,1,0,0:0:0:0:
256,192,63295,1,0,0:0:0:0:
256,192,63467,1,0,0:0:0:0:
256,192,63552,1,0,0:0:0:0:
256,192,63638,1,8,0:0:0:0:
256,192,63810,1,0,0:0:0:0:
256,192,63981,1,8,0:0:0:0:
256,192,64324,1,0,0:0:0:0:
256,192,64495,1,8,0:0:0:0:
256,192,64667,1,4,0:0:0:0:
256,192,65010,1,12,0:0:0:0:
256,192,65352,1,4,0:0:0:0:
256,192,65695,1,12,0:0:0:0:
256,192,65867,1,4,0:0:0:0:
256,192,66038,1,0,0:0:0:0:
256,192,66124,1,0,0:0:0:0:
256,192,66210,1,8,0:0:0:0:
256,192,66295,1,8,0:0:0:0:
256,192,66381,1,0,0:0:0:0:
256,192,66467,1,0,0:0:0:0:
256,192,66552,1,8,0:0:0:0:
256,192,66638,1,8,0:0:0:0:
256,192,66724,1,8,0:0:0:0:
256,192,67067,1,8,0:0:0:0:
256,192,67410,1,4,0:0:0:0:
256,192,68438,1,8,0:0:0:0:
256,192,68610,1,0,0:0:0:0:
256,192,68781,1,4,0:0:0:0:
256,192,69810,1,8,0:0:0:0:
256,192,69895,1,8,0:0:0:0:
256,192,69981,1,0,0:0:0:0:
256,192,70152,1,4,0:0:0:0:
256,192,70667,1,0,0:0:0:0:
256,192,70752,1,0,0:0:0:0:
256,192,70838,1,0,0:0:0:0:
256,192,71181,1,0,0:0:0:0:
256,192,71267,1,8,0:0:0:0:
256,192,71352,1,0,0:0:0:0:
256,192,71438,1,8,0:0:0:0:
256,192,71524,1,0,0:0:0:0:
256,192,71867,1,0,0:0:0:0:
256,192,72038,1,0,0:0:0:0:
256,192,72124,1,0,0:0:0:0:
256,192,72210,1,8,0:0:0:0:
256,192,72381,1,0,0:0:0:0:
256,192,72552,1,8,0:0:0:0:
256,192,72895,1,0,0:0:0:0:
256,192,73238,1,8,0:0:0:0:
256,192,73924,1,0,0:0:0:0:
256,192,74610,1,8,0:0:0:0:
256,192,75295,1,0,0:0:0:0:
256,192,75638,1,0,0:0:0:0:
256,192,75724,1,0,0:0:0:0:
256,192,75810,1,8,0:0:0:0:
256,192,75981,1,0,0:0:0:0:
256,192,76067,1,8,0:0:0:0:
256,192,76152,1,0,0:0:0:0:
256,192,76324,1,8,0:0:0:0:
256,192,76410,1,0,0:0:0:0:
256,192,76495,1,0,0:0:0:0:
256,192,76667,1,8,0:0:0:0:
256,192,77010,1,8,0:0:0:0:
256,192,77095,1,0,0:0:0:0:
256,192,77181,1,0,0:0:0:0:
256,192,77352,1,0,0:0:0:0:
256,192,77438,1,8,0:0:0:0:
256,192,77524,1,0,0:0:0:0:
256,192,77695,1,0,0:0:0:0:
256,192,77781,1,0,0:0:0:0:
256,192,77867,1,8,0:0:0:0:
256,192,78038,1,8,0:0:0:0:
256,192,78381,1,0,0:0:0:0:
256,192,78552,1,8,0:0:0:0:
256,192,78638,1,0,0:0:0:0:
256,192,78724,1,0,0:0:0:0:
256,192,78895,1,0,0:0:0:0:
256,192,79067,1,8,0:0:0:0:
256,192,79238,1,8,0:0:0:0:
256,192,79324,1,8,0:0:0:0:
256,192,79410,1,0,0:0:0:0:
256,192,79581,1,0,0:0:0:0:
256,192,79752,1,0,0:0:0:0:
256,192,79924,1,0,0:0:0:0:
256,192,80010,1,8,0:0:0:0:
256,192,80095,1,8,0:0:0:0:
256,192,80181,1,0,0:0:0:0:
256,192,80267,1,0,0:0:0:0:
256,192,80438,1,0,0:0:0:0:
256,192,80610,1,0,0:0:0:0:
256,192,80695,1,0,0:0:0:0:
256,192,80781,1,8,0:0:0:0:
256,192,80952,1,0,0:0:0:0:
256,192,81124,1,8,0:0:0:0:
256,192,81381,1,0,0:0:0:0:
256,192,81467,1,8,0:0:0:0:
256,192,81638,1,0,0:0:0:0:
256,192,81810,1,8,0:0:0:0:
256,192,81981,1,8,0:0:0:0:
256,192,82152,2,0,B|400:192|400:192|400:48|400:48|256:48|256:48|256:192,1,560
256,192,83867,1,4,0:0:0:0:
256,192,84124,1,0,0:0:0:0:
256,192,84210,1,8,0:0:0:0:
256,192,84381,1,0,0:0:0:0:
256,192,84552,1,0,0:0:0:0:
256,192,84638,1,8,0:0:0:0:
256,192,84724,1,0,0:0:0:0:
256,192,84895,1,0,0:0:0:0:
256,192,85067,1,8,0:0:0:0:
256,192,85238,1,0,0:0:0:0:
256,192,85495,1,0,0:0:0:0:
256,192,85581,1,8,0:0:0:0:
256,192,85752,1,8,0:0:0:0:
256,192,85838,1,8,0:0:0:0:
256,192,85924,1,0,0:0:0:0:
256,192,86095,1,0,0:0:0:0:
256,192,86267,1,0,0:0:0:0:
256,192,86352,1,0,0:0:0:0:
256,192,86438,1,8,0:0:0:0:
256,192,86524,1,8,0:0:0:0:
256,192,86610,1,0,0:0:0:0:
256,192,86781,1,0,0:0:0:0:
256,192,86867,1,8,0:0:0:0:
256,192,87038,1,8,0:0:0:0:
256,192,87124,1,8,0:0:0:0:
256,192,87295,1,0,0:0:0:0:
256,192,87467,1,8,0:0:0:0:
256,192,87552,1,8,0:0:0:0:
256,192,87638,1,0,0:0:0:0:
256,192,87810,1,0,0:0:0:0:
256,192,87981,1,8,0:0:0:0:
256,192,88152,1,0,0:0:0:0:
256,192,88238,1,8,0:0:0:0:
256,192,88495,1,0,0:0:0:0:
256,192,88667,1,8,0:0:0:0:
256,192,88838,1,0,0:0:0:0:
256,192,88924,1,8,0:0:0:0:
256,192,89010,1,8,0:0:0:0:
256,192,89095,1,0,0:0:0:0:
256,192,89181,1,8,0:0:0:0:
256,192,89267,1,0,0:0:0:0:
256,192,89352,1,0,0:0:0:0:
256,192,89524,1,8,0:0:0:0:
256,192,89610,1,0,0:0:0:0:
256,192,89695,1,8,0:0:0:0:
256,192,89867,1,0,0:0:0:0:
256,192,89953,1,8,0:0:0:0:
256,192,90038,1,0,0:0:0:0:
256,192,90210,1,0,0:0:0:0:
256,192,90296,1,0,0:0:0:0:
256,192,90381,1,8,0:0:0:0:
256,192,90552,1,0,0:0:0:0:
256,192,90638,1,8,0:0:0:0:
256,192,90723,1,0,0:0:0:0:
256,192,90810,1,8,0:0:0:0:
256,192,90895,1,0,0:0:0:0:
256,192,91067,1,0,0:0:0:0:
256,192,91238,1,8,0:0:0:0:
256,192,91410,1,0,0:0:0:0:
256,192,91581,1,0,0:0:0:0:
256,192,91667,1,8,0:0:0:0:
256,192,91752,1,8,0:0:0:0:
256,192,91838,1,0,0:0:0:0:
256,192,91924,1,8,0:0:0:0:
256,192,92095,1,0,0:0:0:0:
256,192,92267,1,8,0:0:0:0:
256,192,92352,1,8,0:0:0:0:
256,192,92438,1,0,0:0:0:0:
256,192,92524,1,8,0:0:0:0:
256,192,92610,1,0,0:0:0:0:
256,192,92695,1,8,0:0:0:0:
256,192,92781,1,8,0:0:0:0:
256,192,92952,1,0,0:0:0:0:
256,192,93038,1,0,0:0:0:0:
256,192,93124,1,8,0:0:0:0:
256,192,93295,1,8,0:0:0:0:
256,192,93467,1,0,0:0:0:0:
256,192,93552,1,8,0:0:0:0:
256,192,93638,1,0,0:0:0:0:
256,192,93810,1,0,0:0:0:0:
256,192,93895,1,0,0:0:0:0:
256,192,93981,1,8,0:0:0:0:
256,192,94152,1,8,0:0:0:0:
256,192,94238,1,8,0:0:0:0:
256,192,94324,1,8,0:0:0:0:
256,192,94410,1,0,0:0:0:0:
256,192,94495,1,0,0:0:0:0:
256,192,94667,1,8,0:0:0:0:
256,192,94838,1,4,0:0:0:0:
256,192,95181,1,8,0:0:0:0:
256,192,95524,1,0,0:0:0:0:
256,192,95867,1,8,0:0:0:0:
256,192,96210,1,0,0:0:0:0:
256,192,96381,1,0,0:0:0:0:
256,192,96466,1,0,0:0:0:0:
256,192,96552,1,8,0:0:0:0:
256,192,96724,1,0,0:0:0:0:
256,192,96895,1,8,0:0:0:0:
256,192,97067,1,8,0:0:0:0:
256,192,97238,1,0,0:0:0:0:
256,192,97581,1,0,0:0:0:0:
256,192,97924,1,8,0:0:0:0:
256,192,98267,1,0,0:0:0:0:
256,192,98610,1,8,0:0:0:0:
256,192,98952,1,8,0:0:0:0:
256,192,99295,1,0,0:0:0:0:
256,192,99381,1,0,0:0:0:0:
256,192,99467,1,8,0:0:0:0:
256,192,99638,1,8,0:0:0:0:
256,192,99810,1,0,0:0:0:0:
256,192,99895,1,8,0:0:0:0:
256,192,99981,1,0,0:0:0:0:
256,192,100067,1,8,0:0:0:0:
256,192,100152,1,0,0:0:0:0:
256,192,100324,1,0,0:0:0:0:
256,192,100667,1,8,0:0:0:0:
256,192,101010,1,0,0:0:0:0:
256,192,101352,1,8,0:0:0:0:
256,192,101695,1,0,0:0:0:0:
256,192,101867,1,0,0:0:0:0:
256,192,101952,1,8,0:0:0:0:
256,192,102038,1,0,0:0:0:0:
256,192,102210,1,8,0:0:0:0:
256,192,102381,1,0,0:0:0:0:
256,192,102724,1,0,0:0:0:0:
256,192,102895,1,0,0:0:0:0:
256,192,103067,1,8,0:0:0:0:
256,192,103238,1,8,0:0:0:0:
256,192,103581,1,0,0:0:0:0:
256,192,103752,1,8,0:0:0:0:
256,192,104095,1,8,0:0:0:0:
256,192,104438,1,4,0:0:0:0:
256,192,104781,1,12,0:0:0:0:
256,192,104952,1,4,0:0:0:0:
256,192,105467,1,0,0:0:0:0:
256,192,105810,1,8,0:0:0:0:
256,192,106495,1,8,0:0:0:0:
256,192,107010,1,8,0:0:0:0:
256,192,107181,1,8,0:0:0:0:
256,192,107867,1,8,0:0:0:0:
256,192,108381,1,8,0:0:0:0:
256,192,108552,1,8,0:0:0:0:
256,192,109067,1,8,0:0:0:0:
256,192,109152,1,8,0:0:0:0:
256,192,109238,1,8,0:0:0:0:
256,192,109581,1,0,0:0:0:0:
256,192,109924,1,8,0:0:0:0:
256,192,110267,1,8,0:0:0:0:
256,192,110524,1,0,0:0:0:0:
256,192,110610,1,8,0:0:0:0:
256,192,110952,1,8,0:0:0:0:
256,192,111295,1,0,0:0:0:0:
256,192,111638,1,0,0:0:0:0:
256,192,111981,1,0,0:0:0:0:
256,192,112323,1,8,0:0:0:0:
256,192,112666,1,0,0:0:0:0:
256,192,113009,1,0,0:0:0:0:
256,192,113352,1,0,0:0:0:0:
256,192,113695,1,8,0:0:0:0:
256,192,114038,1,0,0:0:0:0:
256,192,114210,1,0,0:0:0:0:
256,192,114381,1,0,0:0:0:0:
256,192,114552,1,0,0:0:0:0:
256,192,114724,1,0,0:0:0:0:
256,192,114810,1,0,0:0:0:0:
256,192,114895,1,0,0:0:0:0:
256,192,114981,1,0,0:0:0:0:
256,192,115067,1,8,0:0:0:0:
256,192,115152,1,0,0:0:0:0:
256,192,115238,1,8,0:0:0:0:
256,192,115324,1,0,0:0:0:0:
256,192,116095,1,0,0:0:0:0:
256,192,116438,1,8,0:0:0:0:
256,192,116781,1,4,0:0:0:0:
256,192,117038,1,8,0:0:0:0:
256,192,117124,1,0,0:0:0:0:
256,192,117295,1,8,0:0:0:0:
256,192,117381,1,0,0:0:0:0:
256,192,117467,1,0,0:0:0:0:
256,192,117638,1,0,0:0:0:0:
256,192,117810,1,8,0:0:0:0:
256,192,117981,1,8,0:0:0:0:
256,192,118067,1,8,0:0:0:0:
256,192,118152,1,0,0:0:0:0:
256,192,118324,1,0,0:0:0:0:
256,192,118495,1,8,0:0:0:0:
256,192,118667,1,8,0:0:0:0:
256,192,118838,1,0,0:0:0:0:
256,192,119181,1,0,0:0:0:0:
256,192,119352,1,8,0:0:0:0:
256,192,119524,1,0,0:0:0:0:
256,192,119610,1,0,0:0:0:0:
256,192,119695,1,8,0:0:0:0:
256,192,119867,1,8,0:0:0:0:
256,192,119952,1,8,0:0:0:0:
256,192,120038,1,0,0:0:0:0:
256,192,120210,1,0,0:0:0:0:
256,192,120381,1,0,0:0:0:0:
256,192,120467,1,8,0:0:0:0:
256,192,120552,1,0,0:0:0:0:
256,192,120724,1,0,0:0:0:0:
256,192,120895,1,8,0:0:0:0:
256,192,121067,1,8,0:0:0:0:
256,192,121152,1,8,0:0:0:0:
256,192,121238,1,0,0:0:0:0:
256,192,121410,1,0,0:0:0:0:
256,192,121581,1,0,0:0:0:0:
256,192,121924,1,0,0:0:0:0:
256,192,122095,1,8,0:0:0:0:
256,192,122267,1,0,0:0:0:0:
256,192,122438,1,0,0:0:0:0:
256,192,122523,1,0,0:0:0:0:
256,192,122695,1,0,0:0:0:0:
256,192,122781,1,8,0:0:0:0:
256,192,122952,1,0,0:0:0:0:
256,192,123124,1,0,0:0:0:0:
256,192,123210,1,8,0:0:0:0:
256,192,123381,1,8,0:0:0:0:
256,192,123467,1,8,0:0:0:0:
256,192,123638,1,0,0:0:0:0:
256,192,123810,1,0,0:0:0:0:
256,192,123895,1,8,0:0:0:0:
256,192,124067,1,0,0:0:0:0:
256,192,124152,1,8,0:0:0:0:
256,192,124324,1,0,0:0:0:0:
256,192,124667,1,0,0:0:0:0:
256,192,124838,1,8,0:0:0:0:
256,192,125010,1,0,0:0:0:0:
256,192,125352,1,8,0:0:0:0:
256,192,125695,1,0,0:0:0:0:
256,192,126038,1,8,0:0:0:0:
256,192,126381,1,0,0:0:0:0:
256,192,126467,1,0,0:0:0:0:
256,192,126552,1,8,0:0:0:0:
256,192,126638,1,8,0:0:0:0:
256,192,126724,1,0,0:0:0:0:
256,192,126895,1,0,0:0:0:0:
256,192,127067,1,8,0:0:0:0:
256,192,127152,1,8,0:0:0:0:
256,192,127238,1,8,0:0:0:0:
256,192,127324,1,8,0:0:0:0:
256,192,127410,1,8,0:0:0:0:
256,192,127495,1,0,0:0:0:0:
256,192,127581,1,8,0:0:0:0:
256,192,127667,1,0,0:0:0:0:
256,192,127752,1,8,0:0:0:0:
256,192,128095,1,8,0:0:0:0:
256,192,128438,1,8,0:0:0:0:
256,192,128610,1,8,0:0:0:0:
256,192,128781,1,8,0:0:0:0:
256,192,128867,1,8,0:0:0:0:
256,192,128952,1,8,0:0:0:0:
256,192,129038,1,0,0:0:0:0:
256,192,129124,1,0,0:0:0:0:
256,192,129295,1,8,0:0:0:0:
256,192,129467,1,0,0:0:0:0:
256,192,129552,1,8,0:0:0:0:
256,192,129638,1,0,0:0:0:0:
256,192,129724,1,8,0:0:0:0:
256,192,129810,1,0,0:0:0:0:
256,192,129981,1,8,0:0:0:0:
256,192,130152,1,0,0:0:0:0:
256,192,130238,1,8,0:0:0:0:
256,192,130410,1,8,0:0:0:0:
256,192,130495,1,0,0:0:0:0:
256,192,130667,1,8,0:0:0:0:
256,192,130838,1,8,0:0:0:0:
256,192,130924,1,8,0:0:0:0:
256,192,131010,1,0,0:0:0:0:
256,192,131095,1,8,0:0:0:0:
256,192,131181,1,0,0:0:0:0:
256,192,131352,1,8,0:0:0:0:
256,192,131438,1,8,0:0:0:0:
256,192,131524,1,0,0:0:0:0:
256,192,131695,1,0,0:0:0:0:
256,192,131867,1,0,0:0:0:0:
256,192,132038,1,8,0:0:0:0:
256,192,132210,1,8,0:0:0:0:
256,192,132295,1,8,0:0:0:0:
256,192,132467,1,0,0:0:0:0:
256,192,132552,1,8,0:0:0:0:
256,192,132724,1,0,0:0:0:0:
256,192,132895,1,8,0:0:0:0:
256,192,132981,1,0,0:0:0:0:
256,192,133067,1,8,0:0:0:0:
256,192,133152,1,0,0:0:0:0:
256,192,133238,1,8,0:0:0:0:
256,192,133410,1,8,0:0:0:0:
256,192,133581,1,0,0:0:0:0:
256,192,133667,1,0,0:0:0:0:
256,192,133752,1,8,0:0:0:0:
256,192,133924,1,0,0:0:0:0:
256,192,134010,1,8,0:0:0:0:
256,192,134095,1,8,0:0:0:0:
256,192,134181,1,0,0:0:0:0:
256,192,134267,1,8,0:0:0:0:
256,192,134438,1,0,0:0:0:0:
256,192,134524,1,8,0:0:0:0:
256,192,134610,1,0,0:0:0:0:
256,192,134781,1,8,0:0:0:0:
256,192,134952,1,0,0:0:0:0:
256,192,135038,1,8,0:0:0:0:
256,192,135210,1,8,0:0:0:0:
256,192,135295,1,0,0:0:0:0:
256,192,135381,1,0,0:0:0:0:
256,192,135467,1,8,0:0:0:0:
256,192,135638,1,0,0:0:0:0:
256,192,135724,1,8,0:0:0:0:
256,192,135895,1,8,0:0:0:0:
256,192,135981,1,0,0:0:0:0:
256,192,136152,1,0,0:0:0:0:
256,192,136238,1,8,0:0:0:0:
256,192,136324,1,0,0:0:0:0:
256,192,136410,1,8,0:0:0:0:
256,192,136495,1,8,0:0:0:0:
256,192,136667,1,0,0:0:0:0:
256,192,136838,1,8,0:0:0:0:
256,192,136924,1,0,0:0:0:0:
256,192,137010,1,0,0:0:0:0:
256,192,137181,1,0,0:0:0:0:
256,192,137352,1,0,0:0:0:0:
256,192,137524,1,0,0:0:0:0:
256,192,137610,1,0,0:0:0:0:
256,192,137695,1,8,0:0:0:0:
256,192,137867,1,8,0:0:0:0:
256,192,137952,1,0,0:0:0:0:
256,192,138038,1,8,0:0:0:0:
256,192,138210,1,0,0:0:0:0:
256,192,138295,1,8,0:0:0:0:
256,192,138381,1,0,0:0:0:0:
256,192,138467,1,0,0:0:0:0:
256,192,138552,1,8,0:0:0:0:
256,192,138724,1,0,0:0:0:0:
256,192,138895,1,8,0:0:0:0:
256,192,138981,1,8,0:0:0:0:
256,192,139067,1,8,0:0:0:0:
256,192,139238,1,0,0:0:0:0:
256,192,139410,1,8,0:0:0:0:
256,192,139581,1,0,0:0:0:0:
256,192,139752,1,8,0:0:0:0:
256,192,139838,1,8,0:0:0:0:
256,192,139924,1,8,0:0:0:0:
256,192,140010,1,8,0:0:0:0:
256,192,140095,1,0,0:0:0:0:
256,192,140267,1,8,0:0:0:0:
256,192,140438,1,0,0:0:0:0:
256,192,140524,1,8,0:0:0:0:
256,192,140695,1,8,0:0:0:0:
256,192,140781,1,8,0:0:0:0:
256,192,140952,1,8,0:0:0:0:
256,192,141124,1,0,0:0:0:0:
256,192,141210,1,8,0:0:0:0:
256,192,141381,1,8,0:0:0:0:
256,192,141467,1,8,0:0:0:0:
256,192,141638,1,8,0:0:0:0:
256,192,141810,1,8,0:0:0:0:
256,192,141895,1,8,0:0:0:0:
256,192,141981,1,0,0:0:0:0:
256,192,142067,1,8,0:0:0:0:
256,192,142152,1,8,0:0:0:0:
256,192,142324,1,8,0:0:0:0:
256,192,142495,1,8,0:0:0:0:
256,192,142581,1,8,0:0:0:0:
256,192,142667,1,0,0:0:0:0:
256,192,142752,1,0,0:0:0:0:
256,192,142838,1,0,0:0:0:0:
256,192,143010,1,8,0:0:0:0:
256,192,143181,1,0,0:0:0:0:
256,192,143267,1,8,0:0:0:0:
256,192,143438,1,8,0:0:0:0:
256,192,143524,1,0,0:0:0:0:
256,192,143695,1,8,0:0:0:0:
256,192,143867,1,8,0:0:0:0:
256,192,143952,1,8,0:0:0:0:
256,192,144038,1,8,0:0:0:0:
256,192,144124,1,8,0:0:0:0:
256,192,144210,1,0,0:0:0:0:
256,192,144381,1,0,0:0:0:0:
256,192,144552,1,0,0:0:0:0:
256,192,144638,1,8,0:0:0:0:
256,192,144724,1,0,0:0:0:0:
256,192,144895,1,0,0:0:0:0:
256,192,144981,1,8,0:0:0:0:
256,192,145067,1,8,0:0:0:0:
256,192,145152,1,0,0:0:0:0:
256,192,145238,1,8,0:0:0:0:
256,192,145410,1,0,0:0:0:0:
256,192,145581,1,0,0:0:0:0:
256,192,145752,1,8,0:0:0:0:
256,192,145924,1,0,0:0:0:0:
256,192,146010,1,0,0:0:0:0:
256,192,146095,1,0,0:0:0:0:
256,192,146181,1,0,0:0:0:0:
256,192,146267,1,0,0:0:0:0:
256,192,146438,1,8,0:0:0:0:
256,192,146610,1,0,0:0:0:0:
256,192,146695,1,0,0:0:0:0:
256,192,146781,1,0,0:0:0:0:
256,192,146867,1,0,0:0:0:0:
256,192,146952,1,0,0:0:0:0:
256,192,147124,1,0,0:0:0:0:
256,192,147181,1,0,0:0:0:0:
256,192,147238,1,0,0:0:0:0:
256,192,147295,1,0,0:0:0:0:
256,192,147467,1,0,0:0:0:0:
256,192,147524,1,0,0:0:0:0:
256,192,147581,1,0,0:0:0:0:
256,192,147638,1,0,0:0:0:0:
256,192,147810,1,0,0:0:0:0:
256,192,147895,1,0,0:0:0:0:
256,192,147981,1,0,0:0:0:0:
256,192,148067,1,0,0:0:0:0:
256,192,148152,1,0,0:0:0:0:
256,192,148210,1,0,0:0:0:0:
256,192,148267,1,0,0:0:0:0:
256,192,148324,1,0,0:0:0:0:
256,192,148410,1,0,0:0:0:0:
256,192,148495,1,0,0:0:0:0:
256,192,148581,1,0,0:0:0:0:
256,192,148667,1,0,0:0:0:0:
256,192,148838,1,0,0:0:0:0:
256,192,149010,1,0,0:0:0:0:
256,192,149181,1,0,0:0:0:0:
256,192,149352,1,0,0:0:0:0:
256,192,149524,1,0,0:0:0:0:
256,192,149695,1,4,0:0:0:0:
256,192,149952,1,4,0:0:0:0:
256,192,150210,1,4,0:0:0:0:
256,192,150381,1,4,0:0:0:0:
256,192,150724,1,0,0:0:0:0:
256,192,150810,1,0,0:0:0:0:
256,192,150895,1,0,0:0:0:0:
256,192,150981,1,0,0:0:0:0:
256,192,151067,1,0,0:0:0:0:
256,192,151324,1,4,0:0:0:0:
256,192,151581,1,4,0:0:0:0:
256,192,151752,1,4,0:0:0:0:
256,192,152095,1,8,0:0:0:0:
