osu file format v14

[General]
AudioFilename: [Kagamine Len feat. the Girls] [Original].mp3
AudioLeadIn: 0
PreviewTime: 56870
Countdown: 0
SampleSet: Normal
StackLeniency: 0.7
Mode: 0
LetterboxInBreaks: 1
WidescreenStoryboard: 1

[Editor]
DistanceSpacing: 0.5
BeatDivisor: 4
GridSize: 4
TimelineZoom: 1

[Metadata]
Title:Plus Danshi
TitleUnicode:Plus Danshi
Artist:Giga-P
ArtistUnicode:Giga-P
Creator:CharmCaster
Version:Normal
Source:
Tags:vocaloid len rin luka miku puberty funny plus boy
BeatmapID:564328
BeatmapSetID:167288

[Difficulty]
HPDrainRate:5
CircleSize:3
OverallDifficulty:5
ApproachRate:4
SliderMultiplier:0.9
SliderTickRate:1

[Events]
//Background and Video events
0,0,"maxresdefault.jpg",0,0
//Break Periods
2,48403,56050
2,78902,80049
2,108235,110715
2,134901,138715
2,145568,154714
2,190900,192047
//Storyboard Layer 0 (Background)
//Storyboard Layer 1 (Fail)
//Storyboard Layer 2 (Pass)
//Storyboard Layer 3 (Foreground)
//Storyboard Sound Samples

[TimingPoints]
12038,333.325951653237,4,1,0,100,1,0
57390,-100,4,1,0,100,0,1
67390,-50,4,1,0,100,0,1
67723,-50,4,1,0,100,0,0
68017,-100,4,1,0,100,0,1
78724,-100,4,1,0,100,0,0
102722,-133.333333333333,4,2,0,100,0,0
112035,-200,4,2,0,100,0,0
113389,-100,4,1,0,100,0,1
123388,-50,4,1,0,100,0,1
123722,-50,4,1,0,100,0,0
124055,-100,4,1,0,100,0,1
134719,-133.333333333333,4,1,0,100,0,0
145388,-100,4,1,0,100,0,0
166721,-100,4,2,0,100,0,0
169387,-100,4,1,0,100,0,1
179387,-50,4,1,0,100,0,1
179720,-50,4,1,0,100,0,0
180054,-100,4,1,0,100,0,1
190720,-100,4,1,0,100,0,0
213394,-100,4,2,0,100,0,0
214386,-100,4,1,0,100,0,0

[Colours]
Combo1 : 255,255,0
Combo2 : 255,0,0
Combo3 : 0,0,255
Combo4 : 0,255,0

[HitObjects]
168,80,13371,5,0,0:0:0:0:
96,80,13704,1,0,0:0:0:0:
60,144,14037,2,0,P|116:188|224:192,1,180
264,108,15371,5,0,0:0:0:0:
336,176,16037,1,0,0:0:0:0:
432,160,16704,2,0,P|480:112|404:56,2,180
432,256,18704,2,0,L|236:276,2,180
440,160,20704,2,0,P|392:104|276:96,3,180
128,72,24037,1,0,0:0:0:0:
224,176,25371,5,0,0:0:0:0:
136,128,26037,2,0,P|80:168|68:280,1,180
160,308,27370,2,0,P|232:292|328:352,1,180
364,336,28370,1,0,0:0:0:0:
408,320,28704,2,0,B|404:216|404:216|348:224|332:192,2,180
296,296,30704,1,0,0:0:0:0:
184,272,31370,1,0,0:0:0:0:
104,192,32037,6,0,P|128:136|236:92,2,180
136,232,33704,1,0,0:0:0:0:
184,240,34037,1,0,0:0:0:0:
224,224,34370,1,0,0:0:0:0:
264,200,34704,2,0,B|304:160|304:160|328:224|400:208|400:208|264:344,1,360
232,248,36704,5,0,0:0:0:0:
140,292,37370,1,0,0:0:0:0:
80,223,38037,2,0,P|72:164|128:60,1,180
204,120,39370,2,0,P|269:138|344:56,1,180
448,92,40704,2,0,P|450:176|460:280,1,180
360,320,42037,5,0,0:0:0:0:
264,280,42703,1,0,0:0:0:0:
252,176,43370,2,0,P|280:120|400:88,1,180
392,192,44703,2,0,P|392:240|284:280,2,180
256,192,46703,12,0,48203,0:0:0:0:
388,152,57370,5,0,0:0:0:0:
308,80,58036,1,0,0:0:0:0:
204,56,58703,2,0,P|144:116|120:180,1,140
192,256,60036,2,0,L|256:308,2,70,0|0|0,0:0|0:0|0:0,0:0:0:0:
340,248,61370,2,0,P|444:184|452:168,2,140,0|0|0,0:0|0:0|0:0,0:0:0:0:
292,244,63036,5,0,0:0:0:0:
248,220,63370,1,0,0:0:0:0:
240,168,63703,1,0,0:0:0:0:
272,124,64036,2,0,P|304:104|400:128,1,140,0|0,0:0|0:0,0:0:0:0:
416,216,65036,2,0,L|376:232,1,35
256,192,65370,12,0,67370,0:0:0:0:
128,268,68036,6,0,P|116:224|172:100,1,180
280,176,69370,2,0,P|376:212|496:100,1,270
424,56,70703,2,0,P|352:36|208:144,1,270
136,104,72036,2,0,L|76:104,4,45
192,188,73036,1,0,0:0:0:0:
164,280,73369,6,0,P|240:300|332:260,1,180
420,164,74703,2,0,B|412:112|412:112|368:124|312:36,1,180
228,56,76036,1,0,0:0:0:0:
228,56,76369,1,0,0:0:0:0:
144,56,76703,1,0,0:0:0:0:
144,56,77036,1,0,0:0:0:0:
72,96,77369,2,0,B|60:148|60:148|124:128|176:196|176:196|28:284,1,360
256,184,81369,5,4,0:0:0:0:
360,244,82036,2,0,P|416:196|440:88,1,180
364,64,83036,1,0,0:0:0:0:
284,84,83369,1,0,0:0:0:0:
220,36,83703,1,0,0:0:0:0:
136,56,84036,6,0,P|72:84|32:192,1,180
120,256,85369,2,0,L|304:256,2,180
152,140,87369,2,0,B|208:108|208:108|260:164|312:144,1,180
392,104,88702,2,0,P|408:152|412:296,1,180
328,288,89702,1,0,0:0:0:0:
244,296,90036,5,0,0:0:0:0:
164,268,90369,1,0,0:0:0:0:
120,196,90702,2,0,P|120:136|312:192,1,360
392,96,92702,5,0,0:0:0:0:
332,192,93369,2,0,P|316:240|380:348,2,180
320,112,95036,5,0,0:0:0:0:
256,64,95369,1,0,0:0:0:0:
176,72,95702,2,0,P|128:112|92:120,4,90
244,112,97369,1,0,0:0:0:0:
228,224,98036,1,0,0:0:0:0:
312,304,98702,6,0,P|376:304|408:280,3,90
460,232,100036,2,0,B|516:180|428:164|480:52,1,180
348,56,101369,5,0,0:0:0:0:
348,56,101702,1,0,0:0:0:0:
256,80,102036,5,0,0:0:0:0:
212,164,102369,5,0,0:0:0:0:
304,160,102702,5,0,0:0:0:0:
252,268,103369,6,0,P|216:280|144:356,1,135.000005149841
132,188,104702,2,0,P|140:164|104:56,1,135.000005149841
236,72,106035,2,0,L|244:152,1,67.5000025749207
352,144,106702,2,0,L|376:144,8,16.8750006437302
348,256,108035,1,0,0:0:0:0:
464,268,112035,6,0,P|436:300|384:300,1,90
408,232,113369,5,0,0:0:0:0:
316,208,113702,1,0,0:0:0:0:
224,232,114035,2,0,P|192:164|92:168,1,180
148,224,115035,1,0,0:0:0:0:
72,216,115369,2,0,P|97:278|200:280,1,180
148,224,116369,1,0,0:0:0:0:
223,232,116702,6,0,P|198:169|92:172,1,180
152,64,117702,1,0,0:0:0:0:
240,92,118035,2,0,L|312:28,1,90
376,84,118702,1,0,0:0:0:0:
376,84,119035,1,0,0:0:0:0:
400,164,119368,1,0,0:0:0:0:
400,164,119702,5,0,0:0:0:0:
340,224,120035,2,0,P|264:244|164:192,1,180
160,124,121035,1,0,0:0:0:0:
256,192,121368,12,0,123368,0:0:0:0:
256,320,124035,5,0,0:0:0:0:
344,296,124368,2,0,P|392:272|412:240,2,90
256,320,125368,1,0,0:0:0:0:
168,296,125702,2,0,P|120:272|100:232,2,90
256,320,126702,5,0,0:0:0:0:
256,236,127035,2,0,L|256:140,2,90
256,320,128035,2,0,L|256:376,4,45
256,236,129035,1,0,0:0:0:0:
256,152,129368,6,0,P|296:132|420:164,2,180
152,108,131368,1,0,0:0:0:0:
68,172,132035,6,0,L|144:224,1,90
136,264,132701,2,0,L|224:320,1,90
256,312,133368,1,0,0:0:0:0:
328,252,133701,1,0,0:0:0:0:
256,312,134035,1,0,0:0:0:0:
328,252,134368,1,0,0:0:0:0:
396,196,134701,1,0,0:0:0:0:
404,256,140035,6,0,B|380:236|352:244|352:244|352:164,1,135.000005149841
348,92,141368,6,0,B|304:92|304:92|296:120|224:124,1,135.000005149841
136,112,142701,6,0,B|108:116|108:116|112:148|28:200,1,135.000005149841
36,272,143701,5,0,0:0:0:0:
256,192,144035,12,0,145368,0:0:0:0:
300,304,156034,6,0,P|340:288|452:84,1,270
452,8,157368,1,0,0:0:0:0:
376,44,157701,2,0,L|284:56,1,90
264,228,158701,2,0,P|248:188|60:84,1,270
4,152,160034,1,0,0:0:0:0:
4,152,160368,2,0,L|16:252,1,90
112,292,161368,6,0,L|312:304,1,180
344,236,162701,6,0,L|296:56,1,180
212,48,164034,5,0,0:0:0:0:
212,48,164367,5,0,0:0:0:0:
120,48,164701,5,0,0:0:0:0:
120,48,165034,5,0,0:0:0:0:
256,192,165367,12,0,166701,0:0:0:0:
136,168,168034,6,0,L|136:228,8,45
220,184,169701,1,0,0:0:0:0:
260,260,170034,2,0,P|316:260|428:316,1,180
412,204,171034,1,0,0:0:0:0:
404,120,171367,2,0,L|304:128,1,90
292,48,172034,2,0,P|224:44|52:256,1,360
40,220,174034,5,0,0:0:0:0:
40,220,174367,1,0,0:0:0:0:
92,288,174701,2,0,L|192:288,1,90
236,292,175367,2,0,L|332:292,1,90
384,292,176034,2,0,P|424:240|344:72,1,270
256,192,177367,12,0,179367,0:0:0:0:
216,288,180034,5,0,0:0:0:0:
296,328,180367,1,0,0:0:0:0:
364,268,180700,2,0,P|352:216|248:136,1,180
192,88,181700,1,0,0:0:0:0:
128,144,182034,2,0,L|16:288,1,180
88,344,183034,5,0,0:0:0:0:
164,308,183367,2,0,P|196:280|248:268,1,90
316,316,184034,6,0,L|352:288,4,45
356,192,185034,1,0,0:0:0:0:
312,112,185367,6,0,P|280:92|44:240,2,360
332,192,188367,1,0,0:0:0:0:
296,260,188700,1,0,0:0:0:0:
220,280,189034,1,0,0:0:0:0:
152,240,189367,2,0,P|148:216|196:168,1,90
248,112,190034,2,0,L|316:44,2,90
92,88,193367,5,0,0:0:0:0:
176,88,193700,1,0,0:0:0:0:
260,88,194033,2,0,B|296:88|296:88|320:136|424:144,1,180
420,224,195033,1,0,0:0:0:0:
380,296,195367,1,0,0:0:0:0:
300,328,195700,2,0,P|248:312|204:288,1,90
220,208,196367,6,0,P|188:192|52:228,3,180
104,300,198700,1,0,0:0:0:0:
184,312,199033,1,0,0:0:0:0:
260,288,199367,2,0,P|288:256|288:112,1,180
224,68,200367,1,0,0:0:0:0:
180,148,200700,2,0,L|36:264,1,180
116,304,201700,5,0,0:0:0:0:
196,320,202033,2,0,P|256:304|276:196,1,180
360,184,203033,1,0,0:0:0:0:
424,128,203367,2,0,L|424:28,2,90
344,96,204367,5,0,0:0:0:0:
272,56,204700,2,0,P|212:72|164:188,2,180
344,96,206367,1,0,0:0:0:0:
344,96,206700,1,0,0:0:0:0:
388,172,207033,2,0,B|364:204|344:208|344:208|428:312,1,180
348,352,208033,2,0,P|240:332|172:304,1,180
168,216,209033,1,0,0:0:0:0:
80,208,209366,6,0,B|20:176|20:176|72:100|4:68,1,180
184,72,210700,6,0,L|256:140,1,90
280,220,211366,2,0,L|352:152,1,90
256,192,212033,12,0,213366,0:0:0:0:
324,168,214033,6,0,L|320:268,1,90
