osu file format v14

[General]
AudioFilename: [Kagamine Len feat. the Girls] [Original].mp3
AudioLeadIn: 0
PreviewTime: 56870
Countdown: 0
SampleSet: Normal
StackLeniency: 0.2
Mode: 0
LetterboxInBreaks: 1
WidescreenStoryboard: 1

[Editor]
DistanceSpacing: 0.5
BeatDivisor: 4
GridSize: 4
TimelineZoom: 1

[Metadata]
Title:Plus Danshi
TitleUnicode:Plus Danshi
Artist:Giga-P
ArtistUnicode:Giga-P
Creator:CharmCaster
Version:Hard
Source:
Tags:vocaloid len rin luka miku puberty funny plus boy
BeatmapID:564315
BeatmapSetID:167288

[Difficulty]
HPDrainRate:5
CircleSize:4
OverallDifficulty:5
ApproachRate:7
SliderMultiplier:1.5
SliderTickRate:2

[Events]
//Background and Video events
0,0,"maxresdefault.jpg",0,0
//Break Periods
2,48402,55137
2,78903,80803
2,102902,111135
2,134901,141801
2,156234,160468
//Storyboard Layer 0 (Background)
//Storyboard Layer 1 (Fail)
//Storyboard Layer 2 (Pass)
//Storyboard Layer 3 (Foreground)
//Storyboard Sound Samples

[TimingPoints]
12038,333.325951653237,4,1,0,100,1,0
24891,-100,4,1,0,5,0,0
25391,-100,4,1,0,100,0,0
57390,-100,4,1,0,100,0,1
67370,-50,4,1,0,100,0,1
67723,-50,4,1,0,100,0,0
68036,-100,4,1,0,100,0,1
78724,-100,4,1,0,100,0,0
102722,-133.333333333333,4,2,0,100,0,0
106055,-66.6666666666667,4,2,0,100,0,0
106389,-200,4,2,0,100,0,0
112055,-200,4,2,0,100,0,0
113222,-100,4,2,0,100,0,0
113389,-100,4,1,0,100,0,1
123368,-50,4,1,0,100,0,1
123722,-50,4,1,0,100,0,0
123888,-100,4,1,0,100,0,0
124055,-100,4,1,0,100,0,1
134719,-133.333333333333,4,1,0,100,0,0
145388,-100,4,1,0,100,0,0
166721,-100,4,2,0,100,0,0
169387,-100,4,1,0,100,0,1
179367,-50,4,1,0,100,0,1
179720,-50,4,1,0,100,0,0
180054,-100,4,1,0,100,0,1
190720,-100,4,1,0,100,0,0
192887,-100,4,1,0,20,0,0
193387,-100,4,1,0,100,0,0
213394,-100,4,2,0,100,0,0
214386,-100,4,1,0,100,0,0

[Colours]
Combo1 : 255,255,0
Combo2 : 255,0,0
Combo3 : 0,0,255
Combo4 : 0,255,0

[HitObjects]
128,108,13371,6,0,P|200:76|284:128,1,150
372,112,14037,2,0,L|432:184,2,75
308,212,14704,6,0,P|260:272|236:280,1,75
192,300,15037,1,0,0:0:0:0:
140,248,15204,1,0,0:0:0:0:
68,224,15371,2,0,P|64:164|136:96,1,150
192,128,15871,1,0,0:0:0:0:
248,76,16037,1,0,0:0:0:0:
320,104,16204,1,0,0:0:0:0:
308,176,16371,2,0,P|380:216|388:216,1,75
376,292,16704,2,0,P|332:316|304:348,1,75
240,352,17037,1,0,0:0:0:0:
192,292,17204,1,0,0:0:0:0:
120,296,17371,1,0,0:0:0:0:
100,172,17704,6,0,P|168:196|264:152,1,150
196,108,18204,2,0,P|288:76|352:100,1,150
352,124,18621,1,0,0:0:0:0:
368,160,18704,2,0,P|432:164|492:96,1,150
488,232,19371,6,0,L|496:272,4,37.5
360,292,20037,6,0,L|240:168,1,150
188,216,20537,1,0,0:0:0:0:
192,288,20704,2,0,P|104:280|64:224,1,150
112,176,21204,2,0,L|164:96,1,75
80,80,21537,2,0,L|56:8,1,75
136,8,21871,2,0,L|240:32,1,75
264,72,22204,1,0,0:0:0:0:
308,140,22371,1,0,0:0:0:0:
376,104,22537,1,0,0:0:0:0:
336,36,22704,1,0,0:0:0:0:
256,192,22787,12,0,24037,0:0:0:0:
104,244,24204,5,0,0:0:0:0:
152,180,24371,1,0,0:0:0:0:
212,228,24537,1,0,0:0:0:0:
272,272,24704,2,0,L|344:236,4,75
208,316,25537,6,0,L|136:284,1,75
132,212,25871,1,0,0:0:0:0:
68,176,26037,1,0,0:0:0:0:
96,104,26204,1,0,0:0:0:0:
172,104,26371,1,0,0:0:0:0:
192,172,26537,1,0,0:0:0:0:
244,224,26704,2,0,P|304:184|304:160,1,75
264,116,27037,2,0,P|308:64|324:64,1,75
368,112,27370,2,0,L|448:140,2,75
344,184,27870,5,0,0:0:0:0:
364,252,28037,1,0,0:0:0:0:
344,320,28204,1,0,0:0:0:0:
408,360,28370,1,0,0:0:0:0:
476,324,28537,2,0,P|476:272|456:220,2,75
404,292,29037,1,0,0:0:0:0:
328,280,29204,1,0,0:0:0:0:
260,312,29370,2,0,L|176:248,1,75
176,344,29704,2,0,P|104:308|84:228,1,150
64,176,30204,1,0,0:0:0:0:
104,108,30370,2,0,P|180:76|216:68,1,112.5
256,48,30704,6,0,L|296:64,3,37.5
324,92,31037,2,0,L|364:108,2,37.5
432,116,31370,6,0,P|420:144|360:192,1,75
352,232,31704,1,0,0:0:0:0:
280,208,31870,2,0,P|252:156|260:120,1,75
316,96,32204,2,0,L|400:40,1,75
228,72,32537,2,0,L|140:120,1,75
256,144,32870,2,0,L|312:228,1,75
232,252,33204,5,0,0:0:0:0:
232,252,33370,1,0,0:0:0:0:
164,288,33537,1,0,0:0:0:0:
168,292,33704,1,0,0:0:0:0:
100,260,33870,1,0,0:0:0:0:
100,260,34037,1,0,0:0:0:0:
168,292,34204,2,0,L|260:320,2,75
136,216,34704,6,0,L|124:164,3,37.5
132,132,35037,2,0,L|176:88,3,37.5
208,112,35370,2,0,L|260:124,3,37.5
272,160,35704,2,0,P|380:212|412:184,1,150
396,48,36370,6,0,P|356:48|320:84,2,75
464,84,36870,1,0,0:0:0:0:
460,160,37037,1,0,0:0:0:0:
444,280,37370,6,0,L|356:256,1,75
360,332,37704,2,0,L|276:364,1,75
272,288,38037,1,0,0:0:0:0:
208,324,38204,1,0,0:0:0:0:
200,252,38371,1,0,0:0:0:0:
264,212,38537,1,0,0:0:0:0:
332,248,38704,6,0,P|328:176|304:160,1,75
268,132,39037,2,0,P|324:108|368:124,1,75
400,148,39370,2,0,L|456:124,4,37.5
284,64,40037,6,0,L|384:64,1,75
328,140,40370,2,0,P|260:152|240:144,1,75
196,100,40704,2,0,B|168:68|168:68|168:136|168:136|168:84|168:84|168:112|168:112|144:68|144:68|144:112|144:112|144:84|144:84|144:84|144:84,1,300
88,224,41870,6,0,L|184:224,1,75
296,280,42203,2,0,L|216:280,2,75
376,280,42703,2,0,L|376:124,1,150
376,32,43370,6,0,L|292:32,1,75
184,96,43703,2,0,L|288:96,1,75
336,120,44037,2,0,P|356:156|360:208,1,75
312,256,44370,1,0,0:0:0:0:
228,236,44537,1,0,0:0:0:0:
192,156,44703,2,0,B|152:140|152:140|104:156,1,75
200,284,45037,2,0,B|236:300|236:300|276:280,1,75
344,212,45370,5,0,0:0:0:0:
368,200,45453,1,0,0:0:0:0:
396,192,45537,2,0,P|440:160|452:112,2,75
364,96,46036,5,0,0:0:0:0:
388,84,46119,1,0,0:0:0:0:
416,76,46203,2,0,P|460:44|472:-4,2,75
348,72,46703,6,0,B|280:40|244:24|244:24|176:52|132:120|144:164|184:188|248:196|292:188|352:184|368:232|360:272|348:312|300:316|256:336|256:336|220:332|172:304|164:304,1,675
256,192,56037,5,0,0:0:0:0:
256,120,56870,5,0,0:0:0:0:
184,192,57036,1,0,0:0:0:0:
256,264,57203,1,0,0:0:0:0:
328,192,57370,6,0,P|360:120|352:96,1,75
320,60,57703,1,0,0:0:0:0:
244,88,57870,1,0,0:0:0:0:
200,152,58036,2,0,P|140:116|136:88,1,75
64,92,58370,1,0,0:0:0:0:
16,148,58536,1,0,0:0:0:0:
64,208,58703,2,0,P|40:260|0:280,1,75
132,240,59036,2,0,P|200:216|228:208,2,75
100,312,59536,1,0,0:0:0:0:
172,336,59703,2,0,P|268:324|308:256,1,150
368,284,60203,5,0,0:0:0:0:
440,284,60370,1,0,0:0:0:0:
408,220,60536,1,0,0:0:0:0:
480,220,60703,1,0,0:0:0:0:
444,156,60870,2,0,L|444:64,1,75
372,156,61203,2,0,L|372:68,1,75
432,12,61536,6,0,L|340:12,1,75
216,96,61870,2,0,L|320:96,1,75
368,168,62203,1,0,0:0:0:0:
288,172,62370,1,0,0:0:0:0:
208,172,62536,1,0,0:0:0:0:
88,104,62703,6,0,L|88:204,1,75
152,328,63036,2,0,L|152:228,1,75
216,104,63370,2,0,L|216:204,1,75
280,328,63703,2,0,L|280:228,1,75
336,104,64036,6,0,L|336:204,1,75
392,232,64370,1,0,0:0:0:0:
440,172,64536,2,0,P|368:132|304:144,1,150
272,208,65036,2,0,L|192:168,1,75
208,96,65370,1,0,0:0:0:0:
152,44,65536,1,0,0:0:0:0:
88,88,65703,1,0,0:0:0:0:
144,144,65870,2,0,P|124:200|96:224,2,75
208,96,66370,1,0,0:0:0:0:
280,72,66536,1,0,0:0:0:0:
308,140,66703,1,0,0:0:0:0:
236,168,66870,2,0,P|236:224|244:268,2,75
308,140,67370,6,0,P|440:264|392:296,1,300
164,320,68036,6,0,P|240:312|260:300,1,75
308,348,68370,1,0,0:0:0:0:
364,292,68536,1,0,0:0:0:0:
320,232,68703,1,0,0:0:0:0:
244,232,68870,1,0,0:0:0:0:
188,280,69036,2,0,P|148:224|136:200,1,75
184,156,69370,5,0,0:0:0:0:
136,100,69536,1,0,0:0:0:0:
72,140,69703,1,0,0:0:0:0:
88,212,69870,1,0,0:0:0:0:
48,280,70036,2,0,P|108:304|136:292,1,75
176,256,70370,2,0,P|220:244|252:260,1,75
300,312,70703,5,0,0:0:0:0:
360,268,70870,1,0,0:0:0:0:
420,308,71036,1,0,0:0:0:0:
480,268,71203,1,0,0:0:0:0:
420,220,71370,2,0,P|396:188|404:140,1,75
476,148,71703,2,0,P|488:112|476:72,1,75
416,28,72036,5,0,0:0:0:0:
368,84,72203,5,0,0:0:0:0:
320,140,72369,5,0,0:0:0:0:
272,196,72536,5,0,0:0:0:0:
216,248,72703,5,0,0:0:0:0:
48,192,73036,6,0,P|72:264|96:216,1,150
204,272,73703,6,0,L|228:356,1,75
300,348,74036,1,0,0:0:0:0:
336,280,74203,1,0,0:0:0:0:
408,288,74369,2,0,L|464:216,1,75
400,176,74703,1,0,0:0:0:0:
464,132,74869,1,0,0:0:0:0:
432,64,75036,2,0,P|356:28|344:32,1,75
296,32,75369,1,0,0:0:0:0:
256,96,75536,1,0,0:0:0:0:
320,136,75703,1,0,0:0:0:0:
272,248,76036,6,0,L|288:304,2,37.5
200,216,76369,2,0,L|152:228,2,37.5
252,160,76703,2,0,P|212:96|188:96,1,75
140,96,77036,1,0,0:0:0:0:
96,160,77203,1,0,0:0:0:0:
136,232,77369,5,0,0:0:0:0:
136,232,77536,1,0,0:0:0:0:
208,292,77703,1,0,0:0:0:0:
208,292,77869,1,0,0:0:0:0:
300,312,78036,1,0,0:0:0:0:
300,312,78203,1,0,0:0:0:0:
384,272,78369,1,0,0:0:0:0:
384,272,78536,1,0,0:0:0:0:
432,192,78703,1,0,0:0:0:0:
300,124,81703,5,0,0:0:0:0:
248,72,81870,1,0,0:0:0:0:
176,88,82036,2,0,P|104:80|84:64,2,75
200,156,82536,2,0,L|180:236,1,75
120,272,82869,1,0,0:0:0:0:
60,224,83036,1,0,0:0:0:0:
120,184,83203,1,0,0:0:0:0:
176,228,83369,2,0,P|248:208|304:148,1,150
452,60,84036,6,0,P|396:40|360:48,1,75
308,32,84369,1,0,0:0:0:0:
256,80,84535,1,0,0:0:0:0:
200,32,84703,2,0,P|140:40|112:64,1,75
104,116,85036,2,0,P|56:132|16:124,1,75
116,192,85369,2,0,L|196:220,1,75
192,292,85703,1,0,0:0:0:0:
264,276,85869,1,0,0:0:0:0:
320,328,86035,1,0,0:0:0:0:
388,304,86203,2,0,L|416:232,1,75
464,128,86703,6,0,P|400:80|324:88,1,150
312,184,87369,2,0,P|228:204|164:180,2,150
408,224,88369,1,0,0:0:0:0:
400,120,88702,1,0,0:0:0:0:
344,76,88869,1,0,0:0:0:0:
280,108,89036,1,0,0:0:0:0:
180,64,89369,6,0,P|116:68|100:56,1,75
48,100,89702,1,0,0:0:0:0:
60,168,89869,1,0,0:0:0:0:
128,200,90036,2,0,P|136:272|80:304,2,112.5
200,164,90702,1,0,0:0:0:0:
260,120,90869,1,0,0:0:0:0:
328,136,91036,1,0,0:0:0:0:
348,204,91202,1,0,0:0:0:0:
292,248,91369,2,0,P|252:248|216:264,3,75
168,308,92036,5,0,0:0:0:0:
100,324,92202,1,0,0:0:0:0:
64,264,92369,1,0,0:0:0:0:
112,208,92536,1,0,0:0:0:0:
180,240,92702,2,0,L|264:184,2,75
180,240,93202,1,0,0:0:0:0:
236,292,93369,5,0,0:0:0:0:
308,304,93536,1,0,0:0:0:0:
348,244,93702,1,0,0:0:0:0:
296,192,93869,1,0,0:0:0:0:
228,216,94036,2,0,P|212:152|220:120,1,75
284,120,94369,2,0,P|288:64|272:32,1,75
204,64,94702,2,0,P|144:96|140:116,1,75
136,172,95036,2,0,P|84:220|0:252,2,150
192,280,96036,6,0,L|264:268,1,37.5
328,248,96369,1,0,0:0:0:0:
440,156,96702,6,0,L|396:168,1,37.5
304,188,97036,1,0,0:0:0:0:
176,76,97369,6,0,P|260:72|276:72,1,75
268,144,97702,1,0,0:0:0:0:
224,204,97869,1,0,0:0:0:0:
244,276,98036,1,0,0:0:0:0:
188,328,98202,1,0,0:0:0:0:
168,256,98369,2,0,P|124:216|112:176,1,75
176,156,98702,6,0,L|216:112,11,37.5
152,184,99702,2,0,L|76:140,1,75
116,64,100036,6,0,L|156:60,3,37.5
120,136,100536,2,0,L|180:156,2,37.5
96,200,100952,2,0,L|128:228,1,37.5
256,280,101369,5,0,0:0:0:0:
336,192,101702,1,0,0:0:0:0:
256,108,102036,1,0,0:0:0:0:
256,108,102202,1,0,0:0:0:0:
256,108,102369,1,0,0:0:0:0:
256,192,102702,1,0,0:0:0:0:
256,192,112035,5,0,0:0:0:0:
256,120,112868,5,0,0:0:0:0:
328,192,113034,1,0,0:0:0:0:
256,264,113201,1,0,0:0:0:0:
184,192,113368,6,0,P|152:120|160:96,1,75
192,60,113701,1,0,0:0:0:0:
268,88,113868,1,0,0:0:0:0:
312,152,114034,2,0,P|372:116|376:88,1,75
448,92,114368,1,0,0:0:0:0:
496,148,114534,1,0,0:0:0:0:
448,208,114701,2,0,P|472:260|512:280,1,75
380,240,115034,2,0,P|312:216|284:208,2,75
412,312,115534,1,0,0:0:0:0:
340,336,115701,2,0,P|244:324|204:256,1,150
144,284,116201,5,0,0:0:0:0:
72,284,116368,1,0,0:0:0:0:
104,220,116534,1,0,0:0:0:0:
32,220,116701,1,0,0:0:0:0:
68,156,116868,2,0,L|68:64,1,75
140,156,117201,2,0,L|140:68,1,75
80,12,117534,6,0,L|172:12,1,75
296,96,117868,2,0,L|192:96,1,75
144,168,118201,1,0,0:0:0:0:
224,172,118368,1,0,0:0:0:0:
304,172,118534,1,0,0:0:0:0:
424,104,118701,6,0,L|424:204,1,75
360,328,119034,2,0,L|360:228,1,75
296,104,119368,2,0,L|296:204,1,75
232,328,119701,2,0,L|232:228,1,75
176,104,120034,6,0,L|176:204,1,75
120,232,120368,1,0,0:0:0:0:
72,172,120534,2,0,P|144:132|208:144,1,150
240,208,121034,2,0,L|320:168,1,75
304,96,121368,1,0,0:0:0:0:
360,44,121534,1,0,0:0:0:0:
424,88,121701,1,0,0:0:0:0:
368,144,121868,2,0,P|388:200|416:224,2,75
304,96,122368,5,0,0:0:0:0:
232,72,122534,1,0,0:0:0:0:
204,140,122701,1,0,0:0:0:0:
276,168,122868,2,0,P|276:224|268:268,2,75
204,140,123368,6,0,P|72:264|120:296,1,300
348,320,124034,6,0,P|272:312|252:300,1,75
204,348,124368,1,0,0:0:0:0:
148,292,124534,1,0,0:0:0:0:
192,232,124701,1,0,0:0:0:0:
268,232,124868,1,0,0:0:0:0:
324,280,125034,2,0,P|364:224|376:200,1,75
328,156,125368,5,0,0:0:0:0:
376,100,125534,1,0,0:0:0:0:
440,140,125701,1,0,0:0:0:0:
424,212,125868,1,0,0:0:0:0:
464,280,126034,2,0,P|404:304|376:292,1,75
336,256,126368,2,0,P|292:244|260:260,1,75
212,312,126701,5,0,0:0:0:0:
152,268,126868,1,0,0:0:0:0:
92,308,127034,1,0,0:0:0:0:
32,268,127201,1,0,0:0:0:0:
92,220,127368,2,0,P|116:188|108:140,1,75
36,148,127701,2,0,P|24:112|36:72,1,75
96,28,128034,5,0,0:0:0:0:
144,84,128201,5,0,0:0:0:0:
192,140,128367,5,0,0:0:0:0:
240,196,128534,5,0,0:0:0:0:
296,248,128701,5,0,0:0:0:0:
464,192,129034,6,0,P|440:264|416:216,1,150
308,272,129701,6,0,L|284:356,1,75
212,348,130034,1,0,0:0:0:0:
176,280,130201,1,0,0:0:0:0:
104,288,130367,2,0,L|48:216,1,75
112,176,130701,1,0,0:0:0:0:
48,132,130867,1,0,0:0:0:0:
80,64,131034,2,0,P|156:28|168:32,1,75
216,32,131367,1,0,0:0:0:0:
256,96,131534,1,0,0:0:0:0:
192,136,131701,1,0,0:0:0:0:
240,248,132034,6,0,L|224:304,2,37.5
312,216,132367,2,0,L|360:228,2,37.5
260,160,132701,2,0,P|300:96|324:96,1,75
372,96,133034,1,0,0:0:0:0:
416,160,133201,1,0,0:0:0:0:
376,232,133367,5,0,0:0:0:0:
376,232,133534,1,0,0:0:0:0:
304,292,133701,1,0,0:0:0:0:
304,292,133867,1,0,0:0:0:0:
212,312,134034,1,0,0:0:0:0:
212,312,134201,1,0,0:0:0:0:
128,272,134367,1,0,0:0:0:0:
128,272,134534,1,0,0:0:0:0:
80,192,134701,1,0,0:0:0:0:
256,192,142701,12,0,144701,0:0:0:0:
196,48,145368,6,0,P|112:48|80:136,1,168.750006437302
84,152,146035,1,0,0:0:0:0:
84,152,146368,1,0,0:0:0:0:
168,244,146701,6,0,L|236:76,1,150
300,120,147201,2,0,L|356:100,4,37.5
328,188,147701,1,0,0:0:0:0:
336,272,148034,6,0,P|216:236|200:200,1,150
216,144,148701,1,0,0:0:0:0:
216,144,149034,1,0,0:0:0:0:
188,64,149368,6,0,L|268:52,1,75
304,48,149701,1,0,0:0:0:0:
388,16,150034,1,0,0:0:0:0:
420,88,150368,6,0,L|416:176,3,75
392,232,151034,1,0,0:0:0:0:
320,208,151368,6,0,L|180:128,1,150
96,152,152034,1,0,0:0:0:0:
96,152,152201,1,0,0:0:0:0:
128,248,152701,1,0,0:0:0:0:
128,248,152868,1,0,0:0:0:0:
224,216,153368,1,0,0:0:0:0:
224,216,153534,1,0,0:0:0:0:
224,216,153701,6,0,L|372:236,1,150
444,176,154368,1,0,0:0:0:0:
396,112,154701,6,0,L|328:168,1,75
404,200,155034,2,0,L|440:276,1,75
360,280,155368,2,0,P|268:372|248:364,1,150
204,320,156034,1,4,0:0:0:0:
256,48,161368,6,0,L|348:48,3,75
400,60,162034,1,0,0:0:0:0:
484,112,162368,1,0,0:0:0:0:
424,188,162701,6,0,L|424:272,3,75
356,296,163367,1,0,0:0:0:0:
320,232,163534,1,0,0:0:0:0:
244,244,163701,1,0,0:0:0:0:
132,224,164034,6,0,P|172:168|144:84,1,150
300,48,164701,2,0,L|376:52,2,75
256,192,165367,12,0,166367,0:0:0:0:
224,100,168201,6,0,L|224:180,1,75
296,148,168534,2,0,L|380:148,1,75
344,220,168867,2,0,L|344:316,1,75
272,268,169201,2,0,L|196:268,1,75
140,312,169534,5,0,0:0:0:0:
68,296,169701,1,0,0:0:0:0:
76,228,169867,1,0,0:0:0:0:
148,200,170034,2,0,P|152:120|96:60,1,150
56,120,170534,1,0,0:0:0:0:
64,192,170701,2,0,P|168:160|188:136,2,112.5
96,256,171367,1,0,0:0:0:0:
164,276,171534,1,0,0:0:0:0:
232,248,171701,1,0,0:0:0:0:
276,184,171867,1,0,0:0:0:0:
256,108,172034,6,0,P|236:68|192:52,1,75
328,100,172367,2,0,L|424:64,1,75
408,152,172701,2,0,P|416:240|352:296,1,150
316,320,173201,5,0,0:0:0:0:
304,244,173367,1,0,0:0:0:0:
376,244,173534,1,0,0:0:0:0:
448,224,173701,1,0,0:0:0:0:
476,156,173867,2,0,L|416:96,1,75
360,72,174201,1,0,0:0:0:0:
312,124,174367,1,0,0:0:0:0:
244,104,174534,1,0,0:0:0:0:
184,144,174701,6,0,L|92:104,1,75
188,216,175034,2,0,L|280:176,1,75
188,288,175367,2,0,L|96:248,1,75
192,356,175701,2,0,L|284:316,1,75
336,328,176034,5,0,0:0:0:0:
412,328,176201,1,0,0:0:0:0:
456,268,176368,1,0,0:0:0:0:
424,200,176534,1,0,0:0:0:0:
352,184,176701,2,0,P|288:172|272:164,1,75
368,108,177034,2,0,P|432:132|456:156,1,75
460,64,177367,6,0,L|388:40,2,75
412,128,177867,1,0,0:0:0:0:
344,160,178034,1,0,0:0:0:0:
272,144,178200,1,0,0:0:0:0:
208,112,178367,2,0,P|172:160|160:208,2,75
272,68,178867,1,0,0:0:0:0:
312,132,179034,1,0,0:0:0:0:
248,176,179200,1,0,0:0:0:0:
260,248,179367,6,0,P|176:288|116:100,1,300
216,48,180034,5,0,0:0:0:0:
156,96,180200,1,0,0:0:0:0:
128,168,180367,1,0,0:0:0:0:
136,248,180534,1,0,0:0:0:0:
184,304,180700,2,0,P|236:280|248:240,1,75
316,252,181034,1,0,0:0:0:0:
384,272,181200,1,0,0:0:0:0:
452,240,181367,2,0,P|436:172|408:144,1,75
368,128,181700,1,0,0:0:0:0:
296,164,181867,2,0,P|240:192|200:192,1,75
184,136,182200,5,0,0:0:0:0:
112,164,182367,1,0,0:0:0:0:
88,92,182534,1,0,0:0:0:0:
112,164,182700,2,0,P|60:204|16:136,1,150
36,76,183200,2,0,L|204:72,1,150
264,72,183700,6,0,L|264:148,1,75
264,224,184034,5,0,0:0:0:0:
264,224,184201,1,0,0:0:0:0:
264,320,184368,1,0,0:0:0:0:
264,320,184534,1,0,0:0:0:0:
340,264,184701,1,0,0:0:0:0:
296,344,185034,6,0,P|404:300|424:248,1,150
472,192,185700,1,0,0:0:0:0:
460,116,185867,1,0,0:0:0:0:
400,72,186034,2,0,P|324:44|240:60,1,150
196,96,186534,1,0,0:0:0:0:
128,56,186700,2,0,P|60:116|56:188,1,150
48,244,187200,1,0,0:0:0:0:
120,260,187367,1,0,0:0:0:0:
152,324,187534,1,0,0:0:0:0:
220,296,187700,1,0,0:0:0:0:
352,332,188034,6,0,L|424:332,2,37.5
348,256,188367,2,0,L|348:184,2,37.5
424,256,188700,2,0,L|504:256,1,75
500,184,189034,5,0,0:0:0:0:
420,184,189200,2,0,L|340:184,1,75
344,88,189700,1,0,0:0:0:0:
260,32,190034,1,0,0:0:0:0:
184,88,190200,1,0,0:0:0:0:
216,168,190367,1,0,0:0:0:0:
312,168,190534,1,0,0:0:0:0:
340,84,190700,1,0,0:0:0:0:
256,192,190784,12,0,192700,0:0:0:0:
256,124,192867,5,0,0:0:0:0:
192,192,193034,1,0,0:0:0:0:
324,188,193200,1,0,0:0:0:0:
256,252,193367,1,0,0:0:0:0:
