osu file format v14

[General]
AudioFilename: audio.mp3
AudioLeadIn: 0
PreviewTime: 49660
Countdown: 0
SampleSet: Normal
StackLeniency: 0.7
Mode: 1
LetterboxInBreaks: 0
WidescreenStoryboard: 0

[Editor]
Bookmarks: 5603,6974,12460,23431,34403,50860,78289
DistanceSpacing: 0.2
BeatDivisor: 2
GridSize: 32
TimelineZoom: 1

[Metadata]
Title:Okochama Sensou
TitleUnicode:おこちゃま戦争
Artist:Giga-P
ArtistUnicode:ギガP
Creator:Yoratama
Version:Kantan
Source:
Tags:Children War Kagamine Len Rin Vocaloid Electro
BeatmapID:996616
BeatmapSetID:465536

[Difficulty]
HPDrainRate:7
CircleSize:2
OverallDifficulty:3
ApproachRate:10
SliderMultiplier:1.4
SliderTickRate:1

[Events]
//Background and Video events
0,0,"Okochama.Sensou.full.1697333.jpg",0,90
//Break Periods
//Storyboard Layer 0 (Background)
//Storyboard Layer 1 (Fail)
//Storyboard Layer 2 (Pass)
//Storyboard Layer 3 (Foreground)
//Storyboard Sound Samples

[TimingPoints]
1489,342.857142857143,4,1,0,50,1,0
1489,-100,4,1,0,50,0,0
5603,-100,4,1,0,70,0,0
6974,-100,4,1,0,80,0,0
12460,-100,4,1,0,50,0,0
23431,-100,4,1,0,60,0,0
34403,-100,4,1,0,70,0,0
45374,-100,4,1,0,50,0,0
49489,-100,4,1,0,70,0,0
50860,-100,4,1,0,85,0,1
53603,-100,4,1,0,60,0,0
56346,-100,4,1,0,85,0,1
59089,-100,4,1,0,60,0,0
61831,-100,4,1,0,85,0,1
72803,-100,4,1,0,80,0,0
78289,-100,4,1,0,70,0,0
100231,-100,4,1,0,50,0,0
104346,-100,4,1,0,70,0,0
105717,-100,4,1,0,85,0,1
108460,-100,4,1,0,60,0,0
111203,-100,4,1,0,85,0,1
113946,-100,4,1,0,60,0,0
116689,-100,4,1,0,90,0,1
127660,-100,4,1,0,80,0,0
138631,-100,4,1,0,60,0,0
160574,-100,4,1,0,50,0,0
161946,-100,4,1,0,40,0,0
164689,-100,4,1,0,50,0,0
167431,-100,4,1,0,60,0,0
170174,-100,4,1,0,70,0,0
171717,-100,4,1,0,80,0,0
173089,-100,4,1,0,50,0,0
174460,-100,4,1,0,70,0,0
175660,-100,4,1,0,85,0,1
178403,-100,4,1,0,60,0,0
181146,-100,4,1,0,85,0,1
183889,-100,4,1,0,60,0,0
186631,-100,4,1,0,90,0,1
198974,-100,4,1,0,80,0,0

[HitObjects]
256,192,1489,5,0,0:0:0:0:
256,192,2003,1,0,0:0:0:0:
256,192,2860,1,0,0:0:0:0:
288,160,3374,1,0,0:0:0:0:
256,192,4231,1,0,0:0:0:0:
256,192,4917,1,0,0:0:0:0:
256,192,5603,1,0,0:0:0:0:
256,192,5946,1,8,0:0:0:0:
256,192,6289,1,8,0:0:0:0:
256,192,6631,1,8,0:0:0:0:
256,192,6974,1,4,0:0:0:0:
256,192,7660,1,0,0:0:0:0:
256,192,8346,1,0,0:0:0:0:
256,192,9031,1,0,0:0:0:0:
256,192,9374,1,8,0:0:0:0:
256,192,9717,1,0,0:0:0:0:
256,192,10403,1,0,0:0:0:0:
256,192,11089,1,0,0:0:0:0:
256,192,11774,1,8,0:0:0:0:
288,192,12117,1,8,0:0:0:0:
256,192,12460,1,4,0:0:0:0:
256,192,13831,1,0,0:0:0:0:
256,192,15203,1,0,0:0:0:0:
256,192,16574,1,0,0:0:0:0:
256,192,17260,1,0,0:0:0:0:
256,192,17946,1,6,0:0:0:0:
256,192,19317,1,6,0:0:0:0:
256,192,20689,1,6,0:0:0:0:
256,192,21374,1,8,0:0:0:0:
256,192,22060,1,8,0:0:0:0:
256,192,23431,1,6,0:0:0:0:
256,192,24803,1,0,0:0:0:0:
256,192,26174,1,0,0:0:0:0:
256,192,26860,1,8,0:0:0:0:
256,192,27546,1,0,0:0:0:0:
256,192,28917,1,0,0:0:0:0:
256,192,29603,1,0,0:0:0:0:
256,192,30289,1,0,0:0:0:0:
256,192,31660,1,0,0:0:0:0:
256,192,32346,1,8,0:0:0:0:
256,192,33031,1,0,0:0:0:0:
256,192,34403,1,4,0:0:0:0:
256,192,34746,1,0,0:0:0:0:
256,192,35431,1,0,0:0:0:0:
256,192,36117,1,8,0:0:0:0:
256,192,36803,1,8,0:0:0:0:
256,192,37489,1,0,0:0:0:0:
256,192,38174,1,8,0:0:0:0:
256,192,38860,1,0,0:0:0:0:
256,192,39546,1,8,0:0:0:0:
256,192,39889,1,0,0:0:0:0:
256,192,40574,1,0,0:0:0:0:
309,209,41260,1,0,0:0:0:0:
256,192,42631,1,8,0:0:0:0:
256,192,43317,1,8,0:0:0:0:
256,192,44003,1,8,0:0:0:0:
256,192,44689,1,8,0:0:0:0:
256,192,45374,1,0,0:0:0:0:
256,192,46746,1,0,0:0:0:0:
256,192,48117,1,0,0:0:0:0:
256,192,48803,1,8,0:0:0:0:
256,192,49489,1,0,0:0:0:0:
256,192,49831,1,8,0:0:0:0:
256,192,50174,1,8,0:0:0:0:
256,192,50517,1,8,0:0:0:0:
256,192,50860,1,4,0:0:0:0:
256,192,51546,1,0,0:0:0:0:
256,192,52231,1,0,0:0:0:0:
256,192,52917,1,0,0:0:0:0:
256,192,53260,1,8,0:0:0:0:
256,192,53603,1,4,0:0:0:0:
256,192,54974,1,0,0:0:0:0:
256,192,56346,1,4,0:0:0:0:
256,192,57031,1,0,0:0:0:0:
256,192,57717,1,0,0:0:0:0:
256,192,58060,1,8,0:0:0:0:
256,192,58403,1,0,0:0:0:0:
256,192,59089,1,4,0:0:0:0:
256,192,60460,1,0,0:0:0:0:
256,192,61831,1,4,0:0:0:0:
256,192,62174,1,0,0:0:0:0:
256,192,62517,1,8,0:0:0:0:
256,192,63203,1,0,0:0:0:0:
256,192,63889,1,8,0:0:0:0:
256,192,64574,1,0,0:0:0:0:
256,192,64917,1,0,0:0:0:0:
256,192,65260,1,8,0:0:0:0:
256,192,65946,1,0,0:0:0:0:
256,192,67317,1,0,0:0:0:0:
256,192,68003,1,8,0:0:0:0:
256,192,68689,1,0,0:0:0:0:
256,192,69374,1,8,0:0:0:0:
256,192,70060,1,4,0:0:0:0:
250,188,71431,1,0,0:0:0:0:
256,192,72117,1,8,0:0:0:0:
256,192,72803,1,4,0:0:0:0:
256,192,73489,1,0,0:0:0:0:
256,192,74175,1,0,0:0:0:0:
256,192,74860,1,0,0:0:0:0:
256,192,75203,1,8,0:0:0:0:
256,192,75546,1,0,0:0:0:0:
256,192,76232,1,0,0:0:0:0:
256,192,76918,1,0,0:0:0:0:
256,192,77603,1,8,0:0:0:0:
256,192,77946,1,8,0:0:0:0:
256,192,78289,1,4,0:0:0:0:
256,192,79660,1,0,0:0:0:0:
256,192,81031,1,0,0:0:0:0:
256,192,81717,1,8,0:0:0:0:
256,192,82403,1,0,0:0:0:0:
256,192,83089,1,8,0:0:0:0:
256,192,83774,1,0,0:0:0:0:
256,192,85146,1,0,0:0:0:0:
256,192,86517,1,0,0:0:0:0:
256,192,87203,1,8,0:0:0:0:
256,192,87889,1,0,0:0:0:0:
256,192,88574,1,8,0:0:0:0:
256,192,89260,1,4,0:0:0:0:
256,192,89946,1,0,0:0:0:0:
256,192,90631,1,8,0:0:0:0:
256,192,91317,1,8,0:0:0:0:
256,192,92003,1,0,0:0:0:0:
256,192,93374,1,0,0:0:0:0:
256,192,94746,1,0,0:0:0:0:
256,192,95431,1,0,0:0:0:0:
256,192,96117,1,8,0:0:0:0:
256,192,96803,1,8,0:0:0:0:
256,192,97489,1,0,0:0:0:0:
256,192,98003,1,0,0:0:0:0:
256,192,98517,1,0,0:0:0:0:
256,192,99203,1,0,0:0:0:0:
256,192,99889,1,8,0:0:0:0:
256,192,100231,1,0,0:0:0:0:
256,192,101603,1,0,0:0:0:0:
256,192,102974,1,0,0:0:0:0:
256,192,104346,1,0,0:0:0:0:
256,192,104688,1,8,0:0:0:0:
256,192,105031,1,8,0:0:0:0:
256,192,105374,1,8,0:0:0:0:
256,192,105717,1,4,0:0:0:0:
256,192,106403,1,0,0:0:0:0:
256,192,107088,1,0,0:0:0:0:
256,192,107774,1,0,0:0:0:0:
256,192,108117,1,8,0:0:0:0:
256,192,108460,1,4,0:0:0:0:
256,192,109831,1,0,0:0:0:0:
256,192,111203,1,4,0:0:0:0:
256,192,111888,1,0,0:0:0:0:
256,192,112574,1,0,0:0:0:0:
256,192,112917,1,8,0:0:0:0:
256,192,113260,1,8,0:0:0:0:
256,192,113946,1,4,0:0:0:0:
256,192,115317,1,0,0:0:0:0:
256,192,116689,1,4,0:0:0:0:
256,192,117031,1,0,0:0:0:0:
256,192,117374,1,8,0:0:0:0:
256,192,118060,1,0,0:0:0:0:
256,192,118746,1,8,0:0:0:0:
256,192,119431,1,0,0:0:0:0:
256,192,119774,1,0,0:0:0:0:
256,192,120117,1,8,0:0:0:0:
256,192,120803,1,0,0:0:0:0:
256,192,122174,1,0,0:0:0:0:
256,192,122860,1,8,0:0:0:0:
256,192,123546,1,0,0:0:0:0:
256,192,124231,1,8,0:0:0:0:
256,192,124917,1,4,0:0:0:0:
250,188,126288,1,0,0:0:0:0:
256,192,126974,1,8,0:0:0:0:
256,192,127660,1,4,0:0:0:0:
256,192,128346,1,0,0:0:0:0:
256,192,128689,1,8,0:0:0:0:
256,192,129374,1,8,0:0:0:0:
256,192,130060,1,0,0:0:0:0:
256,192,130746,1,8,0:0:0:0:
256,192,131431,1,0,0:0:0:0:
256,192,132117,1,8,0:0:0:0:
256,192,133146,1,8,0:0:0:0:
256,192,134174,1,8,0:0:0:0:
256,192,134860,1,8,0:0:0:0:
256,192,135546,1,8,0:0:0:0:
256,192,136231,1,0,0:0:0:0:
256,192,136917,1,8,0:0:0:0:
256,192,137603,1,0,0:0:0:0:
256,192,138631,1,4,0:0:0:0:
256,192,140003,1,0,0:0:0:0:
256,192,140689,1,8,0:0:0:0:
256,192,141374,1,4,0:0:0:0:
256,192,142060,1,4,0:0:0:0:
256,192,142746,1,6,0:0:0:0:
256,192,143431,1,6,0:0:0:0:
256,192,144117,1,0,0:0:0:0:
256,192,145489,1,8,0:0:0:0:
256,192,146174,1,8,0:0:0:0:
256,192,146860,1,6,0:0:0:0:
256,192,147546,1,6,0:0:0:0:
256,192,148231,1,4,0:0:0:0:
256,192,148917,1,4,0:0:0:0:
256,192,149603,1,0,0:0:0:0:
256,192,150974,1,0,0:0:0:0:
256,192,151660,1,8,0:0:0:0:
256,192,152346,1,4,0:0:0:0:
256,192,153031,1,6,0:0:0:0:
256,192,153717,1,4,0:0:0:0:
256,192,154403,1,6,0:0:0:0:
256,192,155089,1,0,0:0:0:0:
256,192,156460,1,0,0:0:0:0:
256,192,157146,1,0,0:0:0:0:
256,192,157831,1,0,0:0:0:0:
256,192,158517,1,0,0:0:0:0:
256,192,159203,1,8,0:0:0:0:
256,192,159889,1,8,0:0:0:0:
256,192,160574,1,0,0:0:0:0:
256,192,161603,1,12,0:0:0:0:
256,192,161946,1,0,0:0:0:0:
256,192,163317,1,0,0:0:0:0:
256,192,164689,1,0,0:0:0:0:
256,192,165374,1,0,0:0:0:0:
256,192,166060,1,0,0:0:0:0:
256,192,166746,1,0,0:0:0:0:
256,192,167431,1,0,0:0:0:0:
256,192,168117,1,0,0:0:0:0:
256,192,168460,1,0,0:0:0:0:
256,192,168803,1,0,0:0:0:0:
256,192,169489,1,0,0:0:0:0:
256,192,169831,1,0,0:0:0:0:
256,192,170174,1,0,0:0:0:0:
256,192,170860,1,0,0:0:0:0:
256,192,171203,1,0,0:0:0:0:
256,192,171546,1,0,0:0:0:0:
256,192,172231,1,0,0:0:0:0:
256,192,172917,12,0,173946,0:0:0:0:
256,192,174631,5,8,0:0:0:0:
256,192,174974,1,8,0:0:0:0:
256,192,175317,1,8,0:0:0:0:
256,192,175660,1,4,0:0:0:0:
256,192,176346,1,0,0:0:0:0:
256,192,177031,1,0,0:0:0:0:
256,192,177717,1,0,0:0:0:0:
256,192,178060,1,8,0:0:0:0:
256,192,178403,1,4,0:0:0:0:
256,192,179774,1,0,0:0:0:0:
256,192,181146,1,4,0:0:0:0:
256,192,181831,1,0,0:0:0:0:
256,192,182517,1,0,0:0:0:0:
256,192,182860,1,8,0:0:0:0:
256,192,183203,1,0,0:0:0:0:
256,192,183889,1,4,0:0:0:0:
256,192,185260,1,0,0:0:0:0:
256,192,186631,1,4,0:0:0:0:
256,192,186974,1,0,0:0:0:0:
256,192,187317,1,8,0:0:0:0:
256,192,188003,1,0,0:0:0:0:
256,192,188689,1,8,0:0:0:0:
256,192,189374,1,0,0:0:0:0:
256,192,189717,1,0,0:0:0:0:
256,192,190060,1,8,0:0:0:0:
256,192,190746,1,0,0:0:0:0:
256,192,192117,1,0,0:0:0:0:
256,192,192803,1,8,0:0:0:0:
256,192,193489,1,0,0:0:0:0:
256,192,194174,1,8,0:0:0:0:
256,192,194860,1,4,0:0:0:0:
250,188,196231,1,0,0:0:0:0:
256,192,196917,1,0,0:0:0:0:
256,192,197603,1,0,0:0:0:0:
256,192,198974,1,4,0:0:0:0:
256,192,199317,1,8,0:0:0:0:
256,192,200003,1,8,0:0:0:0:
256,192,200689,1,8,0:0:0:0:
256,192,201374,1,8,0:0:0:0:
256,192,201717,1,0,0:0:0:0:
256,192,202060,1,8,0:0:0:0:
256,192,202746,1,8,0:0:0:0:
256,192,203431,1,8,0:0:0:0:
256,192,204117,1,8,0:0:0:0:
256,192,204460,1,4,0:0:0:0:
256,192,205146,1,0,0:0:0:0:
256,192,205832,1,0,0:0:0:0:
256,192,206517,1,0,0:0:0:0:
256,192,206860,1,8,0:0:0:0:
256,192,207203,1,0,0:0:0:0:
256,192,207889,1,0,0:0:0:0:
256,192,208575,1,0,0:0:0:0:
256,192,209260,1,8,0:0:0:0:
256,192,209603,1,12,0:0:0:0:
