osu file format v14

[General]
AudioFilename: Childish War.mp3
AudioLeadIn: 0
PreviewTime: 50847
Countdown: 0
SampleSet: Normal
StackLeniency: 0.2
Mode: 1
LetterboxInBreaks: 1
WidescreenStoryboard: 1

[Editor]
Bookmarks: 137932,204447
DistanceSpacing: 1
BeatDivisor: 4
GridSize: 8
TimelineZoom: 1.7

[Metadata]
Title:Childish War
TitleUnicode:おこちゃま戦争
Artist:Giga-P
ArtistUnicode:Giga-P
Creator:-Nishiki-
Version:Shelso's Oni
Source:
Tags:vocaloid okochama sensou kagamine rin and len kiddie war clap jager-kun nines shelso vinnie reol
BeatmapID:1239858
BeatmapSetID:578474

[Difficulty]
HPDrainRate:6
CircleSize:6
OverallDifficulty:6
ApproachRate:9
SliderMultiplier:1.4
SliderTickRate:1

[Events]
//Background and Video events
0,0,"walk.jpg",0,0
//Break Periods
//Storyboard Layer 0 (Background)
//Storyboard Layer 1 (Fail)
//Storyboard Layer 2 (Pass)
//Storyboard Layer 3 (Foreground)
//Storyboard Sound Samples

[TimingPoints]
5590,342.857142857143,4,1,0,80,1,0
12447,-111.111111111111,4,1,0,60,0,0
22047,-90.9090909090909,4,1,0,60,0,0
22904,-86.9565217391304,4,1,0,80,0,0
23418,-100,4,1,0,80,0,0
28904,-105.263157894737,4,1,0,75,0,0
34390,-100,4,1,0,80,0,0
45361,-133.333333333333,4,1,0,20,0,0
48104,-117.647058823529,4,1,0,40,0,0
49647,-105.263157894737,4,1,0,50,0,0
50847,-83.3333333333333,4,1,0,85,0,1
53590,-100,4,1,0,60,0,0
56332,-83.3333333333333,4,1,0,85,0,1
59075,-100,4,1,0,60,0,0
61818,-86.9565217391304,4,1,0,85,0,1
72275,-86.9565217391304,4,1,0,20,0,1
72790,-100,4,1,0,60,0,0
78275,-100,4,1,0,80,0,0
89247,-100,4,1,0,75,0,0
96104,-117.647058823529,4,1,0,40,0,0
97304,-100,4,1,0,75,0,0
100218,-125,4,1,0,60,0,0
104504,-100,4,1,0,80,0,0
105704,-83.3333333333333,4,1,0,80,0,1
108447,-100,4,1,0,80,0,0
110847,-90.9090909090909,4,1,0,80,0,0
111190,-83.3333333333333,4,1,0,80,0,1
113932,-100,4,1,0,80,0,0
116332,-90.9090909090909,4,1,0,80,0,0
116675,-83.3333333333333,4,1,0,80,0,1
127650,-100,4,1,0,80,0,0
138618,-133.333333333333,4,2,0,70,0,0
141361,-125,4,2,0,40,0,0
144104,-133.333333333333,4,2,0,70,0,0
146847,-125,4,2,0,40,0,0
149590,-133.333333333333,4,2,0,70,0,0
152332,-125,4,2,0,40,0,0
155075,-133.333333333333,4,2,0,70,0,0
157732,-125,4,2,0,80,0,0
159190,-100,4,2,0,80,0,0
160561,-200,4,1,0,5,0,0
161590,-100,4,1,0,80,0,0
161932,-100,4,1,0,70,0,0
172904,-200,4,1,0,50,0,0
174447,-100,4,1,0,50,0,0
175647,-83.3333333333333,4,1,0,90,0,1
178218,-100,4,1,0,80,0,0
180790,-90.9090909090909,4,1,0,80,0,0
181132,-83.3333333333333,4,1,0,90,0,1
183704,-100,4,1,0,80,0,0
186275,-90.9090909090909,4,1,0,80,0,0
186618,-83.3333333333333,4,1,0,90,0,1
196218,-100,4,1,0,80,0,0

[HitObjects]
256,192,5589,5,0,0:0:0:0:
256,192,5761,5,8,0:0:0:0:
256,192,5847,1,8,0:0:0:0:
256,192,5932,1,0,0:0:0:0:
256,192,6104,1,8,0:0:0:0:
256,192,6275,1,8,0:0:0:0:
256,192,6447,1,8,0:0:0:0:
256,192,6618,1,0,0:0:0:0:
256,192,6789,1,0,0:0:0:0:
256,192,6961,1,4,0:0:0:0:
256,192,7132,1,8,0:0:0:0:
256,192,7218,1,8,0:0:0:0:
256,192,7304,1,0,0:0:0:0:
256,192,7475,1,0,0:0:0:0:
256,192,7818,1,0,0:0:0:0:
256,192,7904,1,0,0:0:0:0:
256,192,7989,1,8,0:0:0:0:
256,192,8075,1,8,0:0:0:0:
256,192,8161,1,0,0:0:0:0:
256,192,8332,1,0,0:0:0:0:
256,192,8418,1,0,0:0:0:0:
256,192,8504,1,8,0:0:0:0:
256,192,8590,1,0,0:0:0:0:
256,192,8675,1,8,0:0:0:0:
256,192,8847,1,8,0:0:0:0:
256,192,8932,1,8,0:0:0:0:
256,192,9018,1,0,0:0:0:0:
256,192,9190,1,8,0:0:0:0:
256,192,9275,1,8,0:0:0:0:
256,192,9361,1,8,0:0:0:0:
256,192,9447,1,0,0:0:0:0:
256,192,9532,1,8,0:0:0:0:
256,192,9704,1,8,0:0:0:0:
256,192,9875,1,0,0:0:0:0:
256,192,9961,1,0,0:0:0:0:
256,192,10047,1,0,0:0:0:0:
256,192,10218,1,8,0:0:0:0:
256,192,10390,1,0,0:0:0:0:
256,192,10561,1,8,0:0:0:0:
256,192,10732,1,0,0:0:0:0:
256,192,10904,1,8,0:0:0:0:
256,192,11075,1,0,0:0:0:0:
256,192,11161,1,0,0:0:0:0:
256,192,11247,1,8,0:0:0:0:
256,192,11332,1,0,0:0:0:0:
256,192,11418,1,8,0:0:0:0:
256,192,11590,1,0,0:0:0:0:
256,192,11761,1,8,0:0:0:0:
256,192,11847,1,8,0:0:0:0:
256,192,11932,1,8,0:0:0:0:
256,192,12018,1,0,0:0:0:0:
256,192,12104,1,8,0:0:0:0:
256,192,12447,1,0,0:0:0:0:
256,192,12561,1,8,0:0:0:0:
256,192,12675,1,0,0:0:0:0:
256,192,12790,1,0,0:0:0:0:
256,192,13132,1,8,0:0:0:0:
256,192,13475,1,8,0:0:0:0:
256,192,13704,1,0,0:0:0:0:
256,192,13818,1,0,0:0:0:0:
256,192,13932,1,8,0:0:0:0:
256,192,14047,1,8,0:0:0:0:
256,192,14161,1,8,0:0:0:0:
256,192,14504,1,0,0:0:0:0:
256,192,14847,1,0,0:0:0:0:
256,192,15075,1,8,0:0:0:0:
256,192,15190,1,0,0:0:0:0:
256,192,15418,1,0,0:0:0:0:
256,192,15532,1,8,0:0:0:0:
256,192,15875,1,0,0:0:0:0:
256,192,16218,1,0,0:0:0:0:
256,192,16447,1,8,0:0:0:0:
256,192,16561,1,0,0:0:0:0:
256,192,16675,1,8,0:0:0:0:
256,192,16790,1,8,0:0:0:0:
256,192,16904,1,0,0:0:0:0:
256,192,17132,1,8,0:0:0:0:
256,192,17247,1,0,0:0:0:0:
256,192,17590,1,8,0:0:0:0:
256,192,17932,1,4,0:0:0:0:
256,192,18618,1,12,0:0:0:0:
256,192,19304,1,4,0:0:0:0:
256,192,19990,1,12,0:0:0:0:
256,192,20675,1,4,0:0:0:0:
256,192,22047,1,4,0:0:0:0:
256,192,22390,1,0,0:0:0:0:
256,192,22561,1,8,0:0:0:0:
256,192,22732,1,8,0:0:0:0:
256,192,22904,1,8,0:0:0:0:
256,192,22990,1,0,0:0:0:0:
256,192,23075,1,8,0:0:0:0:
256,192,23161,1,0,0:0:0:0:
256,192,23247,1,8,0:0:0:0:
256,192,23418,1,0,0:0:0:0:
256,192,23590,1,8,0:0:0:0:
256,192,23675,1,0,0:0:0:0:
256,192,23761,1,0,0:0:0:0:
256,192,23932,1,0,0:0:0:0:
256,192,24275,1,8,0:0:0:0:
256,192,24361,1,8,0:0:0:0:
256,192,24447,1,0,0:0:0:0:
256,192,24618,1,0,0:0:0:0:
256,192,24790,1,0,0:0:0:0:
256,192,24961,1,0,0:0:0:0:
256,192,25047,1,0,0:0:0:0:
256,192,25132,1,8,0:0:0:0:
256,192,25304,1,0,0:0:0:0:
256,192,25390,1,0,0:0:0:0:
256,192,25475,1,8,0:0:0:0:
256,192,25561,1,0,0:0:0:0:
256,192,25647,1,8,0:0:0:0:
256,192,25818,1,8,0:0:0:0:
256,192,25904,1,0,0:0:0:0:
256,192,25990,1,8,0:0:0:0:
256,192,26161,1,8,0:0:0:0:
256,192,26332,1,8,0:0:0:0:
256,192,26418,1,8,0:0:0:0:
256,192,26504,1,0,0:0:0:0:
256,192,26675,1,8,0:0:0:0:
256,192,26761,1,8,0:0:0:0:
256,192,26847,1,0,0:0:0:0:
256,192,27018,1,0,0:0:0:0:
256,192,27190,1,8,0:0:0:0:
256,192,27361,1,8,0:0:0:0:
256,192,27704,1,0,0:0:0:0:
256,192,27790,1,8,0:0:0:0:
256,192,27875,1,0,0:0:0:0:
256,192,28047,1,8,0:0:0:0:
256,192,28218,1,0,0:0:0:0:
256,192,28390,1,0,0:0:0:0:
256,192,28561,1,8,0:0:0:0:
256,192,28818,1,0,0:0:0:0:
256,192,28904,1,8,0:0:0:0:
256,192,29247,1,8,0:0:0:0:
256,192,29418,1,0,0:0:0:0:
256,192,29761,1,0,0:0:0:0:
256,192,29847,1,0,0:0:0:0:
256,192,29932,1,8,0:0:0:0:
256,192,30018,1,8,0:0:0:0:
256,192,30104,1,8,0:0:0:0:
256,192,30447,1,8,0:0:0:0:
256,192,30532,1,8,0:0:0:0:
256,192,30618,1,0,0:0:0:0:
256,192,30790,1,0,0:0:0:0:
256,192,30961,1,0,0:0:0:0:
256,192,31132,1,8,0:0:0:0:
256,192,31304,1,0,0:0:0:0:
256,192,31475,1,8,0:0:0:0:
256,192,31647,1,8,0:0:0:0:
256,192,31818,1,0,0:0:0:0:
256,192,31904,1,0,0:0:0:0:
256,192,31990,1,8,0:0:0:0:
256,192,32161,1,8,0:0:0:0:
256,192,32247,1,8,0:0:0:0:
256,192,32332,1,8,0:0:0:0:
256,192,32418,1,0,0:0:0:0:
256,192,32504,1,8,0:0:0:0:
256,192,32675,1,0,0:0:0:0:
256,192,32847,1,8,0:0:0:0:
256,192,33018,1,8,0:0:0:0:
256,192,33190,1,8,0:0:0:0:
256,192,33361,1,0,0:0:0:0:
256,192,33532,1,0,0:0:0:0:
256,192,33618,1,0,0:0:0:0:
256,192,33704,1,8,0:0:0:0:
256,192,33875,1,8,0:0:0:0:
256,192,34047,1,0,0:0:0:0:
256,192,34218,1,0,0:0:0:0:
256,192,34390,1,0,0:0:0:0:
256,192,34561,1,8,0:0:0:0:
256,192,34647,1,8,0:0:0:0:
256,192,34732,1,8,0:0:0:0:
256,192,34904,1,8,0:0:0:0:
256,192,35075,1,0,0:0:0:0:
256,192,35247,1,8,0:0:0:0:
256,192,35418,1,8,0:0:0:0:
256,192,35590,1,8,0:0:0:0:
256,192,35761,1,0,0:0:0:0:
256,192,35932,1,0,0:0:0:0:
256,192,36018,1,8,0:0:0:0:
256,192,36104,1,0,0:0:0:0:
256,192,36275,1,8,0:0:0:0:
256,192,36447,1,0,0:0:0:0:
256,192,36618,1,8,0:0:0:0:
256,192,36790,1,8,0:0:0:0:
256,192,36961,1,0,0:0:0:0:
256,192,37132,1,0,0:0:0:0:
256,192,37304,1,0,0:0:0:0:
256,192,37390,1,8,0:0:0:0:
256,192,37475,1,0,0:0:0:0:
256,192,37647,1,8,0:0:0:0:
256,192,37818,1,0,0:0:0:0:
256,192,37990,1,0,0:0:0:0:
256,192,38161,1,8,0:0:0:0:
256,192,38332,1,8,0:0:0:0:
256,192,38675,1,8,0:0:0:0:
256,192,38761,1,8,0:0:0:0:
256,192,38847,1,0,0:0:0:0:
256,192,39018,1,8,0:0:0:0:
256,192,39190,1,0,0:0:0:0:
256,192,39532,1,8,0:0:0:0:
256,192,39875,1,0,0:0:0:0:
256,192,40047,1,0,0:0:0:0:
256,192,40218,1,8,0:0:0:0:
256,192,40390,1,0,0:0:0:0:
256,192,40561,1,0,0:0:0:0:
256,192,40732,1,8,0:0:0:0:
256,192,40904,1,8,0:0:0:0:
256,192,41075,1,8,0:0:0:0:
256,192,41161,1,8,0:0:0:0:
256,192,41247,1,0,0:0:0:0:
256,192,41418,1,0,0:0:0:0:
256,192,41504,1,8,0:0:0:0:
256,192,41590,1,0,0:0:0:0:
256,192,41761,1,8,0:0:0:0:
256,192,41932,1,0,0:0:0:0:
256,192,42104,1,8,0:0:0:0:
256,192,42275,1,0,0:0:0:0:
256,192,42447,1,0,0:0:0:0:
256,192,42532,1,0,0:0:0:0:
256,192,42618,1,8,0:0:0:0:
256,192,42790,1,0,0:0:0:0:
256,192,42961,1,8,0:0:0:0:
256,192,43132,1,8,0:0:0:0:
256,192,43304,1,0,0:0:0:0:
256,192,43475,1,8,0:0:0:0:
264,192,43818,1,8,0:0:0:0:
256,192,43990,1,0,0:0:0:0:
256,192,44161,1,0,0:0:0:0:
256,192,44247,1,8,0:0:0:0:
256,192,44332,1,0,0:0:0:0:
256,192,44504,1,8,0:0:0:0:
256,192,44675,1,0,0:0:0:0:
256,192,45018,1,8,0:0:0:0:
256,192,45361,1,0,0:0:0:0:
256,192,45704,1,8,0:0:0:0:
256,192,45875,1,0,0:0:0:0:
256,192,46047,1,0,0:0:0:0:
256,192,46218,1,8,0:0:0:0:
256,192,46390,1,8,0:0:0:0:
256,192,46561,1,0,0:0:0:0:
256,192,46647,1,8,0:0:0:0:
256,192,46732,1,8,0:0:0:0:
256,192,46904,1,0,0:0:0:0:
256,192,47075,1,0,0:0:0:0:
256,192,47247,1,8,0:0:0:0:
256,192,47418,1,0,0:0:0:0:
256,192,47590,1,8,0:0:0:0:
256,192,47761,1,8,0:0:0:0:
256,192,47932,1,8,0:0:0:0:
256,192,48104,1,0,0:0:0:0:
256,192,48447,1,0,0:0:0:0:
256,192,48790,1,0,0:0:0:0:
256,192,49132,1,0,0:0:0:0:
256,192,49475,1,0,0:0:0:0:
256,192,49647,1,8,0:0:0:0:
256,192,49732,1,8,0:0:0:0:
256,192,49818,1,0,0:0:0:0:
256,192,49990,1,0,0:0:0:0:
256,192,50161,1,0,0:0:0:0:
256,192,50332,1,8,0:0:0:0:
256,192,50504,1,0,0:0:0:0:
256,192,50675,1,0,0:0:0:0:
256,192,50847,1,0,0:0:0:0:
256,192,51018,1,0,0:0:0:0:
256,192,51104,1,0,0:0:0:0:
256,192,51190,1,8,0:0:0:0:
256,192,51361,1,8,0:0:0:0:
256,192,51447,1,8,0:0:0:0:
256,192,51532,1,0,0:0:0:0:
256,192,51704,1,8,0:0:0:0:
256,192,51875,1,0,0:0:0:0:
256,192,51961,1,0,0:0:0:0:
256,192,52047,1,8,0:0:0:0:
256,192,52218,1,8,0:0:0:0:
256,192,52390,1,8,0:0:0:0:
256,192,52561,1,0,0:0:0:0:
256,192,52647,1,0,0:0:0:0:
256,192,52732,1,8,0:0:0:0:
256,192,52818,1,8,0:0:0:0:
256,192,52904,1,8,0:0:0:0:
256,192,53075,1,8,0:0:0:0:
256,192,53247,1,0,0:0:0:0:
256,192,53332,1,0,0:0:0:0:
256,192,53418,1,8,0:0:0:0:
256,192,53590,1,8,0:0:0:0:
256,192,53932,1,0,0:0:0:0:
256,192,54104,1,8,0:0:0:0:
256,192,54275,1,0,0:0:0:0:
256,192,54447,1,0,0:0:0:0:
256,192,54532,1,0,0:0:0:0:
256,192,54618,1,8,0:0:0:0:
256,192,54790,1,8,0:0:0:0:
256,192,54961,1,0,0:0:0:0:
256,192,55132,1,8,0:0:0:0:
256,192,55190,1,8,0:0:0:0:
256,192,55247,1,8,0:0:0:0:
256,192,55304,1,0,0:0:0:0:
256,192,55475,1,0,0:0:0:0:
256,192,55647,1,8,0:0:0:0:
256,192,55818,1,8,0:0:0:0:
256,192,55990,1,8,0:0:0:0:
256,192,56075,1,8,0:0:0:0:
256,192,56161,1,8,0:0:0:0:
256,192,56247,1,8,0:0:0:0:
256,192,56332,1,0,0:0:0:0:
256,192,56504,1,8,0:0:0:0:
256,192,56590,1,0,0:0:0:0:
256,192,56675,1,8,0:0:0:0:
256,192,56847,1,0,0:0:0:0:
256,192,57018,1,0,0:0:0:0:
256,192,57190,1,8,0:0:0:0:
256,192,57361,1,0,0:0:0:0:
256,192,57447,1,0,0:0:0:0:
256,192,57532,1,8,0:0:0:0:
256,192,57704,1,0,0:0:0:0:
256,192,57875,1,8,0:0:0:0:
256,192,58047,1,8,0:0:0:0:
256,192,58218,1,0,0:0:0:0:
256,192,58390,1,0,0:0:0:0:
256,192,58561,1,8,0:0:0:0:
256,192,58647,1,8,0:0:0:0:
256,192,58732,1,8,0:0:0:0:
256,192,58904,1,0,0:0:0:0:
256,192,59075,1,0,0:0:0:0:
256,192,59247,1,8,0:0:0:0:
256,192,59418,1,8,0:0:0:0:
256,192,59590,1,0,0:0:0:0:
256,192,59761,1,8,0:0:0:0:
256,192,59932,1,8,0:0:0:0:
256,192,60018,1,8,0:0:0:0:
256,192,60104,1,0,0:0:0:0:
256,192,60275,1,8,0:0:0:0:
256,192,60447,1,0,0:0:0:0:
256,192,60618,1,8,0:0:0:0:
256,192,60675,1,8,0:0:0:0:
256,192,60732,1,8,0:0:0:0:
256,192,60790,1,0,0:0:0:0:
256,192,60961,1,8,0:0:0:0:
256,192,61132,1,0,0:0:0:0:
256,192,61475,1,0,0:0:0:0:
256,192,61818,1,4,0:0:0:0:
256,192,61990,1,8,0:0:0:0:
256,192,62075,1,8,0:0:0:0:
256,192,62161,1,0,0:0:0:0:
256,192,62332,1,8,0:0:0:0:
256,192,62504,1,0,0:0:0:0:
256,192,62590,1,0,0:0:0:0:
256,192,62675,1,8,0:0:0:0:
256,192,62847,1,0,0:0:0:0:
256,192,63018,1,8,0:0:0:0:
256,192,63190,1,0,0:0:0:0:
256,192,63361,1,0,0:0:0:0:
256,192,63447,1,0,0:0:0:0:
256,192,63532,1,8,0:0:0:0:
256,192,63704,1,8,0:0:0:0:
256,192,63875,1,8,0:0:0:0:
256,192,63961,1,0,0:0:0:0:
256,192,64047,1,8,0:0:0:0:
256,192,64218,1,0,0:0:0:0:
256,192,64304,1,0,0:0:0:0:
256,192,64390,1,8,0:0:0:0:
256,192,64561,1,8,0:0:0:0:
256,192,64732,1,8,0:0:0:0:
256,192,64818,1,8,0:0:0:0:
256,192,64904,1,0,0:0:0:0:
256,192,65075,1,8,0:0:0:0:
256,192,65247,1,8,0:0:0:0:
256,192,65418,1,0,0:0:0:0:
256,192,65590,1,8,0:0:0:0:
256,192,65761,1,8,0:0:0:0:
256,192,65847,1,0,0:0:0:0:
256,192,66104,1,8,0:0:0:0:
256,192,66190,1,0,0:0:0:0:
256,192,66447,1,0,0:0:0:0:
256,192,66618,1,8,0:0:0:0:
256,192,66790,1,0,0:0:0:0:
256,192,66961,1,8,0:0:0:0:
256,192,67047,1,8,0:0:0:0:
256,192,67304,1,0,0:0:0:0:
256,192,67390,1,0,0:0:0:0:
256,192,67475,1,0,0:0:0:0:
256,192,67561,1,8,0:0:0:0:
256,192,67647,1,8,0:0:0:0:
256,192,67818,1,0,0:0:0:0:
256,192,67990,1,8,0:0:0:0:
256,192,68161,1,8,0:0:0:0:
256,192,68332,1,0,0:0:0:0:
256,192,68418,1,8,0:0:0:0:
256,192,68504,1,8,0:0:0:0:
256,192,68675,1,8,0:0:0:0:
256,192,68847,1,0,0:0:0:0:
256,192,68932,1,8,0:0:0:0:
256,192,69018,1,0,0:0:0:0:
256,192,69190,1,8,0:0:0:0:
256,192,69361,1,8,0:0:0:0:
256,192,69704,1,8,0:0:0:0:
256,192,69875,1,0,0:0:0:0:
256,192,70047,1,0,0:0:0:0:
256,192,70218,1,8,0:0:0:0:
256,192,70304,1,8,0:0:0:0:
256,192,70390,1,8,0:0:0:0:
256,192,70561,1,0,0:0:0:0:
256,192,70732,1,8,0:0:0:0:
256,192,70818,1,8,0:0:0:0:
256,192,70904,1,8,0:0:0:0:
256,192,71075,1,0,0:0:0:0:
256,192,71161,1,0,0:0:0:0:
256,192,71247,1,8,0:0:0:0:
256,192,71418,1,8,0:0:0:0:
256,192,71590,1,0,0:0:0:0:
256,192,71675,1,8,0:0:0:0:
256,192,71761,1,0,0:0:0:0:
256,192,71932,1,0,0:0:0:0:
256,192,72104,1,8,0:0:0:0:
256,192,72275,1,8,0:0:0:0:
256,192,72361,1,8,0:0:0:0:
256,192,72447,1,8,0:0:0:0:
256,192,72618,1,8,0:0:0:0:
256,192,72790,1,4,0:0:0:0:
248,192,72961,1,0,0:0:0:0:
248,192,73047,1,0,0:0:0:0:
248,192,73132,1,0,0:0:0:0:
256,192,73304,1,8,0:0:0:0:
256,192,73475,1,0,0:0:0:0:
256,192,73647,1,8,0:0:0:0:
256,192,73818,1,0,0:0:0:0:
256,192,73904,1,0,0:0:0:0:
256,192,73990,1,8,0:0:0:0:
256,192,74161,1,0,0:0:0:0:
256,192,74332,1,8,0:0:0:0:
256,192,74418,1,0,0:0:0:0:
256,192,74504,1,8,0:0:0:0:
256,192,74675,1,0,0:0:0:0:
256,192,74847,1,8,0:0:0:0:
256,192,75018,1,8,0:0:0:0:
256,192,75190,1,8,0:0:0:0:
256,192,75361,1,0,0:0:0:0:
256,192,75532,1,12,0:0:0:0:
256,192,75704,1,8,0:0:0:0:
256,192,75790,1,8,0:0:0:0:
256,192,75875,1,8,0:0:0:0:
256,192,76047,1,0,0:0:0:0:
256,192,76218,1,8,0:0:0:0:
256,192,76390,1,0,0:0:0:0:
256,192,76475,1,8,0:0:0:0:
256,192,76561,1,8,0:0:0:0:
256,192,76732,1,0,0:0:0:0:
256,192,76904,1,8,0:0:0:0:
256,192,76990,1,8,0:0:0:0:
256,192,77075,1,0,0:0:0:0:
256,192,77247,1,0,0:0:0:0:
256,192,77418,1,8,0:0:0:0:
256,192,77590,1,0,0:0:0:0:
256,192,77761,1,0,0:0:0:0:
256,192,77847,1,8,0:0:0:0:
256,192,77932,1,0,0:0:0:0:
256,192,78104,1,8,0:0:0:0:
256,192,78275,1,8,0:0:0:0:
256,192,78504,1,0,0:0:0:0:
256,192,78618,1,8,0:0:0:0:
256,192,78732,1,8,0:0:0:0:
256,192,78847,1,0,0:0:0:0:
256,192,78961,1,8,0:0:0:0:
256,192,79218,1,0,0:0:0:0:
256,192,79304,1,8,0:0:0:0:
256,192,79475,1,0,0:0:0:0:
256,192,79647,1,8,0:0:0:0:
256,192,79875,1,8,0:0:0:0:
256,192,79990,1,0,0:0:0:0:
256,192,80104,1,0,0:0:0:0:
256,192,80218,1,8,0:0:0:0:
256,192,80332,1,8,0:0:0:0:
256,192,80561,1,8,0:0:0:0:
256,192,80675,1,8,0:0:0:0:
256,192,80790,1,8,0:0:0:0:
256,192,80904,1,0,0:0:0:0:
256,192,81018,1,0,0:0:0:0:
256,192,81104,1,8,0:0:0:0:
256,192,81190,1,0,0:0:0:0:
256,192,81275,1,8,0:0:0:0:
256,192,81361,1,0,0:0:0:0:
256,192,81532,1,8,0:0:0:0:
256,192,81618,1,8,0:0:0:0:
256,192,81704,1,0,0:0:0:0:
256,192,81790,1,0,0:0:0:0:
256,192,81875,1,8,0:0:0:0:
256,192,82047,1,0,0:0:0:0:
256,192,82132,1,0,0:0:0:0:
256,192,82218,1,8,0:0:0:0:
256,192,82390,1,8,0:0:0:0:
256,192,82475,1,8,0:0:0:0:
256,192,82561,1,0,0:0:0:0:
256,192,82647,1,8,0:0:0:0:
256,192,82732,1,8,0:0:0:0:
256,192,82904,1,0,0:0:0:0:
256,192,82990,1,8,0:0:0:0:
256,192,83075,1,8,0:0:0:0:
256,192,83161,1,8,0:0:0:0:
256,192,83247,1,0,0:0:0:0:
256,192,83332,1,8,0:0:0:0:
256,192,83418,1,0,0:0:0:0:
256,192,83504,1,0,0:0:0:0:
256,192,83590,1,8,0:0:0:0:
256,192,83761,1,0,0:0:0:0:
256,192,83847,1,0,0:0:0:0:
256,192,83932,1,8,0:0:0:0:
256,192,84018,1,8,0:0:0:0:
256,192,84104,1,0,0:0:0:0:
256,192,84190,1,0,0:0:0:0:
256,192,84275,1,0,0:0:0:0:
256,192,84447,1,8,0:0:0:0:
256,192,84618,1,8,0:0:0:0:
256,192,84704,1,0,0:0:0:0:
256,192,84875,1,0,0:0:0:0:
256,192,84961,1,8,0:0:0:0:
256,192,85132,1,8,0:0:0:0:
256,192,85218,1,8,0:0:0:0:
256,192,85304,1,0,0:0:0:0:
256,192,85390,1,0,0:0:0:0:
256,192,85475,1,8,0:0:0:0:
256,192,85647,1,0,0:0:0:0:
256,192,85818,1,8,0:0:0:0:
256,192,85990,1,8,0:0:0:0:
256,192,86075,1,8,0:0:0:0:
256,192,86332,1,0,0:0:0:0:
256,192,86504,1,8,0:0:0:0:
256,192,86590,1,8,0:0:0:0:
256,192,86675,1,0,0:0:0:0:
256,192,86761,1,8,0:0:0:0:
256,192,86847,1,8,0:0:0:0:
256,192,87018,1,0,0:0:0:0:
256,192,87104,1,0,0:0:0:0:
256,192,87190,1,8,0:0:0:0:
256,192,87275,1,0,0:0:0:0:
256,192,87361,1,0,0:0:0:0:
256,192,87447,1,0,0:0:0:0:
256,192,87532,1,8,0:0:0:0:
256,192,87704,1,0,0:0:0:0:
256,192,87875,1,8,0:0:0:0:
256,192,88047,1,8,0:0:0:0:
256,192,88132,1,8,0:0:0:0:
256,192,88304,1,0,0:0:0:0:
256,192,88390,1,8,0:0:0:0:
256,192,88475,1,0,0:0:0:0:
256,192,88561,1,0,0:0:0:0:
256,192,88647,1,0,0:0:0:0:
256,192,88732,1,8,0:0:0:0:
256,192,88818,1,0,0:0:0:0:
256,192,88904,1,8,0:0:0:0:
256,192,88990,1,8,0:0:0:0:
256,192,89075,1,8,0:0:0:0:
256,192,89161,1,8,0:0:0:0:
256,192,89247,5,0,0:0:0:0:
256,184,89418,1,8,0:0:0:0:
256,184,89590,1,8,0:0:0:0:
256,192,89675,1,0,0:0:0:0:
256,192,89761,1,0,0:0:0:0:
256,192,89932,1,8,0:0:0:0:
256,192,90104,1,0,0:0:0:0:
256,192,90190,1,8,0:0:0:0:
256,192,90275,1,0,0:0:0:0:
256,192,90447,1,8,0:0:0:0:
256,192,90618,1,0,0:0:0:0:
256,192,90704,1,0,0:0:0:0:
256,192,90790,1,8,0:0:0:0:
256,192,90875,1,8,0:0:0:0:
256,192,90961,1,0,0:0:0:0:
256,192,91047,1,8,0:0:0:0:
256,192,91132,1,8,0:0:0:0:
256,192,91218,1,8,0:0:0:0:
256,192,91304,1,0,0:0:0:0:
256,192,91475,1,0,0:0:0:0:
256,192,91561,1,0,0:0:0:0:
256,192,91647,1,8,0:0:0:0:
256,192,91818,1,0,0:0:0:0:
256,192,91990,1,0,0:0:0:0:
256,192,92075,1,8,0:0:0:0:
256,192,92161,1,0,0:0:0:0:
256,192,92247,1,8,0:0:0:0:
256,192,92332,1,8,0:0:0:0:
256,192,92418,1,8,0:0:0:0:
256,192,92504,1,0,0:0:0:0:
256,192,92675,1,8,0:0:0:0:
256,192,92847,1,8,0:0:0:0:
256,192,93018,1,0,0:0:0:0:
256,192,93190,1,0,0:0:0:0:
256,192,93361,1,8,0:0:0:0:
256,192,93447,1,8,0:0:0:0:
256,192,93532,1,0,0:0:0:0:
256,192,93618,5,0,0:0:0:0:
256,192,93704,1,8,0:0:0:0:
256,192,93875,1,8,0:0:0:0:
256,192,93961,1,0,0:0:0:0:
256,192,94047,1,8,0:0:0:0:
256,192,94132,1,8,0:0:0:0:
256,192,94218,1,0,0:0:0:0:
256,192,94390,1,8,0:0:0:0:
256,192,94561,1,0,0:0:0:0:
256,192,94732,1,8,0:0:0:0:
256,192,94818,1,0,0:0:0:0:
256,192,94904,1,8,0:0:0:0:
256,192,95075,1,0,0:0:0:0:
256,192,95161,1,0,0:0:0:0:
256,192,95247,1,8,0:0:0:0:
256,192,95332,1,0,0:0:0:0:
256,192,95418,2,0,L|352:128,1,90
256,192,95761,1,0,0:0:0:0:
256,192,95932,1,8,0:0:0:0:
256,192,96104,1,0,0:0:0:0:
256,192,96447,1,8,0:0:0:0:
256,192,96790,1,0,0:0:0:0:
256,192,97132,1,8,0:0:0:0:
256,192,97475,1,0,0:0:0:0:
256,192,97561,1,8,0:0:0:0:
256,192,97647,1,0,0:0:0:0:
256,192,97818,1,8,0:0:0:0:
256,192,97990,1,0,0:0:0:0:
256,192,98075,1,8,0:0:0:0:
256,192,98161,1,0,0:0:0:0:
256,192,98332,1,8,0:0:0:0:
256,192,98504,1,0,0:0:0:0:
256,192,98590,1,8,0:0:0:0:
256,192,98675,1,0,0:0:0:0:
256,192,98847,1,8,0:0:0:0:
256,192,99104,1,0,0:0:0:0:
256,192,99190,1,8,0:0:0:0:
256,192,99275,1,8,0:0:0:0:
256,192,99361,1,0,0:0:0:0:
256,192,99447,1,0,0:0:0:0:
256,192,99532,1,8,0:0:0:0:
256,192,99704,1,8,0:0:0:0:
256,192,99875,1,8,0:0:0:0:
256,192,100047,1,0,0:0:0:0:
256,192,100218,1,8,0:0:0:0:
256,192,100732,1,0,0:0:0:0:
256,192,100904,1,8,0:0:0:0:
256,192,101418,1,0,0:0:0:0:
256,192,101590,1,8,0:0:0:0:
256,192,101932,1,8,0:0:0:0:
256,192,102275,1,0,0:0:0:0:
256,192,102447,1,0,0:0:0:0:
256,192,102618,1,0,0:0:0:0:
256,192,102790,1,8,0:0:0:0:
256,192,102961,1,0,0:0:0:0:
256,192,103304,1,0,0:0:0:0:
256,192,103647,1,8,0:0:0:0:
256,192,103818,1,8,0:0:0:0:
256,192,103990,1,0,0:0:0:0:
256,192,104161,1,8,0:0:0:0:
256,192,104332,1,0,0:0:0:0:
256,192,104504,1,8,0:0:0:0:
256,192,104590,1,8,0:0:0:0:
256,192,104675,1,0,0:0:0:0:
256,192,104847,1,8,0:0:0:0:
256,192,105018,1,8,0:0:0:0:
256,192,105190,1,8,0:0:0:0:
256,192,105361,1,0,0:0:0:0:
256,192,105532,1,0,0:0:0:0:
256,192,105704,1,0,0:0:0:0:
256,192,105875,1,0,0:0:0:0:
256,192,105961,1,0,0:0:0:0:
256,192,106047,1,8,0:0:0:0:
256,192,106218,1,8,0:0:0:0:
256,192,106304,1,8,0:0:0:0:
256,192,106389,1,0,0:0:0:0:
256,192,106561,1,8,0:0:0:0:
256,192,106732,1,0,0:0:0:0:
256,192,106818,1,0,0:0:0:0:
256,192,106904,1,8,0:0:0:0:
256,192,107075,1,8,0:0:0:0:
256,192,107247,1,8,0:0:0:0:
256,192,107418,1,0,0:0:0:0:
256,192,107504,1,0,0:0:0:0:
256,192,107589,1,8,0:0:0:0:
256,192,107675,1,8,0:0:0:0:
256,192,107761,1,8,0:0:0:0:
256,192,107932,1,8,0:0:0:0:
256,192,108104,1,0,0:0:0:0:
256,192,108189,1,0,0:0:0:0:
256,192,108275,1,8,0:0:0:0:
256,192,108447,1,8,0:0:0:0:
256,192,108789,1,0,0:0:0:0:
256,192,108961,1,8,0:0:0:0:
256,192,109132,1,0,0:0:0:0:
256,192,109304,1,0,0:0:0:0:
256,192,109389,1,0,0:0:0:0:
256,192,109475,1,8,0:0:0:0:
256,192,109647,1,8,0:0:0:0:
256,192,109818,1,0,0:0:0:0:
256,192,109989,1,8,0:0:0:0:
256,192,110047,1,8,0:0:0:0:
256,192,110104,1,8,0:0:0:0:
256,192,110161,1,0,0:0:0:0:
256,192,110332,1,0,0:0:0:0:
256,192,110504,1,8,0:0:0:0:
256,192,110675,1,8,0:0:0:0:
256,192,110847,1,8,0:0:0:0:
256,192,110932,1,8,0:0:0:0:
256,192,111018,1,8,0:0:0:0:
256,192,111104,1,8,0:0:0:0:
256,192,111189,1,0,0:0:0:0:
256,192,111361,1,8,0:0:0:0:
256,192,111447,1,0,0:0:0:0:
256,192,111532,1,8,0:0:0:0:
256,192,111704,1,0,0:0:0:0:
256,192,111875,1,0,0:0:0:0:
256,192,112047,1,8,0:0:0:0:
256,192,112218,1,0,0:0:0:0:
256,192,112304,1,0,0:0:0:0:
256,192,112389,1,8,0:0:0:0:
256,192,112561,1,0,0:0:0:0:
256,192,112732,1,8,0:0:0:0:
256,192,112904,1,8,0:0:0:0:
256,192,113075,1,0,0:0:0:0:
256,192,113247,1,0,0:0:0:0:
256,192,113418,1,8,0:0:0:0:
256,192,113504,1,8,0:0:0:0:
256,192,113589,1,8,0:0:0:0:
256,192,113761,1,0,0:0:0:0:
256,192,113932,1,0,0:0:0:0:
256,192,114104,1,8,0:0:0:0:
256,192,114275,1,8,0:0:0:0:
256,192,114447,1,0,0:0:0:0:
256,192,114618,1,8,0:0:0:0:
256,192,114789,1,8,0:0:0:0:
256,192,114875,1,8,0:0:0:0:
256,192,114961,1,0,0:0:0:0:
256,192,115132,1,8,0:0:0:0:
256,192,115304,1,0,0:0:0:0:
256,192,115475,1,8,0:0:0:0:
256,192,115532,1,8,0:0:0:0:
256,192,115589,1,8,0:0:0:0:
256,192,115647,1,0,0:0:0:0:
256,192,115818,1,8,0:0:0:0:
256,192,115989,1,0,0:0:0:0:
256,192,116332,1,0,0:0:0:0:
256,192,116418,1,0,0:0:0:0:
256,192,116504,1,0,0:0:0:0:
256,192,116590,1,0,0:0:0:0:
256,192,116675,1,8,0:0:0:0:
256,192,116847,1,8,0:0:0:0:
256,192,116932,1,8,0:0:0:0:
256,192,117018,1,0,0:0:0:0:
256,192,117189,1,8,0:0:0:0:
256,192,117361,1,0,0:0:0:0:
256,192,117447,1,0,0:0:0:0:
256,192,117532,1,8,0:0:0:0:
256,192,117704,1,0,0:0:0:0:
256,192,117875,1,8,0:0:0:0:
256,192,118047,1,0,0:0:0:0:
256,192,118218,1,0,0:0:0:0:
256,192,118304,1,0,0:0:0:0:
256,192,118389,1,8,0:0:0:0:
256,192,118561,1,8,0:0:0:0:
256,192,118732,1,8,0:0:0:0:
256,192,118818,1,0,0:0:0:0:
256,192,118904,1,8,0:0:0:0:
256,192,119075,1,0,0:0:0:0:
256,192,119161,1,0,0:0:0:0:
256,192,119247,1,8,0:0:0:0:
256,192,119418,1,8,0:0:0:0:
256,192,119589,1,8,0:0:0:0:
256,192,119675,1,8,0:0:0:0:
256,192,119761,1,0,0:0:0:0:
256,192,119932,1,8,0:0:0:0:
256,192,120104,1,8,0:0:0:0:
256,192,120275,1,0,0:0:0:0:
256,192,120447,1,8,0:0:0:0:
256,192,120618,1,8,0:0:0:0:
256,192,120704,1,0,0:0:0:0:
256,192,120961,1,8,0:0:0:0:
256,192,121047,1,0,0:0:0:0:
256,192,121304,1,0,0:0:0:0:
256,192,121475,1,8,0:0:0:0:
256,192,121647,1,0,0:0:0:0:
256,192,121818,1,8,0:0:0:0:
256,192,121904,1,8,0:0:0:0:
256,192,122161,1,0,0:0:0:0:
256,192,122247,1,0,0:0:0:0:
256,192,122332,1,0,0:0:0:0:
256,192,122418,1,8,0:0:0:0:
256,192,122504,1,8,0:0:0:0:
256,192,122675,1,0,0:0:0:0:
256,192,122847,1,8,0:0:0:0:
256,192,123018,1,8,0:0:0:0:
256,192,123189,1,0,0:0:0:0:
256,192,123275,1,8,0:0:0:0:
256,192,123361,1,8,0:0:0:0:
256,192,123532,1,8,0:0:0:0:
256,192,123704,1,0,0:0:0:0:
256,192,123789,1,8,0:0:0:0:
256,192,123875,1,0,0:0:0:0:
256,192,124047,1,8,0:0:0:0:
256,192,124218,1,8,0:0:0:0:
256,192,124475,1,0,0:0:0:0:
256,192,124561,1,8,0:0:0:0:
256,192,124732,1,8,0:0:0:0:
256,192,124904,1,0,0:0:0:0:
256,192,125075,1,8,0:0:0:0:
256,192,125161,1,8,0:0:0:0:
256,192,125247,1,8,0:0:0:0:
256,192,125418,1,0,0:0:0:0:
256,192,125589,1,8,0:0:0:0:
256,192,125675,1,8,0:0:0:0:
256,192,125761,1,8,0:0:0:0:
256,192,125932,1,0,0:0:0:0:
256,192,126018,1,0,0:0:0:0:
256,192,126104,1,8,0:0:0:0:
256,192,126275,1,8,0:0:0:0:
256,192,126447,1,0,0:0:0:0:
256,192,126532,1,8,0:0:0:0:
256,192,126618,1,0,0:0:0:0:
256,192,126789,1,0,0:0:0:0:
256,192,126961,1,8,0:0:0:0:
256,192,127132,1,0,0:0:0:0:
256,192,127304,1,8,0:0:0:0:
256,192,127475,1,8,0:0:0:0:
256,192,127647,1,8,0:0:0:0:
256,192,128161,1,0,0:0:0:0:
256,192,128332,1,8,0:0:0:0:
256,192,128418,1,0,0:0:0:0:
256,192,128504,1,0,0:0:0:0:
256,192,128675,1,8,0:0:0:0:
256,192,128847,1,0,0:0:0:0:
256,192,129018,1,8,0:0:0:0:
256,192,129104,1,0,0:0:0:0:
256,192,129190,1,0,0:0:0:0:
256,192,129275,1,8,0:0:0:0:
256,192,129361,1,0,0:0:0:0:
256,192,129447,1,0,0:0:0:0:
256,192,129532,1,8,0:0:0:0:
256,192,129704,1,0,0:0:0:0:
256,192,129875,1,8,0:0:0:0:
256,192,129961,1,0,0:0:0:0:
256,192,130047,1,8,0:0:0:0:
256,192,130132,1,0,0:0:0:0:
256,192,130218,1,0,0:0:0:0:
256,192,130304,1,0,0:0:0:0:
256,192,130390,1,8,0:0:0:0:
256,192,130647,1,8,0:0:0:0:
256,192,130904,1,0,0:0:0:0:
256,192,131075,1,8,0:0:0:0:
256,192,131247,1,8,0:0:0:0:
256,192,131418,1,8,0:0:0:0:
256,192,131590,1,0,0:0:0:0:
256,192,131761,1,8,0:0:0:0:
256,192,131847,1,8,0:0:0:0:
256,192,131932,1,0,0:0:0:0:
256,192,132104,1,8,0:0:0:0:
256,192,132275,1,8,0:0:0:0:
256,192,132447,1,8,0:0:0:0:
256,192,132618,1,0,0:0:0:0:
256,192,132704,1,0,0:0:0:0:
256,192,132790,1,0,0:0:0:0:
256,192,132961,1,8,0:0:0:0:
256,192,133132,2,0,L|336:144,1,70
256,192,133475,1,0,0:0:0:0:
256,192,133818,1,0,0:0:0:0:
256,192,133904,1,0,0:0:0:0:
256,192,133990,1,0,0:0:0:0:
256,192,134075,1,0,0:0:0:0:
256,192,134161,1,0,0:0:0:0:
256,192,134332,1,0,0:0:0:0:
256,192,134504,1,8,0:0:0:0:
256,192,134590,1,8,0:0:0:0:
256,192,134675,1,0,0:0:0:0:
256,192,134847,1,8,0:0:0:0:
256,192,135018,1,0,0:0:0:0:
256,192,135190,1,0,0:0:0:0:
256,192,135361,1,8,0:0:0:0:
256,192,135704,1,0,0:0:0:0:
256,192,135875,1,8,0:0:0:0:
256,192,136132,1,0,0:0:0:0:
256,192,136218,1,8,0:0:0:0:
256,192,136390,1,8,0:0:0:0:
256,192,136561,1,8,0:0:0:0:
256,192,136732,1,0,0:0:0:0:
256,192,136904,1,0,0:0:0:0:
256,192,137075,1,0,0:0:0:0:
256,192,137247,1,8,0:0:0:0:
256,192,137332,1,0,0:0:0:0:
256,192,137418,1,0,0:0:0:0:
256,192,137504,1,0,0:0:0:0:
256,192,137590,1,8,0:0:0:0:
256,192,137675,1,8,0:0:0:0:
256,192,137761,1,0,0:0:0:0:
256,192,137847,1,0,0:0:0:0:
256,192,137932,1,0,0:0:0:0:
256,192,138104,1,8,0:0:0:0:
256,192,138275,1,8,0:0:0:0:
256,192,138447,1,0,0:0:0:0:
256,192,138618,1,0,0:0:0:0:
256,192,139132,1,8,0:0:0:0:
256,192,139304,1,0,0:0:0:0:
256,192,139647,1,8,0:0:0:0:
256,192,139990,1,8,0:0:0:0:
256,192,140504,1,0,0:0:0:0:
256,192,140590,1,8,0:0:0:0:
256,192,140675,1,0,0:0:0:0:
256,192,141018,1,8,0:0:0:0:
256,192,141361,1,0,0:0:0:0:
256,192,141532,1,0,0:0:0:0:
256,192,141704,1,8,0:0:0:0:
256,192,141875,1,0,0:0:0:0:
256,192,142047,1,0,0:0:0:0:
256,192,142218,1,0,0:0:0:0:
256,192,142390,1,8,0:0:0:0:
256,192,142561,1,0,0:0:0:0:
256,192,142732,1,0,0:0:0:0:
256,192,142904,1,8,0:0:0:0:
256,192,143075,1,8,0:0:0:0:
256,192,143247,1,0,0:0:0:0:
256,192,143418,1,8,0:0:0:0:
256,192,143590,1,0,0:0:0:0:
256,192,143761,1,8,0:0:0:0:
256,192,143932,1,0,0:0:0:0:
256,192,144104,1,0,0:0:0:0:
256,192,144618,1,0,0:0:0:0:
256,192,144790,1,8,0:0:0:0:
256,192,145132,1,8,0:0:0:0:
256,192,145475,1,0,0:0:0:0:
256,192,145990,1,0,0:0:0:0:
256,192,146075,1,0,0:0:0:0:
256,192,146161,1,8,0:0:0:0:
256,192,146504,1,8,0:0:0:0:
256,192,146847,1,0,0:0:0:0:
256,192,147018,1,0,0:0:0:0:
256,192,147190,1,8,0:0:0:0:
256,192,147361,1,0,0:0:0:0:
256,192,147533,1,0,0:0:0:0:
256,192,147704,1,0,0:0:0:0:
256,192,147876,1,8,0:0:0:0:
256,192,148047,1,0,0:0:0:0:
256,192,148218,1,0,0:0:0:0:
256,192,148390,1,8,0:0:0:0:
256,192,148561,1,8,0:0:0:0:
256,192,148733,1,0,0:0:0:0:
256,192,148904,1,8,0:0:0:0:
256,192,149076,1,0,0:0:0:0:
256,192,149247,1,8,0:0:0:0:
256,192,149418,1,0,0:0:0:0:
256,192,149590,1,0,0:0:0:0:
256,192,149932,1,8,0:0:0:0:
256,192,150104,1,8,0:0:0:0:
256,192,150275,1,8,0:0:0:0:
256,192,150447,1,0,0:0:0:0:
256,192,150618,1,0,0:0:0:0:
256,192,150961,1,8,0:0:0:0:
256,192,151475,1,0,0:0:0:0:
256,192,151647,1,8,0:0:0:0:
256,192,151990,1,0,0:0:0:0:
256,192,152332,1,0,0:0:0:0:
256,192,152504,1,8,0:0:0:0:
256,192,152675,1,0,0:0:0:0:
256,192,152847,1,8,0:0:0:0:
256,192,153018,1,8,0:0:0:0:
256,192,153190,1,8,0:0:0:0:
256,192,153361,1,0,0:0:0:0:
256,192,153532,1,8,0:0:0:0:
256,192,153703,1,8,0:0:0:0:
256,192,153875,1,8,0:0:0:0:
256,192,154046,1,0,0:0:0:0:
256,192,154218,1,0,0:0:0:0:
256,192,154389,1,8,0:0:0:0:
256,192,154561,1,0,0:0:0:0:
256,192,154732,1,0,0:0:0:0:
256,192,154903,1,0,0:0:0:0:
256,192,155075,1,8,0:0:0:0:
256,192,155761,1,0,0:0:0:0:
256,192,156104,1,0,0:0:0:0:
256,192,156447,1,8,0:0:0:0:
256,192,156961,1,0,0:0:0:0:
256,192,157047,1,8,0:0:0:0:
256,192,157132,1,0,0:0:0:0:
256,192,157475,1,8,0:0:0:0:
256,192,157647,1,8,0:0:0:0:
256,192,157818,1,0,0:0:0:0:
256,192,157990,1,0,0:0:0:0:
256,192,158161,1,8,0:0:0:0:
256,192,158332,1,8,0:0:0:0:
256,192,158504,1,0,0:0:0:0:
256,192,158675,1,0,0:0:0:0:
256,192,158847,1,8,0:0:0:0:
256,192,159018,1,0,0:0:0:0:
256,192,159190,12,0,159875,0:0:0:0:
256,192,160561,5,0,0:0:0:0:
256,192,160904,1,0,0:0:0:0:
256,192,161247,1,0,0:0:0:0:
256,192,161590,1,8,0:0:0:0:
256,192,161675,1,8,0:0:0:0:
256,192,161761,1,8,0:0:0:0:
256,192,161847,1,8,0:0:0:0:
256,192,161932,1,0,0:0:0:0:
256,192,162018,1,0,0:0:0:0:
256,192,162104,1,8,0:0:0:0:
256,192,162190,1,8,0:0:0:0:
256,192,162275,1,0,0:0:0:0:
256,192,162361,1,0,0:0:0:0:
256,192,162447,1,8,0:0:0:0:
256,192,162532,1,8,0:0:0:0:
256,192,162618,1,0,0:0:0:0:
256,192,162704,1,0,0:0:0:0:
256,192,162790,1,8,0:0:0:0:
256,192,162875,1,8,0:0:0:0:
256,192,162961,1,0,0:0:0:0:
256,192,163047,1,8,0:0:0:0:
256,192,163132,1,8,0:0:0:0:
256,192,163218,1,0,0:0:0:0:
256,192,163304,1,8,0:0:0:0:
256,192,163390,1,0,0:0:0:0:
256,192,163475,1,8,0:0:0:0:
256,192,163561,1,0,0:0:0:0:
256,192,163647,1,8,0:0:0:0:
256,192,163732,1,8,0:0:0:0:
256,192,163818,1,0,0:0:0:0:
256,192,163904,1,8,0:0:0:0:
256,192,163990,1,8,0:0:0:0:
256,192,164075,1,0,0:0:0:0:
256,192,164161,1,8,0:0:0:0:
256,192,164247,1,0,0:0:0:0:
256,192,164332,1,8,0:0:0:0:
256,192,164418,1,0,0:0:0:0:
256,192,164504,1,8,0:0:0:0:
256,192,164590,1,8,0:0:0:0:
256,192,164675,1,0,0:0:0:0:
256,192,164847,1,0,0:0:0:0:
256,192,165018,1,8,0:0:0:0:
256,192,165104,1,0,0:0:0:0:
256,192,165190,1,0,0:0:0:0:
256,192,165275,1,0,0:0:0:0:
256,192,165361,1,8,0:0:0:0:
256,192,165447,1,0,0:0:0:0:
256,192,165532,1,0,0:0:0:0:
256,192,165618,1,0,0:0:0:0:
256,192,165704,1,8,0:0:0:0:
256,192,165790,1,0,0:0:0:0:
256,192,165875,1,8,0:0:0:0:
256,192,165961,1,0,0:0:0:0:
248,192,166047,1,8,0:0:0:0:
248,192,166132,1,8,0:0:0:0:
256,192,166218,1,0,0:0:0:0:
248,192,166304,1,8,0:0:0:0:
248,192,166390,1,8,0:0:0:0:
256,192,166476,1,0,0:0:0:0:
248,192,166561,1,8,0:0:0:0:
248,192,166647,1,8,0:0:0:0:
248,192,166732,1,8,0:0:0:0:
256,192,166818,1,0,0:0:0:0:
248,192,166904,1,8,0:0:0:0:
256,192,166990,1,0,0:0:0:0:
256,192,167075,1,8,0:0:0:0:
256,192,167247,1,0,0:0:0:0:
256,192,167418,1,8,0:0:0:0:
256,192,167504,1,0,0:0:0:0:
256,192,167590,1,0,0:0:0:0:
256,192,167675,1,0,0:0:0:0:
256,192,167761,1,8,0:0:0:0:
256,192,167847,1,0,0:0:0:0:
256,192,167932,1,0,0:0:0:0:
256,192,168018,1,0,0:0:0:0:
256,192,168104,1,8,0:0:0:0:
256,192,168190,1,0,0:0:0:0:
256,192,168275,1,0,0:0:0:0:
256,192,168361,1,0,0:0:0:0:
256,192,168447,1,8,0:0:0:0:
256,192,168532,1,0,0:0:0:0:
256,192,168618,1,0,0:0:0:0:
256,192,168704,1,0,0:0:0:0:
256,192,168790,1,8,0:0:0:0:
256,192,168875,1,8,0:0:0:0:
256,192,168961,1,0,0:0:0:0:
256,192,169047,1,0,0:0:0:0:
256,192,169132,1,8,0:0:0:0:
256,192,169218,1,8,0:0:0:0:
256,192,169304,1,0,0:0:0:0:
256,192,169390,1,0,0:0:0:0:
256,192,169475,1,8,0:0:0:0:
256,192,169561,1,8,0:0:0:0:
256,192,169647,1,8,0:0:0:0:
256,192,169732,1,0,0:0:0:0:
256,192,169818,1,8,0:0:0:0:
256,192,169904,1,8,0:0:0:0:
256,192,169990,1,8,0:0:0:0:
256,192,170075,1,8,0:0:0:0:
256,192,170161,1,8,0:0:0:0:
256,192,170332,1,0,0:0:0:0:
256,192,170504,1,8,0:0:0:0:
256,192,170590,1,8,0:0:0:0:
256,192,170675,1,0,0:0:0:0:
256,192,170761,1,0,0:0:0:0:
256,192,170847,1,8,0:0:0:0:
256,192,170932,1,8,0:0:0:0:
256,192,171018,1,0,0:0:0:0:
256,192,171104,1,0,0:0:0:0:
256,192,171190,1,8,0:0:0:0:
256,192,171275,1,8,0:0:0:0:
256,192,171361,1,0,0:0:0:0:
256,192,171447,1,8,0:0:0:0:
256,192,171532,1,8,0:0:0:0:
256,192,171618,1,0,0:0:0:0:
256,192,171704,1,8,0:0:0:0:
256,192,171790,1,0,0:0:0:0:
256,192,171875,1,8,0:0:0:0:
256,192,171961,1,0,0:0:0:0:
256,192,172047,1,0,0:0:0:0:
256,192,172132,1,8,0:0:0:0:
256,192,172218,1,8,0:0:0:0:
256,192,172304,1,0,0:0:0:0:
256,192,172390,1,8,0:0:0:0:
256,192,172475,1,0,0:0:0:0:
256,192,172561,1,8,0:0:0:0:
256,192,172647,1,8,0:0:0:0:
256,192,172732,1,8,0:0:0:0:
256,192,172818,1,0,0:0:0:0:
256,192,172904,12,0,173932,0:0:0:0:
256,192,174447,5,8,0:0:0:0:
256,192,174532,1,8,0:0:0:0:
256,192,174618,1,0,0:0:0:0:
256,192,174790,1,0,0:0:0:0:
256,192,174961,1,0,0:0:0:0:
256,192,175132,1,0,0:0:0:0:
256,192,175304,1,8,0:0:0:0:
256,192,175475,1,8,0:0:0:0:
256,192,175647,1,0,0:0:0:0:
256,192,175818,1,0,0:0:0:0:
256,192,175904,1,0,0:0:0:0:
256,192,175990,1,8,0:0:0:0:
256,192,176161,1,8,0:0:0:0:
256,192,176247,1,8,0:0:0:0:
256,192,176332,1,0,0:0:0:0:
256,192,176504,1,8,0:0:0:0:
256,192,176675,1,0,0:0:0:0:
256,192,176761,1,0,0:0:0:0:
256,192,176847,1,8,0:0:0:0:
256,192,177018,1,8,0:0:0:0:
256,192,177190,1,8,0:0:0:0:
256,192,177361,1,0,0:0:0:0:
256,192,177447,1,0,0:0:0:0:
256,192,177532,1,8,0:0:0:0:
256,192,177618,1,8,0:0:0:0:
256,192,177704,1,8,0:0:0:0:
256,192,177875,1,8,0:0:0:0:
256,192,178047,1,0,0:0:0:0:
256,192,178218,1,8,0:0:0:0:
256,192,178561,1,8,0:0:0:0:
256,192,178732,1,0,0:0:0:0:
256,192,178904,1,8,0:0:0:0:
256,192,179075,1,0,0:0:0:0:
256,192,179247,1,0,0:0:0:0:
256,192,179332,1,0,0:0:0:0:
256,192,179418,1,8,0:0:0:0:
256,192,179590,1,8,0:0:0:0:
256,192,179761,1,0,0:0:0:0:
256,192,179932,1,8,0:0:0:0:
256,192,179990,1,8,0:0:0:0:
256,192,180047,1,8,0:0:0:0:
256,192,180104,1,0,0:0:0:0:
256,192,180275,1,0,0:0:0:0:
256,192,180447,1,8,0:0:0:0:
256,192,180618,1,8,0:0:0:0:
256,192,180790,1,8,0:0:0:0:
256,192,180875,1,8,0:0:0:0:
256,192,180961,1,8,0:0:0:0:
256,192,181047,1,8,0:0:0:0:
256,192,181132,1,0,0:0:0:0:
256,192,181304,1,8,0:0:0:0:
256,192,181390,1,0,0:0:0:0:
256,192,181475,1,8,0:0:0:0:
256,192,181647,1,0,0:0:0:0:
256,192,181818,1,0,0:0:0:0:
256,192,181990,1,8,0:0:0:0:
256,192,182161,1,0,0:0:0:0:
256,192,182247,1,0,0:0:0:0:
256,192,182332,1,8,0:0:0:0:
256,192,182504,1,0,0:0:0:0:
256,192,182675,1,8,0:0:0:0:
256,192,182847,1,8,0:0:0:0:
256,192,183018,1,0,0:0:0:0:
256,192,183190,1,0,0:0:0:0:
256,192,183361,1,8,0:0:0:0:
256,192,183447,1,8,0:0:0:0:
256,192,183532,1,8,0:0:0:0:
256,192,183704,1,0,0:0:0:0:
256,192,183875,1,0,0:0:0:0:
256,192,184047,1,8,0:0:0:0:
256,192,184218,1,8,0:0:0:0:
256,192,184390,1,0,0:0:0:0:
256,192,184561,1,8,0:0:0:0:
256,192,184732,1,8,0:0:0:0:
256,192,184818,1,8,0:0:0:0:
256,192,184904,1,0,0:0:0:0:
256,192,185075,1,8,0:0:0:0:
256,192,185247,1,0,0:0:0:0:
256,192,185418,1,8,0:0:0:0:
256,192,185590,1,0,0:0:0:0:
256,192,185761,1,0,0:0:0:0:
256,192,185932,1,0,0:0:0:0:
256,192,186104,1,8,0:0:0:0:
256,192,186275,1,8,0:0:0:0:
256,192,186361,1,0,0:0:0:0:
256,192,186447,1,0,0:0:0:0:
256,192,186533,1,0,0:0:0:0:
256,192,186618,1,8,0:0:0:0:
256,192,186790,1,8,0:0:0:0:
256,192,186875,1,8,0:0:0:0:
256,192,186961,1,0,0:0:0:0:
256,192,187132,1,8,0:0:0:0:
256,192,187304,1,0,0:0:0:0:
256,192,187390,1,0,0:0:0:0:
256,192,187475,1,8,0:0:0:0:
256,192,187647,1,0,0:0:0:0:
256,192,187818,1,8,0:0:0:0:
256,192,187990,1,0,0:0:0:0:
256,192,188161,1,0,0:0:0:0:
256,192,188247,1,0,0:0:0:0:
256,192,188332,1,8,0:0:0:0:
256,192,188504,1,8,0:0:0:0:
256,192,188675,1,8,0:0:0:0:
256,192,188761,1,0,0:0:0:0:
256,192,188847,1,8,0:0:0:0:
256,192,189018,1,0,0:0:0:0:
256,192,189104,1,0,0:0:0:0:
256,192,189190,1,8,0:0:0:0:
256,192,189361,1,8,0:0:0:0:
256,192,189532,1,8,0:0:0:0:
256,192,189618,1,8,0:0:0:0:
256,192,189704,1,0,0:0:0:0:
256,192,189875,1,8,0:0:0:0:
256,192,190047,1,8,0:0:0:0:
256,192,190218,1,0,0:0:0:0:
256,192,190390,1,8,0:0:0:0:
256,192,190561,1,8,0:0:0:0:
256,192,190647,1,0,0:0:0:0:
256,192,190904,1,8,0:0:0:0:
256,192,190990,1,0,0:0:0:0:
256,192,191247,1,0,0:0:0:0:
256,192,191418,1,8,0:0:0:0:
256,192,191590,1,0,0:0:0:0:
256,192,191761,1,8,0:0:0:0:
256,192,191847,1,8,0:0:0:0:
256,192,192104,1,0,0:0:0:0:
256,192,192190,1,0,0:0:0:0:
256,192,192275,1,0,0:0:0:0:
256,192,192361,1,8,0:0:0:0:
256,192,192447,1,8,0:0:0:0:
256,192,192618,1,0,0:0:0:0:
256,192,192790,1,8,0:0:0:0:
256,192,192961,1,8,0:0:0:0:
256,192,193132,1,0,0:0:0:0:
256,192,193218,1,8,0:0:0:0:
256,192,193304,1,8,0:0:0:0:
256,192,193475,1,8,0:0:0:0:
256,192,193647,1,0,0:0:0:0:
256,192,193732,1,8,0:0:0:0:
256,192,193818,1,0,0:0:0:0:
256,192,193990,1,8,0:0:0:0:
256,192,194161,1,8,0:0:0:0:
256,192,194418,1,0,0:0:0:0:
256,192,194504,1,8,0:0:0:0:
256,192,194675,1,8,0:0:0:0:
256,192,194847,1,0,0:0:0:0:
256,192,195018,1,8,0:0:0:0:
256,192,195104,1,8,0:0:0:0:
256,192,195190,1,8,0:0:0:0:
256,192,195361,1,0,0:0:0:0:
256,192,195532,1,8,0:0:0:0:
256,192,195618,1,8,0:0:0:0:
256,192,195704,1,8,0:0:0:0:
256,192,195875,1,0,0:0:0:0:
256,192,195961,1,0,0:0:0:0:
256,192,196047,1,8,0:0:0:0:
256,192,196218,1,8,0:0:0:0:
256,192,196390,1,0,0:0:0:0:
256,192,196475,1,8,0:0:0:0:
256,192,196561,1,0,0:0:0:0:
256,192,196732,1,0,0:0:0:0:
256,192,196904,1,0,0:0:0:0:
256,192,197075,1,8,0:0:0:0:
256,192,197247,1,8,0:0:0:0:
256,192,197418,1,0,0:0:0:0:
256,192,197590,1,0,0:0:0:0:
256,192,197761,1,0,0:0:0:0:
256,192,197932,1,0,0:0:0:0:
256,192,198018,1,0,0:0:0:0:
256,192,198104,1,0,0:0:0:0:
256,192,198190,1,0,0:0:0:0:
256,192,198275,1,0,0:0:0:0:
256,192,198618,1,8,0:0:0:0:
256,192,198961,1,0,0:0:0:0:
256,192,199132,1,0,0:0:0:0:
256,192,199218,1,0,0:0:0:0:
256,192,199304,1,8,0:0:0:0:
256,192,199475,1,0,0:0:0:0:
256,192,199561,1,0,0:0:0:0:
256,192,199647,1,0,0:0:0:0:
256,192,199818,1,8,0:0:0:0:
256,192,199990,1,8,0:0:0:0:
256,192,200161,1,0,0:0:0:0:
256,192,200332,1,8,0:0:0:0:
256,192,200418,1,8,0:0:0:0:
256,192,200504,1,0,0:0:0:0:
256,192,200590,1,0,0:0:0:0:
256,192,200675,1,0,0:0:0:0:
256,192,200847,1,8,0:0:0:0:
256,192,201018,1,0,0:0:0:0:
256,192,201190,1,8,0:0:0:0:
256,192,201361,1,8,0:0:0:0:
256,192,201532,1,8,0:0:0:0:
256,192,201704,1,8,0:0:0:0:
256,192,201790,1,8,0:0:0:0:
256,192,201875,1,0,0:0:0:0:
256,192,201961,1,0,0:0:0:0:
256,192,202047,1,8,0:0:0:0:
256,192,202132,1,8,0:0:0:0:
256,192,202218,1,0,0:0:0:0:
256,192,202304,1,0,0:0:0:0:
256,192,202390,1,8,0:0:0:0:
256,192,202475,1,0,0:0:0:0:
256,192,202561,1,0,0:0:0:0:
256,192,202647,1,0,0:0:0:0:
256,192,202732,1,8,0:0:0:0:
256,192,202818,1,0,0:0:0:0:
256,192,202904,1,0,0:0:0:0:
256,192,202990,1,8,0:0:0:0:
256,192,203075,1,0,0:0:0:0:
256,192,203247,1,0,0:0:0:0:
256,192,203418,1,8,0:0:0:0:
256,192,203504,1,0,0:0:0:0:
256,192,203590,1,0,0:0:0:0:
256,192,203675,1,8,0:0:0:0:
256,192,203761,1,0,0:0:0:0:
256,192,203932,1,0,0:0:0:0:
256,192,204018,1,8,0:0:0:0:
256,192,204104,1,8,0:0:0:0:
256,192,204447,1,4,0:0:0:0:
248,192,204618,1,0,0:0:0:0:
248,192,204704,1,0,0:0:0:0:
248,192,204789,1,0,0:0:0:0:
256,192,204961,1,8,0:0:0:0:
256,192,205132,1,0,0:0:0:0:
256,192,205304,1,8,0:0:0:0:
256,192,205475,1,0,0:0:0:0:
256,192,205561,1,0,0:0:0:0:
256,192,205647,1,8,0:0:0:0:
256,192,205818,1,0,0:0:0:0:
256,192,205989,1,8,0:0:0:0:
256,192,206075,1,0,0:0:0:0:
256,192,206161,1,8,0:0:0:0:
256,192,206332,1,0,0:0:0:0:
256,192,206504,1,8,0:0:0:0:
256,192,206675,1,8,0:0:0:0:
256,192,206847,1,8,0:0:0:0:
256,192,207018,1,0,0:0:0:0:
256,192,207189,1,12,0:0:0:0:
256,192,207361,1,8,0:0:0:0:
256,192,207447,1,8,0:0:0:0:
256,192,207532,1,8,0:0:0:0:
256,192,207704,1,0,0:0:0:0:
256,192,207875,1,8,0:0:0:0:
256,192,208047,1,0,0:0:0:0:
256,192,208132,1,8,0:0:0:0:
256,192,208218,1,8,0:0:0:0:
256,192,208389,1,0,0:0:0:0:
256,192,208561,1,8,0:0:0:0:
256,192,208647,1,8,0:0:0:0:
256,192,208732,1,0,0:0:0:0:
256,192,209075,1,8,0:0:0:0:
256,192,209247,1,0,0:0:0:0:
256,192,209590,1,12,0:0:0:0:
