osu file format v14

[General]
AudioFilename: Childish War.mp3
AudioLeadIn: 0
PreviewTime: 50847
Countdown: 0
SampleSet: Soft
StackLeniency: 0.6
Mode: 0
LetterboxInBreaks: 1
WidescreenStoryboard: 1

[Editor]
DistanceSpacing: 1.3
BeatDivisor: 4
GridSize: 8
TimelineZoom: 1.3

[Metadata]
Title:Childish War
TitleUnicode:おこちゃま戦争
Artist:Giga-P
ArtistUnicode:Giga-P
Creator:-Nishiki-
Version:Normal
Source:
Tags:vocaloid okochama sensou kagamine rin and len kiddie war clap jager-kun nines shelso vinnie reol
BeatmapID:1263026
BeatmapSetID:578474

[Difficulty]
HPDrainRate:3
CircleSize:3.4
OverallDifficulty:4
ApproachRate:4
SliderMultiplier:1.3
SliderTickRate:1

[Events]
//Background and Video events
0,0,"walk.jpg",0,0
//Break Periods
//Storyboard Layer 0 (Background)
//Storyboard Layer 1 (Fail)
//Storyboard Layer 2 (Pass)
//Storyboard Layer 3 (Foreground)
//Storyboard Sound Samples

[TimingPoints]
5590,342.857142857143,4,1,0,80,1,0
12104,-100,4,1,0,5,0,0
12447,-100,4,3,0,40,0,0
17932,-100,4,1,0,60,0,0
22047,-100,4,1,0,80,0,0
23418,-125,4,1,0,80,0,0
28904,-125,4,2,0,80,0,0
34561,-125,4,2,0,80,0,0
39875,-100,4,1,0,80,0,0
41932,-125,4,1,0,80,0,0
45361,-200,4,1,0,80,0,0
48790,-200,4,1,0,80,0,0
49475,-100,4,1,0,80,0,0
50847,-100,4,1,0,80,0,1
53418,-133.333333333333,4,1,0,80,0,1
55647,-125,4,1,0,80,0,1
55990,-100,4,1,0,80,0,1
58904,-142.857142857143,4,1,0,80,0,1
60275,-125,4,1,0,80,0,1
61818,-100,4,1,0,80,0,1
67304,-100,4,1,0,80,0,1
69875,-133.333333333333,4,1,0,80,0,1
72790,-125,4,1,0,80,0,0
78275,-125,4,1,0,80,0,0
100218,-133.333333333333,4,1,0,60,0,0
100904,-100,4,1,0,60,0,0
102275,-100,4,1,0,80,0,0
105704,-100,4,1,0,80,0,1
108275,-200,4,1,0,80,0,1
111190,-100,4,1,0,80,0,1
113761,-200,4,1,0,80,0,1
116675,-100,4,1,0,80,0,1
124732,-200,4,1,0,80,0,1
127304,-133.333333333333,4,1,0,80,0,1
127650,-100,4,1,0,80,0,0
138618,-125,4,1,0,80,0,0
160561,-200,4,1,0,5,0,0
161590,-100,4,1,0,80,0,0
161932,-100,4,1,0,50,0,0
172904,-200,4,1,0,50,0,0
174275,-200,4,1,0,5,0,0
174447,-100,4,1,0,50,0,0
175647,-100,4,1,0,80,0,1
198961,-100,4,1,0,80,0,0
201318,-100,4,1,0,5,0,0
201361,-100,4,1,0,85,0,0
201490,-100,4,1,0,5,0,0
201532,-100,4,1,0,85,0,0
201661,-100,4,1,0,5,0,0
201704,-100,4,1,0,85,0,0

[HitObjects]
256,192,4218,12,0,5589,0:0:0:0:
48,102,6961,6,4,P|97:76|186:73,1,130,4|0,0:0|0:0,0:0:0:0:
245,109,7475,2,0,L|229:189,1,65
287,236,7818,2,0,L|327:173,1,65
392,134,8161,1,0,0:0:0:0:
469,284,8504,6,0,P|420:285|345:327,1,130
264,310,9018,2,0,P|213:298|127:319,1,130
41,173,9704,6,4,P|92:158|158:92,1,130,4|0,0:0|0:0,0:0:0:0:
190,34,10218,2,0,L|255:88,1,65
300,133,10561,2,0,L|348:71,1,65
416,53,10904,1,0,0:0:0:0:
481,209,11247,6,0,P|446:214|359:180,1,130
276,162,11761,2,0,P|234:151|151:190,1,130
56,272,12447,5,4,0:0:0:0:
348,29,13132,1,4,0:0:0:0:
306,364,13818,1,4,0:0:0:0:
166,56,14504,2,4,L|142:183,1,130
208,339,15190,5,4,0:0:0:0:
429,84,15875,1,4,0:0:0:0:
90,79,16561,2,4,L|66:214,1,130
172,340,17247,2,4,L|173:185,1,130
280,53,17932,6,4,P|336:51|427:221,1,260
232,331,19304,6,4,P|176:333|85:163,1,260
256,192,20675,12,0,22047,0:0:0:0:
58,129,23418,6,4,P|92:103|171:93,1,104,4|0,0:0|0:0,0:0:0:0:
215,108,23932,2,0,L|201:168,1,52
220,220,24275,1,0,0:0:0:0:
313,317,24618,6,0,P|340:264|335:157,1,156
316,106,25304,2,0,P|309:59|330:9,1,104
398,24,25818,2,8,L|420:93,1,52,8|0,0:0|0:0,0:0:0:0:
414,138,26161,6,4,L|405:260,1,104,4|0,0:0|0:0,0:0:0:0:
275,204,26847,2,8,L|268:86,1,104,8|0,0:0|0:0,0:0:0:0:
273,36,27532,5,0,0:0:0:0:
358,62,27875,1,0,0:0:0:0:
407,138,28218,1,0,0:0:0:0:
400,232,28561,1,0,0:0:0:0:
348,308,28904,6,4,P|278:301|229:318,1,104,4|0,0:0|0:0,0:0:0:0:
179,299,29418,2,0,L|113:291,1,52
65,265,29761,1,0,0:0:0:0:
165,175,30104,2,0,P|200:196|279:187,1,104
335,89,30790,5,0,0:0:0:0:
384,130,30961,2,0,L|361:194,1,52
352,243,31304,2,8,L|385:304,1,52,8|2,0:0|0:0,0:0:0:0:
424,335,31647,6,2,P|438:297|431:229,1,104,2|8,0:0|0:0,0:0:0:0:
361,89,32332,2,2,P|347:127|354:195,1,104,2|8,0:0|0:0,0:0:0:0:
341,276,33018,6,0,L|229:299,1,104,0|8,0:0|0:0,0:0:0:0:
179,278,33532,2,0,L|70:297,1,104,0|8,0:0|0:0,0:0:0:0:
15,269,34047,1,8,0:0:0:0:
130,57,34561,6,4,P|161:84|241:82,1,104,4|0,0:0|0:0,0:0:0:0:
287,77,35075,2,4,P|269:113|269:175,1,104,4|0,0:0|0:0,0:0:0:0:
291,235,35590,1,8,0:0:0:0:
346,313,35932,6,4,P|371:279|373:199,1,104,4|0,0:0|0:0,0:0:0:0:
367,157,36447,2,4,P|366:109|412:52,1,104,4|0,0:0|0:0,0:0:0:0:
459,37,36961,1,8,0:0:0:0:
