osu file format v14

[General]
AudioFilename: Childish War.mp3
AudioLeadIn: 0
PreviewTime: 50847
Countdown: 0
SampleSet: Soft
StackLeniency: 0.4
Mode: 0
LetterboxInBreaks: 1
WidescreenStoryboard: 1

[Editor]
Bookmarks: 11417
DistanceSpacing: 1
BeatDivisor: 8
GridSize: 4
TimelineZoom: 3.199999

[Metadata]
Title:Childish War
TitleUnicode:おこちゃま戦争
Artist:Giga-P
ArtistUnicode:Giga-P
Creator:-Nishiki-
Version:Nines' Extra
Source:
Tags:vocaloid okochama sensou kagamine rin and len kiddie war clap jager-kun nines shelso vinnie reol
BeatmapID:1303211
BeatmapSetID:578474

[Difficulty]
HPDrainRate:5.7
CircleSize:4.1
OverallDifficulty:8
ApproachRate:9.5
SliderMultiplier:2.02
SliderTickRate:1

[Events]
//Background and Video events
0,0,"walk.jpg",0,0
//Break Periods
2,72989,77750
2,162131,166892
//Storyboard Layer 0 (Background)
//Storyboard Layer 1 (Fail)
//Storyboard Layer 2 (Pass)
//Storyboard Layer 3 (Foreground)
//Storyboard Sound Samples

[TimingPoints]
1475,342.857142857143,4,2,0,40,1,0
1475,-200,4,2,0,40,0,0
2503,-100,4,2,0,40,0,0
4903,-80,4,2,0,40,0,0
5246,-66.6666666666667,4,2,0,40,0,0
5589,-100,4,2,0,40,0,0
6960,-66.6666666666667,4,2,0,40,0,0
12103,-57.1428571428571,4,2,0,40,0,0
12446,-133.333333333333,4,2,0,40,0,0
17932,-66.6666666666667,4,2,0,40,0,0
20675,-100,4,2,0,40,0,0
22046,-133.333333333333,4,2,0,40,0,0
23417,-100,4,2,0,40,0,0
25303,-80,4,2,0,40,0,0
25817,-57.1428571428571,4,2,0,40,0,0
26160,-80,4,2,0,40,0,0
27360,-66.6666666666667,4,2,0,40,0,0
38332,-80,4,2,0,40,0,0
38675,-66.6666666666667,4,2,0,40,0,0
39875,-100,4,2,0,40,0,0
40217,-66.6666666666667,4,2,0,40,0,0
40560,-100,4,2,0,40,0,0
40903,-66.6666666666667,4,2,0,40,0,0
41760,-80,4,2,0,40,0,0
42617,-66.6666666666667,4,2,0,40,0,0
43475,-57.1428571428571,4,2,0,40,0,0
45360,-133.333333333333,4,2,0,40,0,0
50846,-66.6666666666667,4,2,0,80,0,1
53589,-100,4,2,0,80,0,1
54960,-80,4,2,0,80,0,1
56332,-66.6666666666667,4,2,0,80,0,1
59075,-100,4,2,0,80,0,1
61817,-66.6666666666667,4,2,0,80,0,1
69875,-100,4,2,0,80,0,1
71417,-80,4,2,0,70,0,0
84017,-66.6666666666667,4,2,0,70,0,0
84275,-80,4,2,0,70,0,0
86503,-66.6666666666667,4,2,0,70,0,0
87532,-57.1428571428571,4,2,0,70,0,0
87875,-66.6666666666667,4,2,0,70,0,0
100560,-133.333333333333,4,2,0,70,0,0
105703,-66.6666666666667,4,2,0,80,0,1
108446,-100,4,2,0,80,0,1
111189,-66.6666666666667,4,2,0,80,0,1
113760,-100,4,2,0,80,0,1
116675,-66.6666666666667,4,2,0,80,0,1
126275,-100,4,2,0,70,0,0
127646,-80,4,2,0,70,0,0
133132,-57.1428571428571,4,2,0,70,0,0
133475,-100,4,2,0,70,0,0
138275,-57.1428571428571,4,2,0,70,0,0
138617,-100,4,2,0,70,0,0
175646,-66.6666666666667,4,2,0,80,0,1
178389,-100,4,2,0,80,0,1
181132,-66.6666666666667,4,2,0,80,0,1
183875,-100,4,2,0,80,0,1
186617,-66.6666666666667,4,2,0,80,0,1
196217,-100,4,2,0,70,0,0
198617,-80,4,2,0,70,0,0
208732,-133.333333333333,4,2,0,70,0,0

[HitObjects]
152,160,1475,6,0,P|107:137|56:143,1,101
82,312,1989,1,0,0:0:0:0:
82,312,2503,6,0,B|74:256|74:256|97:218,1,101
98,219,2846,5,0,0:0:0:0:
244,264,3017,1,0,0:0:0:0:
160,272,3189,1,0,0:0:0:0:
208,112,3360,1,0,0:0:0:0:
208,112,3703,5,0,0:0:0:0:
208,112,3788,1,0,0:0:0:0:
208,112,3874,1,0,0:0:0:0:
232,24,4046,1,0,0:0:0:0:
236,240,4217,6,0,B|332:216|332:216|315:237|309:267,1,151.5
396,276,4560,2,0,L|495:298,1,101
236,240,4903,6,0,L|108:269,1,126.25
356,112,5246,6,0,B|465:136|465:136|423:170,1,151.500005779267
80,136,5589,5,0,0:0:0:0:
236,48,5760,1,0,0:0:0:0:
256,41,5845,1,0,0:0:0:0:
276,34,5931,1,0,0:0:0:0:
108,128,6103,1,0,0:0:0:0:
404,100,6275,1,0,0:0:0:0:
176,208,6446,1,0,0:0:0:0:
328,224,6617,1,0,0:0:0:0:
228,272,6789,1,0,0:0:0:0:
284,348,6960,6,0,B|202:388|147:316|147:316|151:359|188:375,1,227.2500086689
408,356,7303,1,0,0:0:0:0:
261,142,7475,2,0,B|211:191|211:191|228:272,1,151.500005779267
360,132,7817,2,0,B|341:63|341:63|263:38,1,151.500005779267
316,224,8160,2,0,B|384:242|384:242|445:187,1,151.500005779267
184,80,8503,1,0,0:0:0:0:
360,132,8675,2,0,B|505:94|505:94|470:74|425:71,1,227.2500086689
280,64,9017,1,0,0:0:0:0:
344,240,9189,1,0,0:0:0:0:
374,230,9274,1,0,0:0:0:0:
405,221,9360,1,0,0:0:0:0:
268,152,9532,1,0,0:0:0:0:
188,320,9703,6,0,P|101:324|163:223,1,227.2500086689
256,356,10046,1,0,0:0:0:0:
424,264,10217,2,0,B|460:192|460:192|420:113,1,151.500005779267
127,221,10560,2,0,B|196:256|196:256|272:216,1,151.500005779267
320,36,10903,2,0,B|252:0|252:0|172:40,1,151.500005779267
112,200,11246,1,0,0:0:0:0:
408,236,11417,6,0,B|398:86|398:86|353:149,1,227.2500086689
246,219,11760,2,0,P|285:226|323:214,1,75.7500028896333
292,68,11932,2,0,P|252:59|218:72,1,75.7500028896333
63,258,12103,2,0,B|87:273|131:263|131:263|131:210|175:171|175:171|228:181|246:219,1,265.125002528429
256,248,12446,6,0,L|312:244,2,50.5000019264222
192,316,13132,2,0,L|92:324,1,101.000003852844
28,260,13475,2,0,L|18:154,1,101.000003852844
16,76,13817,5,0,0:0:0:0:
87,70,13931,1,0,0:0:0:0:
159,65,14045,1,0,0:0:0:0:
232,60,14160,2,0,P|227:110|244:160,1,101.000003852844
404,144,14503,2,0,P|361:113|309:102,1,101.000003852844
248,252,14846,2,0,P|293:230|328:192,1,101.000003852844
168,204,15189,6,0,B|153:260|153:260|172:298,1,101.000003852844
352,316,15532,2,0,L|247:341,1,101.000003852844
95,331,15875,2,0,P|130:367|178:381,1,101.000003852844
259,236,16217,2,0,P|276:188|313:157,1,101.000003852844
508,188,16560,5,0,0:0:0:0:
493,260,16674,1,0,0:0:0:0:
439,314,16788,1,0,0:0:0:0:
365,332,16903,2,0,L|260:311,1,101.000003852844
148,248,17246,2,0,L|253:227,1,101.000003852844
383,137,17589,2,0,P|337:118|287:120,1,101.000003852844
122,238,17932,6,0,B|100:256|8:216|8:216|6:83|144:72|144:72|181:130|181:130|236:114|274:119,1,505.000019264222
356,212,18617,6,0,B|384:292|384:292|474:204|502:85|417:-13|417:-13|371:53,1,505.000019264222
212,208,19303,6,0,B|112:241|112:241|65:180|47:103|47:103|172:77|289:126,1,505.000019264222
284,272,19989,6,0,B|328:334|418:343|472:294|472:294|503:222|485:137|485:137|422:146|387:223,1,505.000019264222
363,344,20675,6,0,P|301:379|222:371,1,134.666666666667
176,220,21017,2,0,L|119:227,2,57.3333333333333
240,256,21303,1,0,0:0:0:0:
240,256,21360,2,0,B|288:276|288:276|372:232,1,134.666666666667
368,72,21703,2,0,P|305:47|241:70,1,134.666666666667
196,128,21989,1,0,0:0:0:0:
196,128,22046,5,0,0:0:0:0:
196,128,22389,1,0,0:0:0:0:
136,52,22560,1,0,0:0:0:0:
88,160,22732,5,0,0:0:0:0:
96,166,22903,1,0,0:0:0:0:
101,157,23075,1,0,0:0:0:0:
92,152,23246,1,0,0:0:0:0:
88,283,23417,6,0,P|145:315|211:307,1,134.666666666667
212,308,23760,1,8,0:0:0:0:
244,164,23932,2,0,P|294:173|328:212,1,101
320,8,24275,2,0,P|286:43|236:55,1,101,0|8,0:0|0:0,0:0:0:0:
436,136,24618,2,0,P|420:86|436:37,1,101
372,204,24960,2,0,P|347:202|324:213,1,50.5
500,88,25132,1,8,0:0:0:0:
376,292,25303,2,0,B|420:315|457:301|457:301|472:256|449:193|449:193|416:204|390:227,1,252.5
308,352,25732,1,0,0:0:0:0:
292,332,25817,6,0,B|274:269|313:226|313:226|232:266|171:193,1,265.125002528429
96,160,26160,6,0,P|116:135|143:119,1,63.125
324,54,26332,1,0,0:0:0:0:
322,81,26418,1,0,0:0:0:0:
320,108,26503,2,0,P|299:133|268:148,1,63.125,8|0,0:0|0:0,0:0:0:0:
208,20,26675,2,0,P|233:40|248:72,1,63.125
136,184,26846,2,0,L|72:208,1,63.125
108,12,27017,2,0,L|128:72,1,63.125
80,288,27189,2,0,P|48:283|21:267,1,63.125,8|0,0:0|0:0,0:0:0:0:
368,248,27360,6,0,B|306:234|253:270|253:270|199:239|199:239|143:261,1,227.2500086689
160,243,27703,1,0,0:0:0:0:
256,132,27875,1,8,0:0:0:0:
340,216,28046,1,0,0:0:0:0:
256,84,28217,1,0,0:0:0:0:
160,216,28389,1,0,0:0:0:0:
256,36,28560,1,8,0:0:0:0:
340,200,28732,1,0,0:0:0:0:
160,68,28903,6,0,B|8:30|8:30|36:120,1,227.2500086689
104,144,29246,2,0,L|86:221,1,75.7500028896333,8|0,0:0|0:0,0:0:0:0:
176,380,29417,2,0,P|221:312|212:244,1,151.500005779267
0,252,29760,2,0,P|60:297|137:293,1,151.500005779267,0|8,0:0|0:0,0:0:0:0:
127,83,30103,2,0,P|83:143|87:217,1,151.500005779267
304,208,30446,2,0,P|235:162|167:171,1,151.500005779267,0|8,0:0|0:0,0:0:0:0:
202,266,30789,1,0,0:0:0:0:
440,196,30960,1,0,0:0:0:0:
456,296,31132,1,0,0:0:0:0:
216,164,31303,1,8,0:0:0:0:
428,92,31475,1,0,0:0:0:0:
328,280,31646,6,0,P|322:318|332:355,1,75.7500028896333
248,164,31817,1,0,0:0:0:0:
243,132,31902,1,0,0:0:0:0:
251,101,31989,2,0,P|286:81|328:84,1,75.7500028896333,8|0,0:0|0:0,0:0:0:0:
244,256,32160,2,0,P|208:275|167:273,1,75.7500028896333
344,96,32332,6,0,P|363:129|364:166,1,75.7500028896333
152,264,32503,2,0,P|133:228|135:187,1,75.7500028896333
156,60,32675,1,8,0:0:0:0:
76,288,32846,1,0,0:0:0:0:
12,204,33017,6,0,B|121:199|121:199|87:166,2,151.500005779267,0|0|8,0:0|0:0|0:0,0:0:0:0:
188,120,33532,2,0,P|225:223|172:321,1,227.2500086689
152,300,33875,6,0,L|76:309,1,75.7500028896333
196,96,34046,2,0,L|280:85,1,75.7500028896333,8|0,0:0|0:0,0:0:0:0:
80,232,34217,2,0,L|70:153,1,75.7500028896333
268,168,34389,5,4,0:0:0:0:
256,256,34560,1,2,0:0:0:0:
256,256,34646,1,2,0:0:0:0:
256,256,34732,1,10,0:0:0:0:
360,160,34903,1,2,0:0:0:0:
363,248,35074,1,2,0:0:0:0:
452,140,35246,1,10,0:0:0:0:
480,312,35417,1,8,0:0:0:0:
280,80,35589,1,2,0:0:0:0:
280,80,35675,1,2,0:0:0:0:
280,80,35760,5,4,0:0:0:0:
244,336,35931,1,2,0:0:0:0:
244,336,36017,1,2,0:0:0:0:
244,336,36103,1,10,0:0:0:0:
140,240,36274,1,2,0:0:0:0:
137,328,36445,1,2,0:0:0:0:
48,220,36617,1,2,0:0:0:0:
16,384,36788,1,8,0:0:0:0:
228,160,36960,5,2,0:0:0:0:
228,160,37046,1,2,0:0:0:0:
228,160,37132,5,4,0:0:0:0:
61,216,37303,2,0,L|136:232,1,75.7500028896333
60,47,37475,2,0,P|35:118|49:192,1,151.500005779267,8|0,0:0|0:0,0:0:0:0:
256,220,37817,2,0,P|244:256|214:283,1,75.7500028896333
128,128,37989,2,0,P|165:120|203:131,1,75.7500028896333
112,280,38160,2,0,P|86:251|77:212,1,75.7500028896333,8|0,0:0|0:0,0:0:0:0:
176,48,38332,6,0,B|236:27|236:27|280:60|280:60|304:32|349:35,1,189.375
364,52,38675,2,0,P|367:87|337:107,1,75.7500028896333
328,196,38846,2,0,P|292:199|272:169,1,75.7500028896333,8|0,0:0|0:0,0:0:0:0:
483,26,39017,2,0,P|463:-3|428:0,1,75.7500028896333
444,200,39189,2,0,B|455:242|420:268|420:268|345:287|345:287|355:247|336:216,1,227.2500086689
248,164,39532,2,0,P|346:218|335:325,1,227.2500086689,8|0,0:0|0:0,0:0:0:0:
312,308,39875,6,0,B|242:278|242:278|180:320,1,151.5
156,336,40217,6,0,P|121:270|135:197,1,151.500005779267,8|0,0:0|0:0,0:0:0:0:
332,64,40560,6,0,B|269:105|269:105|200:75,1,151.5
356,48,40903,6,0,P|392:132|368:200,1,151.500005779267,8|0,0:0|0:0,0:0:0:0:
352,212,41160,1,0,0:0:0:0:
329,202,41246,1,0,0:0:0:0:
200,28,41417,2,0,L|192:104,1,75.7500028896333
192,336,41589,2,0,L|200:260,1,75.7500028896333,8|0,0:0|0:0,0:0:0:0:
105,41,41760,6,0,L|112:104,1,63.125
251,297,41932,2,0,L|199:260,1,63.125
47,184,42103,2,0,P|124:136|204:179,1,189.375
236,248,42446,2,0,P|267:259|298:255,1,63.125
372,248,42617,6,0,P|372:149|277:176,1,227.2500086689,0|0,2:0|2:0,2:0:0:0:
224,260,42960,2,0,P|185:262|149:250,1,75.7500028896333,8|0,0:0|0:0,0:0:0:0:
192,140,43132,2,0,P|268:48|372:44,1,227.2500086689
440,80,43475,6,0,P|325:20|206:70,1,265.125002528429
224,240,43817,2,0,B|208:252|208:252|200:184,1,88.3750008428097
320,132,43989,5,0,0:0:0:0:
120,120,44160,1,2,0:0:0:0:
120,120,44246,1,2,0:0:0:0:
120,120,44332,1,2,0:0:0:0:
228,8,44503,1,0,0:0:0:0:
200,132,44675,2,0,B|204:160|204:160|200:196|200:196|208:224,1,88.3750008428097
276,324,44846,1,2,0:0:0:0:
296,348,44932,1,2,0:0:0:0:
330,354,45017,6,0,P|363:266|276:326,1,265.125002528429,2|0,0:0|0:0,0:0:0:0:
296,348,45360,6,0,B|224:368|224:368|168:348|168:348|120:372|76:348,1,227.2500086689
12,224,46046,6,0,B|48:213|48:213|76:224|76:224|100:211|122:224,1,113.62500433445
140,220,46389,1,0,0:0:0:0:
176,140,46560,1,0,0:0:0:0:
40,136,46732,5,0,0:0:0:0:
35,210,46903,1,0,0:0:0:0:
284,188,47075,5,0,0:0:0:0:
272,112,47247,1,0,0:0:0:0:
136,312,47418,5,0,0:0:0:0:
211,309,47589,1,0,0:0:0:0:
268,260,47760,5,0,0:0:0:0:
136,312,47932,1,0,0:0:0:0:
211,309,48103,1,0,0:0:0:0:
136,312,48446,1,0,0:0:0:0:
71,276,48789,1,0,0:0:0:0:
35,210,49132,1,0,0:0:0:0:
40,136,49475,1,0,0:0:0:0:
168,104,49646,6,0,L|212:96,2,37.8750014448166
120,188,49989,1,0,0:0:0:0:
88,40,50160,1,0,0:0:0:0:
20,140,50332,2,0,L|56:132,1,37.8750014448166
205,97,50503,1,0,0:0:0:0:
0,56,50675,1,0,0:0:0:0:
163,211,50846,6,0,P|232:187|257:117,1,151.500005779267
228,40,51103,1,0,0:0:0:0:
228,40,51189,2,0,P|269:37|302:51,1,75.7500028896333
412,152,51360,2,0,L|338:166,1,75.7500028896333
113,224,51532,2,0,L|188:212,1,75.7500028896333
348,240,51703,2,0,P|380:340|284:384,1,227.2500086689
308,308,52046,6,0,P|240:264|120:344,1,227.2500086689
128,344,52389,2,0,P|112:308|68:280,1,75.7500028896333
112,196,52560,2,0,P|151:200|197:176,1,75.7500028896333
240,256,52732,2,0,P|216:287|214:339,1,75.7500028896333
12,296,52903,6,0,P|25:330|54:354,1,75.7500028896333
175,107,53075,2,0,P|138:102|103:115,1,75.7500028896333
284,315,53246,2,0,P|307:286|313:249,1,75.7500028896333
68,136,53417,2,0,P|44:165|39:202,1,75.7500028896333
256,192,53589,6,0,B|298:170|298:170|320:189|344:192,1,75.75
396,180,53760,2,0,L|432:176,4,25.25
236,192,54103,1,0,0:0:0:0:
348,236,54275,2,0,L|352:344,1,101
425,177,54617,1,0,0:0:0:0:
212,192,54789,1,0,0:0:0:0:
307,104,54960,6,0,P|320:61|287:31,1,94.6875
212,36,55132,2,0,L|168:40,5,25.25
400,12,55475,1,0,0:0:0:0:
232,112,55646,5,0,0:0:0:0:
400,120,55817,1,0,0:0:0:0:
248,184,55989,1,0,0:0:0:0:
368,232,56160,1,0,0:0:0:0:
224,72,56332,6,0,B|153:43|153:43|96:120|24:80,1,227.2500086689
0,0,56675,2,0,L|17:73,1,75.7500028896333
92,228,56846,2,0,P|128:224|165:240,1,75.7500028896333
284,120,57017,2,0,P|299:86|297:48,1,75.7500028896333
12,167,57189,2,0,P|7:242|28:315,1,151.500005779267
176,164,57532,6,0,P|280:141|332:235,1,227.2500086689
328,256,57875,2,0,L|248:264,1,75.7500028896333
85,176,58046,2,0,P|122:183|160:180,1,75.7500028896333
224,16,58217,2,0,P|220:56|228:96,1,75.7500028896333
324,228,58389,2,0,L|400:216,1,75.7500028896333
488,72,58560,2,0,P|442:18|379:51,1,151.500005779267
316,256,58903,1,0,0:0:0:0:
444,304,59075,6,0,B|424:297|424:297|400:313|368:303|368:303|352:311,1,75.75
300,296,59246,2,0,L|268:300,4,25.25
80,204,59589,1,0,0:0:0:0:
260,268,59760,2,0,L|360:257,1,101
508,116,60103,5,0,0:0:0:0:
244,240,60275,2,0,L|168:224,1,75.75
100,208,60446,1,0,0:0:0:0:
300,320,60617,2,0,L|322:340,4,25.25
260,116,60960,1,0,0:0:0:0:
220,364,61132,1,0,0:0:0:0:
336,204,61303,1,0,0:0:0:0:
56,252,61475,1,0,0:0:0:0:
300,356,61646,1,0,0:0:0:0:
104,184,61817,6,0,P|99:146|111:111,1,75.7500028896333
268,152,61989,2,0,L|192:156,1,75.7500028896333
72,264,62160,2,0,L|148:260,1,75.7500028896333
188,68,62331,2,0,P|163:39|128:24,1,75.7500028896333
176,240,62503,2,0,L|256:236,1,75.7500028896333
431,177,62675,2,0,P|366:153|336:216,1,151.500005779267
440,320,63017,6,0,B|360:304|360:304|288:328|288:328|208:312,1,227.2500086689
32,256,63360,2,0,P|64:237|101:236,1,75.7500028896333
188,384,63532,2,0,L|196:308,1,75.7500028896333
176,136,63703,2,0,P|143:154|106:155,1,75.7500028896333
50,362,63875,2,0,L|36:288,1,75.7500028896333
124,76,64046,2,0,P|52:70|14:132,1,151.500005779267
264,164,64389,6,0,B|338:136|338:136|391:184,2,151.500005779267
471,226,64903,2,0,P|480:189|476:152,1,75.7500028896333
184,121,65075,2,0,P|175:158|180:196,1,75.7500028896333
383,276,65246,2,0,B|356:275|323:237|323:237|276:260|248:248,2,151.500005779267
448,96,65760,6,0,L|459:65,8,18.9375007224083
256,136,66103,2,0,L|248:112,5,18.9375007224083
376,208,66446,1,0,0:0:0:0:
168,160,66617,2,0,L|132:152,2,37.8750014448166
256,252,66789,6,0,B|295:238|295:238|321:295|384:296,1,151.500005779267
493,198,67046,2,0,P|431:163|376:208,1,151.500005779267
223,261,67303,6,0,P|288:344|381:295,1,227.2500086689
244,180,67646,2,0,P|204:180|168:200,1,75.7500028896333
320,148,67817,2,0,L|391:171,1,75.7500028896333
100,140,67989,2,0,P|84:176|84:214,1,75.7500028896333
252,96,68160,2,0,P|232:40|152:56,1,151.500005779267
272,111,68503,6,0,P|230:16|131:47,1,227.2500086689
0,92,68846,2,0,L|74:107,1,75.7500028896333
176,204,69017,2,0,P|184:244|168:288,1,75.7500028896333
16,260,69189,2,0,L|92:268,1,75.7500028896333
220,136,69360,2,0,P|185:121|144:128,1,75.7500028896333
172,304,69532,2,0,L|247:311,1,75.7500028896333
428,208,69703,2,0,P|444:288|392:348,1,151.500005779267
216,260,70046,6,0,B|315:240|315:240|359:264,1,151.5
340,344,70388,1,0,0:0:0:0:
180,332,70560,1,0,0:0:0:0:
120,80,70732,1,0,0:0:0:0:
24,144,70903,5,0,0:0:0:0:
20,168,70988,1,0,0:0:0:0:
236,124,71160,1,0,0:0:0:0:
232,100,71245,1,0,0:0:0:0:
36,60,71417,5,0,0:0:0:0:
128,312,71760,1,0,0:0:0:0:
248,196,72103,1,0,0:0:0:0:
312,292,72275,5,0,0:0:0:0:
308,312,72361,1,0,0:0:0:0:
304,336,72446,1,0,0:0:0:0:
392,144,72617,1,0,0:0:0:0:
448,344,72789,5,0,0:0:0:0:
80,80,78275,6,0,P|168:72|212:152,1,168.333333333333
188,208,78617,1,0,0:0:0:0:
268,192,78732,2,0,L|352:176,1,84.1666666666667
127,143,78960,6,0,P|47:149|14:222,1,168.333333333333
88,340,79303,2,0,B|168:300|168:300|240:356,1,168.333333333333
324,318,79646,6,0,P|290:242|300:160,1,168.333333333333
352,88,79989,1,0,0:0:0:0:
268,80,80103,2,0,L|184:72,1,84.1666666666667
40,184,80332,2,0,P|112:144|192:192,1,168.333333333333
196,256,80675,1,0,0:0:0:0:
115,258,80789,1,0,0:0:0:0:
35,260,80903,1,0,0:0:0:0:
264,188,81017,5,0,0:0:0:0:
268,219,81102,1,0,0:0:0:0:
273,250,81188,1,0,0:0:0:0:
278,281,81274,1,0,0:0:0:0:
282,312,81360,2,0,P|313:330|355:331,1,63.125
468,176,81532,1,0,0:0:0:0:
464,207,81617,1,0,0:0:0:0:
460,238,81703,6,0,P|428:252|396:248,1,63.125
225,118,81875,2,0,P|254:109|288:112,1,63.125
360,324,82046,2,0,P|332:302|319:272,1,63.125
424,40,82217,2,0,P|447:59|461:90,1,63.125
264,248,82389,5,0,0:0:0:0:
232,245,82474,1,0,0:0:0:0:
201,242,82560,1,0,0:0:0:0:
169,239,82646,1,0,0:0:0:0:
138,236,82732,2,0,P|111:283|115:319,1,63.125
0,100,82903,1,0,0:0:0:0:
13,128,82989,1,0,0:0:0:0:
27,157,83075,2,0,P|80:156|110:134,1,63.125
268,16,83246,1,0,0:0:0:0:
236,12,83331,1,0,0:0:0:0:
205,8,83417,1,0,0:0:0:0:
173,4,83503,1,0,0:0:0:0:
142,1,83588,1,0,0:0:0:0:
336,172,83760,5,0,0:0:0:0:
338,140,83845,1,0,0:0:0:0:
341,109,83931,1,0,0:0:0:0:
343,77,84017,2,0,P|391:32|468:94,1,151.500005779267
464,92,84275,2,0,P|448:132|452:168,1,63.125
384,256,84446,2,0,L|509:244,1,126.25
336,172,84703,2,0,B|268:160|268:160|204:184,1,126.25
264,312,84960,2,0,P|276:284|272:244,1,63.125
208,60,85132,5,0,0:0:0:0:
176,61,85217,1,0,0:0:0:0:
144,63,85303,1,0,0:0:0:0:
113,65,85389,1,0,0:0:0:0:
81,67,85475,2,0,P|28:112|72:144,1,126.25
352,216,85817,2,0,P|340:146|290:168,1,126.25
187,263,86075,2,0,P|253:287|258:233,1,126.25
224,108,86332,2,0,P|197:130|219:146,1,63.125
464,192,86503,5,0,0:0:0:0:
470,114,86588,1,0,0:0:0:0:
428,49,86674,1,0,0:0:0:0:
355,25,86760,1,0,0:0:0:0:
282,50,86846,2,0,P|276:128|292:208,1,151.500005779267
12,224,87189,1,0,0:0:0:0:
83,256,87275,6,0,P|147:218|162:146,1,151.500005779267
119,68,87532,6,0,P|84:184|197:225,1,265.125002528429
264,176,87875,5,0,1:0:0:0:
145,360,88046,1,0,0:0:0:0:
149,322,88131,1,0,0:0:0:0:
154,284,88217,1,0,0:0:0:0:
159,247,88303,1,0,0:0:0:0:
163,209,88389,2,0,P|201:196|238:200,1,75.7500028896333
432,344,88560,2,0,P|394:356|356:353,1,75.7500028896333
276,124,88732,2,0,P|305:150|321:184,1,75.7500028896333
286,334,88903,1,0,0:0:0:0:
286,334,89075,1,8,0:2:0:0:
404,180,89246,5,0,0:0:0:0:
404,180,89417,1,0,0:0:0:0:
320,248,89589,1,0,0:0:0:0:
282,242,89674,1,0,0:0:0:0:
245,249,89760,1,0,0:0:0:0:
36,152,89932,1,0,0:0:0:0:
73,148,90017,1,0,0:0:0:0:
108,162,90103,1,0,0:0:0:0:
104,124,90188,1,0,0:0:0:0:
115,89,90275,2,0,P|136:56|168:32,1,75.7500028896333
283,130,90446,2,0,L|208:120,1,75.7500028896333
28,228,90617,5,0,0:0:0:0:
65,228,90702,1,0,0:0:0:0:
96,248,90788,1,0,0:0:0:0:
110,281,90875,2,0,P|174:318|241:288,1,151.500005779267
308,108,91132,1,0,0:0:0:0:
270,97,91218,1,0,0:0:0:0:
231,105,91304,1,0,0:0:0:0:
199,126,91389,1,0,0:0:0:0:
176,159,91475,1,0,0:0:0:0:
170,197,91561,1,0,0:0:0:0:
179,236,91646,1,0,0:0:0:0:
420,116,91817,1,2,0:3:0:0:
436,248,91989,6,0,L|448:332,1,75.7500028896333
368,336,92160,2,0,L|357:261,1,75.7500028896333
397,105,92332,2,0,L|412:24,2,75.7500028896333,8|0|2,0:0|0:0|1:2,0:0:0:0:
384,180,92589,1,0,0:0:0:0:
456,156,92675,5,2,0:3:0:0:
248,68,92846,1,2,0:3:0:0:
308,204,93017,2,0,P|311:287|292:364,1,151.500005779267,8|0,0:1|0:0,0:0:0:0:
132,300,93361,6,0,L|53:291,1,75.7500028896333,0|0,1:0|0:0,0:0:0:0:
16,212,93532,2,0,L|95:203,1,75.7500028896333,8|0,0:0|0:0,0:0:0:0:
240,112,93703,2,0,P|242:69|232:32,1,75.7500028896333
148,44,93875,2,0,P|145:86|156:124,1,75.7500028896333
204,224,94046,1,2,0:3:0:0:
202,206,94132,1,0,0:3:0:0:
200,188,94217,1,2,0:3:0:0:
68,80,94389,2,0,P|48:160|52:236,1,151.500005779267,8|0,0:3|0:0,0:0:0:0:
16,20,94732,5,0,1:0:0:0:
194,154,94904,2,0,L|288:140,1,75.7500028896333,2|0,0:3|0:0,0:0:0:0:
344,80,95075,1,8,0:0:0:0:
344,80,95161,2,0,B|364:128|364:128|352:236,1,151.500005779267,2|2,0:3|0:3,0:0:0:0:
348,252,95418,2,0,L|320:256,10,18.9375007224083,0|0|0|0|2|0|0|0|0|0|0,0:0|0:0|0:0|0:0|0:2|0:0|0:0|0:0|0:0|0:0|0:0,0:0:0:0:
256,260,95761,1,8,0:1:0:0:
444,116,95932,1,2,0:0:0:0:
472,348,96104,6,0,P|419:295|345:288,1,151.500005779267,2|2,1:2|0:2,0:0:0:0:
176,296,96360,1,0,0:0:0:0:
160,328,96446,2,0,P|176:376|192:316,1,151.500005779267
88,56,96789,2,0,P|57:124|58:199,1,151.500005779267,0|2,0:0|0:2,0:0:0:0:
260,236,97046,1,0,0:0:0:0:
292,223,97132,2,0,P|313:176|260:209,1,151.500005779267
472,248,97475,5,0,1:0:0:0:
287,183,97646,1,2,0:3:0:0:
311,307,97818,1,10,0:2:0:0:
43,175,97989,5,0,1:0:0:0:
227,110,98160,1,2,0:3:0:0:
203,234,98332,1,10,0:2:0:0:
464,100,98503,5,0,1:0:0:0:
280,35,98674,1,2,0:3:0:0:
304,159,98846,1,10,0:2:0:0:
48,32,99017,5,0,1:0:0:0:
48,32,99103,1,0,0:0:0:0:
48,32,99189,1,0,0:0:0:0:
252,152,99361,2,0,L|176:140,1,75.7500028896333,2|2,1:2|0:2,0:0:0:0:
36,192,99532,2,0,L|43:116,1,75.7500028896333
260,12,99703,2,0,P|268:52|252:100,1,75.7500028896333
108,269,99875,2,0,B|164:228|164:228|244:244,1,151.500005779267
320,260,100132,1,0,0:0:0:0:
320,260,100218,1,0,1:0:0:0:
176,124,100561,6,0,P|165:180|163:235,1,75.7500028896333,8|0,0:0|0:0,0:0:0:0:
184,312,100904,1,0,0:0:0:0:
184,312,101075,1,0,0:0:0:0:
324,80,101246,6,0,P|332:116|336:154,1,75.7500028896333,8|0,0:0|0:0,0:0:0:0:
336,240,101504,1,0,0:0:0:0:
336,240,101589,1,0,1:0:0:0:
256,168,101761,1,0,0:0:0:0:
340,260,101932,5,8,0:0:0:0:
320,56,102104,1,0,0:0:0:0:
240,188,102275,1,0,0:0:0:0:
432,176,102446,1,0,0:0:0:0:
152,144,102618,6,0,P|152:203|170:261,1,113.62500433445,8|0,0:0|0:0,0:0:0:0:
216,324,102961,1,0,0:0:0:0:
232,100,103304,1,0,0:0:0:0:
60,180,103646,1,0,0:0:0:0:
60,180,103818,1,0,0:0:0:0:
236,192,103989,1,0,0:0:0:0:
80,80,104332,1,0,0:0:0:0:
236,112,104504,5,2,0:2:0:0:
236,112,104589,1,2,0:2:0:0:
236,112,104675,1,0,0:0:0:0:
80,200,104846,1,2,0:2:0:0:
104,68,105018,5,0,0:0:0:0:
104,68,105104,1,0,0:0:0:0:
104,68,105189,1,2,0:0:0:0:
224,284,105361,1,4,0:2:0:0:
48,208,105532,2,0,L|16:216,3,18.9375007224083
243,159,105703,6,0,P|277:174|305:201,1,75.7500028896333
75,127,105875,2,0,P|37:123|2:134,1,75.7500028896333
252,315,106046,2,0,P|250:278|234:244,1,75.7500028896333
61,44,106217,2,0,P|98:48|131:67,1,75.7500028896333
172,300,106389,5,6,0:2:0:0:
228,56,106561,1,8,0:0:0:0:
228,56,106646,1,2,0:2:0:0:
228,56,106732,1,0,0:0:0:0:
424,216,106903,6,0,B|381:202|345:226|345:226|293:210|293:210|249:238|249:238|223:230|189:238,1,227.2500086689
140,195,107246,2,0,P|130:232|138:269,1,75.7500028896333
272,104,107417,2,0,L|344:125,1,75.7500028896333
40,168,107589,2,0,L|54:243,1,75.7500028896333
336,328,107760,2,0,P|296:340|240:324,1,75.7500028896333
272,104,107932,2,0,P|287:178|291:254,1,151.500005779267,12|8,0:2|0:0,0:0:0:0:
144,96,108275,1,0,0:0:0:0:
53,242,108446,6,0,P|80:208|120:220,1,75.75
156,272,108617,2,0,L|160:312,4,25.25
260,220,108960,1,0,0:0:0:0:
126,127,109132,2,0,P|76:123|28:136,1,101,0|8,0:0|0:0,0:0:0:0:
264,296,109475,1,0,0:0:0:0:
416,124,109646,6,0,B|492:134|492:134|472:166,1,101
260,316,109989,2,0,L|250:360,4,25.25
308,116,110332,1,0,0:0:0:0:
136,184,110503,1,0,0:0:0:0:
208,44,110675,1,0,0:0:0:0:
180,256,110846,1,0,0:0:0:0:
16,140,111017,1,8,0:0:0:0:
352,216,111189,6,0,P|384:280|264:320,1,227.2500086689
137,274,111532,2,0,P|170:256|208:256,1,75.7500028896333
44,324,111703,2,0,L|40:240,1,75.7500028896333
216,96,111875,2,0,L|220:180,1,75.7500028896333
24,72,112046,2,0,P|88:48|128:116,1,151.500005779267
312,316,112389,6,0,P|412:342|448:245,1,227.2500086689
173,266,112732,2,0,L|248:256,1,75.7500028896333
375,272,112903,2,0,P|369:235|345:206,1,75.7500028896333
108,180,113075,2,0,L|188:156,1,75.7500028896333
336,16,113246,2,0,P|300:44|296:96,1,75.7500028896333
463,183,113417,2,0,P|449:112|380:92,1,151.500005779267
204,300,113760,1,0,0:0:0:0:
448,296,113932,6,0,B|407:305|384:277|384:277|362:296,1,75.75
304,300,114103,2,0,L|301:275,4,25.25
240,56,114446,1,0,0:0:0:0:
188,296,114617,2,0,P|138:300|90:284,1,101
148,72,114960,5,0,0:0:0:0:
279,271,115132,2,0,L|333:282,1,50.5
440,168,115303,1,0,0:0:0:0:
256,360,115475,2,0,B|216:376,3,25.25
260,116,115817,1,0,0:0:0:0:
168,256,115989,1,0,0:0:0:0:
348,328,116160,1,0,0:0:0:0:
152,92,116332,1,0,0:0:0:0:
128,328,116503,1,0,0:0:0:0:
408,184,116675,6,0,P|413:146|401:111,1,75.7500028896333
244,152,116847,2,0,L|320:156,1,75.7500028896333
440,264,117018,2,0,L|364:260,1,75.7500028896333
324,68,117189,2,0,P|349:39|384:24,1,75.7500028896333
336,240,117361,2,0,L|256:236,1,75.7500028896333
81,177,117533,2,0,P|146:153|176:216,1,151.500005779267
72,320,117875,6,0,B|152:304|152:304|224:328|224:328|304:312,1,227.2500086689
480,256,118218,2,0,P|448:237|411:236,1,75.7500028896333
324,384,118390,2,0,L|316:308,1,75.7500028896333
336,136,118561,2,0,P|369:154|406:155,1,75.7500028896333
462,362,118733,2,0,L|476:288,1,75.7500028896333
388,76,118904,2,0,P|460:70|498:132,1,151.500005779267
248,164,119247,6,0,P|176:136|112:184,2,151.500005779267
40,224,119761,2,0,B|31:187|31:187|35:150,1,75.7500028896333
328,121,119933,2,0,B|337:158|337:158|332:196,1,75.7500028896333
129,276,120104,2,0,B|164:268|164:268|189:237|189:237|224:256|224:256|264:248,2,151.500005779267
64,96,120617,6,0,L|53:65,8,18.9375007224083
256,136,120960,6,0,L|264:112,5,18.9375007224083
136,208,121304,1,0,0:0:0:0:
344,160,121475,2,0,L|380:152,2,37.8750014448166
256,252,121647,6,0,B|217:238|217:238|191:295|128:296,1,151.500005779267
19,198,121904,2,0,P|81:163|136:208,1,151.500005779267
289,261,122161,6,0,P|224:344|131:295,1,227.2500086689
268,180,122504,2,0,P|308:180|344:200,1,75.7500028896333
156,248,122675,2,0,L|179:175,1,75.7500028896333
340,328,122847,2,0,P|304:344|266:344,1,75.7500028896333
240,111,123018,2,0,P|307:91|338:153,1,151.500005779267
216,104,123361,6,0,P|315:72|357:167,1,227.2500086689
418,215,123704,2,0,L|492:200,1,75.7500028896333
288,196,123875,2,0,P|280:236|296:280,1,75.7500028896333
472,304,124047,2,0,L|396:296,1,75.7500028896333
244,132,124218,2,0,P|279:117|320:124,1,75.7500028896333
336,340,124390,2,0,P|298:349|261:347,1,75.7500028896333
84,208,124561,2,0,P|68:288|120:348,1,151.500005779267
296,260,124904,6,0,B|197:240|197:240|153:264,1,151.5
376,280,125246,1,0,0:0:0:0:
212,336,125418,1,0,0:0:0:0:
164,68,125590,1,0,0:0:0:0:
152,264,125761,5,0,0:0:0:0:
148,288,125846,1,0,0:0:0:0:
344,168,126018,1,0,0:0:0:0:
340,144,126103,1,0,0:0:0:0:
221,153,126275,5,0,0:0:0:0:
256,252,126617,1,0,0:0:0:0:
158,218,126960,1,0,0:0:0:0:
220,153,127132,6,0,P|219:127|211:103,1,50.5,2|0,0:0|0:0,0:0:0:0:
57,308,127303,2,0,P|65:284|80:264,1,50.5,2|0,0:0|0:0,0:0:0:0:
296,317,127475,2,0,P|273:326|248:328,1,50.5,2|0,0:0|0:0,0:0:0:0:
491,78,127646,6,2,B|417:61|417:61|369:84|369:84|292:71,1,189.375,4|8,0:0|0:0,0:0:0:0:
232,120,127989,2,0,P|220:84|224:40,1,63.125
308,208,128160,2,0,P|320:244|316:288,1,63.125
148,236,128332,1,0,0:0:0:0:
172,234,128417,1,0,0:0:0:0:
196,232,128503,1,0,0:0:0:0:
136,352,128675,1,8,0:0:0:0:
112,116,128846,1,2,0:0:0:0:
70,246,129017,6,2,L|196:232,1,126.25,0|0,0:0|0:0,0:0:0:0:
276,292,129275,2,0,B|291:231|291:231|276:169,1,126.25,2|0,0:0|0:0,0:0:0:0:
328,88,129532,2,2,L|454:104,1,126.25,0|0,0:0|0:0,0:0:0:0:
164,184,129875,1,2,0:2:0:0:
123,168,129961,1,2,0:2:0:0:
79,168,130046,1,8,0:0:0:0:
41,191,130132,1,2,0:2:0:0:
18,229,130218,1,2,0:2:0:0:
88,384,130389,6,2,L|104:252,1,126.25,0|2,0:0|0:0,0:0:0:0:
124,76,130646,2,0,P|96:52|28:96,1,126.25
92,156,130904,1,0,0:0:0:0:
355,102,131075,2,0,B|386:94|386:94|414:106,1,63.125
440,188,131246,2,0,B|408:195|408:195|380:183,1,63.125
216,72,131418,2,0,B|183:81|183:81|152:73,1,63.125,10|0,0:0|0:0,0:0:0:0:
192,168,131589,2,0,B|224:158|224:158|255:166,1,63.125,10|0,0:0|0:0,0:0:0:0:
372,272,131761,5,2,0:0:0:0:
364,306,131846,1,0,0:0:0:0:
356,340,131932,1,0,0:0:0:0:
502,268,132104,1,10,0:0:0:0:
319,201,132275,1,2,0:0:0:0:
348,372,132446,1,0,0:0:0:0:
144,312,132617,1,0,0:0:0:0:
144,312,132704,1,0,0:0:0:0:
144,312,132789,1,8,0:0:0:0:
176,144,132961,1,2,0:0:0:0:
491,160,133132,6,0,P|472:38|408:120,1,265.125002528429,2|6,0:0|2:0,0:0:0:0:
408,172,133475,1,8,0:0:0:0:
43,117,133818,1,2,0:2:0:0:
82,100,133904,1,2,0:2:0:0:
123,104,133989,1,2,0:2:0:0:
160,124,134075,1,2,0:2:0:0:
182,158,134161,1,8,0:0:0:0:
268,48,134332,1,2,0:2:0:0:
98,194,134504,6,0,L|80:293,1,101
116,116,134846,1,10,0:0:0:0:
284,284,135018,2,0,L|298:385,1,101,2|0,0:0|0:0,0:0:0:0:
275,204,135361,1,2,0:0:0:0:
275,204,135446,1,0,0:0:0:0:
275,204,135532,1,8,0:0:0:0:
368,336,135704,1,2,0:0:0:0:
495,229,135875,6,2,L|395:241,1,101,2|0,0:0|0:0,0:0:0:0:
362,247,136132,1,2,0:0:0:0:
362,247,136218,1,8,0:0:0:0:
450,322,136389,1,2,0:0:0:0:
229,110,136561,2,0,L|279:116,1,50.5,2|2,0:0|0:0,0:0:0:0:
408,168,136732,2,0,L|358:162,1,50.5,2|2,0:0|0:0,0:0:0:0:
280,248,136903,2,0,L|286:198,1,50.5,2|2,0:0|0:0,0:0:0:0:
360,28,137074,2,0,L|354:78,1,50.5,2|2,0:0|0:0,0:0:0:0:
396,244,137246,6,2,L|405:194,1,50.5,0|0,0:0|0:0,0:0:0:0:
476,128,137417,2,2,L|471:78,1,50.5,8|0,0:0|0:0,0:0:0:0:
224,132,137589,6,0,P|248:144|284:152,1,50.5
312,232,137760,2,0,P|338:235|375:230,1,50.5
288,28,137932,2,0,L|225:42,1,50.5
152,192,138103,1,0,0:0:0:0:
150,217,138188,1,0,0:0:0:0:
148,244,138275,6,0,P|196:272|192:140,1,265.125002528429
48,340,138617,6,0,B|104:316|104:316|137:344|196:356,1,151.5
240,292,138961,1,8,1:1:0:0:
16,272,139132,1,2,2:0:0:0:
232,212,139304,2,0,L|221:111,1,101,0|2,0:0|2:0,0:0:0:0:
388,80,139646,2,0,L|397:184,1,101,8|2,0:0|2:0,0:0:0:0:
280,211,139989,5,2,2:0:0:0:
491,243,140160,1,10,0:2:0:0:
280,211,140332,1,0,0:0:0:0:
364,56,140504,5,2,2:0:0:0:
364,56,140589,1,0,0:0:0:0:
364,56,140675,1,0,0:0:0:0:
136,180,140846,1,0,0:0:0:0:
208,32,141017,2,0,P|221:80|223:130,1,101
192,304,141360,6,0,P|192:268|204:244,1,50.5
288,116,141532,1,0,0:0:0:0:
404,292,141703,6,0,P|372:310|346:311,1,50.5
192,304,141875,1,0,0:0:0:0:
288,116,142046,6,0,P|319:134|333:156,1,50.5
404,292,142217,1,0,0:0:0:0:
156,188,142389,6,0,P|120:180|92:188,1,50.5
275,292,142560,1,0,0:0:0:0:
359,135,142732,6,0,P|382:127|408:130,1,50.5
273,312,142903,1,0,0:0:0:0:
391,208,143075,6,0,P|415:200|440:202,1,50.5
252,304,143246,1,0,0:0:0:0:
156,188,143417,6,0,P|181:186|204:193,1,50.5
296,284,143589,1,0,0:0:0:0:
160,106,143760,6,0,P|135:104|112:112,1,50.5
288,256,143932,1,0,0:0:0:0:
464,340,144103,6,0,B|408:316|408:316|375:344|316:356,1,151.5
272,292,144447,1,8,1:1:0:0:
496,272,144618,1,2,2:0:0:0:
280,212,144790,2,0,L|290:108,1,101,0|2,0:0|2:0,0:0:0:0:
124,80,145132,2,0,L|114:188,1,101,8|2,0:0|2:0,0:0:0:0:
232,211,145475,5,2,2:0:0:0:
21,243,145646,1,10,0:2:0:0:
232,211,145818,1,0,0:0:0:0:
148,56,145990,5,2,2:0:0:0:
148,56,146075,1,0,0:0:0:0:
148,56,146161,1,0,0:0:0:0:
376,180,146332,1,0,0:0:0:0:
148,272,146503,2,0,P|149:221|162:172,1,101
280,48,146846,6,0,L|288:104,1,50.5
304,200,147017,1,0,0:0:0:0:
92,204,147189,6,0,L|136:169,1,50.5
211,107,147360,1,0,0:0:0:0:
316,304,147532,6,0,L|263:282,1,50.5
172,248,147703,1,0,0:0:0:0:
396,168,147875,6,0,L|404:223,1,50.5
419,332,148046,1,0,0:0:0:0:
179,198,148217,6,0,L|171:253,1,50.5
156,350,148388,1,0,0:0:0:0:
84,156,148560,6,0,L|76:211,1,50.5
64,280,148731,1,0,0:0:0:0:
292,248,148903,6,0,P|294:219|288:180,1,50.5
256,68,149075,1,0,0:0:0:0:
160,224,149246,6,0,P|187:225|210:220,1,50.5
472,88,149417,2,0,L|416:80,1,50.5
356,156,149589,6,0,P|364:208|368:272,1,101
280,92,149932,1,0,0:0:0:0:
200,268,150103,2,0,P|144:284|76:176,1,202
152,108,150617,2,0,B|104:84|104:84|52:80,1,101
152,204,150960,2,0,P|208:188|272:300,1,202
384,240,151475,1,0,2:0:0:0:
412,238,151560,1,0,2:0:0:0:
441,237,151646,2,0,P|481:270|473:331,1,101,0|0,2:0|2:0,2:0:0:0:
216,352,151989,2,0,P|252:372|312:368,1,101
140,156,152332,6,0,P|149:181|173:212,1,50.5
275,291,152503,1,0,0:0:0:0:
275,20,152675,6,0,P|249:29|218:53,1,50.5
139,156,152846,1,0,0:0:0:0:
411,156,153017,6,0,P|401:130|377:99,1,50.5
275,20,153188,1,0,0:0:0:0:
275,291,153360,6,0,P|300:281|331:257,1,50.5
410,156,153532,1,0,0:0:0:0:
273,137,153703,6,0,P|248:137|224:144,1,50.5
124,248,153875,1,0,0:0:0:0:
88,136,154046,6,0,P|112:130|137:130,1,50.5
256,216,154218,1,0,0:0:0:0:
24,256,154389,6,0,P|40:224|68:200,1,50.5
156,88,154560,1,0,0:0:0:0:
228,320,154732,6,0,P|218:297|204:276,1,50.5
8,140,154903,1,0,0:0:0:0:
88,184,155075,6,0,B|64:216|36:228|36:228|80:292|44:360,1,202
140,256,155589,1,0,0:0:0:0:
40,112,155760,2,0,P|40:56|56:12,1,101
232,184,156103,2,0,P|244:224|240:288,1,101
41,226,156446,6,0,B|123:189|123:189|163:245,1,151.5
160,240,156789,1,0,0:0:0:0:
348,320,156960,1,0,0:0:0:0:
348,320,157046,1,0,0:0:0:0:
348,320,157132,1,0,0:0:0:0:
416,232,157303,1,0,0:0:0:0:
360,128,157475,1,0,0:0:0:0:
348,348,157646,1,0,0:0:0:0:
156,68,157817,5,0,0:0:0:0:
240,64,157989,1,0,0:0:0:0:
248,56,158160,1,0,0:0:0:0:
236,52,158332,1,0,0:0:0:0:
120,316,158503,1,0,0:0:0:0:
128,320,158675,1,0,0:0:0:0:
232,232,158846,1,0,0:0:0:0:
104,188,159017,1,0,0:0:0:0:
344,320,159189,5,0,0:0:0:0:
236,20,159360,1,0,0:0:0:0:
152,196,159532,5,0,0:0:0:0:
420,160,159703,1,0,0:0:0:0:
260,92,159875,5,0,0:0:0:0:
312,244,160046,1,0,0:0:0:0:
332,168,160217,5,0,0:0:0:0:
244,180,160388,1,0,0:0:0:0:
288,172,160560,5,0,0:0:0:0:
284,184,160903,1,0,0:0:0:0:
296,180,161246,1,0,0:0:0:0:
324,104,161589,1,0,0:0:0:0:
312,99,161674,1,0,0:0:0:0:
300,97,161760,1,0,0:0:0:0:
287,98,161846,1,0,0:0:0:0:
275,102,161931,1,0,0:0:0:0:
336,328,167417,6,0,L|400:340,3,50.5
488,248,167760,2,0,L|424:260,3,50.5
272,204,168103,2,0,L|336:216,3,50.5
416,136,168446,2,0,L|400:72,3,50.5
260,52,168789,6,0,L|244:120,1,50.5
192,328,168960,1,0,0:0:0:0:
192,328,169046,1,0,0:0:0:0:
192,328,169132,2,0,L|144:312,3,50.5
20,252,169475,2,0,L|68:236,3,50.5
164,152,169817,2,0,L|180:200,3,50.5
0,116,170160,6,0,P|32:120|56:120,1,50.5
252,88,170332,1,0,0:0:0:0:
268,84,170417,1,0,0:0:0:0:
284,80,170503,2,0,P|312:76|344:84,1,50.5
259,211,170674,2,0,P|244:192|235:169,1,50.5
383,168,170846,2,0,P|375:191|359:211,1,50.5
162,66,171017,6,0,P|186:75|204:96,1,50.5
307,331,171189,2,0,P|305:305|310:281,1,50.5
459,72,171360,2,0,P|437:85|413:91,1,50.5
140,136,171532,5,0,0:0:0:0:
380,312,171703,1,0,0:0:0:0:
112,212,171875,5,0,0:0:0:0:
412,16,172046,1,0,0:0:0:0:
193,200,172217,5,0,0:0:0:0:
221,207,172302,1,0,0:0:0:0:
249,212,172388,1,0,0:0:0:0:
276,219,172474,1,0,0:0:0:0:
305,225,172559,1,0,0:0:0:0:
333,230,172645,1,0,0:0:0:0:
360,237,172731,1,0,0:0:0:0:
388,242,172817,1,0,0:0:0:0:
416,248,172902,1,0,0:0:0:0:
256,192,172946,12,0,174275,0:0:0:0:
276,48,174446,5,0,0:0:0:0:
256,41,174531,1,0,0:0:0:0:
236,34,174617,1,0,0:0:0:0:
404,128,174789,1,0,0:0:0:0:
112,100,174961,1,0,0:0:0:0:
336,208,175132,1,0,0:0:0:0:
184,224,175303,1,0,0:0:0:0:
284,272,175475,1,0,0:0:0:0:
163,211,175646,6,0,P|232:187|257:117,1,151.500005779267
88,164,175903,1,0,0:0:0:0:
88,163,175989,2,0,P|74:198|78:235,1,75.7500028896333
298,346,176160,2,0,L|284:272,1,75.7500028896333
56,328,176332,2,0,L|131:316,1,75.7500028896333
360,289,176503,2,0,P|315:195|216:228,1,227.2500086689
283,271,176846,6,0,P|198:337|100:293,1,227.2500086689
80,208,177189,2,0,P|44:224|16:268,1,75.7500028896333
180,316,177360,2,0,P|184:277|160:231,1,75.7500028896333
32,348,177532,2,0,P|63:372|115:374,1,75.7500028896333
155,55,177703,6,0,P|119:49|84:63,1,75.7500028896333
260,299,177874,2,0,P|283:271|289:234,1,75.7500028896333
0,263,178046,2,0,P|10:299|40:322,1,75.7500028896333
232,124,178217,2,0,P|203:100|166:94,1,75.7500028896333
168,296,178389,6,0,B|210:274|210:274|248:291,1,75.75
312,284,178560,2,0,L|348:280,4,25.25
208,180,178903,1,0,0:0:0:0:
216,376,179075,2,0,L|108:380,1,101
16,168,179417,1,0,0:0:0:0:
176,272,179589,1,0,0:0:0:0:
180,84,179760,6,0,P|137:71|107:104,1,75.75
88,160,179932,2,0,L|44:164,4,25.25
56,12,180275,1,0,0:0:0:0:
204,184,180446,5,0,0:0:0:0:
4,96,180617,1,0,0:0:0:0:
172,60,180789,1,0,0:0:0:0:
20,228,180960,1,0,0:0:0:0:
92,96,181132,6,0,P|96:176|172:304,1,227.2500086689
248,136,181475,2,0,L|175:153,1,75.7500028896333
0,324,181646,2,0,P|34:338|71:334,1,75.7500028896333
312,184,181817,2,0,P|327:154|324:108,1,75.7500028896333
16,80,181989,2,0,P|16:156|36:240,1,151.500005779267
255,268,182332,6,0,P|232:164|325:112,1,227.2500086689
392,192,182675,2,0,L|312:200,1,75.7500028896333
80,156,182846,2,0,P|117:163|155:160,1,75.7500028896333
208,0,183017,2,0,P|204:40|212:80,1,75.7500028896333
320,239,183189,2,0,L|396:232,1,75.7500028896333
488,72,183360,2,0,P|442:18|379:51,1,151.500005779267
476,224,183703,1,0,0:0:0:0:
368,324,183875,6,0,B|352:319|352:319|332:331|307:324|307:324|293:326,1,75.75
220,348,184046,2,0,L|188:352,4,25.25
36,160,184389,1,0,0:0:0:0:
216,296,184560,2,0,L|316:285,1,101
508,116,184903,5,0,0:0:0:0:
288,264,185075,2,0,L|212:248,1,75.75
136,232,185246,1,0,0:0:0:0:
300,320,185417,2,0,L|322:340,3,25.25
260,116,185589,1,0,0:0:0:0:
220,364,185760,1,0,0:0:0:0:
336,204,185932,1,0,0:0:0:0:
56,252,186103,1,0,0:0:0:0:
300,356,186275,1,0,0:0:0:0:
184,60,186446,1,0,0:0:0:0:
160,252,186617,6,0,P|198:257|233:245,1,75.7500028896333
320,112,186789,2,0,L|244:116,1,75.7500028896333
84,292,186960,2,0,L|160:288,1,75.7500028896333
112,96,187131,2,0,P|87:67|52:52,1,75.7500028896333
176,240,187303,2,0,L|256:236,1,75.7500028896333
339,77,187475,2,0,P|274:53|244:116,1,151.500005779267
460,152,187817,6,0,B|421:158|385:185|385:185|310:178|310:178|284:200|235:211,1,227.2500086689
96,68,188160,2,0,P|128:49|165:48,1,75.7500028896333
156,268,188332,2,0,L|164:192,1,75.7500028896333
32,128,188503,2,0,L|46:202,1,75.7500028896333
12,324,188675,2,0,P|49:323|82:305,1,75.7500028896333
245,238,188846,2,0,P|306:276|300:348,1,151.500005779267
396,256,189189,6,0,B|424:330|424:330|376:383,2,151.500005779267
440,176,189703,2,0,P|403:167|366:171,1,75.7500028896333
96,156,189875,6,0,P|133:151|170:160,1,75.7500028896333
148,368,190046,2,0,B|100:315|100:315|128:241,2,151.500005779267
304,268,190560,6,0,L|335:279,8,18.9375007224083
220,128,190903,2,0,L|212:104,5,18.9375007224083
132,276,191246,1,0,0:0:0:0:
316,164,191417,2,0,L|324:128,2,37.8750014448166
255,252,191589,6,0,B|294:238|294:238|320:295|383:296,1,151.500005779267
493,198,191846,2,0,P|431:163|376:208,1,151.500005779267
223,261,192103,6,0,P|288:344|381:295,1,227.2500086689
140,244,192446,2,0,P|140:284|160:320,1,75.7500028896333
304,264,192617,2,0,L|328:192,1,75.7500028896333
76,188,192789,2,0,P|60:224|60:262,1,75.7500028896333
160,144,192960,2,0,P|140:88|60:104,1,151.500005779267
180,159,193303,6,0,P|138:64|39:95,1,227.2500086689
16,188,193646,2,0,L|90:173,1,75.7500028896333
292,100,193817,2,0,P|300:140|284:184,1,75.7500028896333
48,44,193989,2,0,L|111:86,1,75.7500028896333
351,223,194160,2,0,P|321:245|284:248,1,75.7500028896333
144,196,194332,2,0,P|184:199|219:189,1,75.7500028896333
424,184,194503,2,0,P|364:142|296:168,1,151.500005779267
216,260,194846,6,0,B|315:240|315:240|359:264,1,151.5
428,312,195188,1,0,0:0:0:0:
136,276,195360,1,0,0:0:0:0:
304,332,195532,1,0,0:0:0:0:
336,116,195703,5,0,0:0:0:0:
340,92,195788,1,0,0:0:0:0:
208,340,195960,1,0,0:0:0:0:
212,364,196045,1,0,0:0:0:0:
200,144,196217,5,0,0:0:0:0:
0,344,196389,1,0,0:0:0:0:
228,320,196560,5,0,0:0:0:0:
36,64,196732,1,0,0:0:0:0:
76,360,196903,5,0,0:0:0:0:
356,164,197075,1,0,0:0:0:0:
112,68,197246,5,0,0:0:0:0:
244,360,197417,1,0,0:0:0:0:
40,212,197589,6,0,L|88:228,1,50.5
344,300,197760,2,0,L|284:284,1,50.5
112,336,197932,5,0,0:0:0:0:
158,317,198017,1,0,0:0:0:0:
191,280,198103,1,0,0:0:0:0:
205,231,198189,1,0,0:0:0:0:
196,182,198274,1,0,0:0:0:0:
196,182,198617,6,0,P|228:248|364:272,1,189.375
416,256,198960,5,0,0:0:0:0:
234,101,199132,1,0,0:0:0:0:
202,135,199218,1,0,0:0:0:0:
196,182,199303,1,0,0:0:0:0:
320,96,199475,1,0,0:0:0:0:
306,51,199561,1,0,0:0:0:0:
269,23,199646,6,0,P|235:15|206:22,1,63.125
116,208,199817,2,0,P|131:238|155:257,1,63.125
368,244,199989,1,0,0:0:0:0:
234,101,200160,1,0,0:0:0:0:
304,304,200332,1,0,0:0:0:0:
346,327,200417,1,0,0:0:0:0:
393,325,200503,1,0,0:0:0:0:
432,300,200589,1,0,0:0:0:0:
454,259,200674,1,0,0:0:0:0:
232,256,200846,6,0,P|220:285|218:316,1,63.125
485,186,201017,2,0,P|454:179|424:184,1,63.125
329,185,201189,6,0,L|340:248,1,63.125
134,372,201361,2,0,P|123:343|120:312,1,63.125
98,98,201532,2,0,L|160:112,1,63.125
276,56,201703,5,0,0:0:0:0:
303,28,201788,1,0,0:0:0:0:
342,23,201874,1,0,0:0:0:0:
378,36,201960,1,0,0:0:0:0:
405,65,202045,1,0,0:0:0:0:
415,102,202131,1,0,0:0:0:0:
406,140,202217,1,0,0:0:0:0:
381,170,202303,1,0,0:0:0:0:
344,184,202389,5,0,0:0:0:0:
319,214,202475,1,0,0:0:0:0:
310,252,202561,1,0,0:0:0:0:
320,289,202647,1,0,0:0:0:0:
347,318,202732,1,0,0:0:0:0:
383,331,202818,1,0,0:0:0:0:
422,326,202904,1,0,0:0:0:0:
449,298,202989,1,0,0:0:0:0:
460,256,203075,5,0,0:0:0:0:
308,176,203246,1,0,0:0:0:0:
204,300,203417,1,0,0:0:0:0:
165,293,203502,1,0,0:0:0:0:
126,287,203588,1,0,0:0:0:0:
87,281,203674,1,0,0:0:0:0:
48,275,203759,1,0,0:0:0:0:
48,275,203932,6,0,P|36:232|40:196,1,63.125
192,84,204103,2,0,L|256:104,1,63.125
204,300,204275,2,0,L|184:372,1,63.125
240,200,204446,6,0,B|308:184|308:184|340:208|380:200|380:200|388:232|416:252,1,189.375
384,320,204789,1,0,0:0:0:0:
356,120,204960,2,0,P|360:64|408:16,1,126.25
468,272,205303,2,0,L|342:286,1,126.25
48,240,205646,2,0,P|96:200|172:216,1,126.25
188,304,205989,1,0,0:0:0:0:
56,108,206160,2,0,B|160:72|160:72|232:120,1,189.375
279,191,206503,2,0,P|310:199|341:195,1,63.125
472,76,206675,1,0,0:0:0:0:
440,70,206760,1,0,0:0:0:0:
409,65,206846,1,0,0:0:0:0:
148,164,207017,1,0,0:0:0:0:
360,260,207189,6,0,P|381:201|372:139,1,126.25
140,248,207532,1,0,0:0:0:0:
444,104,207703,2,0,B|395:54|395:54|314:71,1,126.25
376,284,208046,2,0,B|445:265|445:265|470:187,1,126.25
256,136,208388,2,0,B|238:204|238:204|293:265,1,126.25
404,200,208732,6,0,P|368:184|316:183,1,75.7500028896333
92,228,209075,2,0,P|116:216|140:220,1,37.8750014448166
240,120,209246,2,0,P|220:120|204:132,1,37.8750014448166
220,296,209417,2,0,L|264:304,1,37.8750014448166
380,196,209589,1,0,0:0:0:0:
