osu file format v14

[General]
AudioFilename: Childish War.mp3
AudioLeadIn: 0
PreviewTime: 50847
Countdown: 0
SampleSet: Soft
StackLeniency: 0.4
Mode: 0
LetterboxInBreaks: 1
WidescreenStoryboard: 1

[Editor]
DistanceSpacing: 1
BeatDivisor: 4
GridSize: 4
TimelineZoom: 3.399999

[Metadata]
Title:Childish War
TitleUnicode:おこちゃま戦争
Artist:Giga-P
ArtistUnicode:Giga-P
Creator:-Nishiki-
Version:Clap's Insane
Source:
Tags:vocaloid okochama sensou kagamine rin and len kiddie war clap jager-kun nines shelso vinnie reol
BeatmapID:1276350
BeatmapSetID:578474

[Difficulty]
HPDrainRate:6
CircleSize:4.1
OverallDifficulty:8
ApproachRate:9
SliderMultiplier:1.82
SliderTickRate:1

[Events]
//Background and Video events
0,0,"walk.jpg",0,0
//Break Periods
2,72990,77675
//Storyboard Layer 0 (Background)
//Storyboard Layer 1 (Fail)
//Storyboard Layer 2 (Pass)
//Storyboard Layer 3 (Foreground)
//Storyboard Sound Samples

[TimingPoints]
5590,342.857142857143,4,2,0,40,1,0
12104,-76.9230769230769,4,2,0,70,0,0
12447,-125,4,2,0,70,0,0
13132,-111.111111111111,4,2,0,70,0,0
14161,-90.9090909090909,4,2,0,70,0,0
14504,-100,4,2,0,70,0,0
17932,-111.111111111111,4,2,0,70,0,0
22047,-166.666666666667,4,2,0,50,0,0
22904,-100,4,2,0,70,0,0
45361,-166.666666666667,4,2,0,40,0,0
49647,-100,4,2,0,40,0,0
50847,-90.9090909090909,4,2,0,80,0,1
53590,-71.4285714285714,4,2,0,80,0,1
53932,-125,4,2,0,80,0,1
54275,-76.9230769230769,4,2,0,80,0,1
55647,-90.9090909090909,4,2,0,80,0,1
59075,-71.4285714285714,4,2,0,80,0,1
59418,-125,4,2,0,80,0,1
59761,-76.9230769230769,4,2,0,80,0,1
61818,-90.9090909090909,4,2,0,80,0,1
70047,-71.4285714285714,4,2,0,80,0,1
71418,-100,4,2,0,70,0,0
72447,-83.3333333333334,4,2,0,70,0,0
72790,-100,4,2,0,70,0,0
91990,-90.9090909090909,4,2,0,70,0,0
93361,-86.9565217391304,4,2,0,70,0,0
100218,-166.666666666667,4,2,0,40,0,0
104504,-100,4,2,0,40,0,0
105704,-90.9090909090909,4,2,0,80,0,1
108447,-71.4285714285714,4,2,0,80,0,1
108790,-125,4,2,0,80,0,1
109132,-76.9230769230769,4,2,0,80,0,1
110504,-90.9090909090909,4,2,0,80,0,1
113932,-71.4285714285714,4,2,0,80,0,1
114275,-125,4,2,0,80,0,1
114618,-76.9230769230769,4,2,0,80,0,1
115990,-90.9090909090909,4,2,0,80,0,1
124904,-71.4285714285714,4,2,0,80,0,1
125247,-125,4,2,0,80,0,1
125590,-76.9230769230769,4,2,0,80,0,1
126275,-100,4,2,0,70,0,0
127132,-125,4,2,0,70,0,0
127647,-100,4,2,0,70,0,0
138618,-125,4,2,0,70,0,0
141018,-100,4,2,0,70,0,0
141361,-83.3333333333333,4,2,0,70,0,0
141704,-166.666666666667,4,2,0,70,0,0
142047,-83.3333333333333,4,2,0,70,0,0
142390,-166.666666666667,4,2,0,70,0,0
142732,-83.3333333333333,4,2,0,70,0,0
143075,-166.666666666667,4,2,0,70,0,0
143418,-83.3333333333333,4,2,0,70,0,0
143761,-166.666666666667,4,2,0,70,0,0
144104,-125,4,2,0,70,0,0
146504,-100,4,2,0,70,0,0
146847,-83.3333333333333,4,2,0,70,0,0
147190,-166.666666666667,4,2,0,70,0,0
147532,-83.3333333333333,4,2,0,70,0,0
147875,-166.666666666667,4,2,0,70,0,0
148218,-83.3333333333333,4,2,0,70,0,0
148561,-166.666666666667,4,2,0,70,0,0
148904,-83.3333333333333,4,2,0,70,0,0
149590,-125,4,2,0,70,0,0
151990,-100,4,2,0,70,0,0
152332,-83.3333333333333,4,2,0,70,0,0
152675,-166.666666666667,4,2,0,70,0,0
153018,-83.3333333333333,4,2,0,70,0,0
153361,-166.666666666667,4,2,0,70,0,0
153704,-83.3333333333333,4,2,0,70,0,0
154047,-166.666666666667,4,2,0,70,0,0
154390,-83.3333333333333,4,2,0,70,0,0
154732,-125,4,2,0,70,0,0
157818,-100,4,2,0,70,0,0
160561,-100,4,2,0,40,0,0
161590,-66.6666666666667,4,2,0,70,0,0
161932,-125,4,2,0,70,0,0
167418,-111.111111111111,4,2,0,70,0,0
170161,-100,4,2,0,70,0,0
171532,-83.3333333333333,4,2,0,70,0,0
172218,-71.4285714285714,4,2,0,70,0,0
172904,-125,4,2,0,90,0,0
172990,-125,4,2,0,30,0,0
174275,-125,4,2,0,5,0,0
174447,-100,4,2,0,60,0,0
175647,-90.9090909090909,4,2,0,80,0,1
178390,-71.4285714285714,4,2,0,80,0,1
178732,-125,4,2,0,80,0,1
179075,-76.9230769230769,4,2,0,80,0,1
180447,-90.9090909090909,4,2,0,80,0,1
183875,-71.4285714285714,4,2,0,80,0,1
184218,-125,4,2,0,80,0,1
184561,-76.9230769230769,4,2,0,80,0,1
186618,-90.9090909090909,4,2,0,80,0,1
194847,-71.4285714285714,4,2,0,80,0,1
195190,-125,4,2,0,80,0,1
195532,-76.9230769230769,4,2,0,80,0,1
196218,-100,4,2,0,70,0,0
198275,-83.3333333333333,4,2,0,70,0,0
198618,-71.4285714285714,4,2,0,85,0,0
198875,-100,4,2,0,5,0,0
198961,-100,4,2,0,100,0,1
199047,-100,4,2,0,5,0,0

[HitObjects]
172,280,5589,5,2,0:0:0:0:
240,128,5761,2,0,L|296:132,2,45.5
128,176,6104,1,0,0:0:0:0:
316,216,6275,2,0,P|348:192|372:132,1,91
256,8,6618,2,0,P|280:40|340:64,1,91
460,60,6961,6,0,L|456:204,1,136.5,6|0,0:0|0:0,0:0:0:0:
500,252,7304,6,0,B|452:248|396:264,1,91,8|0,0:0|0:0,0:0:0:0:
308,368,7647,2,0,B|218:375,1,91,2|0,0:0|0:0,0:0:0:0:
120,228,7989,1,8,0:0:0:0:
260,296,8161,1,0,0:0:0:0:
100,328,8332,5,2,0:0:0:0:
288,288,8504,1,0,0:0:0:0:
120,228,8675,2,0,B|112:184|112:184|120:124,1,91,8|0,0:0|0:0,0:0:0:0:
200,24,9018,1,2,0:0:0:0:
252,188,9190,2,0,L|200:184,1,45.5,2|0,0:0|0:0,0:0:0:0:
84,64,9361,1,8,0:0:0:0:
44,220,9532,1,2,0:0:0:0:
196,200,9704,6,0,L|292:196,1,91,2|0,0:0|0:0,0:0:0:0:
376,88,10047,1,8,0:0:0:0:
368,268,10218,6,0,P|380:208|380:156,1,91,0|2,0:0|0:0,0:0:0:0:
240,40,10561,2,0,P|252:100|252:152,1,91,0|8,0:0|0:0,0:0:0:0:
152,268,10904,2,0,L|160:368,2,91,0|2|0,0:0|0:0|0:0,0:0:0:0:
68,112,11418,1,8,0:0:0:0:
228,192,11590,1,0,0:0:0:0:
60,220,11761,1,2,0:0:0:0:
220,292,11932,2,0,L|265:295,1,45.5,2|0,0:0|0:0,0:0:0:0:
376,340,12104,6,0,B|368:316|384:272|384:272|352:232|352:232|364:200|356:152,1,177.449991876984,2|0,0:0|0:0,0:0:0:0:
408,108,12447,6,0,P|312:160|280:44,1,254.8,4|0,0:0|0:0,0:0:0:0:
336,92,13132,6,0,B|288:76|256:100|256:100|216:124|164:108,1,163.799995001221,8|0,0:0|0:0,0:0:0:0:
160,0,13647,1,0,0:0:0:0:
68,80,13818,2,0,L|72:152,2,54.5999983337403,8|0|0,0:0|0:0|0:0,0:0:0:0:
40,220,14161,6,0,B|96:236|140:192|140:192|160:232|204:244,1,150.150004582214
212,288,14504,6,0,B|204:240|204:240|216:136|216:136|240:180,2,182,8|8|8,0:0|0:0|0:0,0:0:0:0:
296,344,15304,2,0,L|304:272,1,60.6666666666667
344,208,15532,6,0,L|336:52,1,136.5
376,8,15875,6,0,P|304:36|220:20,1,136.5,8|0,0:0|0:0,0:0:0:0:
160,88,16218,6,0,L|156:156,2,60.6666666666667
56,224,16561,2,0,L|52:144,2,60.6666666666667,8|0|0,0:0|0:0|0:0,0:0:0:0:
40,324,16904,6,0,B|96:286|96:286|180:300,1,136.5
204,360,17247,6,0,L|196:200,1,136.5,8|0,0:0|0:0,0:0:0:0:
244,156,17590,2,0,L|240:324,1,136.5,8|0,0:0|0:0,0:0:0:0:
164,296,17932,6,0,P|128:232|252:48,1,286.649991252136,4|0,0:0|0:0,0:0:0:0:
348,88,18618,6,0,P|384:152|268:344,1,286.649991252136,4|0,0:0|0:0,0:0:0:0:
164,296,19304,6,0,L|172:-12,1,286.649991252136,4|0,0:0|0:0,0:0:0:0:
342,13,19990,6,0,L|347:300,1,286.649991252136,4|0,0:0|0:0,0:0:0:0:
256,192,20675,5,4,0:1:0:0:
256,192,20761,12,0,21875,0:0:0:0:
324,236,22047,6,0,P|332:196|320:136,1,81.8999975006104,2|0,0:0|0:0,0:0:0:0:
244,76,22390,2,0,L|240:124,1,27.2999991668701,2|0,0:0|0:0,0:0:0:0:
144,88,22561,2,0,L|140:128,1,27.2999991668701
200,184,22732,2,0,L|196:232,1,27.2999991668701,2|0,0:0|0:0,0:0:0:0:
188,304,22904,5,2,0:0:0:0:
276,332,23075,1,2,0:0:0:0:
360,300,23247,1,2,0:0:0:0:
396,216,23418,6,0,B|408:160|380:116|380:116|332:160|268:128,1,182,6|8,0:0|0:0,0:0:0:0:
236,4,23932,2,0,P|292:24|328:68,1,91,0|2,0:0|0:0,0:0:0:0:
232,192,24275,2,0,P|218:134|235:79,1,91,0|8,0:0|0:0,0:0:0:0:
364,264,24618,6,0,B|312:260|312:260|256:284|256:284|184:280,1,182,2|2,0:0|0:0,0:0:0:0:
76,340,25132,1,8,0:0:0:0:
15,246,25304,2,0,L|12:156,1,91,2|0,0:0|0:0,0:0:0:0:
172,256,25647,2,0,L|165:346,1,91,2|8,0:0|0:0,0:0:0:0:
112,160,25990,1,0,0:0:0:0:
224,116,26161,2,0,L|296:120,2,45.5,2|0|0,0:0|0:0|0:0,0:0:0:0:
112,44,26504,2,0,L|56:48,2,45.5,8|0|2,0:0|0:0|0:0,0:0:0:0:
200,92,26761,1,0,0:0:0:0:
200,92,26847,6,0,L|300:88,1,91,2|0,0:0|0:0,0:0:0:0:
428,96,27190,1,8,0:0:0:0:
272,172,27361,2,0,B|324:180|356:148|356:148|392:188|460:180,1,182,0|2,0:0|0:0,0:0:0:0:
352,264,27875,1,8,0:0:0:0:
356,128,28047,1,0,0:0:0:0:
212,224,28218,6,0,L|116:224,1,91,2|0,0:0|0:0,0:0:0:0:
312,328,28561,2,0,B|324:284|324:284|320:184,1,136.5,8|0,0:0|0:0,0:0:0:0:
276,120,28904,6,0,L|168:120,1,91,2|0,0:0|0:0,0:0:0:0:
288,28,29247,1,8,0:0:0:0:
104,88,29418,2,0,P|100:136|124:184,1,91,2|0,0:0|0:0,0:0:0:0:
272,256,29761,2,0,P|230:239|185:243,1,91,2|8,0:0|0:0,0:0:0:0:
52,324,30104,2,0,P|93:340|138:336,1,91,0|2,0:0|0:0,0:0:0:0:
216,144,30447,6,0,L|220:332,1,182
324,220,30961,1,0,0:0:0:0:
128,144,31132,1,0,0:0:0:0:
128,144,31218,1,0,0:0:0:0:
128,144,31304,2,0,L|124:36,1,91,8|0,0:0|0:0,0:0:0:0:
268,80,31647,5,2,0:0:0:0:
264,124,31732,1,0,0:0:0:0:
260,168,31818,2,0,P|248:192|216:216,1,45.5
148,232,31990,5,8,0:0:0:0:
152,276,32075,1,0,0:0:0:0:
156,320,32161,2,0,P|168:344|200:368,1,45.5
296,272,32332,2,0,P|324:244|348:188,1,91,0|2,0:0|0:0,0:0:0:0:
272,48,32675,1,8,0:0:0:0:
392,112,32847,1,0,0:0:0:0:
252,184,33018,6,0,L|152:188,1,91,2|0,0:0|0:0,0:0:0:0:
104,72,33361,1,8,0:0:0:0:
76,232,33532,2,0,B|68:188|68:188|80:128,1,91,2|0,0:0|0:0,0:0:0:0:
188,80,33875,1,2,0:0:0:0:
172,264,34047,2,0,B|212:260|212:260|264:272|264:272|320:268,1,136.5,8|0,0:0|0:0,0:0:0:0:
360,316,34390,6,0,L|356:200,1,91,4|0,0:0|0:0,0:0:0:0:
268,64,34732,2,0,L|264:154,1,91,8|2,0:0|0:0,0:0:0:0:
256,304,35075,1,0,0:0:0:0:
156,184,35247,1,2,0:0:0:0:
320,244,35418,1,8,0:0:0:0:
188,352,35590,1,0,0:0:0:0:
64,256,35761,6,0,P|48:208|48:148,1,91,2|0,0:0|0:0,0:0:0:0:
132,120,36018,1,0,0:0:0:0:
132,120,36104,2,0,L|244:116,1,91,8|2,0:0|0:0,0:0:0:0:
320,244,36447,1,0,0:0:0:0:
324,80,36618,1,2,0:0:0:0:
216,220,36790,2,0,P|216:272|236:312,1,91,8|0,0:0|0:0,0:0:0:0:
410,244,37132,6,0,L|313:243,1,91,2|0,0:0|0:0,0:0:0:0:
222,116,37475,2,0,L|131:119,1,91,8|2,0:0|0:0,0:0:0:0:
112,296,37818,1,0,0:0:0:0:
216,224,37990,1,2,0:0:0:0:
52,168,38161,1,8,0:0:0:0:
228,124,38332,1,0,0:0:0:0:
228,124,38418,1,0,0:0:0:0:
228,124,38504,6,0,L|340:120,1,91,2|0,0:0|0:0,0:0:0:0:
364,224,38847,1,8,0:0:0:0:
420,72,39018,1,2,0:0:0:0:
464,276,39190,2,0,B|472:232|472:232|464:168,1,91,0|2,0:0|0:0,0:0:0:0:
344,304,39532,2,0,B|240:296|240:296|192:320,1,136.5,8|0,0:0|0:0,0:0:0:0:
164,364,39875,6,0,P|172:296|160:204,1,136.5,2|0,0:0|0:0,0:0:0:0:
88,184,40218,2,0,L|252:188,1,136.5,8|0,0:0|0:0,0:0:0:0:
284,240,40561,2,0,P|276:172|288:80,1,136.5,2|0,0:0|0:0,0:0:0:0:
320,80,40904,1,8,0:0:0:0:
208,16,41075,1,0,0:0:0:0:
208,16,41161,1,0,0:0:0:0:
208,16,41247,6,0,L|104:20,1,91,2|0,0:0|0:0,0:0:0:0:
64,128,41590,1,8,0:0:0:0:
184,212,41761,2,0,L|192:108,2,91,2|0|2,0:0|0:0|0:0,0:0:0:0:
60,328,42275,2,0,L|56:220,1,91,8|0,0:0|0:0,0:0:0:0:
184,316,42618,6,0,B|244:304|244:304|296:324|296:324|368:312,1,182,2|8,0:0|0:0,0:0:0:0:
304,152,43132,2,0,P|316:196|308:244,1,91,2|0,0:0|0:0,0:0:0:0:
256,76,43475,2,0,P|300:64|348:72,1,91,0|8,0:0|0:0,0:0:0:0:
228,200,43818,2,0,L|164:196,1,45.5
60,108,43990,5,2,0:0:0:0:
96,280,44161,1,0,0:0:0:0:
96,280,44247,1,0,0:0:0:0:
96,280,44332,2,0,L|204:276,1,91,8|2,0:0|0:0,0:0:0:0:
364,204,44675,1,0,0:0:0:0:
176,280,44847,1,2,0:0:0:0:
324,344,45018,1,0,0:0:0:0:
244,160,45190,1,0,0:0:0:0:
276,252,45361,5,2,0:0:0:0:
244,160,45532,1,0,0:0:0:0:
312,96,45704,2,0,L|320:28,1,54.5999983337403,8|0,0:0|0:0,0:0:0:0:
204,76,46047,5,2,0:0:0:0:
244,160,46218,1,0,0:0:0:0:
152,196,46390,2,0,L|84:192,1,54.5999983337403,8|0,0:0|0:0,0:0:0:0:
160,288,46647,1,0,0:0:0:0:
160,288,46732,6,0,L|232:292,1,54.5999983337403,2|0,0:0|0:0,0:0:0:0:
292,284,47075,1,8,0:0:0:0:
360,240,47247,1,0,0:0:0:0:
384,164,47418,1,2,0:0:0:0:
360,88,47590,1,0,0:0:0:0:
292,48,47761,1,8,0:0:0:0:
212,56,47932,1,0,0:0:0:0:
160,116,48104,5,2,0:0:0:0:
160,116,48447,1,0,0:0:0:0:
296,288,48789,1,0,0:0:0:0:
296,288,49132,1,0,0:0:0:0:
268,164,49475,1,0,0:0:0:0:
104,200,49647,5,2,0:0:0:0:
60,196,49732,1,0,0:0:0:0:
16,188,49818,1,2,0:0:0:0:
192,64,49990,1,2,0:0:0:0:
208,268,50161,6,0,P|224:208|216:160,1,91,2|2,0:0|0:0,0:0:0:0:
92,32,50504,2,0,P|91:77|105:120,1,91,2|2,0:0|0:0,0:0:0:0:
196,68,50761,1,0,0:0:0:0:
196,68,50847,6,0,L|308:64,1,100.10000305481,4|0,0:1|0:0,0:0:0:0:
420,116,51190,1,8,0:0:0:0:
248,172,51361,2,0,L|304:168,1,50.0500015274048
432,272,51532,2,0,L|312:268,1,100.10000305481,2|0,0:0|0:0,0:0:0:0:
224,312,51875,1,8,0:0:0:0:
84,252,52047,2,0,L|76:32,1,200.200006109619
176,80,52475,1,0,0:0:0:0:
176,80,52561,6,0,P|232:80|280:100,1,100.10000305481,8|0,0:0|0:0,0:0:0:0:
324,304,52904,2,0,L|328:184,1,100.10000305481,2|0,0:0|0:0,0:0:0:0:
212,156,53247,1,8,0:0:0:0:
408,124,53418,2,0,L|348:132,1,50.0500015274048
228,244,53590,6,0,B|180:248|144:212|144:212|132:264|80:284,1,191.099994168091,4|0,0:0|0:0,0:0:0:0:
176,324,53932,2,0,L|180:368,1,36.4,2|0,0:0|0:0,0:0:0:0:
296,300,54104,2,0,L|300:344,1,36.4,2|0,0:0|0:0,0:0:0:0:
408,259,54275,6,0,B|372:255|348:211|348:211|304:207|304:207|288:179|252:163,1,177.449991876984,8|0,0:0|0:0,0:0:0:0:
208,128,54618,1,0,0:0:0:0:
376,20,54790,1,0,0:0:0:0:
176,20,54961,5,4,0:0:0:0:
356,136,55132,2,0,L|408:132,4,29.574998646164,0|0|0|0|2,0:0|0:0|0:0|0:0|0:0,0:0:0:0:
176,240,55475,1,0,0:0:0:0:
260,80,55647,6,0,P|252:126|256:188,1,100.10000305481,8|0,0:0|0:0,0:0:0:0:
84,224,55990,2,0,P|92:270|88:332,1,100.10000305481,8|0,0:0|0:0,0:0:0:0:
248,344,56332,6,0,P|304:352|376:332,1,100.10000305481,4|0,0:0|0:0,0:0:0:0:
428,288,56590,1,0,0:0:0:0:
428,288,56675,2,0,L|424:160,1,100.10000305481,8|0,0:0|0:0,0:0:0:0:
304,60,57018,2,0,L|300:188,1,100.10000305481,2|0,0:0|0:0,0:0:0:0:
192,264,57361,1,8,0:0:0:0:
96,128,57532,2,0,P|165:72|277:148,1,200.200006109619
88,220,58047,6,0,P|42:200|15:158,1,100.10000305481,8|0,0:0|0:0,0:0:0:0:
108,40,58390,2,0,P|168:76|184:124,1,100.10000305481,2|0,0:0|0:0,0:0:0:0:
176,264,58732,1,8,0:0:0:0:
300,160,58904,2,0,L|368:164,1,50.0500015274048
452,300,59075,6,0,B|428:310|396:294|396:294|362:314|362:314|328:298|328:298|301:316|275:309,1,191.099994168091,4|0,0:0|0:0,0:0:0:0:
176,264,59418,2,0,L|172:204,1,36.4,2|0,0:0|0:0,0:0:0:0:
72,192,59590,2,0,L|68:136,1,36.4,2|0,0:0|0:0,0:0:0:0:
96,44,59761,6,0,B|144:52|144:52|176:92|176:92|212:72|260:84,1,177.449991876984,8|0,0:0|0:0,0:0:0:0:
312,32,60104,1,2,0:0:0:0:
224,168,60275,1,0,0:0:0:0:
204,8,60447,5,4,0:0:0:0:
396,112,60618,2,0,L|440:108,4,29.574998646164,0|0|0|0|2,0:0|0:0|0:0|0:0|0:0,0:0:0:0:
208,192,60961,1,0,0:0:0:0:
392,288,61132,5,8,0:0:0:0:
172,320,61303,1,0,0:0:0:0:
280,156,61475,5,8,0:0:0:0:
316,380,61647,1,0,0:0:0:0:
60,264,61818,6,0,B|60:156,1,100.10000305481,4|0,0:0|0:0,0:0:0:0:
96,96,62075,1,0,0:0:0:0:
96,96,62161,2,0,P|152:100|216:84,1,100.10000305481,8|0,0:0|0:0,0:0:0:0:
328,40,62504,2,0,P|324:96|340:160,1,100.10000305481,2|0,0:0|0:0,0:0:0:0:
416,232,62847,1,8,0:0:0:0:
304,304,63018,2,0,B|256:268|204:288|204:288|168:344|80:328,1,200.200006109619
24,236,63532,2,0,L|144:240,1,100.10000305481,8|0,0:0|0:0,0:0:0:0:
200,68,63875,2,0,L|80:72,1,100.10000305481,2|0,0:0|0:0,0:0:0:0:
24,76,64132,1,0,0:0:0:0:
24,76,64218,1,8,0:0:0:0:
160,160,64390,5,0,0:0:0:0:
160,160,64476,1,0,0:0:0:0:
160,160,64562,2,0,B|216:152|216:152|256:168|256:168|348:164,1,150.150004582214,4|0,0:0|0:0,0:0:0:0:
360,216,64904,2,0,L|356:76,1,100.10000305481,8|0,0:0|0:0,0:0:0:0:
488,204,65247,2,0,L|484:344,1,100.10000305481,2|0,0:0|0:0,0:0:0:0:
368,344,65590,1,8,0:0:0:0:
243,254,65761,1,0,0:0:0:0:
243,254,65847,1,0,0:0:0:0:
243,254,65932,1,2,0:0:0:0:
336,256,66104,5,0,0:0:0:0:
124,288,66275,1,8,0:0:0:0:
208,132,66447,1,0,0:0:0:0:
208,132,66533,1,0,0:0:0:0:
208,132,66618,2,0,P|258:137|336:128,1,100.10000305481,2|0,0:0|0:0,0:0:0:0:
372,48,66875,1,0,0:0:0:0:
372,48,66961,2,0,P|408:124|380:216,1,150.150004582214,8|0,0:0|0:0,0:0:0:0:
340,260,67304,6,0,B|228:264|228:264|156:240,1,150.150004582214,4|0,0:0|0:0,0:0:0:0:
136,200,67647,2,0,P|132:272|100:320,1,100.10000305481,8|0,0:0|0:0,0:0:0:0:
0,216,67990,2,0,P|4:144|36:96,1,100.10000305481,2|0,0:0|0:0,0:0:0:0:
116,16,68332,1,8,0:0:0:0:
208,132,68504,1,0,0:0:0:0:
208,132,68590,1,0,0:0:0:0:
208,132,68675,2,0,P|276:120|316:44,1,150.150004582214,2|0,0:0|0:0,0:0:0:0:
360,0,69018,6,0,L|364:144,1,100.10000305481,8|0,0:0|0:0,0:0:0:0:
480,188,69361,2,0,L|476:304,1,100.10000305481,2|0,0:0|0:0,0:0:0:0:
340,336,69704,1,8,0:0:0:0:
352,172,69875,2,0,L|348:240,1,50.0500015274048
340,336,70047,6,0,B|268:316|244:248|244:248|204:296|152:280,1,191.099994168091,4|0,0:0|0:0,0:0:0:0:
140,320,70390,2,0,L|136:383,1,63.6999980560303,2|0,0:0|0:0,0:0:0:0:
244,248,70561,2,0,L|248:160,1,63.6999980560303,2|0,0:0|0:0,0:0:0:0:
140,76,70732,6,0,B|76:36|76:36|84:160,1,191.099994168091,4|0,0:0|0:0,0:0:0:0:
88,224,71075,1,2,0:0:0:0:
204,120,71247,1,2,0:0:0:0:
332,204,71418,5,2,0:0:0:0:
380,124,71761,1,2,0:0:0:0:
432,44,72104,1,2,0:0:0:0:
244,32,72275,2,0,L|332:36,1,45.5
464,152,72447,6,0,P|438:216|328:208,1,163.799995001221,4|0,0:0|0:0,0:0:0:0:
332,204,72790,1,4,0:0:0:0:
296,344,78275,6,0,L|300:216,1,91,4|0,0:1|0:0,0:0:0:0:
424,208,78618,2,0,L|432:128,3,45.5,8|0|2|0,0:0|0:0|0:0|0:0,0:0:0:0:
356,84,78961,6,0,P|287:85|220:64,1,136.5
192,92,79304,2,0,B|96:108|96:108|68:140,1,136.5,8|0,0:0|0:0,0:0:0:0:
76,232,79647,6,0,L|188:236,1,91,2|0,0:0|0:0,0:0:0:0:
248,304,79904,1,0,0:0:0:0:
248,304,79990,2,0,L|308:296,3,45.5,8|0|2|0,0:0|0:0|0:0|0:0,0:0:0:0:
348,232,80332,6,0,P|340:304|424:300,1,136.5
480,288,80675,2,0,L|472:136,1,136.5,8|0,0:0|0:0,0:0:0:0:
464,124,81018,6,0,L|476:72,3,45.5,4|0|0|0,0:0|0:0|0:0|0:0,0:0:0:0:
368,84,81361,5,8,0:0:0:0:
340,88,81447,1,0,0:0:0:0:
312,92,81532,1,2,0:0:0:0:
284,96,81618,1,0,0:0:0:0:
256,100,81704,2,0,L|196:88,2,45.5,0|0|2,0:0|0:0|0:0,0:0:0:0:
316,192,81961,1,0,0:0:0:0:
316,192,82047,2,0,L|268:196,1,45.5,8|0,0:0|0:0,0:0:0:0:
176,272,82218,2,0,L|232:276,1,45.5
332,348,82390,5,6,0:0:0:0:
340,320,82475,1,0,0:0:0:0:
352,296,82561,1,0,0:0:0:0:
376,280,82647,1,0,0:0:0:0:
404,272,82732,5,8,0:0:0:0:
400,228,82818,1,0,0:0:0:0:
396,184,82904,1,2,0:0:0:0:
392,140,82990,1,0,0:0:0:0:
388,96,83075,6,0,L|312:100,1,45.5
241,38,83247,2,0,L|177:34,1,45.5,2|0,0:0|0:0,0:0:0:0:
56,88,83418,2,0,L|144:96,1,45.5,8|0,0:0|0:0,0:0:0:0:
237,150,83590,2,0,L|173:154,1,45.5
81,218,83761,6,0,L|85:274,3,45.5,6|0|0|0,0:0|0:0|0:0|0:0,0:0:0:0:
196,284,84104,2,0,L|204:220,3,45.5,8|0|2|0,0:0|0:0|0:0|0:0,0:0:0:0:
313,278,84447,6,0,L|417:270,1,91,0|2,0:0|0:0,0:0:0:0:
485,182,84704,1,0,0:0:0:0:
485,182,84790,2,0,L|409:178,1,45.5,8|0,0:0|0:0,0:0:0:0:
305,110,84961,2,0,L|361:106,1,45.5
449,46,85132,5,2,0:0:0:0:
405,42,85218,1,0,0:0:0:0:
361,38,85304,1,0,0:0:0:0:
317,34,85390,1,0,0:0:0:0:
273,42,85475,2,0,L|201:46,1,45.5,8|0,0:0|0:0,0:0:0:0:
297,190,85647,2,0,L|357:186,1,45.5,2|0,0:0|0:0,0:0:0:0:
212,276,85818,6,0,L|156:272,1,45.5
44,184,85990,2,0,L|112:180,1,45.5,2|0,0:0|0:0,0:0:0:0:
128,88,86161,2,0,P|180:132|172:228,1,136.5,8|0,0:0|0:0,0:0:0:0:
168,272,86504,5,2,0:0:0:0:
212,276,86590,1,0,0:0:0:0:
256,280,86675,1,0,0:0:0:0:
300,284,86761,1,0,0:0:0:0:
344,288,86847,6,0,B|336:212|336:212|384:144,1,136.5,4|0,0:0|0:0,0:0:0:0:
473,228,87190,6,0,L|428:232,3,45.5,2|0|0|0,0:0|0:0|0:0|0:0,0:0:0:0:
304,124,87532,6,0,B|340:80|392:88|392:88|368:60|340:56,1,136.5,4|0,0:0|0:0,0:0:0:0:
244,20,87875,6,0,L|248:76,1,45.5,2|0,0:0|0:0,0:0:0:0:
128,52,88047,2,0,L|132:104,1,45.5
144,224,88218,5,8,0:0:0:0:
128,244,88304,1,0,0:0:0:0:
108,264,88390,1,2,0:0:0:0:
84,276,88475,1,0,0:0:0:0:
60,284,88561,5,8,0:0:0:0:
104,296,88647,1,0,0:0:0:0:
148,296,88732,1,8,0:0:0:0:
192,284,88818,1,0,0:0:0:0:
224,252,88904,2,0,B|256:252|276:236|276:236|308:244|308:244|332:232|384:240,1,136.5,12|0,0:0|0:0,0:0:0:0:
412,288,89247,6,0,P|408:220|416:172,1,91,4|0,0:1|0:0,0:0:0:0:
300,28,89590,2,0,P|304:96|296:144,1,91,8|2,0:0|0:0,0:0:0:0:
152,168,89932,1,0,0:0:0:0:
224,76,90104,1,2,0:0:0:0:
68,120,90275,2,0,P|60:180|76:236,1,91,8|0,0:0|0:0,0:0:0:0:
224,224,90618,6,0,L|220:276,3,45.5,2|0|0|0,0:0|0:0|0:0|0:0,0:0:0:0:
144,312,90961,5,8,0:0:0:0:
178,341,91046,1,0,0:0:0:0:
221,353,91132,1,2,0:0:0:0:
266,345,91218,1,0,0:0:0:0:
304,316,91304,2,0,L|308:248,1,45.5
412,244,91475,2,0,L|416:184,1,45.5,2|0,0:0|0:0,0:0:0:0:
424,68,91647,2,0,B|376:72|376:72|345:94|345:94|316:72|272:68,1,136.5,8|0,0:0|0:0,0:0:0:0:
224,116,91990,5,4,0:0:0:0:
224,116,92075,2,0,L|140:120,2,50.0500015274048
52,28,92332,2,0,L|116:32,2,50.0500015274048,8|0|2,0:0|0:0|0:0,0:0:0:0:
80,200,92675,6,0,P|52:148|60:88,1,100.10000305481,0|2,0:0|0:0,0:0:0:0:
224,184,93018,2,0,L|220:300,1,100.10000305481,8|0,0:0|0:0,0:0:0:0:
144,332,93275,1,0,0:0:0:0:
144,332,93361,6,0,L|147:384,1,52.3250009980202,4|0,0:0|0:0,0:0:0:0:
252,307,93532,2,0,L|256:360,1,52.3250009980202
360,256,93704,2,0,L|356:203,1,52.3250009980202,8|0,0:0|0:0,0:0:0:0:
472,236,93875,2,0,L|468:183,1,52.3250009980202,2|0,0:0|0:0,0:0:0:0:
456,68,94047,5,0,0:0:0:0:
405,79,94132,1,0,0:0:0:0:
353,73,94218,1,2,0:0:0:0:
307,49,94304,1,0,0:0:0:0:
280,4,94390,2,0,L|276:184,1,156.975002994061,8|0,0:0|0:0,0:0:0:0:
224,224,94732,6,0,L|220:116,1,104.65000199604,2|0,0:0|0:0,0:0:0:0:
108,36,95075,2,0,L|112:120,3,52.3250009980202,8|0|2|0,0:0|0:0|0:0|0:0,0:0:0:0:
32,140,95418,5,0,0:0:0:0:
194,184,95590,1,2,0:0:0:0:
76,304,95761,5,8,0:0:0:0:
128,316,95847,1,0,0:0:0:0:
180,312,95932,1,0,0:0:0:0:
224,284,96018,1,0,0:0:0:0:
260,244,96104,6,0,P|280:204|260:104,1,104.65000199604,4|0,0:0|0:0,0:0:0:0:
96,164,96447,2,0,P|136:184|236:164,1,104.65000199604,8|2,0:0|0:0,0:0:0:0:
344,72,96790,2,0,P|304:52|204:72,1,104.65000199604,0|2,0:0|0:0,0:0:0:0:
364,176,97132,2,0,L|360:288,1,104.65000199604,8|0,0:0|0:0,0:0:0:0:
488,180,97475,6,0,L|484:68,1,104.65000199604,4|0,0:0|0:0,0:0:0:0:
364,176,97818,2,0,L|360:288,1,104.65000199604,0|2,0:0|0:0,0:0:0:0:
308,344,98075,1,0,0:0:0:0:
308,344,98161,2,0,P|264:332|180:344,1,104.65000199604,0|2,0:0|0:0,0:0:0:0:
72,360,98504,1,8,0:0:0:0:
120,252,98675,1,0,0:0:0:0:
120,252,98761,1,0,0:0:0:0:
120,252,98847,6,0,L|116:136,1,104.65000199604,4|0,0:0|0:0,0:0:0:0:
268,52,99190,1,8,0:0:0:0:
100,152,99361,1,2,0:0:0:0:
236,180,99533,1,0,0:0:0:0:
124,20,99704,1,2,0:0:0:0:
248,200,99875,6,0,P|308:196|400:128,1,156.975002994061,12|0,0:0|0:0,0:0:0:0:
435,72,100218,5,2,0:0:0:0:
467,148,100390,1,0,0:0:0:0:
423,216,100561,2,0,L|427:280,1,54.5999983337403,8|0,0:0|0:0,0:0:0:0:
467,148,100904,5,2,0:0:0:0:
387,144,101075,1,0,0:0:0:0:
360,68,101247,2,0,L|284:64,1,54.5999983337403,8|0,0:0|0:0,0:0:0:0:
212,96,101504,1,0,0:0:0:0:
212,96,101590,6,0,L|136:100,1,54.5999983337403,2|0,0:0|0:0,0:0:0:0:
96,148,101932,1,8,0:0:0:0:
88,228,102104,1,0,0:0:0:0:
132,296,102276,1,0,0:0:0:0:
208,320,102447,1,2,0:0:0:0:
284,296,102619,1,8,0:0:0:0:
324,228,102790,1,0,0:0:0:0:
316,148,102961,5,2,0:0:0:0:
316,148,103304,1,0,0:0:0:0:
132,296,103647,1,0,0:0:0:0:
132,296,103990,1,0,0:0:0:0:
208,204,104332,1,0,0:0:0:0:
356,296,104504,5,2,0:0:0:0:
400,296,104590,1,0,0:0:0:0:
444,296,104675,1,8,0:0:0:0:
300,152,104847,1,2,0:0:0:0:
212,332,105018,5,2,0:0:0:0:
212,332,105104,1,2,0:0:0:0:
212,332,105190,1,2,0:0:0:0:
316,136,105361,1,8,0:0:0:0:
92,152,105532,2,8,L|69:154,3,22.75
124,172,105704,6,0,P|132:112|124:60,1,100.10000305481,4|0,0:0|0:0,0:0:0:0:
319,37,106047,2,0,P|311:97|319:149,1,100.10000305481,8|0,0:0|0:0,0:0:0:0:
472,204,106390,1,2,0:0:0:0:
388,88,106561,1,0,0:0:0:0:
340,228,106732,1,8,0:0:0:0:
432,344,106904,2,0,B|392:320|392:320|356:348|320:344|320:344|288:320|228:328,1,200.200006109619
152,360,107332,1,0,0:0:0:0:
152,360,107418,6,0,L|144:248,1,100.10000305481,8|0,0:0|0:0,0:0:0:0:
88,100,107761,2,0,P|156:112|216:100,1,100.10000305481,2|0,0:0|0:0,0:0:0:0:
308,44,108104,1,8,0:0:0:0:
460,108,108275,2,0,L|392:116,1,50.0500015274048
252,148,108447,6,0,B|292:164|340:132|340:132|296:168|304:248,1,191.099994168091,4|0,0:0|0:0,0:0:0:0:
388,204,108790,2,0,L|444:220,1,36.4,2|0,0:0|0:0,0:0:0:0:
312,312,108961,2,0,L|368:328,1,36.4,2|0,0:0|0:0,0:0:0:0:
212,376,109132,6,0,B|212:340|200:312|200:312|215:281|208:244|208:244|188:276|148:284,1,177.449991876984,8|0,0:0|0:0,0:0:0:0:
108,296,109475,1,2,0:0:0:0:
304,220,109647,1,0,0:0:0:0:
212,376,109818,5,4,0:0:0:0:
88,200,109990,2,0,L|58:202,4,29.574998646164,0|0|0|0|2,0:0|0:0|0:0|0:0|0:0,0:0:0:0:
308,180,110332,1,2,0:0:0:0:
178,273,110504,6,0,P|194:213|186:153,1,100.10000305481,8|0,0:0|0:0,0:0:0:0:
64,8,110847,2,0,P|48:68|56:128,1,100.10000305481,8|0,0:0|0:0,0:0:0:0:
200,64,111190,6,0,L|316:68,1,100.10000305481,4|0,0:0|0:0,0:0:0:0:
396,24,111447,1,0,0:0:0:0:
396,24,111532,2,0,P|392:76|404:128,1,100.10000305481,8|0,0:0|0:0,0:0:0:0:
476,252,111875,2,0,L|348:256,1,100.10000305481,2|0,0:0|0:0,0:0:0:0:
256,192,112218,1,8,0:0:0:0:
208,316,112390,2,0,L|212:108,1,200.200006109619
52,16,112904,6,0,L|56:144,1,100.10000305481,8|0,0:0|0:0,0:0:0:0:
144,220,113247,2,0,L|140:332,1,100.10000305481,2|0,0:0|0:0,0:0:0:0:
60,192,113590,1,8,0:0:0:0:
240,276,113761,2,0,L|304:272,1,50.0500015274048
384,340,113932,6,0,B|400:276|376:208|376:208|392:236|424:248,1,191.099994168091,4|0,0:0|0:0,0:0:0:0:
480,316,114275,2,0,L|492:248,1,36.4,2|0,0:0|0:0,0:0:0:0:
452,160,114447,2,0,L|464:92,1,36.4,2|0,0:0|0:0,0:0:0:0:
480,24,114618,6,0,B|424:24|424:24|376:52|376:52|340:28|314:28,1,177.449991876984,8|0,0:0|0:0,0:0:0:0:
244,8,114961,1,2,0:0:0:0:
72,152,115132,1,0,0:0:0:0:
80,0,115304,5,4,0:0:0:0:
236,168,115475,2,0,L|288:168,4,29.574998646164,0|0|0|0|2,0:0|0:0|0:0|0:0|0:0,0:0:0:0:
64,284,115818,1,2,0:0:0:0:
240,348,115990,6,0,L|236:228,1,100.10000305481,8|0,0:0|0:0,0:0:0:0:
392,164,116332,2,0,L|388:284,1,100.10000305481,8|0,0:0|0:0,0:0:0:0:
472,120,116675,6,0,P|420:80|356:80,1,100.10000305481,4|0,0:0|0:0,0:0:0:0:
280,96,116932,1,0,0:0:0:0:
280,96,117018,2,0,L|144:88,1,100.10000305481,8|0,0:0|0:0,0:0:0:0:
48,180,117361,1,2,0:0:0:0:
160,208,117532,1,0,0:0:0:0:
72,64,117704,1,8,0:0:0:0:
160,208,117875,2,0,P|216:196|316:304,1,200.200006109619
208,308,118304,1,0,0:0:0:0:
208,308,118390,6,0,L|88:312,1,100.10000305481,8|0,0:0|0:0,0:0:0:0:
248,204,118732,2,0,L|368:208,1,100.10000305481,2|0,0:0|0:0,0:0:0:0:
376,348,119075,1,8,0:0:0:0:
464,264,119247,2,0,L|460:192,1,50.0500015274048
504,96,119418,6,4,B|448:76|400:104|400:104|352:132|304:108,1,200.200006109619,0|8,0:0|0:0,0:0:0:0:
128,48,119932,1,0,0:0:0:0:
188,216,120104,2,0,L|192:96,1,100.10000305481,2|0,0:0|0:0,0:0:0:0:
64,0,120447,1,8,0:0:0:0:
36,168,120618,1,0,0:0:0:0:
36,168,120704,1,0,0:0:0:0:
36,168,120790,6,0,L|40:284,1,100.10000305481,2|0,0:0|0:0,0:0:0:0:
216,332,121132,1,8,0:0:0:0:
48,364,121304,2,0,L|120:352,1,50.0500015274048
228,248,121475,2,0,P|276:272|296:344,1,100.10000305481,2|0,0:0|0:0,0:0:0:0:
144,260,121732,1,0,0:0:0:0:
144,260,121818,2,0,P|156:196|244:164,1,150.150004582214,8|0,0:0|0:0,0:0:0:0:
312,208,122161,6,0,B|320:176|320:176|320:76,1,100.10000305481,4|0,0:0|0:0,0:0:0:0:
404,32,122418,1,0,0:0:0:0:
404,32,122504,2,0,L|408:144,1,100.10000305481,8|0,0:0|0:0,0:0:0:0:
368,292,122847,1,2,0:0:0:0:
227,161,123018,1,0,0:0:0:0:
448,212,123190,1,8,0:0:0:0:
292,360,123361,2,0,B|233:366|233:366|64:332,1,200.200006109619
36,183,123875,6,0,P|30:233|41:282,1,100.10000305481,8|0,0:0|0:0,0:0:0:0:
195,232,124218,2,0,P|201:182|190:133,1,100.10000305481,2|0,0:0|0:0,0:0:0:0:
64,44,124561,1,8,0:0:0:0:
232,28,124732,2,0,L|300:32,1,50.0500015274048
416,40,124904,6,0,B|504:44|504:44|432:168,1,191.099994168091,4|0,0:0|0:0,0:0:0:0:
376,200,125247,2,0,L|378:236,1,36.4,2|0,0:0|0:0,0:0:0:0:
296,284,125418,2,0,L|298:320,1,36.4,2|0,0:0|0:0,0:0:0:0:
284,160,125590,6,0,B|253:142|236:104|236:104|238:177|212:244,1,177.449991876984,4|0,0:0|0:0,0:0:0:0:
220,284,125932,2,0,L|224:364,1,59.149997292328,2|0,0:0|0:0,0:0:0:0:
116,180,126104,2,0,L|120:268,1,59.149997292328,2|0,0:0|0:0,0:0:0:0:
20,88,126275,5,2,0:0:0:0:
144,68,126618,1,2,0:0:0:0:
276,80,126961,1,2,0:0:0:0:
396,56,127132,6,0,L|444:64,1,36.4,2|0,0:1|0:0,0:0:0:0:
392,164,127304,2,0,L|427:169,1,36.4,2|0,0:1|0:0,0:0:0:0:
392,268,127475,2,0,L|427:273,1,36.4,2|0,0:1|0:0,0:0:0:0:
416,376,127647,6,0,B|332:376|300:312|300:312|288:344|236:360,1,182,4|8,0:0|0:0,0:0:0:0:
132,344,128161,1,0,0:0:0:0:
288,212,128332,2,0,L|296:156,2,45.5,2|0|0,0:0|0:0|0:0,0:0:0:0:
272,368,128675,1,8,0:0:0:0:
160,196,128847,1,0,0:0:0:0:
0,328,129018,5,2,0:0:0:0:
0,328,129104,1,0,0:0:0:0:
72,184,129275,1,0,0:0:0:0:
72,184,129361,1,8,0:0:0:0:
12,16,129532,1,0,0:0:0:0:
184,88,129704,1,2,0:0:0:0:
336,20,129875,5,0,0:0:0:0:
336,64,129961,1,0,0:0:0:0:
336,108,130047,1,8,0:0:0:0:
336,152,130132,1,0,0:0:0:0:
336,196,130218,1,0,0:0:0:0:
336,240,130304,1,0,0:0:0:0:
336,284,130390,6,0,P|280:288|236:304,1,91,2|0,0:0|0:0,0:0:0:0:
160,356,130647,1,0,0:0:0:0:
160,356,130732,2,0,L|156:276,1,45.5,8|0,0:0|0:0,0:0:0:0:
156,200,130904,1,0,0:0:0:0:
236,128,131075,6,0,P|260:188|252:240,1,91,2|0,0:0|0:0,0:0:0:0:
76,272,131418,2,0,P|52:212|60:160,1,91,8|0,0:0|0:0,0:0:0:0:
160,56,131761,2,0,L|216:60,2,45.5,2|0|0,0:0|0:0|0:0,0:0:0:0:
32,88,132104,2,0,L|156:84,1,91,8|0,0:0|0:0,0:0:0:0:
370,68,132447,2,0,L|280:72,1,91,2|0,0:0|0:0,0:0:0:0:
372,172,132704,1,0,0:0:0:0:
372,172,132790,2,0,L|462:168,1,91,8|0,0:0|0:0,0:0:0:0:
296,236,133132,6,0,P|272:168|280:124,1,91,2|0,0:0|0:0,0:0:0:0:
444,240,133475,2,0,L|440:336,1,91,8|0,0:0|0:0,0:0:0:0:
368,204,133818,1,2,0:0:0:0:
264,312,133990,1,0,0:0:0:0:
264,312,134076,1,0,0:0:0:0:
264,312,134161,1,8,0:0:0:0:
140,204,134332,1,0,0:0:0:0:
20,300,134504,5,2,0:0:0:0:
156,188,134675,1,0,0:0:0:0:
20,84,134847,2,0,L|28:208,1,91,8|0,0:0|0:0,0:0:0:0:
196,104,135190,2,0,L|200:8,1,91,2|0,0:0|0:0,0:0:0:0:
364,72,135532,2,0,L|368:168,1,91,8|0,0:0|0:0,0:0:0:0:
376,292,135875,5,2,0:0:0:0:
464,140,136047,1,0,0:0:0:0:
464,140,136133,1,0,0:0:0:0:
464,140,136218,1,8,0:0:0:0:
272,144,136390,1,0,0:0:0:0:
456,256,136561,6,0,P|460:312|440:356,1,91
200,280,136904,2,0,L|312:276,1,91,8|0,0:0|0:0,0:0:0:0:
368,205,137247,2,0,L|372:160,3,45.5,2|0|0|0,0:0|0:0|0:0|0:0,0:0:0:0:
404,80,137590,5,8,0:0:0:0:
359,72,137675,1,0,0:0:0:0:
317,88,137761,1,0,0:0:0:0:
276,107,137847,1,0,0:0:0:0:
231,105,137932,1,2,0:0:0:0:
192,80,138018,1,0,0:0:0:0:
168,40,138104,2,0,L|84:56,1,45.5
0,200,138275,2,0,L|116:216,1,91,8|0,0:0|0:0,0:0:0:0:
248,344,138618,6,0,L|256:256,1,72.8,4|0,0:0|0:0,0:0:0:0:
336,196,138961,1,8,0:0:0:0:
360,296,139132,1,0,0:0:0:0:
440,224,139304,2,0,L|448:140,1,72.8,2|0,0:0|0:0,0:0:0:0:
436,24,139647,2,0,L|352:32,1,72.8,8|0,0:0|0:0,0:0:0:0:
280,88,139904,1,0,0:0:0:0:
280,88,139990,6,0,L|196:84,1,72.8,2|0,0:0|0:0,0:0:0:0:
80,156,140332,1,8,0:0:0:0:
216,212,140504,1,0,0:0:0:0:
216,212,140590,1,0,0:0:0:0:
216,212,140675,2,0,L|212:288,1,72.8,2|0,0:0|0:0,0:0:0:0:
88,328,141018,2,0,P|124:268|204:288,1,136.5,8|0,0:0|0:0,0:0:0:0:
212,284,141361,6,0,L|284:284,1,54.5999983337403,2|0,0:0|0:0,0:0:0:0:
444,228,141532,2,0,L|368:224,1,54.5999983337403,2|0,0:0|0:0,0:0:0:0:
288,136,141704,6,0,P|340:112|360:72,1,81.8999975006104,8|0,0:0|0:0,0:0:0:0:
280,8,142047,6,0,L|284:72,1,54.5999983337403,2|0,0:0|0:0,0:0:0:0:
192,184,142218,2,0,L|188:112,1,54.5999983337403,2|0,0:0|0:0,0:0:0:0:
104,32,142390,6,0,P|80:60|64:116,1,81.8999975006104,8|0,0:0|0:0,0:0:0:0:
48,196,142732,6,0,L|112:200,1,54.5999983337403,2|0,0:0|0:0,0:0:0:0:
200,272,142904,2,0,L|272:268,1,54.5999983337403,2|0,0:0|0:0,0:0:0:0:
384,320,143075,6,0,P|368:268|372:228,1,81.8999975006104,8|0,0:0|0:0,0:0:0:0:
456,264,143418,6,0,L|512:268,1,54.5999983337403,2|0,0:0|0:0,0:0:0:0:
380,144,143590,2,0,L|312:148,1,54.5999983337403,2|0,0:0|0:0,0:0:0:0:
212,208,143761,6,0,L|216:112,1,81.8999975006104,8|0,0:0|0:0,0:0:0:0:
204,88,144104,6,0,L|120:92,1,72.8,4|0,0:0|0:0,0:0:0:0:
20,184,144447,2,0,L|12:88,1,72.8,8|0,0:0|0:0,0:0:0:0:
144,180,144790,2,0,L|136:280,1,72.8,2|0,0:0|0:0,0:0:0:0:
76,352,145132,1,8,0:0:0:0:
208,320,145304,1,0,0:0:0:0:
208,320,145390,1,0,0:0:0:0:
208,320,145475,6,0,L|288:324,1,72.8,2|0,0:0|0:0,0:0:0:0:
456,256,145818,2,0,L|368:260,1,72.8,8|0,0:0|0:0,0:0:0:0:
296,304,146075,1,0,0:0:0:0:
296,304,146161,2,0,P|286:261|296:216,1,72.8,2|0,0:0|0:0,0:0:0:0:
408,104,146504,6,0,P|400:160|320:160,1,136.5,8|0,0:0|0:0,0:0:0:0:
304,144,146847,6,0,L|308:72,1,54.5999983337403,2|0,0:0|0:0,0:0:0:0:
164,60,147018,2,0,L|168:132,1,54.5999983337403,2|0,0:0|0:0,0:0:0:0:
48,176,147190,6,0,L|44:280,1,81.8999975006104,8|0,0:0|0:0,0:0:0:0:
100,332,147532,6,0,L|96:268,1,54.5999983337403,2|0,0:0|0:0,0:0:0:0:
224,332,147704,2,0,L|220:268,1,54.5999983337403,2|0,0:0|0:0,0:0:0:0:
356,224,147875,6,0,L|352:328,1,81.8999975006104,8|0,0:0|0:0,0:0:0:0:
300,332,148218,6,0,L|304:248,1,54.5999983337403,2|0,0:0|0:0,0:0:0:0:
388,196,148390,2,0,L|384:112,1,54.5999983337403,2|0,0:0|0:0,0:0:0:0:
348,24,148561,6,0,P|304:52|280:88,1,81.8999975006104,8|0,0:0|0:0,0:0:0:0:
256,160,148904,6,0,L|260:224,1,54.5999983337403,2|0,0:0|0:0,0:0:0:0:
132,108,149075,2,0,L|136:44,1,54.5999983337403,2|0,0:0|0:0,0:0:0:0:
12,160,149247,5,8,0:0:0:0:
212,64,149418,1,8,0:0:0:0:
172,268,149590,6,0,L|168:188,1,72.8,2|0,0:0|0:0,0:0:0:0:
64,236,149847,1,0,0:0:0:0:
64,236,149932,2,0,L|60:320,1,72.8,8|0,0:0|0:0,0:0:0:0:
248,372,150275,2,0,L|244:276,1,72.8,2|0,0:0|0:0,0:0:0:0:
156,184,150618,2,0,P|208:196|264:168,1,109.2,8|0,0:0|0:0,0:0:0:0:
304,112,150961,6,0,L|308:276,1,145.6,2|8,0:0|0:0,0:0:0:0:
396,192,151475,1,0,0:0:0:0:
308,32,151647,2,0,P|256:48|240:64,1,72.8,2|0,0:0|0:0,0:0:0:0:
156,184,151990,6,0,P|176:132|148:56,1,136.5,8|0,0:0|0:0,0:0:0:0:
96,124,152332,6,0,L|28:128,1,54.5999983337403,2|0,0:0|0:0,0:0:0:0:
88,260,152504,2,0,L|168:264,1,54.5999983337403,2|0,0:0|0:0,0:0:0:0:
240,324,152675,6,0,L|236:224,1,81.8999975006104,8|0,0:0|0:0,0:0:0:0:
284,168,153018,6,0,L|280:244,1,54.5999983337403,2|0,0:0|0:0,0:0:0:0:
412,308,153190,2,0,L|408:252,1,54.5999983337403,2|0,0:0|0:0,0:0:0:0:
396,120,153361,6,0,P|368:80|320:56,1,81.8999975006104,8|0,0:0|0:0,0:0:0:0:
284,32,153704,6,0,L|286:86,1,54.5999983337403,2|0,0:0|0:0,0:0:0:0:
156,76,153875,2,0,L|160:160,1,54.5999983337403,2|0,0:0|0:0,0:0:0:0:
160,240,154047,6,0,L|78:233,1,81.8999975006104,8|0,0:0|0:0,0:0:0:0:
32,288,154390,2,0,L|108:284,1,54.5999983337403,2|0,0:0|0:0,0:0:0:0:
200,216,154561,2,0,L|264:220,1,54.5999983337403,2|0,0:0|0:0,0:0:0:0:
368,280,154732,6,0,L|360:136,1,109.2,8|0,0:0|0:0,0:0:0:0:
404,112,155075,6,0,P|356:112|312:96,1,72.8,4|0,0:0|0:0,0:0:0:0:
200,24,155418,2,0,L|204:104,1,72.8,8|0,0:0|0:0,0:0:0:0:
100,208,155761,2,0,L|96:116,1,72.8,2|0,0:0|0:0,0:0:0:0:
216,12,156104,2,0,L|220:92,1,72.8,8|0,0:0|0:0,0:0:0:0:
192,236,156447,6,0,B|224:208|232:168|232:168|260:196|296:208,1,145.6,2|8,0:0|0:0,0:0:0:0:
344,312,156961,1,0,0:0:0:0:
344,312,157047,1,0,0:0:0:0:
344,312,157132,2,0,L|268:308,1,72.8,2|0,0:0|0:0,0:0:0:0:
96,260,157475,2,0,P|92:312|112:364,1,109.2,8|0,0:0|0:0,0:0:0:0:
128,372,157818,5,2,0:0:0:0:
0,272,157990,1,2,0:0:0:0:
188,208,158161,2,0,L|184:304,1,91,8|0,0:0|0:0,0:0:0:0:
60,160,158504,2,0,L|56:40,1,91,2|0,0:0|0:0,0:0:0:0:
164,92,158847,1,8,0:0:0:0:
264,80,159018,1,0,0:0:0:0:
352,24,159190,5,2,0:0:0:0:
336,216,159361,1,0,0:0:0:0:
180,80,159532,5,8,0:0:0:0:
196,272,159703,1,0,0:0:0:0:
344,120,159875,5,2,0:0:0:0:
328,312,160046,1,0,0:0:0:0:
188,176,160217,5,8,0:0:0:0:
204,368,160390,1,0,0:0:0:0:
264,168,160561,5,2,0:0:0:0:
260,184,160904,1,2,0:0:0:0:
257,198,161247,1,2,0:0:0:0:
253,213,161590,6,0,P|159:230|197:149,1,204.750007810593,4|0,0:0|0:0,0:0:0:0:
188,144,161932,6,0,L|224:148,3,36.4,2|0|0|0,0:0|0:0|0:0|0:0,0:0:0:0:
124,84,162275,2,0,L|72:88,3,36.4,2|0|0|0,0:0|0:0|0:0|0:0,0:0:0:0:
44,176,162618,5,2,0:0:0:0:
44,180,162704,1,0,0:0:0:0:
44,184,162790,1,0,0:0:0:0:
44,188,162875,1,0,0:0:0:0:
44,192,162961,1,2,0:0:0:0:
44,196,163047,1,0,0:0:0:0:
44,200,163132,1,0,0:0:0:0:
44,204,163218,1,0,0:0:0:0:
44,208,163304,6,0,L|52:272,3,36.4,2|0|0|0,0:0|0:0|0:0|0:0,0:0:0:0:
152,224,163647,2,0,L|156:284,1,36.4,2|0,0:0|0:0,0:0:0:0:
256,236,163818,2,0,L|260:296,1,36.4
264,360,163990,5,2,0:0:0:0:
285,356,164075,1,0,0:0:0:0:
305,348,164161,1,0,0:0:0:0:
322,334,164247,1,0,0:0:0:0:
336,316,164332,2,0,L|396:320,3,36.4,2|0|0|0,0:0|0:0|0:0|0:0,0:0:0:0:
256,236,164675,2,0,L|212:240,3,36.4,2|0|0|0,0:0|0:0|0:0|0:0,0:0:0:0:
168,160,165018,5,2,0:0:0:0:
196,160,165104,1,0,0:0:0:0:
224,160,165190,1,0,0:0:0:0:
252,160,165275,1,0,0:0:0:0:
280,160,165361,1,2,0:0:0:0:
308,160,165447,1,0,0:0:0:0:
336,160,165532,1,0,0:0:0:0:
364,160,165618,1,0,0:0:0:0:
392,160,165704,2,0,P|432:112|432:48,1,109.2,2|0,0:0|0:0,0:0:0:0:
348,76,166047,6,0,L|312:72,3,36.4,2|0|0|0,0:0|0:0|0:0|0:0,0:0:0:0:
220,24,166390,2,0,L|172:28,3,36.4,2|0|0|0,0:0|0:0|0:0|0:0,0:0:0:0:
68,44,166732,5,2,0:0:0:0:
68,48,166818,1,0,0:0:0:0:
68,52,166904,2,0,L|72:96,1,36.4
188,136,167075,5,2,0:0:0:0:
188,140,167161,1,0,0:0:0:0:
188,144,167247,2,0,L|184:188,1,36.4
88,248,167418,5,4,0:0:0:0:
88,248,167504,1,0,0:0:0:0:
88,248,167590,2,0,L|24:252,1,40.9499987503052
152,336,167761,5,2,0:0:0:0:
152,336,167847,1,0,0:0:0:0:
152,336,167933,2,0,L|216:340,1,40.9499987503052
256,256,168104,5,2,0:0:0:0:
256,256,168190,1,0,0:0:0:0:
256,256,168276,2,0,L|320:252,1,40.9499987503052
380,332,168446,5,2,0:0:0:0:
380,332,168532,1,0,0:0:0:0:
380,332,168618,2,0,L|444:336,1,40.9499987503052
468,224,168790,5,4,0:0:0:0:
468,224,168876,1,0,0:0:0:0:
468,224,168962,2,0,L|404:228,1,40.9499987503052
340,120,169132,5,2,0:0:0:0:
340,120,169218,1,0,0:0:0:0:
340,120,169304,2,0,L|336:184,1,40.9499987503052
220,64,169475,5,2,0:0:0:0:
220,64,169561,1,0,0:0:0:0:
220,64,169647,2,0,L|216:0,1,40.9499987503052
88,24,169818,5,2,0:0:0:0:
88,24,169904,1,0,0:0:0:0:
88,24,169990,2,0,L|92:88,1,40.9499987503052
112,168,170161,5,6,0:0:0:0:
112,168,170247,1,0,0:0:0:0:
112,168,170332,2,0,L|116:240,1,45.5
184,320,170504,5,2,0:0:0:0:
184,320,170590,1,0,0:0:0:0:
184,320,170675,2,0,L|188:248,1,45.5
300,240,170847,5,2,0:0:0:0:
300,240,170933,1,0,0:0:0:0:
300,240,171018,2,0,L|304:312,1,45.5
392,356,171190,5,2,0:0:0:0:
392,356,171276,1,0,0:0:0:0:
392,356,171361,2,0,L|396:284,1,45.5
392,220,171532,6,0,L|388:156,1,54.5999983337403,6|0,0:0|0:0,0:0:0:0:
406,30,171704,2,0,L|410:106,1,54.5999983337403,2|0,0:0|0:0,0:0:0:0:
281,97,171875,6,0,L|284:42,1,54.5999983337403,2|0,0:0|0:0,0:0:0:0:
368,192,172047,2,0,L|372:248,1,54.5999983337403,2|0,0:0|0:0,0:0:0:0:
272,344,172218,6,0,L|192:344,1,63.6999980560303,2|2,0:0|0:0,0:0:0:0:
24,268,172390,2,0,L|96:264,1,63.6999980560303,2|2,0:0|0:0,0:0:0:0:
276,200,172561,2,0,L|196:200,1,63.6999980560303,2|2,0:0|0:0,0:0:0:0:
28,108,172733,2,0,L|100:104,1,63.6999980560303,2|2,0:0|0:0,0:0:0:0:
281,97,172904,1,4,0:0:0:0:
256,192,172990,12,0,174275,0:0:0:0:
300,92,174447,6,0,L|296:152,2,45.5
288,256,174790,1,0,0:0:0:0:
388,92,174961,2,0,P|368:40|328:8,1,91
196,116,175304,2,0,L|200:228,1,91
279,355,175561,1,0,0:0:0:0:
279,355,175647,6,0,B|289:305|289:305|287:247,1,100.10000305481,4|0,0:0|0:0,0:0:0:0:
172,300,175990,1,8,0:0:0:0:
320,184,176161,2,0,L|256:180,1,50.0500015274048
95,119,176332,2,0,L|203:115,1,100.10000305481,2|0,0:0|0:0,0:0:0:0:
400,156,176675,1,8,0:0:0:0:
356,40,176847,2,0,L|360:272,1,200.200006109619
304,324,177275,1,0,0:0:0:0:
304,324,177361,6,0,P|244:316|192:328,1,100.10000305481,8|0,0:0|0:0,0:0:0:0:
84,380,177704,2,2,L|72:260,1,100.10000305481,0|0,0:0|0:0,0:0:0:0:
220,196,178047,1,8,0:0:0:0:
16,132,178218,2,0,L|80:136,1,50.0500015274048
220,196,178390,6,0,B|208:56|208:56|260:108,1,191.099994168091,4|0,0:0|0:0,0:0:0:0:
340,139,178732,2,0,L|304:136,1,36.4,2|0,0:0|0:0,0:0:0:0:
208,280,178904,2,0,L|244:277,1,36.4,2|2,0:0|0:0,0:0:0:0:
448,260,179075,6,0,P|459:183|384:208,1,177.449991876984,8|0,0:0|0:0,0:0:0:0:
372,272,179418,1,2,0:0:0:0:
192,192,179590,1,0,0:0:0:0:
264,344,179761,5,4,0:0:0:0:
303,135,179932,2,0,L|348:124,4,29.574998646164,0|0|0|0|2,0:0|0:0|0:0|0:0|0:0,0:0:0:0:
116,200,180275,1,2,0:0:0:0:
264,344,180447,6,0,P|204:328|144:344,1,100.10000305481,8|0,0:0|0:0,0:0:0:0:
19,189,180790,2,0,P|68:205|132:193,1,100.10000305481,8|0,0:0|0:0,0:0:0:0:
164,68,181132,6,0,B|116:56|116:56|80:96,1,100.10000305481,4|0,0:0|0:0,0:0:0:0:
212,176,181390,1,0,0:0:0:0:
212,176,181475,2,0,P|260:136|276:88,1,100.10000305481,8|0,0:0|0:0,0:0:0:0:
115,199,181818,2,0,P|148:256|204:280,1,100.10000305481,2|0,0:0|0:0,0:0:0:0:
284,252,182161,1,8,0:0:0:0:
284,252,182332,2,0,B|376:224|376:224|480:272,1,200.200006109619
312,352,182847,6,0,P|244:344|200:312,1,100.10000305481,8|0,0:0|0:0,0:0:0:0:
280,151,183190,2,0,L|284:271,1,100.10000305481,2|0,0:0|0:0,0:0:0:0:
168,80,183532,1,8,0:0:0:0:
404,128,183704,2,0,L|348:136,1,50.0500015274048
184,176,183875,6,0,B|140:184|95:145|95:145|96:205|53:238,1,191.099994168091,4|0,0:0|0:0,0:0:0:0:
145,251,184218,2,0,L|148:288,1,36.4,2|0,0:0|0:0,0:0:0:0:
245,295,184390,2,0,L|248:332,1,36.4,2|0,0:0|0:0,0:0:0:0:
236,160,184561,6,0,B|272:124|286:87|286:87|280:124|297:181,1,177.449991876984,4|0,0:0|0:0,0:0:0:0:
252,232,184904,1,2,0:0:0:0:
200,72,185075,1,0,0:0:0:0:
368,120,185247,5,4,0:0:0:0:
200,72,185418,2,0,L|172:24,4,29.574998646164,0|0|0|0|2,0:0|0:0|0:0|0:0|0:0,0:0:0:0:
116,224,185761,5,2,0:0:0:0:
172,32,185932,1,8,0:0:0:0:
0,76,186104,1,0,0:0:0:0:
116,224,186275,6,0,P|49:187|36:262,1,177.449991876984,8|0,0:0|0:0,0:0:0:0:
112,308,186618,6,0,L|220:300,1,100.10000305481,4|0,0:0|0:0,0:0:0:0:
316,328,186875,1,0,0:0:0:0:
316,328,186961,2,0,P|300:268|300:216,1,100.10000305481,8|0,0:0|0:0,0:0:0:0:
404,128,187304,1,2,0:0:0:0:
408,256,187475,1,0,0:0:0:0:
304,116,187647,1,8,0:0:0:0:
504,124,187818,2,0,P|472:56|344:48,1,200.200006109619
291,210,188332,6,0,P|311:158|303:114,1,100.10000305481,8|0,0:0|0:0,0:0:0:0:
108,144,188675,2,0,L|220:152,1,100.10000305481,2|0,0:0|0:0,0:0:0:0:
368,240,189018,1,8,0:0:0:0:
216,316,189190,1,0,0:0:0:0:
216,316,189275,1,0,0:0:0:0:
216,316,189361,6,0,B|144:352|72:336|72:336|112:332|136:292,1,200.200006109619,4|8,0:0|0:0,0:0:0:0:
240,216,189875,1,0,0:0:0:0:
68,124,190047,2,0,P|68:184|88:228,1,100.10000305481,2|0,0:0|0:0,0:0:0:0:
184,148,190390,1,8,0:0:0:0:
312,156,190561,1,0,0:0:0:0:
312,156,190647,1,0,0:0:0:0:
312,156,190732,5,2,0:0:0:0:
384,48,190904,1,0,0:0:0:0:
384,224,191075,1,8,0:0:0:0:
284,80,191247,1,0,0:0:0:0:
500,132,191418,2,0,L|384:136,1,100.10000305481,2|0,0:0|0:0,0:0:0:0:
284,218,191675,1,0,0:0:0:0:
284,218,191761,2,0,B|405:228|405:228|448:260,1,150.150004582214,8|0,0:0|0:0,0:0:0:0:
476,316,192104,6,0,L|360:320,1,100.10000305481,2|0,0:0|0:0,0:0:0:0:
180,260,192447,1,8,0:0:0:0:
264,348,192618,2,0,L|268:284,1,50.0500015274048
180,172,192790,2,0,P|120:192|88:244,1,100.10000305481,2|0,0:0|0:0,0:0:0:0:
100,332,193132,1,8,0:0:0:0:
34,156,193304,6,0,P|129:179|213:159,1,150.150004582214
204,160,193647,1,0,0:0:0:0:
308,64,193818,2,0,L|304:176,1,100.10000305481,8|0,0:0|0:0,0:0:0:0:
456,272,194161,2,0,L|452:164,1,100.10000305481,2|0,0:0|0:0,0:0:0:0:
392,92,194504,1,8,0:0:0:0:
336,260,194675,2,0,L|256:244,1,50.0500015274048
160,220,194847,6,0,P|212:260|224:160,1,191.099994168091,4|0,0:0|0:0,0:0:0:0:
176,144,195190,6,0,L|180:96,1,36.4,2|0,0:0|0:0,0:0:0:0:
28,168,195361,2,0,L|30:204,1,36.4,2|0,0:0|0:0,0:0:0:0:
36,336,195532,6,0,B|80:344|120:312|120:312|156:352|208:356,1,177.449991876984,4|0,0:0|0:0,0:0:0:0:
247,275,195875,6,0,P|218:268|192:256,1,59.149997292328,2|0,0:0|0:0,0:0:0:0:
248,96,196047,2,0,P|276:102|303:115,1,59.149997292328,2|0,0:0|0:0,0:0:0:0:
252,188,196218,5,4,0:0:0:0:
340,212,196390,1,8,0:0:0:0:
428,240,196561,1,0,0:0:0:0:
320,296,196732,1,8,0:0:0:0:
228,132,196904,5,4,0:0:0:0:
340,211,197076,1,8,0:0:0:0:
450,296,197247,1,0,0:0:0:0:
276,308,197418,1,8,0:0:0:0:
228,132,197590,6,0,L|232:208,1,45.5,2|0,0:0|0:0,0:0:0:0:
332,112,197761,2,0,L|336:56,1,45.5,2|0,0:0|0:0,0:0:0:0:
232,256,197932,6,0,L|235:331,1,45.5,2|2,0:0|0:0,0:0:0:0:
324,232,198104,2,0,L|328:168,1,45.5,2|2,0:0|0:0,0:0:0:0:
252,36,198275,6,0,P|192:36|128:140,1,163.799995001221,8|0,0:0|0:0,0:0:0:0:
80,176,198618,6,2,B|108:184|128:196|128:196|164:180|164:180|200:196|188:280|120:304,1,191.099994168091,2|0,0:1|0:1,0:1:0:0:
116,320,198961,5,4,0:1:0:0:
