osu file format v14

[General]
AudioFilename: audio.mp3
AudioLeadIn: 0
PreviewTime: -1
Countdown: 1
SampleSet: None
StackLeniency: 0.2
Mode: 0
LetterboxInBreaks: 0
WidescreenStoryboard: 0

[Editor]
Bookmarks: 1460,7460,13460,19460,25460,31460,36147,37460,43272,49272,52460,53960,59960,62210,63710,65397,65960
DistanceSpacing: 2.8
BeatDivisor: 8
GridSize: 32
TimelineZoom: 5.799997

[Metadata]
Title:BRING IT ON ft. Kagamine Rin & Len
TitleUnicode:BRING IT ON ft. Kagamine Rin & Len
Artist:Giga-P
ArtistUnicode:Giga-P ft.鏡音リン・レン
Creator:Freimox
Version:I DO WHAT I WANT
Source:
Tags:Giga-P, Giga, Kagamine Rin & Len, Rin & Len, Bring It On, 鏡音リン・レン, Rin, Len, Volcaloid
BeatmapID:1774976
BeatmapSetID:848798

[Difficulty]
HPDrainRate:2
CircleSize:3.5
OverallDifficulty:3
ApproachRate:10
SliderMultiplier:1.4
SliderTickRate:1

[Events]
//Background and Video events
0,0,"70570970_p0.png",0,0
//Break Periods
//Storyboard Layer 0 (Background)
//Storyboard Layer 1 (Fail)
//Storyboard Layer 2 (Pass)
//Storyboard Layer 3 (Foreground)
//Storyboard Sound Samples

[TimingPoints]
1460,375,4,1,0,100,1,0
4835,-47.6190476190476,4,1,0,100,0,0
5585,-133.333333333333,4,2,0,100,0,0
5772,-133.333333333333,4,2,0,100,0,0
7553,-66.6666666666667,4,1,0,100,0,0
8960,-41.6666666666667,4,1,0,100,0,0
9710,-41.6666666666667,4,2,0,100,0,0
9897,-41.6666666666667,4,1,0,100,0,0
10460,-12.5,4,1,0,100,0,0
11210,-100,4,1,0,100,0,0
11960,-50,4,1,0,100,0,0
12335,-25,4,3,0,100,0,0
14585.4096820028,375,4,3,0,100,1,0
14772,-25,4,3,0,100,0,0
16272,-20.8333333333333,4,2,0,100,0,0
16460,-20.8333333333333,4,3,0,100,0,0
17585,-100,4,3,0,100,0,0
17772,-33.3333333333333,4,3,0,100,0,0
17960,-50,4,1,0,100,0,0
19272,-20.8333333333333,4,1,0,100,0,0
19554,-50,4,1,0,75,0,0
19647,-20.8333333333333,4,1,0,100,0,0
20960,-50,4,1,0,100,0,0
21897,-25,4,1,0,75,0,0
24522,-25,4,1,0,100,0,0
25741,-35.7142857142857,4,1,0,75,0,0
26210,-50,4,1,0,75,0,0
26960,-50,4,3,0,75,0,0
27007,-50,4,1,0,75,0,0
29585,-33.3333333333333,4,1,0,75,0,0
29960,-100,4,1,0,75,0,0
30241,-33.3333333333333,4,1,0,75,0,0
31460,-50,4,1,0,75,0,0
32538,-50,4,2,0,100,0,0
32772,-50,4,1,0,75,0,0
33710,-50,4,2,0,100,0,0
33897,-50,4,1,0,50,0,0
36147,-50,4,1,0,50,0,0
36335,-40,4,1,0,100,0,0
36522,-33.3333333333333,4,1,0,100,0,0
37085,-33.3333333333333,4,3,0,100,0,0
37647,-50,4,3,0,100,0,0
37835,-100,4,2,0,80,0,0
38210,-33.3333333333333,4,2,0,80,0,0
38397,-66.6666666666667,4,2,0,80,0,0
42054,-66.6666666666667,4,2,0,50,0,0
42616,-133.333333333333,4,2,0,50,0,0
45335,-66.6666666666667,4,2,0,50,0,0
45616,-133.333333333333,4,2,0,50,0,0
49460,-133.333333333333,4,3,0,100,0,0
49835,-133.333333333333,4,2,0,100,0,0
50024,-133.333333333333,4,3,0,100,0,0
52460,-100,4,2,0,100,0,0
52507,-133.333333333333,4,1,0,100,0,0
52741,-50,4,1,0,100,0,0
53585,-25,4,2,0,100,0,0
53585,-25,4,1,0,100,0,0
53960,-25,4,1,0,100,0,1
57335,-33.3333333333333,4,1,0,100,0,1
57710,-25,4,1,0,100,0,1
58272,-50,4,1,0,100,0,1
59210,-25,4,1,0,100,0,1
62210,-25,4,1,0,100,0,0
63710,-12.5,4,1,0,100,0,0
64647,-20,4,1,0,100,0,1
65397,-20,4,1,0,100,0,0
65491,-20,4,3,0,100,0,0
65585,-20,4,2,0,100,0,0
65772,-20,4,2,0,100,0,0
65960,-20,4,3,0,100,0,1
66335,-25,4,2,0,100,0,1
66710,-25,4,1,0,100,0,1
66897,-50,4,1,0,100,0,1
67085,-50,4,2,0,100,0,1
67460,-50,4,3,0,100,0,1
67507,-50,4,1,0,100,0,1
67647,-50,4,2,0,100,0,1
67976,-50,4,1,0,100,0,1
68210,-50,4,3,0,100,0,1
68257,-50,4,1,0,100,0,1

[HitObjects]
128,128,1460,6,0,B|162:190|128:224|128:224|224:192|224:32|224:32|352:192|160:320|160:320|402:361|432:190|352:64,1,1120,8|0,0:0|0:0,0:0:0:0:
353,66,4835,6,0,B|352:129|352:129|352:225|320:1|160:33|160:33,1,293.999991027832,2|0,0:0|0:0,0:0:0:0:
384,224,5585,1,0,0:0:0:0:
384,256,5772,2,2,L|384:270,2,13.125000500679
384,160,5960,1,0,0:0:0:0:
384,160,6335,5,0,0:0:0:0:
384,160,6710,5,8,0:0:0:0:
256,0,6897,1,0,0:0:0:0:
256,32,7085,6,0,L|256:56,2,13.125000500679
320,288,7272,2,0,L|320:275,2,13.125000500679
64,128,7460,1,0,0:0:0:0:
64,128,7647,6,0,P|93:130|121:150,1,52.5000020027161,4|0,0:0|0:0,0:0:0:0:
224,192,7835,1,0,0:0:0:0:
74,52,8022,6,0,B|96:64|128:96|128:96,1,52.5000020027161
224,192,8210,1,0,0:0:0:0:
160,32,8397,6,0,L|192:96,1,52.5000020027161
288,256,8585,1,8,0:0:0:0:
416,128,8772,1,4,0:0:0:0:
192,128,8960,2,0,P|128:128|192:160,1,167.999994873047,4|0,0:0|0:0,0:0:0:0:
192,128,9335,6,0,P|128:128|192:160,1,167.999994873047,4|0,0:0|0:0,0:0:0:0:
352,224,9710,2,2,P|406:255|433:292,1,83.9999974365235,0|0,0:0|0:0,0:0:0:0:
192,96,9897,6,0,L|128:192,1,83.9999974365235
320,32,10085,2,0,P|358:25|403:58,1,83.9999974365235
192,32,10272,2,0,P|151:25|116:46,1,83.9999974365235
320,224,10460,6,0,P|384:192|319:229,1,280
191,223,10647,2,0,P|98:239|193:241,1,280
320,224,10835,6,0,P|384:192|319:229,1,280
191,223,11022,2,0,P|98:239|193:241,1,280
318,128,11210,6,0,L|352:192,1,70
194,128,11585,6,0,L|160:192,1,70
318,128,11960,6,0,L|352:192,1,70
194,128,12147,2,0,L|160:192,1,70
380,64,12335,6,0,L|448:192,1,140
131,64,12522,2,0,L|63:192,1,140
256,192,12710,12,0,13460,0:0:0:0:
128,288,13460,5,8,0:0:0:0:
238,91,13647,2,0,P|276:61|268:121,1,140
160,224,13835,5,8,0:0:0:0:
330,76,14022,2,0,P|375:60|347:114,1,140
192,160,14210,5,8,0:0:0:0:
402,79,14397,2,0,P|450:80|405:121,1,140
224,96,14585,5,8,0:0:0:0:
416,96,14772,2,0,P|464:97|419:138,1,140
224,96,14960,5,8,0:0:0:0:
320,352,15147,1,0,0:0:0:0:
256,64,15335,5,8,0:0:0:0:
256,320,15522,1,0,0:0:0:0:
288,32,15710,5,8,0:0:0:0:
224,288,15897,1,0,0:0:0:0:
319,0,16085,5,8,0:0:0:0:
192,256,16272,2,2,B|96:320|96:320|70:165|160:64,1,335.999989746094,0|4,0:0|0:0,0:0:0:0:
448,160,16647,1,8,0:0:0:0:
320,64,16835,6,0,B|223:187|223:187|238:168|238:168|223:186|223:186|238:168|238:168|223:187|223:187|238:168|238:168|223:187|223:187|320:63,1,419.999987182618,8|0,0:0|0:0,0:0:0:0:
320,192,17210,6,0,B|223:315|223:315|238:296|238:296|223:314|223:314|238:296|238:296|223:315|223:315|238:296|238:296|223:315|223:315|320:191,1,419.999987182618,8|0,0:0|0:0,0:0:0:0:
448,32,17585,2,0,L|448:96,1,35
448,192,17772,2,0,L|448:320,1,105.000004005432
96,96,17960,6,0,L|96:192,1,70
416,96,18147,2,0,L|416:192,1,70
96,96,18335,6,0,L|96:192,1,70
416,96,18522,2,0,L|416:192,1,70
96,96,18710,6,0,L|96:192,1,70
416,96,18897,2,0,L|416:192,1,70
96,96,19085,6,0,L|96:192,1,70
384,96,19272,2,0,B|453:73|453:73|418:-3|325:62,1,167.999994873047,0|12,0:0|0:0,0:0:0:0:
224,32,19460,6,0,P|128:64|64:128,1,167.999994873047
78,212,19647,6,0,P|143:265|224:288,1,167.999994873047
320,288,19835,1,0,0:0:0:0:
422,192,20022,1,0,0:0:0:0:
422,192,20210,5,12,0:0:0:0:
224,32,20397,1,2,0:0:0:0:
384,256,20585,1,0,0:0:0:0:
32,64,20772,1,0,0:0:0:0:
32,64,20960,6,0,L|32:160,1,70
96,0,21147,2,0,L|192:0,1,70
32,96,21335,6,0,L|32:192,1,70
128,0,21522,2,0,L|224:0,1,70
84,128,21710,1,8,0:0:0:0:
84,128,22085,6,0,B|116:192|116:192|180:128|183:99|190:301|296:214,1,280
321,195,22366,1,0,0:0:0:0:
372,149,22460,2,0,B|521:73|355:-12|355:-12|454:93|435:216,1,420
436,149,23022,5,0,0:0:0:0:
451,232,23210,2,0,B|441:293|378:310|302:258|299:126|299:126|245:210|219:240|155:158,1,420
198,200,23772,5,0,0:0:0:0:
198,200,23960,2,2,B|59:265|18:160|65:61|116:3|206:207|247:157|339:118,1,420
281,140,24522,5,0,0:0:0:0:
352,32,24710,5,10,0:0:0:0:
352,96,24804,5,8,0:0:0:0:
352,160,24897,5,8,0:0:0:0:
352,224,24991,5,8,0:0:0:0:
224,224,25085,1,4,0:0:0:0:
224,224,25460,5,8,0:0:0:0:
320,128,25647,1,0,0:0:0:0:
320,160,25741,2,2,L|320:224,3,35
160,32,26022,1,2,0:0:0:0:
352,192,26210,2,0,L|400:255,1,70
256,224,26397,2,0,L|288:320,1,70
96,96,26585,2,0,L|96:-32,1,70
96,96,26960,6,0,B|128:66|174:58,1,70,8|0,0:0|0:0,0:0:0:0:
192,128,27147,2,0,B|233:124|292:189,1,70
229,225,27335,2,0,B|266:247|295:328,1,70
320,288,27522,2,0,B|384:308|386:185,1,140
385,190,27897,5,8,0:0:0:0:
192,32,28085,1,6,0:0:0:0:
192,32,28272,6,0,B|128:64|160:128|160:128|67:188|31:76,1,280
64,32,28741,1,0,0:0:0:0:
110,3,28835,5,12,0:0:0:0:
160,192,29022,1,0,0:0:0:0:
192,128,29210,5,0,0:0:0:0:
256,352,29397,1,0,0:0:0:0:
288,288,29585,5,0,0:0:0:0:
352,96,29772,1,0,0:0:0:0:
352,96,29960,2,0,L|352:142,1,35
192,64,30147,1,0,0:0:0:0:
207,136,30241,1,0,0:0:0:0:
221,207,30335,2,0,B|230:258|230:258|278:187|268:144|268:144|278:122|314:124,1,210.000008010865
295,124,30710,5,0,0:0:0:0:
352,288,30897,1,0,0:0:0:0:
384,224,31085,5,0,0:0:0:0:
224,96,31272,1,0,0:0:0:0:
288,224,31460,6,0,P|354:198|361:107,2,140
256,96,32022,1,0,0:0:0:0:
320,288,32210,2,0,P|352:320|288:288,1,280,0|2,0:0|0:0,0:0:0:0:
320,192,32772,5,0,0:0:0:0:
320,128,32866,1,0,0:0:0:0:
320,64,32960,1,0,0:0:0:0:
320,0,33147,5,0,0:0:0:0:
159,96,33335,2,0,B|190:112|190:112|151:141|213:220,1,140
256,352,33710,1,2,0:0:0:0:
256,352,33897,6,0,B|352:352|288:352|384:352|373:293,1,140
320,128,34272,1,0,0:0:0:0:
160,192,34460,2,0,P|107:213|32:160,1,140
32,128,34835,2,0,B|64:64|128:64|160:32,1,140
192,32,35210,2,0,P|256:96|256:160,1,140
256,192,35585,1,0,0:0:0:0:
160,352,35772,1,0,0:0:0:0:
352,352,35960,1,0,0:0:0:0:
352,352,36147,6,0,L|320:256,1,70
352,224,36335,2,0,L|288:128,1,87.5
352,128,36522,2,0,L|256:32,1,105.000004005432
224,32,36710,1,8,0:0:0:0:
224,96,36804,2,0,P|224:159|301:186,1,105.000004005432
448,320,37085,1,8,0:0:0:0:
96,224,37272,1,8,0:0:0:0:
448,32,37460,1,4,0:0:0:0:
448,32,37647,6,0,P|448:64|424:107,1,70
288,64,37835,2,2,P|322:68|354:94,1,70
449,194,38116,2,0,L|449:238,1,35
449,229,38397,6,0,P|426:270|360:270,1,105.000004005432
372,276,38772,5,8,0:0:0:0:
256,128,38960,1,4,0:0:0:0:
256,160,39147,6,0,L|256:192,2,26.2500010013581
310,18,39335,2,0,P|276:25|247:44,1,52.5000020027161
130,113,39522,2,2,L|107:135,2,26.2500010013581
192,224,39710,2,2,L|170:246,2,26.2500010013581
288,128,39897,6,0,P|336:150|354:198,1,105.000004005432
352,352,40272,1,8,0:0:0:0:
256,160,40460,1,0,0:0:0:0:
384,32,40647,2,0,P|416:64|431:127,1,105.000004005432
431,120,41022,6,0,P|416:148|378:162,1,52.5000020027161
288,194,41210,2,0,P|273:196|233:169,1,52.5000020027161
429,131,41397,1,0,0:0:0:0:
256,64,41585,1,8,0:0:0:0:
256,192,41772,2,0,P|256:224|181:250,1,105.000004005432
96,224,42054,6,0,P|82:194|87:166,1,52.5000020027161
128,96,42241,1,8,0:0:0:0:
224,160,42335,2,0,L|224:192,4,26.2500010013581
288,96,42616,2,0,L|288:64,1,26.2500010013581
352,160,42804,2,0,L|352:192,1,26.2500010013581
448,256,42991,2,0,L|448:282,1,26.2500010013581,6|0,0:0|0:0,0:0:0:0:
448,256,43272,5,2,0:0:0:0:
288,192,43460,1,4,0:0:0:0:
288,224,43647,6,0,L|288:288,1,52.5000020027161
384,96,43929,2,0,L|384:128,1,26.2500010013581
192,96,44116,2,0,L|192:69,1,26.2500010013581
192,96,44397,6,0,L|192:160,1,52.5000020027161
384,64,44772,1,0,0:0:0:0:
192,64,44960,2,0,L|192:96,1,26.2500010013581
256,160,45147,2,0,L|256:192,1,26.2500010013581
320,256,45335,2,0,B|320:320|320:320|346:276|362:276,1,105.000004005432
383,283,45616,6,0,L|383:251,1,26.2500010013581
352,128,45804,2,0,L|352:96,2,26.2500010013581
352,320,46085,1,0,0:0:0:0:
352,320,46272,5,0,0:0:0:0:
192,256,46460,1,0,0:0:0:0:
352,288,46647,1,0,0:0:0:0:
192,160,46835,2,0,L|192:192,1,26.2500010013581
352,96,47022,2,0,L|352:128,1,26.2500010013581
352,288,47210,5,0,0:0:0:0:
480,160,47397,1,0,0:0:0:0:
320,64,47585,2,0,L|288:64,1,26.2500010013581
352,192,47772,2,0,L|378:192,1,26.2500010013581
512,192,47960,1,0,0:0:0:0:
320,96,48147,1,0,0:0:0:0:
256,256,48335,1,0,0:0:0:0:
320,96,48522,2,0,L|320:112,4,13.125000500679
320,96,48897,5,0,0:0:0:0:
320,96,49272,5,0,0:0:0:0:
320,288,49460,2,0,L|320:352,1,52.5000020027161
320,32,49835,1,0,0:0:0:0:
320,160,50022,2,0,L|320:224,1,52.5000020027161
128,160,50397,6,0,L|128:224,1,52.5000020027161
128,352,50772,5,0,0:0:0:0:
352,96,50960,2,0,L|352:32,1,52.5000020027161
192,288,51335,6,0,L|192:352,1,52.5000020027161
320,64,51710,6,0,L|320:32,1,26.2500010013581
224,256,51897,2,0,L|224:288,1,26.2500010013581
353,37,52085,6,0,L|353:5,1,26.2500010013581
192,288,52272,2,0,L|192:320,1,26.2500010013581
353,37,52460,6,0,L|353:-10,1,35
256,128,52647,2,0,P|241:121|224:128,1,26.2500010013581
288,288,52835,2,0,P|320:320|295:279,1,140
143,125,53210,6,0,P|105:119|76:162,1,70
64,192,53397,1,8,0:0:0:0:
96,256,53491,1,8,0:0:0:0:
160,288,53585,2,2,B|241:383|168:185|224:128|224:128|294:130|305:186,1,280
480,192,53960,6,0,P|421:141|476:169,1,280,8|0,0:0|0:0,0:0:0:0:
480,192,54335,2,0,P|480:320|389:330,1,210,8|0,0:0|0:0,0:0:0:0:
420,338,54710,6,2,P|351:311|320:224,1,140
320,255,54897,2,2,B|341:210|255:185|254:95,1,140
260,134,55085,2,2,B|212:-9|212:-9|219:83|103:128,1,280
32,320,55460,1,4,0:0:0:0:
32,320,55835,5,4,0:0:0:0:
256,96,56210,6,2,P|320:128|288:224,1,140
233,255,56397,2,2,P|171:228|164:162,1,140
320,128,56585,6,2,P|372:176|315:259,1,140
254,274,56772,2,2,P|202:231|213:165,1,140
288,96,56960,2,6,B|295:47|370:114|451:-7,1,140,6|0,0:0|0:0,0:0:0:0:
409,41,57335,6,0,L|409:162,1,105.000004005432
256,192,57522,2,0,L|256:320,1,105.000004005432
192,352,57710,2,0,P|128:320|330:321,1,840
76,150,57897,1,0,0:0:0:0:
320,64,58085,1,0,0:0:0:0:
342,309,58272,6,0,P|387:224|309:58,1,280
320,65,58647,2,0,P|377:137|389:197,1,140
388,182,58835,2,0,P|366:115|320:64,1,140
320,64,59210,6,0,B|320:137|320:137|233:117|213:38|213:38|172:81|172:81|213:38|213:38|175:38|175:38|172:81|172:81|174:187|278:238,1,560
222,200,59960,6,0,L|222:351,1,140
352,256,60147,2,0,L|352:116,1,140
222,200,60335,6,0,B|222:340|222:340|222:324|222:324|222:340|222:340|222:324|222:324|222:340|222:340|161:227|91:284,1,350
110,271,60710,6,0,L|111:89,1,140
192,32,60897,2,0,L|192:192,1,140
285,284,61085,2,0,L|285:101,1,140
384,32,61272,2,0,L|384:192,1,140
384,352,61460,1,0,0:0:0:0:
384,352,61647,5,0,0:0:0:0:
384,96,61835,2,0,B|403:218|220:209|224:64|32:192,1,420
0,224,62210,5,0,0:0:0:0:
128,352,62397,1,0,0:0:0:0:
32,128,62585,5,0,0:0:0:0:
224,384,62772,1,0,0:0:0:0:
64,32,62960,5,0,0:0:0:0:
256,320,63147,1,0,0:0:0:0:
288,288,63335,5,0,0:0:0:0:
288,288,63710,6,0,B|160:160|160:160|189:160|189:160|160:160|160:160|189:160|189:160|160:160|160:160|189:160|189:160|160:160|160:160|189:160|189:160|160:160|160:160|352:160|352:160,1,560
306,160,64085,6,0,B|434:288|434:288|405:288|405:288|434:288|434:288|405:288|405:288|434:288|434:288|405:288|405:288|434:288|434:288|405:288|405:288|434:288|434:288|320:288|320:288|287:288|287:288|320:288|320:288|287:288|287:288|320:288|320:288|288:288|288:288|320:288|320:288|288:288|288:288|320:288|320:288|288:288|288:288|320:288|320:288|288:288|288:288|320:288|320:288|288:288|288:288|320:288|320:288|288:288|288:288|320:288|320:288|242:288|242:288,1,1120
128,192,64647,2,0,L|128:96,2,87.5
224,224,64835,2,0,L|224:320,2,87.5
320,192,65022,2,0,L|320:96,2,87.5
416,224,65210,2,0,L|416:320,2,87.5
416,160,65397,5,4,0:0:0:0:
416,96,65491,1,0,0:0:0:0:
320,224,65585,1,0,0:0:0:0:
192,0,65772,5,10,0:0:0:0:
256,288,65960,5,14,0:0:0:0:
384,256,66147,5,0,0:0:0:0:
384,160,66240,1,0,0:0:0:0:
384,64,66335,6,2,B|384:32|384:32|288:96|288:96,1,140,10|2,0:0|0:0,0:0:0:0:
224,128,66522,6,2,B|253:173|253:173|252:282|252:282,1,140,10|2,0:0|0:0,0:0:0:0:
256,352,66710,5,0,0:0:0:0:
160,352,66804,1,0,0:0:0:0:
96,288,66897,2,8,P|160:224|160:224,1,70
256,288,67085,2,2,L|198:227,1,70
96,128,67272,2,2,L|144:178,1,70
208,176,67460,6,0,L|272:112,1,70
320,128,67647,2,2,L|384:192,1,70
369,14,67835,2,2,L|305:78,1,70
256,64,68022,6,0,L|192:0,1,70
160,256,68210,2,0,L|160:352,1,70
