osu file format v14

[General]
AudioFilename: BWW.mp3
AudioLeadIn: 0
PreviewTime: 43293
Countdown: 1
SampleSet: Normal
StackLeniency: 0.4
Mode: 0
LetterboxInBreaks: 1
WidescreenStoryboard: 0

[Editor]
Bookmarks: 10293,10626,10960,15626
DistanceSpacing: 2
BeatDivisor: 4
GridSize: 4
TimelineZoom: 3.399999

[Metadata]
Title:- BWW Scream -
TitleUnicode:- BWW Scream -
Artist:Giga-P
ArtistUnicode:Giga-P
Creator:Yauxo
Version:Insane
Source:
Tags:
BeatmapID:874414
BeatmapSetID:402055

[Difficulty]
HPDrainRate:6
CircleSize:4
OverallDifficulty:8
ApproachRate:9
SliderMultiplier:2
SliderTickRate:1

[Events]
//Background and Video events
0,0,"032 - cIVI0K7.jpg",0,0
//Break Periods
2,33492,38693
//Storyboard Layer 0 (Background)
//Storyboard Layer 1 (Fail)
//Storyboard Layer 2 (Pass)
//Storyboard Layer 3 (Foreground)
//Storyboard Sound Samples

[TimingPoints]
627,333.333333333333,4,1,1,80,1,0
627,-166.666666666667,4,1,1,80,0,0
9293,-133.333333333333,4,1,1,80,0,0
10960,-80,4,1,1,80,0,0
11293,-133.333333333333,4,1,1,80,0,0
11626,-100,4,1,1,80,0,0
11960,-125,4,1,1,80,0,0
39293,-125,4,1,1,20,0,0
39960,-125,4,1,1,30,0,0
40626,-125,4,1,1,45,0,0
41293,-125,4,1,1,60,0,0
41960,-125,4,1,1,70,0,0
42293,-125,4,1,1,80,0,0
42626,-200,4,1,1,80,0,0
43251,-200,4,1,1,20,0,0
43293,-83.3333333333333,4,1,1,80,0,0
43918,-83.3333333333333,4,1,1,20,0,0
43960,-100,4,1,1,80,0,1
46293,-100,4,1,1,80,0,0
46626,-100,4,1,1,80,0,1
48126,-76.9230769230769,4,1,1,80,0,1
48460,-100,4,1,1,80,0,1
48710,-100,4,1,1,30,0,1
48793,-100,4,1,1,80,0,1
48876,-100,4,1,1,30,0,1
48960,-100,4,1,1,80,0,1
49043,-100,4,1,1,30,0,1
49126,-100,4,1,1,80,0,1
49210,-100,4,1,1,30,0,1
49293,-100,4,1,1,80,0,1
53960,-83.3333333333333,4,1,1,80,0,1
54293,-83.3333333333333,4,1,1,80,0,0
54626,-100,4,1,1,80,0,1
57293,-83.3333333333333,4,1,1,80,0,1
57793,-100,4,1,1,80,0,1
63293,-83.3333333333333,4,1,1,80,0,1
63626,-100,4,1,1,80,0,1
65293,-100,4,1,1,80,0,0
65960,-83.3333333333333,4,1,1,80,0,0
66293,-66.6666666666667,4,1,1,80,0,0
66626,-80,4,1,1,80,0,1
67293,-100,4,1,1,80,0,1
75960,-83.3333333333333,4,1,1,80,0,1
76210,-83.3333333333333,4,1,1,5,0,1
76293,-83.3333333333333,4,1,1,80,0,1
76543,-83.3333333333333,4,1,1,5,0,1
76626,-100,4,1,1,80,0,1
77293,-100,4,1,1,80,0,0

[Colours]
Combo1 : 216,153,253
Combo2 : 159,251,251

[HitObjects]
284,192,627,6,0,L|300:116,1,59.9999981689454
356,68,960,1,0,0:0:0:0:
216,248,1126,2,0,L|98:270,1,119.999996337891
284,192,1793,2,0,L|401:214,1,119.999996337891
200,160,2793,1,0,0:0:0:0:
200,160,3293,6,0,L|141:171,1,59.9999981689454
248,84,3626,1,0,0:0:0:0:
284,192,3793,2,0,B|256:328,1,119.999996337891,0|0,0:0|0:0,0:0:0:0:
360,120,4460,2,0,B|376:204|376:204|408:248,2,119.999996337891,0|0|0,0:0|0:0|0:0,0:0:0:0:
456,168,5293,5,0,0:0:0:0:
340,292,5543,1,0,0:0:0:0:
360,120,5793,1,0,0:0:0:0:
456,168,5960,5,0,0:0:0:0:
244,244,6293,1,0,0:0:0:0:
360,120,6626,1,0,0:0:0:0:
148,196,6959,1,0,0:0:0:0:
264,72,7293,1,0,0:0:0:0:
264,72,7626,6,0,L|192:100,1,59.9999981689454
120,72,7960,1,0,0:0:0:0:
304,152,8293,2,0,L|376:180,1,59.9999981689454
448,152,8626,5,0,0:0:0:0:
448,152,8793,1,0,0:0:0:0:
292,248,8960,1,0,0:0:0:0:
292,248,9126,1,0,0:0:0:0:
380,68,9293,1,0,0:0:0:0:
380,68,9460,1,0,0:0:0:0:
428,296,9626,1,0,0:0:0:0:
428,296,9793,1,0,0:0:0:0:
249,346,9960,5,0,0:0:0:0:
230,337,10043,1,0,0:0:0:0:
214,325,10126,1,0,0:0:0:0:
200,310,10210,1,0,0:0:0:0:
189,294,10293,1,0,0:0:0:0:
184,272,10376,1,0,0:0:0:0:
183,250,10460,1,0,0:0:0:0:
185,227,10543,1,0,0:0:0:0:
184,204,10626,1,0,0:0:0:0:
180,177,10710,1,0,0:0:0:0:
172,151,10793,1,0,0:0:0:0:
156,129,10876,1,0,0:0:0:0:
136,108,10960,6,0,P|106:123|70:127,1,62.5
132,24,11126,2,0,P|162:28|190:43,1,62.5
276,96,11293,6,0,B|296:100|296:100|316:104|316:104|332:100|352:96|352:96|368:104|388:100,1,112.500004291535
460,148,11626,6,0,L|480:200,1,50,0|0,0:0|0:0,0:0:0:0:
432,296,11793,2,0,L|414:249,1,50,0|0,0:0|0:0,0:0:0:0:
344,196,11960,6,0,B|305:207|305:207|235:250|235:250|193:263,1,160
152,23,12460,2,0,B|160:71|160:71|183:114|183:114|177:141|192:176,2,160,0|0|0,0:0|0:0|0:0,0:0:0:0:
100,136,13293,6,0,P|99:175|115:211,1,80
144,288,13543,1,0,0:0:0:0:
144,288,13626,2,0,L|220:264,1,80
252,272,13876,1,0,0:0:0:0:
284,263,13960,1,0,0:0:0:0:
400,135,14126,1,0,0:0:0:0:
368,144,14210,1,0,0:0:0:0:
332,153,14293,1,0,0:0:0:0:
432,224,14460,1,0,0:0:0:0:
368,44,14626,6,0,B|264:72|264:72|232:128,1,160
315,301,15126,2,0,B|353:200|353:200|332:153,1,160
428,264,15626,1,0,0:0:0:0:
252,216,15793,6,0,B|215:212|191:226|191:226|143:218|143:218|95:225,2,160,0|0|0,0:0|0:0|0:0,0:0:0:0:
139,307,16626,1,0,0:0:0:0:
108,312,16709,1,0,0:0:0:0:
76,316,16792,1,0,0:0:0:0:
48,140,16960,1,0,0:0:0:0:
224,344,17126,1,0,0:0:0:0:
256,340,17209,1,0,0:0:0:0:
287,335,17293,6,0,L|365:322,1,80
440,264,17626,1,0,0:0:0:0:
384,132,17793,2,0,L|384:172,1,40
366,200,17960,2,0,B|314:212|314:212|262:204,1,80
212,152,18293,2,0,P|173:143|132:152,1,80
164,318,18626,6,0,B|176:266|176:266|172:240,1,80
172,240,18876,2,0,P|222:270|282:273,1,120,0|0,0:0|0:0,0:0:0:0:
368,320,19293,1,0,0:0:0:0:
452,274,19460,1,0,0:0:0:0:
375,149,19626,2,0,B|363:201|363:201|368:228,1,80
424,64,19960,6,0,B|383:41|344:55|344:55|305:69|270:44,1,160
176,48,20460,2,0,P|200:123|179:199,1,160
120,272,20960,2,0,B|93:276|93:276|41:264,1,80
96,184,21293,5,0,0:0:0:0:
96,184,21460,1,0,0:0:0:0:
296,240,21626,1,0,0:0:0:0:
120,272,21793,1,0,0:0:0:0:
340,324,21960,2,0,L|384:336,2,40,0|0|0,0:0|0:0|0:0,0:0:0:0:
212,284,22293,2,0,B|207:256|207:256|195:229|195:229|187:182,1,80
160,128,22543,1,0,0:0:0:0:
160,128,22626,6,0,B|276:137|276:137|347:114,2,160,0|0|0,0:0|0:0|0:0,0:0:0:0:
152,144,23376,1,0,0:0:0:0:
144,160,23460,1,0,0:0:0:0:
136,176,23543,1,0,0:0:0:0:
128,192,23626,2,0,L|114:113,1,80,0|0,0:0|0:0,0:0:0:0:
212,244,23960,5,0,0:0:0:0:
64,264,24126,1,0,0:0:0:0:
56,280,24460,5,0,0:0:0:0:
272,312,24626,2,0,B|290:292|290:292|309:241,1,80
388,188,24960,2,0,B|371:166|371:166|324:139,1,80
286,52,25293,6,0,B|262:64|262:64|226:106,2,80,0|0|0,0:0|0:0|0:0,0:0:0:0:
380,60,25793,1,0,0:0:0:0:
236,200,25960,2,0,P|196:194|161:171,1,80
132,180,26210,1,0,0:0:0:0:
100,188,26293,1,0,0:0:0:0:
227,105,26460,1,0,0:0:0:0:
316,252,26626,6,0,L|328:304,1,40
308,320,26793,1,0,0:0:0:0:
380,180,26960,2,0,L|368:128,1,40
388,112,27127,1,0,0:0:0:0:
436,264,27293,1,0,0:0:0:0:
444,296,27376,1,0,0:0:0:0:
452,328,27460,1,0,0:0:0:0:
484,144,27626,1,0,0:0:0:0:
452,328,27793,1,0,0:0:0:0:
316,252,27960,6,0,B|296:232|296:232|247:211,1,80,0|0,0:0|0:0,0:0:0:0:
115,322,28293,2,0,B|140:315|140:315|183:283,1,80,0|0,0:0|0:0,0:0:0:0:
153,112,28626,2,0,B|146:137|146:137|152:190,2,80,0|0|0,0:0|0:0|0:0,0:0:0:0:
220,44,29126,1,0,0:0:0:0:
236,160,29293,6,0,L|240:199,1,40,0|0,0:0|0:0,0:0:0:0:
308,288,29460,2,0,L|303:248,1,40,0|0,0:0|0:0,0:0:0:0:
348,148,29626,2,0,L|352:187,1,40,0|0,0:0|0:0,0:0:0:0:
420,276,29793,2,0,L|415:236,1,40,0|0,0:0|0:0,0:0:0:0:
472,176,29960,2,0,L|459:76,1,80,0|0,0:0|0:0,0:0:0:0:
408,32,30210,1,0,0:0:0:0:
408,32,30293,2,0,P|368:56|312:60,1,80
252,108,30626,6,0,L|239:146,3,40,0|0|0|0,0:0|0:0|0:0|0:0,0:0:0:0:
231,84,30959,1,0,0:0:0:0:
202,70,31042,1,0,0:0:0:0:
170,67,31125,1,0,0:0:0:0:
140,76,31209,1,0,0:0:0:0:
115,95,31292,1,0,0:0:0:0:
98,122,31375,1,0,0:0:0:0:
92,153,31459,1,0,0:0:0:0:
97,184,31542,1,0,0:0:0:0:
116,210,31626,2,0,L|102:247,1,40,0|0,0:0|0:0,0:0:0:0:
166,320,31793,2,0,L|178:281,1,40,0|0,0:0|0:0,0:0:0:0:
286,183,31960,6,0,L|260:257,1,80
332,320,32293,1,0,0:0:0:0:
376,144,32460,1,0,0:0:0:0:
384,112,32543,1,0,0:0:0:0:
392,80,32626,2,0,L|432:248,2,160,0|0|0,0:0|0:0|0:0,0:0:0:0:
256,192,39293,12,0,42460,0:0:0:0:
366,143,42626,6,0,B|320:136|320:136|296:144|296:144|264:124|224:128|200:144|188:160,1,187.5,8|0,3:0|0:0,0:0:0:0:
251,220,43293,6,0,P|224:77|164:240,1,449.99998626709
220,296,43960,5,0,0:0:0:0:
424,304,44210,1,0,0:0:0:0:
368,132,44460,2,0,B|353:178|353:178|354:227|354:227|309:272|327:335,1,200,0|0,0:0|0:0,0:0:0:0:
272,196,44960,2,0,P|235:160|176:150,1,100
92,176,45293,5,0,0:0:0:0:
260,84,45543,1,0,0:0:0:0:
188,248,45793,2,0,B|178:200|178:200|184:151|184:151|144:101|168:41,1,200,0|0,0:0|0:0,0:0:0:0:
272,303,46293,2,0,P|237:338|189:351,1,100
272,196,46626,6,0,B|296:196|296:196|348:188|348:188|392:188,1,100
404,212,46876,1,0,0:0:0:0:
404,212,46960,1,0,0:0:0:0:
292,100,47126,1,0,0:0:0:0:
292,100,47293,2,0,B|268:100|268:100|216:92|216:92|172:92,1,100,0|0,0:0|0:0,0:0:0:0:
92,96,47626,2,0,P|106:145|152:183,1,100
236,212,47960,1,0,0:0:0:0:
80,252,48126,6,0,P|148:200|332:188,1,259.999988098145
335,191,48543,1,0,0:0:0:0:
351,200,48626,2,0,L|346:255,1,50,0|0,0:0|0:0,0:0:0:0:
422,344,48793,2,0,L|427:295,1,50,0|0,0:0|0:0,0:0:0:0:
485,208,48960,2,0,L|436:204,1,50,0|0,0:0|0:0,0:0:0:0:
339,340,49126,2,0,L|287:335,1,50,0|0,0:0|0:0,0:0:0:0:
200,328,49293,5,0,0:0:0:0:
100,176,49543,1,0,0:0:0:0:
268,224,49793,2,0,B|221:238|221:238|171:238|171:238|126:283|64:265,1,200,0|0,0:0|0:0,0:0:0:0:
40,332,50210,1,0,0:0:0:0:
32,344,50293,2,0,L|24:232,1,100
100,176,50626,5,0,0:0:0:0:
276,144,50876,1,0,0:0:0:0:
164,276,51126,2,0,B|169:227|169:227|190:182|190:182|167:122|208:72,1,200,0|0,0:0|0:0,0:0:0:0:
264,48,51543,1,0,0:0:0:0:
276,56,51626,2,0,L|164:64,1,100
275,143,51960,6,0,P|340:112|356:24,2,150,0|0|0,0:0|0:0|0:0,0:0:0:0:
276,56,52626,1,0,0:0:0:0:
436,108,52793,1,0,0:0:0:0:
316,228,52960,1,0,0:0:0:0:
276,144,53126,2,0,P|347:143|400:260,2,200,0|0|0,0:0|0:0|0:0,0:0:0:0:
200,212,53960,6,0,L|188:152,1,59.9999981689454
192,244,54126,1,0,0:0:0:0:
324,312,54293,2,0,L|340:388,1,59.9999981689454
396,252,54460,2,0,L|408:312,1,59.9999981689454
468,192,54626,6,0,B|440:151|382:159|382:159|323:166|288:123,1,200
364,56,55126,1,0,0:0:0:0:
288,232,55293,2,0,B|240:252|240:252|124:256,2,150,0|0|0,0:0|0:0|0:0,0:0:0:0:
368,256,55876,1,0,0:0:0:0:
384,260,55960,6,0,L|360:148,1,100
300,320,56293,1,0,0:0:0:0:
224,168,56460,1,0,0:0:0:0:
192,260,56626,2,0,B|172:296|172:296|48:312,2,150,0|0|0,0:0|0:0|0:0,0:0:0:0:
288,232,57293,6,0,B|352:216|428:232|428:232|392:200|324:192,1,239.999992675781,0|0,0:0|0:0,0:0:0:0:
224,168,57793,5,0,0:0:0:0:
288,320,57960,2,0,P|352:332|452:308,2,150,0|0|0,0:0|0:0|0:0,0:0:0:0:
196,276,58626,5,0,0:0:0:0:
104,320,58793,1,0,0:0:0:0:
88,288,58876,1,0,0:0:0:0:
72,256,58960,1,0,0:0:0:0:
84,56,59126,1,0,0:0:0:0:
100,88,59210,1,0,0:0:0:0:
116,120,59293,1,0,0:0:0:0:
132,152,59377,1,0,0:0:0:0:
148,184,59460,1,0,0:0:0:0:
196,276,59626,1,0,0:0:0:0:
24,164,59793,1,0,0:0:0:0:
204,100,59960,5,0,0:0:0:0:
240,100,60043,1,0,0:0:0:0:
276,100,60126,1,0,0:0:0:0:
364,144,60293,1,0,0:0:0:0:
424,40,60460,1,0,0:0:0:0:
452,184,60626,2,0,P|399:235|326:234,2,150,0|0|0,0:0|0:0|0:0,0:0:0:0:
364,144,61293,5,0,0:0:0:0:
328,324,61460,1,0,0:0:0:0:
276,100,61626,1,0,0:0:0:0:
240,280,61793,1,0,0:0:0:0:
188,56,61960,1,0,0:0:0:0:
152,236,62126,2,0,B|126:173|126:173|124:136,2,100,0|0|0,0:0|0:0|0:0,0:0:0:0:
210,159,62626,6,0,B|243:239|243:239|243:286|220:304|200:328|156:328,1,200
152,236,63126,1,0,0:0:0:0:
304,168,63293,6,0,B|364:144|432:164|432:164|420:188|380:188,1,179.999994506836,0|0,0:0|0:0,0:0:0:0:
391,187,63626,1,0,0:0:0:0:
472,84,63793,1,0,0:0:0:0:
368,320,64126,6,0,P|312:328|164:276,1,200
148,304,64543,1,0,0:0:0:0:
116,320,64626,1,0,0:0:0:0:
68,136,64793,1,0,0:0:0:0:
48,248,64960,1,0,0:0:0:0:
80,232,65043,1,0,0:0:0:0:
112,216,65126,1,0,0:0:0:0:
144,200,65210,1,0,0:0:0:0:
176,184,65293,6,0,B|248:144|328:136|392:160|420:204|408:268|352:304|304:280|288:248,1,375
276,264,65960,6,0,P|328:296|404:224,1,179.999994506836
424,216,66293,6,0,L|440:300,3,75.0000028610231
420,188,66626,6,0,L|472:204,1,41.6666666666667
404,172,66738,2,0,L|454:150,1,41.6666666666667
381,170,66849,2,0,L|405:121,1,41.6666666666667
362,183,66960,2,0,P|272:208|184:180,1,187.5
88,136,67293,6,0,L|108:268,2,100,0|0|0,0:0|0:0|0:0,0:0:0:0:
60,324,67793,1,0,0:0:0:0:
60,324,67876,1,0,0:0:0:0:
60,324,67960,6,0,L|120:344,1,50
56,308,68126,2,0,L|116:328,1,50
256,280,68293,2,0,L|196:300,1,50
260,264,68459,2,0,L|200:284,1,50
36,204,68626,6,0,L|96:224,1,50
184,176,68793,1,0,0:0:0:0:
184,176,68876,1,0,0:0:0:0:
184,176,68960,2,0,L|199:128,1,50
96,44,69126,2,0,L|111:91,1,50
212,279,69293,6,0,B|240:314|316:322|360:290|380:250|372:206|340:174|288:178|275:209,1,300
392,344,69960,2,0,P|428:300|436:224,1,100
440,240,70210,1,0,0:0:0:0:
436,220,70293,1,0,0:0:0:0:
300,300,70460,1,0,0:0:0:0:
164,220,70626,5,0,0:0:0:0:
300,140,70793,1,0,0:0:0:0:
196,324,70960,1,0,0:0:0:0:
192,112,71126,1,0,0:0:0:0:
192,112,71210,1,0,0:0:0:0:
192,112,71293,1,0,0:0:0:0:
300,300,71460,1,0,0:0:0:0:
64,184,71626,1,0,0:0:0:0:
64,184,71710,1,0,0:0:0:0:
64,184,71793,1,0,0:0:0:0:
300,140,71960,6,0,P|304:281|167:189,1,375
252,213,72626,6,0,L|309:255,3,50,0|0|0|0,0:0|0:0|0:0|0:0,0:0:0:0:
208,108,72960,2,0,L|248:52,3,50
108,156,73293,6,0,L|84:320,1,150
72,324,73626,1,0,0:0:0:0:
200,264,73793,1,0,0:0:0:0:
232,280,73876,1,0,0:0:0:0:
264,296,73960,6,0,L|324:276,1,50
460,352,74126,2,0,L|400:332,1,50
168,248,74293,2,0,L|156:312,1,50
405,225,74460,2,0,L|396:176,1,50
440,88,74626,6,0,L|304:52,1,100
148,60,74876,2,0,L|284:24,1,100
460,72,75126,1,0,0:0:0:0:
128,44,75626,5,0,0:0:0:0:
460,72,75960,2,0,P|464:132|384:88,1,179.999994506836
208,68,76293,2,0,P|271:25|286:100,1,179.999994506836
132,140,76626,1,0,0:0:0:0:
220,232,76793,1,0,0:0:0:0:
236,264,76876,1,0,0:0:0:0:
252,296,76960,6,0,L|232:356,1,50
368,244,77126,2,0,L|388:304,1,50
204,200,77293,1,0,0:0:0:0:
