osu file format v14

[General]
AudioFilename: audio.mp3
AudioLeadIn: 0
PreviewTime: 72759
Countdown: 0
SampleSet: Soft
StackLeniency: 0.6
Mode: 0
LetterboxInBreaks: 0
WidescreenStoryboard: 1

[Editor]
Bookmarks: 946,25509,37509,43509,49509,55509,61509,73509,75946,78946,85509,87946,90946,97509,109509,123009,125634,126009,128634,129009,130134,130696,131634,132009,138009,144009,146634,150009,162009,164446,167446,174009,176446,179446,186009,192009,192571,193321,194071,194446,198009,204009
DistanceSpacing: 0.8
BeatDivisor: 4
GridSize: 4
TimelineZoom: 2.699999

[Metadata]
Title:Wah Wah World feat. Hatsune Miku & Kagamine Rin
TitleUnicode:ワーワーワールド feat. 初音ミク&鏡音リン
Artist:Giga x Mitchie M
ArtistUnicode:Giga x Mitchie M
Creator:Noffy
Version:Fantabulous feat. Aunn & Noffy
Source:プロジェクトセカイ カラフルステージ! feat. 初音ミク
Tags:vocaloid japanese pop jpop duet aunn yukiya bashe mustacho jack sparrow tofu mentality video game
BeatmapID:2625234
BeatmapSetID:1262989

[Difficulty]
HPDrainRate:5
CircleSize:4
OverallDifficulty:8
ApproachRate:9
SliderMultiplier:1.65
SliderTickRate:1

[Events]
//Background and Video events
0,0,"bg.jpg",0,0
Video,-40,"waaaaaaaaaaaaaaaaaaaaaaaaaa.mp4"
//Break Periods
//Storyboard Layer 0 (Background)
Sprite,Background,Centre,"names\0041.png",514,433.75 F,0,946,,0,1 S,0,946,,0.5 F,0,25509,,1,0
Sprite,Background,Centre,"names\0075.png",537.75,439 S,0,946,,0.5 F,0,973,,0,1 F,0,25536,,1,0
Sprite,Background,Centre,"names\006e.png",557.75,438.5 S,0,946,,0.5 F,0,993,,0,1 F,0,25556,,1,0
Sprite,Background,Centre,"names\006e.png",577.75,438.5 S,0,946,,0.5 F,0,1013,,0,1 F,0,25576,,1,0
Sprite,Background,Centre,"names\004e.png",516.5,434 F,0,25509,,0,1 S,0,25509,,0.5 F,0,37509,,1,0
Sprite,Background,Centre,"names\006f.png",543.5,438.75 S,0,25509,,0.5 F,0,25540,,0,1 F,0,37540,,1,0
Sprite,Background,Centre,"names\0066.png",559.5,433.75 S,0,25509,,0.5 F,0,25563,,0,1 F,0,37563,,1,0
Sprite,Background,Centre,"names\0066.png",569.5,433.75 S,0,25509,,0.5 F,0,25573,,0,1 F,0,37573,,1,0
Sprite,Background,Centre,"names\0079.png",583.5,443.25 S,0,25509,,0.5 F,0,25583,,0,1 F,0,37583,,1,0
Sprite,Background,Centre,"names\0041.png",514,433.75 F,0,37509,,0,1 S,0,37509,,0.5 F,0,43509,,1,0
Sprite,Background,Centre,"names\0075.png",537.75,439 S,0,37509,,0.5 F,0,37536,,0,1 F,0,43536,,1,0
Sprite,Background,Centre,"names\006e.png",557.75,438.5 S,0,37509,,0.5 F,0,37556,,0,1 F,0,43556,,1,0
Sprite,Background,Centre,"names\006e.png",577.75,438.5 S,0,37509,,0.5 F,0,37576,,0,1 F,0,43576,,1,0
Sprite,Background,Centre,"names\004e.png",516.5,434 F,0,43509,,0,1 S,0,43509,,0.5 F,0,49509,,1,0
Sprite,Background,Centre,"names\006f.png",543.5,438.75 S,0,43509,,0.5 F,0,43540,,0,1 F,0,49540,,1,0
Sprite,Background,Centre,"names\0066.png",559.5,433.75 S,0,43509,,0.5 F,0,43563,,0,1 F,0,49563,,1,0
Sprite,Background,Centre,"names\0066.png",569.5,433.75 S,0,43509,,0.5 F,0,43573,,0,1 F,0,49573,,1,0
Sprite,Background,Centre,"names\0079.png",583.5,443.25 S,0,43509,,0.5 F,0,43583,,0,1 F,0,49583,,1,0
Sprite,Background,Centre,"names\0041.png",514,433.75 F,0,49509,,0,1 S,0,49509,,0.5 F,0,55509,,1,0
Sprite,Background,Centre,"names\0075.png",537.75,439 S,0,49509,,0.5 F,0,49536,,0,1 F,0,55536,,1,0
Sprite,Background,Centre,"names\006e.png",557.75,438.5 S,0,49509,,0.5 F,0,49556,,0,1 F,0,55556,,1,0
Sprite,Background,Centre,"names\006e.png",577.75,438.5 S,0,49509,,0.5 F,0,49576,,0,1 F,0,55576,,1,0
Sprite,Background,Centre,"names\004e.png",516.5,434 F,0,55509,,0,1 S,0,55509,,0.5 F,0,61509,,1,0
Sprite,Background,Centre,"names\006f.png",543.5,438.75 S,0,55509,,0.5 F,0,55540,,0,1 F,0,61540,,1,0
Sprite,Background,Centre,"names\0066.png",559.5,433.75 S,0,55509,,0.5 F,0,55563,,0,1 F,0,61563,,1,0
Sprite,Background,Centre,"names\0066.png",569.5,433.75 S,0,55509,,0.5 F,0,55573,,0,1 F,0,61573,,1,0
Sprite,Background,Centre,"names\0079.png",583.5,443.25 S,0,55509,,0.5 F,0,55583,,0,1 F,0,61583,,1,0
Sprite,Background,Centre,"names\0041.png",514,433.75 F,0,61509,,0,1 S,0,61509,,0.5 F,0,73509,,1,0
Sprite,Background,Centre,"names\0075.png",537.75,439 S,0,61509,,0.5 F,0,61536,,0,1 F,0,73536,,1,0
Sprite,Background,Centre,"names\006e.png",557.75,438.5 S,0,61509,,0.5 F,0,61556,,0,1 F,0,73556,,1,0
Sprite,Background,Centre,"names\006e.png",577.75,438.5 S,0,61509,,0.5 F,0,61576,,0,1 F,0,73576,,1,0
Sprite,Background,Centre,"names\004e.png",516.5,434 F,0,73509,,0,1 S,0,73509,,0.5 F,0,75946,,1,0
Sprite,Background,Centre,"names\006f.png",543.5,438.75 S,0,73509,,0.5 F,0,73540,,0,1 F,0,75977,,1,0
Sprite,Background,Centre,"names\0066.png",559.5,433.75 S,0,73509,,0.5 F,0,73563,,0,1 F,0,76000,,1,0
Sprite,Background,Centre,"names\0066.png",569.5,433.75 S,0,73509,,0.5 F,0,73573,,0,1 F,0,76010,,1,0
Sprite,Background,Centre,"names\0079.png",583.5,443.25 S,0,73509,,0.5 F,0,73583,,0,1 F,0,76020,,1,0
Sprite,Background,Centre,"names\0041.png",514,433.75 F,0,75946,,0,1 S,0,75946,,0.5 F,0,78946,,1,0
Sprite,Background,Centre,"names\0075.png",537.75,439 S,0,75946,,0.5 F,0,75973,,0,1 F,0,78973,,1,0
Sprite,Background,Centre,"names\006e.png",557.75,438.5 S,0,75946,,0.5 F,0,75993,,0,1 F,0,78993,,1,0
Sprite,Background,Centre,"names\006e.png",577.75,438.5 S,0,75946,,0.5 F,0,76013,,0,1 F,0,79013,,1,0
Sprite,Background,Centre,"names\004e.png",516.5,434 F,0,78946,,0,1 S,0,78946,,0.5 F,0,85509,,1,0
Sprite,Background,Centre,"names\006f.png",543.5,438.75 S,0,78946,,0.5 F,0,78977,,0,1 F,0,85540,,1,0
Sprite,Background,Centre,"names\0066.png",559.5,433.75 S,0,78946,,0.5 F,0,79000,,0,1 F,0,85563,,1,0
Sprite,Background,Centre,"names\0066.png",569.5,433.75 S,0,78946,,0.5 F,0,79010,,0,1 F,0,85573,,1,0
Sprite,Background,Centre,"names\0079.png",583.5,443.25 S,0,78946,,0.5 F,0,79020,,0,1 F,0,85583,,1,0
Sprite,Background,Centre,"names\0041.png",514,433.75 F,0,85509,,0,1 S,0,85509,,0.5 F,0,87946,,1,0
Sprite,Background,Centre,"names\0075.png",537.75,439 S,0,85509,,0.5 F,0,85536,,0,1 F,0,87973,,1,0
Sprite,Background,Centre,"names\006e.png",557.75,438.5 S,0,85509,,0.5 F,0,85556,,0,1 F,0,87993,,1,0
Sprite,Background,Centre,"names\006e.png",577.75,438.5 S,0,85509,,0.5 F,0,85576,,0,1 F,0,88013,,1,0
Sprite,Background,Centre,"names\004e.png",516.5,434 F,0,87946,,0,1 S,0,87946,,0.5 F,0,90946,,1,0
Sprite,Background,Centre,"names\006f.png",543.5,438.75 S,0,87946,,0.5 F,0,87977,,0,1 F,0,90977,,1,0
Sprite,Background,Centre,"names\0066.png",559.5,433.75 S,0,87946,,0.5 F,0,88000,,0,1 F,0,91000,,1,0
Sprite,Background,Centre,"names\0066.png",569.5,433.75 S,0,87946,,0.5 F,0,88010,,0,1 F,0,91010,,1,0
Sprite,Background,Centre,"names\0079.png",583.5,443.25 S,0,87946,,0.5 F,0,88020,,0,1 F,0,91020,,1,0
Sprite,Background,Centre,"names\0041.png",514,433.75 F,0,90946,,0,1 S,0,90946,,0.5 F,0,97509,,1,0
Sprite,Background,Centre,"names\0075.png",537.75,439 S,0,90946,,0.5 F,0,90973,,0,1 F,0,97536,,1,0
Sprite,Background,Centre,"names\006e.png",557.75,438.5 S,0,90946,,0.5 F,0,90993,,0,1 F,0,97556,,1,0
Sprite,Background,Centre,"names\006e.png",577.75,438.5 S,0,90946,,0.5 F,0,91013,,0,1 F,0,97576,,1,0
Sprite,Background,Centre,"names\004e.png",516.5,434 F,0,97509,,0,1 S,0,97509,,0.5 F,0,109509,,1,0
Sprite,Background,Centre,"names\006f.png",543.5,438.75 S,0,97509,,0.5 F,0,97540,,0,1 F,0,109540,,1,0
Sprite,Background,Centre,"names\0066.png",559.5,433.75 S,0,97509,,0.5 F,0,97563,,0,1 F,0,109563,,1,0
Sprite,Background,Centre,"names\0066.png",569.5,433.75 S,0,97509,,0.5 F,0,97573,,0,1 F,0,109573,,1,0
Sprite,Background,Centre,"names\0079.png",583.5,443.25 S,0,97509,,0.5 F,0,97583,,0,1 F,0,109583,,1,0
Sprite,Background,Centre,"names\0041.png",514,433.75 F,0,109509,,0,1 S,0,109509,,0.5 F,0,123009,,1,0
Sprite,Background,Centre,"names\0075.png",537.75,439 S,0,109509,,0.5 F,0,109536,,0,1 F,0,123036,,1,0
Sprite,Background,Centre,"names\006e.png",557.75,438.5 S,0,109509,,0.5 F,0,109556,,0,1 F,0,123056,,1,0
Sprite,Background,Centre,"names\006e.png",577.75,438.5 S,0,109509,,0.5 F,0,109576,,0,1 F,0,123076,,1,0
Sprite,Background,Centre,"names\004e.png",516.5,434 F,0,123009,,0,1 S,0,123009,,0.5 F,0,125634,,1,0
Sprite,Background,Centre,"names\006f.png",543.5,438.75 S,0,123009,,0.5 F,0,123040,,0,1 F,0,125665,,1,0
Sprite,Background,Centre,"names\0066.png",559.5,433.75 S,0,123009,,0.5 F,0,123063,,0,1 F,0,125688,,1,0
Sprite,Background,Centre,"names\0066.png",569.5,433.75 S,0,123009,,0.5 F,0,123073,,0,1 F,0,125698,,1,0
Sprite,Background,Centre,"names\0079.png",583.5,443.25 S,0,123009,,0.5 F,0,123083,,0,1 F,0,125708,,1,0
Sprite,Background,Centre,"names\0041.png",514,433.75 F,0,125634,,0,1 S,0,125634,,0.5 F,0,126009,,1,0
Sprite,Background,Centre,"names\0075.png",537.75,439 S,0,125634,,0.5 F,0,125661,,0,1 F,0,126036,,1,0
Sprite,Background,Centre,"names\006e.png",557.75,438.5 S,0,125634,,0.5 F,0,125681,,0,1 F,0,126056,,1,0
Sprite,Background,Centre,"names\006e.png",577.75,438.5 S,0,125634,,0.5 F,0,125701,,0,1 F,0,126076,,1,0
Sprite,Background,Centre,"names\004e.png",516.5,434 F,0,126009,,0,1 S,0,126009,,0.5 F,0,128634,,1,0
Sprite,Background,Centre,"names\006f.png",543.5,438.75 S,0,126009,,0.5 F,0,126040,,0,1 F,0,128665,,1,0
Sprite,Background,Centre,"names\0066.png",559.5,433.75 S,0,126009,,0.5 F,0,126063,,0,1 F,0,128688,,1,0
Sprite,Background,Centre,"names\0066.png",569.5,433.75 S,0,126009,,0.5 F,0,126073,,0,1 F,0,128698,,1,0
Sprite,Background,Centre,"names\0079.png",583.5,443.25 S,0,126009,,0.5 F,0,126083,,0,1 F,0,128708,,1,0
Sprite,Background,Centre,"names\0041.png",514,433.75 F,0,128634,,0,1 S,0,128634,,0.5 F,0,129009,,1,0
Sprite,Background,Centre,"names\0075.png",537.75,439 S,0,128634,,0.5 F,0,128661,,0,1 F,0,129036,,1,0
Sprite,Background,Centre,"names\006e.png",557.75,438.5 S,0,128634,,0.5 F,0,128681,,0,1 F,0,129056,,1,0
Sprite,Background,Centre,"names\006e.png",577.75,438.5 S,0,128634,,0.5 F,0,128701,,0,1 F,0,129076,,1,0
Sprite,Background,Centre,"names\004e.png",516.5,434 F,0,129009,,0,1 S,0,129009,,0.5 F,0,130134,,1,0
Sprite,Background,Centre,"names\006f.png",543.5,438.75 S,0,129009,,0.5 F,0,129040,,0,1 F,0,130165,,1,0
Sprite,Background,Centre,"names\0066.png",559.5,433.75 S,0,129009,,0.5 F,0,129063,,0,1 F,0,130188,,1,0
Sprite,Background,Centre,"names\0066.png",569.5,433.75 S,0,129009,,0.5 F,0,129073,,0,1 F,0,130198,,1,0
Sprite,Background,Centre,"names\0079.png",583.5,443.25 S,0,129009,,0.5 F,0,129083,,0,1 F,0,130208,,1,0
Sprite,Background,Centre,"names\0041.png",514,433.75 F,0,130134,,0,1 S,0,130134,,0.5 F,0,130696,,1,0
Sprite,Background,Centre,"names\0075.png",537.75,439 S,0,130134,,0.5 F,0,130161,,0,1 F,0,130723,,1,0
Sprite,Background,Centre,"names\006e.png",557.75,438.5 S,0,130134,,0.5 F,0,130181,,0,1 F,0,130743,,1,0
Sprite,Background,Centre,"names\006e.png",577.75,438.5 S,0,130134,,0.5 F,0,130201,,0,1 F,0,130763,,1,0
Sprite,Background,Centre,"names\004e.png",516.5,434 F,0,130696,,0,1 S,0,130696,,0.5 F,0,131634,,1,0
Sprite,Background,Centre,"names\006f.png",543.5,438.75 S,0,130696,,0.5 F,0,130727,,0,1 F,0,131665,,1,0
Sprite,Background,Centre,"names\0066.png",559.5,433.75 S,0,130696,,0.5 F,0,130750,,0,1 F,0,131688,,1,0
Sprite,Background,Centre,"names\0066.png",569.5,433.75 S,0,130696,,0.5 F,0,130760,,0,1 F,0,131698,,1,0
Sprite,Background,Centre,"names\0079.png",583.5,443.25 S,0,130696,,0.5 F,0,130770,,0,1 F,0,131708,,1,0
Sprite,Background,Centre,"names\0041.png",514,433.75 F,0,131634,,0,1 S,0,131634,,0.5 F,0,132009,,1,0
Sprite,Background,Centre,"names\0075.png",537.75,439 S,0,131634,,0.5 F,0,131661,,0,1 F,0,132036,,1,0
Sprite,Background,Centre,"names\006e.png",557.75,438.5 S,0,131634,,0.5 F,0,131681,,0,1 F,0,132056,,1,0
Sprite,Background,Centre,"names\006e.png",577.75,438.5 S,0,131634,,0.5 F,0,131701,,0,1 F,0,132076,,1,0
Sprite,Background,Centre,"names\004e.png",516.5,434 F,0,132009,,0,1 S,0,132009,,0.5 F,0,138009,,1,0
Sprite,Background,Centre,"names\006f.png",543.5,438.75 S,0,132009,,0.5 F,0,132040,,0,1 F,0,138040,,1,0
Sprite,Background,Centre,"names\0066.png",559.5,433.75 S,0,132009,,0.5 F,0,132063,,0,1 F,0,138063,,1,0
Sprite,Background,Centre,"names\0066.png",569.5,433.75 S,0,132009,,0.5 F,0,132073,,0,1 F,0,138073,,1,0
Sprite,Background,Centre,"names\0079.png",583.5,443.25 S,0,132009,,0.5 F,0,132083,,0,1 F,0,138083,,1,0
Sprite,Background,Centre,"names\0041.png",514,433.75 F,0,138009,,0,1 S,0,138009,,0.5 F,0,144009,,1,0
Sprite,Background,Centre,"names\0075.png",537.75,439 S,0,138009,,0.5 F,0,138036,,0,1 F,0,144036,,1,0
Sprite,Background,Centre,"names\006e.png",557.75,438.5 S,0,138009,,0.5 F,0,138056,,0,1 F,0,144056,,1,0
Sprite,Background,Centre,"names\006e.png",577.75,438.5 S,0,138009,,0.5 F,0,138076,,0,1 F,0,144076,,1,0
Sprite,Background,Centre,"names\004e.png",516.5,434 F,0,144009,,0,1 S,0,144009,,0.5 F,0,146634,,1,0
Sprite,Background,Centre,"names\006f.png",543.5,438.75 S,0,144009,,0.5 F,0,144040,,0,1 F,0,146665,,1,0
Sprite,Background,Centre,"names\0066.png",559.5,433.75 S,0,144009,,0.5 F,0,144063,,0,1 F,0,146688,,1,0
Sprite,Background,Centre,"names\0066.png",569.5,433.75 S,0,144009,,0.5 F,0,144073,,0,1 F,0,146698,,1,0
Sprite,Background,Centre,"names\0079.png",583.5,443.25 S,0,144009,,0.5 F,0,144083,,0,1 F,0,146708,,1,0
Sprite,Background,Centre,"names\0041.png",514,433.75 F,0,146634,,0,1 S,0,146634,,0.5 F,0,150009,,1,0
Sprite,Background,Centre,"names\0075.png",537.75,439 S,0,146634,,0.5 F,0,146661,,0,1 F,0,150036,,1,0
Sprite,Background,Centre,"names\006e.png",557.75,438.5 S,0,146634,,0.5 F,0,146681,,0,1 F,0,150056,,1,0
Sprite,Background,Centre,"names\006e.png",577.75,438.5 S,0,146634,,0.5 F,0,146701,,0,1 F,0,150076,,1,0
Sprite,Background,Centre,"names\004e.png",516.5,434 F,0,150009,,0,1 S,0,150009,,0.5 F,0,162009,,1,0
Sprite,Background,Centre,"names\006f.png",543.5,438.75 S,0,150009,,0.5 F,0,150040,,0,1 F,0,162040,,1,0
Sprite,Background,Centre,"names\0066.png",559.5,433.75 S,0,150009,,0.5 F,0,150063,,0,1 F,0,162063,,1,0
Sprite,Background,Centre,"names\0066.png",569.5,433.75 S,0,150009,,0.5 F,0,150073,,0,1 F,0,162073,,1,0
Sprite,Background,Centre,"names\0079.png",583.5,443.25 S,0,150009,,0.5 F,0,150083,,0,1 F,0,162083,,1,0
Sprite,Background,Centre,"names\0041.png",514,433.75 F,0,162009,,0,1 S,0,162009,,0.5 F,0,164446,,1,0
Sprite,Background,Centre,"names\0075.png",537.75,439 S,0,162009,,0.5 F,0,162036,,0,1 F,0,164473,,1,0
Sprite,Background,Centre,"names\006e.png",557.75,438.5 S,0,162009,,0.5 F,0,162056,,0,1 F,0,164493,,1,0
Sprite,Background,Centre,"names\006e.png",577.75,438.5 S,0,162009,,0.5 F,0,162076,,0,1 F,0,164513,,1,0
Sprite,Background,Centre,"names\004e.png",516.5,434 F,0,164446,,0,1 S,0,164446,,0.5 F,0,167446,,1,0
Sprite,Background,Centre,"names\006f.png",543.5,438.75 S,0,164446,,0.5 F,0,164477,,0,1 F,0,167477,,1,0
Sprite,Background,Centre,"names\0066.png",559.5,433.75 S,0,164446,,0.5 F,0,164500,,0,1 F,0,167500,,1,0
Sprite,Background,Centre,"names\0066.png",569.5,433.75 S,0,164446,,0.5 F,0,164510,,0,1 F,0,167510,,1,0
Sprite,Background,Centre,"names\0079.png",583.5,443.25 S,0,164446,,0.5 F,0,164520,,0,1 F,0,167520,,1,0
Sprite,Background,Centre,"names\0041.png",514,433.75 F,0,167446,,0,1 S,0,167446,,0.5 F,0,174009,,1,0
Sprite,Background,Centre,"names\0075.png",537.75,439 S,0,167446,,0.5 F,0,167473,,0,1 F,0,174036,,1,0
Sprite,Background,Centre,"names\006e.png",557.75,438.5 S,0,167446,,0.5 F,0,167493,,0,1 F,0,174056,,1,0
Sprite,Background,Centre,"names\006e.png",577.75,438.5 S,0,167446,,0.5 F,0,167513,,0,1 F,0,174076,,1,0
Sprite,Background,Centre,"names\004e.png",516.5,434 F,0,174009,,0,1 S,0,174009,,0.5 F,0,176446,,1,0
Sprite,Background,Centre,"names\006f.png",543.5,438.75 S,0,174009,,0.5 F,0,174040,,0,1 F,0,176477,,1,0
Sprite,Background,Centre,"names\0066.png",559.5,433.75 S,0,174009,,0.5 F,0,174063,,0,1 F,0,176500,,1,0
Sprite,Background,Centre,"names\0066.png",569.5,433.75 S,0,174009,,0.5 F,0,174073,,0,1 F,0,176510,,1,0
Sprite,Background,Centre,"names\0079.png",583.5,443.25 S,0,174009,,0.5 F,0,174083,,0,1 F,0,176520,,1,0
Sprite,Background,Centre,"names\0041.png",514,433.75 F,0,176446,,0,1 S,0,176446,,0.5 F,0,179446,,1,0
Sprite,Background,Centre,"names\0075.png",537.75,439 S,0,176446,,0.5 F,0,176473,,0,1 F,0,179473,,1,0
Sprite,Background,Centre,"names\006e.png",557.75,438.5 S,0,176446,,0.5 F,0,176493,,0,1 F,0,179493,,1,0
Sprite,Background,Centre,"names\006e.png",577.75,438.5 S,0,176446,,0.5 F,0,176513,,0,1 F,0,179513,,1,0
Sprite,Background,Centre,"names\004e.png",516.5,434 F,0,179446,,0,1 S,0,179446,,0.5 F,0,186009,,1,0
Sprite,Background,Centre,"names\006f.png",543.5,438.75 S,0,179446,,0.5 F,0,179477,,0,1 F,0,186040,,1,0
Sprite,Background,Centre,"names\0066.png",559.5,433.75 S,0,179446,,0.5 F,0,179500,,0,1 F,0,186063,,1,0
Sprite,Background,Centre,"names\0066.png",569.5,433.75 S,0,179446,,0.5 F,0,179510,,0,1 F,0,186073,,1,0
Sprite,Background,Centre,"names\0079.png",583.5,443.25 S,0,179446,,0.5 F,0,179520,,0,1 F,0,186083,,1,0
Sprite,Background,Centre,"names\0041.png",514,433.75 F,0,186009,,0,1 S,0,186009,,0.5 F,0,192009,,1,0
Sprite,Background,Centre,"names\0075.png",537.75,439 S,0,186009,,0.5 F,0,186036,,0,1 F,0,192036,,1,0
Sprite,Background,Centre,"names\006e.png",557.75,438.5 S,0,186009,,0.5 F,0,186056,,0,1 F,0,192056,,1,0
Sprite,Background,Centre,"names\006e.png",577.75,438.5 S,0,186009,,0.5 F,0,186076,,0,1 F,0,192076,,1,0
Sprite,Background,Centre,"names\004e.png",516.5,434 F,0,192009,,0,1 S,0,192009,,0.5 F,0,192571,,1,0
Sprite,Background,Centre,"names\006f.png",543.5,438.75 S,0,192009,,0.5 F,0,192040,,0,1 F,0,192602,,1,0
Sprite,Background,Centre,"names\0066.png",559.5,433.75 S,0,192009,,0.5 F,0,192063,,0,1 F,0,192625,,1,0
Sprite,Background,Centre,"names\0066.png",569.5,433.75 S,0,192009,,0.5 F,0,192073,,0,1 F,0,192635,,1,0
Sprite,Background,Centre,"names\0079.png",583.5,443.25 S,0,192009,,0.5 F,0,192083,,0,1 F,0,192645,,1,0
Sprite,Background,Centre,"names\0041.png",514,433.75 F,0,192571,,0,1 S,0,192571,,0.5 F,0,193321,,1,0
Sprite,Background,Centre,"names\0075.png",537.75,439 S,0,192571,,0.5 F,0,192598,,0,1 F,0,193348,,1,0
Sprite,Background,Centre,"names\006e.png",557.75,438.5 S,0,192571,,0.5 F,0,192618,,0,1 F,0,193368,,1,0
Sprite,Background,Centre,"names\006e.png",577.75,438.5 S,0,192571,,0.5 F,0,192638,,0,1 F,0,193388,,1,0
Sprite,Background,Centre,"names\004e.png",516.5,434 F,0,193321,,0,1 S,0,193321,,0.5 F,0,194071,,1,0
Sprite,Background,Centre,"names\006f.png",543.5,438.75 S,0,193321,,0.5 F,0,193352,,0,1 F,0,194102,,1,0
Sprite,Background,Centre,"names\0066.png",559.5,433.75 S,0,193321,,0.5 F,0,193375,,0,1 F,0,194125,,1,0
Sprite,Background,Centre,"names\0066.png",569.5,433.75 S,0,193321,,0.5 F,0,193385,,0,1 F,0,194135,,1,0
Sprite,Background,Centre,"names\0079.png",583.5,443.25 S,0,193321,,0.5 F,0,193395,,0,1 F,0,194145,,1,0
Sprite,Background,Centre,"names\0041.png",514,433.75 F,0,194071,,0,1 S,0,194071,,0.5 F,0,194446,,1,0
Sprite,Background,Centre,"names\0075.png",537.75,439 S,0,194071,,0.5 F,0,194098,,0,1 F,0,194473,,1,0
Sprite,Background,Centre,"names\006e.png",557.75,438.5 S,0,194071,,0.5 F,0,194118,,0,1 F,0,194493,,1,0
Sprite,Background,Centre,"names\006e.png",577.75,438.5 S,0,194071,,0.5 F,0,194138,,0,1 F,0,194513,,1,0
Sprite,Background,Centre,"names\004e.png",516.5,434 F,0,194446,,0,1 S,0,194446,,0.5 F,0,198009,,1,0
Sprite,Background,Centre,"names\006f.png",543.5,438.75 S,0,194446,,0.5 F,0,194477,,0,1 F,0,198040,,1,0
Sprite,Background,Centre,"names\0066.png",559.5,433.75 S,0,194446,,0.5 F,0,194500,,0,1 F,0,198063,,1,0
Sprite,Background,Centre,"names\0066.png",569.5,433.75 S,0,194446,,0.5 F,0,194510,,0,1 F,0,198073,,1,0
Sprite,Background,Centre,"names\0079.png",583.5,443.25 S,0,194446,,0.5 F,0,194520,,0,1 F,0,198083,,1,0
//Storyboard Layer 1 (Fail)
//Storyboard Layer 2 (Pass)
//Storyboard Layer 3 (Foreground)
//Storyboard Layer 4 (Overlay)
//Storyboard Sound Samples

[TimingPoints]
9,375,4,2,1,50,1,0
946,-200,4,2,1,50,0,0
11259,-133.333333333333,4,2,1,60,0,0
11821,-117.647058823529,4,2,1,65,0,0
13509,-100,4,2,1,65,0,0
15946,-100,4,2,1,40,0,0
16134,-100,4,2,1,60,0,0
16509,-100,4,2,1,65,0,0
19509,-83.3333333333333,4,2,1,40,0,0
21009,-83.3333333333333,4,2,1,50,0,0
22509,-83.3333333333333,4,2,1,60,0,0
24009,-83.3333333333333,4,2,1,65,0,0
24384,-40,4,2,2,50,0,0
24759,-40,4,2,3,50,0,0
25134,-40,4,2,4,50,0,0
25509,-40,4,2,1,70,0,0
25884,-100,4,2,1,70,0,0
27384,-250,4,2,1,70,0,0
27759,-66.6666666666667,4,2,1,70,0,0
28134,-100,4,2,1,70,0,0
30384,-40,4,2,2,70,0,0
30759,-40,4,2,3,70,0,0
31134,-40,4,2,4,70,0,0
31509,-40,4,2,1,70,0,0
31884,-100,4,2,1,70,0,0
33384,-200,4,2,1,70,0,0
33759,-66.6666666666667,4,2,1,70,0,0
33946,-100,4,2,1,70,0,0
36009,-100,4,2,3,80,0,0
36759,-100,4,2,1,70,0,0
37509,-100,4,2,2,65,0,0
42009,-125,4,2,2,65,0,0
43509,-50,4,2,1,70,0,0
43884,-83.3333333333333,4,2,1,70,0,0
44259,-80,4,2,1,70,0,0
44634,-76.9230769230769,4,2,1,70,0,0
45009,-74.0740740740741,4,2,1,70,0,0
45384,-71.4285714285714,4,2,1,70,0,0
46884,-83.3333333333333,4,2,1,70,0,0
47259,-80,4,2,1,70,0,0
47634,-76.9230769230769,4,2,1,70,0,0
48009,-74.0740740740741,4,2,1,70,0,0
48384,-62.5,4,2,2,70,0,0
48759,-62.5,4,2,3,70,0,0
49134,-62.5,4,2,4,70,0,0
49509,-100,4,2,2,65,0,0
55509,-50,4,2,1,70,0,0
55884,-83.3333333333333,4,2,1,70,0,0
56259,-80,4,2,1,70,0,0
56634,-76.9230769230769,4,2,1,70,0,0
57009,-74.0740740740741,4,2,1,70,0,0
57384,-71.4285714285714,4,2,1,70,0,0
58884,-83.3333333333333,4,2,1,70,0,0
59259,-80,4,2,1,70,0,0
59634,-76.9230769230769,4,2,1,70,0,0
60009,-74.0740740740741,4,2,2,70,0,0
60384,-68.9655172413793,4,2,3,70,0,0
60759,-64.5161290322581,4,2,4,70,0,0
61134,-60.6060606060606,4,2,1,70,0,0
61509,-166.666666666667,4,2,1,60,0,0
63009,-133.333333333333,4,2,2,60,0,0
63571,-166.666666666667,4,2,2,60,0,0
64509,-133.333333333333,4,2,2,60,0,0
66009,-100,4,2,2,60,0,0
67509,-166.666666666667,4,2,2,60,0,0
70134,-166.666666666667,4,2,3,65,0,0
70509,-125,4,2,2,65,0,0
70884,-166.666666666667,4,2,3,65,0,0
71259,-125,4,2,2,65,0,0
71634,-166.666666666667,4,2,3,65,0,0
72009,-125,4,2,2,65,0,0
72946,-125,4,2,3,65,0,0
73134,-125,4,2,2,65,0,0
73509,-55.5555555555556,4,2,1,100,0,1
96384,-40,4,2,2,100,0,1
96759,-44.4444444444445,4,2,3,100,0,1
97134,-50,4,2,4,100,0,1
97509,-100,4,2,2,75,0,0
109509,-133.333333333333,4,2,2,75,0,0
118884,-100,4,2,2,75,0,0
120009,-76.9230769230769,4,2,2,75,0,0
120384,-66.6666666666667,4,2,2,75,0,0
122634,-500,4,2,2,85,0,0
123009,-58.8235294117647,4,2,1,85,0,0
123384,-100,4,2,2,85,0,0
124322,-100,4,2,3,85,0,0
124696,-100,4,2,2,85,0,0
125259,-80,4,2,1,85,0,0
125634,-181.818181818182,4,2,1,85,0,0
126009,-55.5555555555556,4,2,1,85,0,0
126384,-100,4,2,1,85,0,0
126571,-100,4,2,3,85,0,0
126759,-100,4,2,1,85,0,0
126946,-100,4,2,1,85,0,0
127509,-100,4,2,3,85,0,0
127696,-100,4,2,4,85,0,0
127884,-100,4,2,1,85,0,0
128071,-100,4,2,3,85,0,0
128259,-55.5555555555556,4,2,1,85,0,0
129571,-100,4,2,3,85,0,0
129759,-200,4,2,1,85,0,0
130134,-133.333333333333,4,2,1,85,0,0
130509,-200,4,2,3,85,0,0
130696,-133.333333333333,4,2,1,85,0,0
131071,-133.333333333333,4,2,3,85,0,0
131259,-133.333333333333,4,2,1,85,0,0
131634,-71.4285714285714,4,2,1,85,0,0
132290,-133.333333333333,4,2,3,85,0,0
132384,-71.4285714285714,4,2,1,85,0,0
132571,-71.4285714285714,4,2,3,85,0,0
132665,-71.4285714285714,4,2,1,85,0,0
133321,-71.4285714285714,4,2,3,85,0,0
133509,-71.4285714285714,4,2,1,85,0,0
134821,-71.4285714285714,4,2,3,85,0,0
135009,-71.4285714285714,4,2,1,85,0,0
135759,-71.4285714285714,4,2,1,55,0,0
136696,-71.4285714285714,4,2,1,65,0,0
137446,-71.4285714285714,4,2,1,75,0,0
138009,-100,4,2,2,75,0,0
148884,-100,4,2,3,85,0,0
149259,-100,4,2,1,75,0,0
149634,-100,4,2,3,75,0,0
149821,-100,4,2,1,75,0,0
156009,-83.3333333333333,4,2,1,75,0,0
159009,-83.3333333333333,4,2,1,60,0,0
160509,-83.3333333333333,4,2,1,75,0,0
161259,-66.6666666666667,4,2,1,75,0,0
162009,-50,4,2,1,100,0,1
184509,-50,4,2,2,100,0,1
185634,-50,4,2,1,100,0,1
186009,-100,4,2,1,85,0,0
189384,-133.333333333333,4,2,1,85,0,0
191634,-100,4,2,1,85,0,0
191821,-83.3333333333333,4,2,2,85,0,0
192009,-66.6666666666667,4,2,1,85,0,0
192384,-100,4,2,1,85,0,0
193321,-83.3333333333333,4,2,1,85,0,0
195759,-71.4285714285714,4,2,1,85,0,0
196509,-62.5,4,2,1,85,0,0
196884,-40,4,2,2,85,0,0
197259,-40,4,2,3,85,0,0
197634,-40,4,2,4,85,0,0
198009,-40,4,2,5,85,0,0

[Colours]
Combo1 : 238,96,185
Combo2 : 205,252,251
Combo3 : 255,209,187
Combo4 : 255,206,255
Combo5 : 255,255,191
Combo6 : 199,177,207

[HitObjects]
363,347,946,70,0,L|317:377,2,41.25,0|2|0,0:0|0:0|0:0,0:0:0:0:
435,302,1509,2,0,P|442:272|489:234,1,82.5,2|2,0:0|0:3,0:0:0:0:
465,138,2071,2,0,L|436:137,2,20.625,2|2|10,0:0|0:0|0:0,0:0:0:0:
407,52,2446,2,0,P|427:53|446:15,1,61.875,2|0,0:0|0:0,0:0:0:0:
348,3,2821,2,0,B|306:13|300:48|300:48|349:103|316:188,1,206.25,0|10,0:0|0:0,0:0:0:0:
245,218,3946,2,0,L|199:188,2,41.25,2|2|2,0:0|0:0|0:0,0:0:0:0:
282,296,4509,6,0,P|275:326|228:364,1,82.5,2|2,0:0|0:3,0:0:0:0:
135,372,5071,2,0,L|125:329,1,41.25,0|10,0:0|0:0,0:0:0:0:
46,281,5446,2,0,P|35:304|4:281,1,61.875,2|0,0:0|0:0,0:0:0:0:
0,211,5821,2,0,P|57:164|169:217,1,206.25,2|8,0:0|0:0,0:0:0:0:
248,258,6946,2,0,L|265:264,4,10.3125,2|2|2|0|0,0:0|0:0|0:0|0:0|0:0,0:0:0:0:
260,167,7321,1,2,0:3:0:0:
203,81,7509,70,0,L|121:67,1,82.5,2|2,0:0|0:3,0:0:0:0:
34,7,8071,2,0,L|20:38,2,20.625,2|2|10,0:0|0:0|0:0,0:0:0:0:
88,93,8446,2,0,P|91:69|129:52,1,61.875,2|0,0:0|0:0,0:0:0:0:
196,58,8821,2,0,B|191:89|191:89|151:124|151:124|173:194,1,144.375,2|0,0:0|0:0,0:0:0:0:
207,265,9571,1,2,0:0:0:0:
283,202,9759,2,0,P|308:203|326:241,1,61.875,10|0,0:0|0:0,0:0:0:0:
394,242,10134,2,0,P|395:216|373:170,1,61.875,2|0,0:0|0:0,0:0:0:0:
325,115,10509,5,2,0:0:0:0:
225,83,10696,1,2,0:0:0:0:
126,52,10884,1,2,0:3:0:0:
392,52,11259,1,8,0:0:0:0:
396,74,11446,1,2,0:0:0:0:
284,96,11634,1,2,0:0:0:0:
171,115,11821,2,0,L|183:178,1,35.0625006687641,2|0,0:3|0:0,0:0:0:0:
198,236,12009,70,0,B|189:274|189:274|229:331|229:331|236:382,1,140.250002675056,12|2,3:2|0:3,0:0:0:0:
278,233,12571,1,2,0:0:0:0:
278,233,12665,1,2,0:0:0:0:
278,233,12759,2,0,L|328:266,1,35.0625006687641,10|0,0:0|0:0,0:0:0:0:
416,320,12946,1,2,0:0:0:0:
320,352,13134,1,2,0:0:0:0:
224,384,13321,1,2,0:0:0:0:
69,357,13509,6,0,B|23:306|23:306|134:301,1,165,2|2,3:2|3:2,0:0:0:0:
236,308,14071,2,0,P|265:273|243:213,1,82.5,2|0,0:0|3:0,0:0:0:0:
208,80,14446,2,0,P|211:130|251:164,1,82.5,2|0,0:0|3:0,0:0:0:0:
325,208,14821,2,0,L|364:224,2,41.25,2|2|2,0:0|0:0|3:2,0:0:0:0:
222,160,15196,1,2,0:0:0:0:
479,358,15571,2,0,L|418:353,2,41.25,2|2|2,0:0|0:0|3:2,0:0:0:0:
371,262,15946,69,8,0:0:0:0:
371,262,16040,1,8,0:0:0:0:
399,256,16134,1,10,0:0:0:0:
422,239,16227,1,8,0:0:0:0:
435,213,16321,1,10,0:0:0:0:
441,184,16415,1,8,0:0:0:0:
435,147,16509,6,0,P|415:110|366:191,1,165,2|0,3:2|3:0,0:0:0:0:
363,304,17071,2,0,P|318:279|294:234,1,82.5,2|0,0:0|3:0,0:0:0:0:
242,125,17446,2,0,B|198:99|142:157|75:115,1,165,2|2,0:0|0:0,0:0:0:0:
81,118,17915,1,2,0:0:0:0:
81,118,18009,69,0,3:0:0:0:
135,30,18196,1,2,0:0:0:0:
135,30,18290,1,2,0:0:0:0:
135,30,18384,2,0,L|56:40,1,55,0|2,3:0|0:0,0:0:0:0:
31,212,18759,1,0,3:0:0:0:
130,148,18946,2,0,L|85:120,2,41.25,2|2|2,0:0|0:0|0:0,0:0:0:0:
161,235,19227,1,10,0:0:0:0:
161,235,19321,1,10,0:0:0:0:
161,235,19415,1,10,0:0:0:0:
161,235,19509,6,2,L|91:275,3,49.4999984893799,2|0|0|2,3:2|3:2|3:2|3:2,3:2:0:0:
250,302,19884,2,0,L|310:264,3,49.4999984893799,2|0|2|0,3:2|3:2|3:2|3:2,3:2:0:0:
221,186,20259,2,2,L|239:122,3,49.4999984893799,0|0|0|2,3:2|3:2|3:2|3:2,3:2:0:0:
340,35,20634,2,2,L|358:99,3,49.4999984893799,2|0|2|0,3:2|3:2|3:2|3:2,3:2:0:0:
444,180,21009,69,2,3:2:0:0:
444,180,21102,1,0,3:2:0:0:
444,180,21196,1,0,3:2:0:0:
444,180,21290,1,0,3:2:0:0:
444,180,21384,2,0,L|491:166,3,49.4999984893799,0|0|2|0,3:0|3:0|3:2|3:0,3:0:0:0:
416,288,21759,5,2,3:2:0:0:
436,302,21852,1,0,3:2:0:0:
460,299,21946,1,0,3:2:0:0:
480,284,22040,1,2,3:2:0:0:
487,250,22134,1,0,3:2:0:0:
467,221,22227,1,0,3:2:0:0:
461,186,22321,1,0,3:2:0:0:
471,152,22415,1,0,3:2:0:0:
493,125,22509,70,2,L|524:98,6,24.74999924469,2|2|2|2|2|2|2,3:2|0:0|0:0|0:0|3:2|0:0|0:0,0:0:0:0:
429,89,22884,2,2,L|432:47,6,24.74999924469,2|2|2|2|2|2|2,3:2|0:0|0:0|0:0|3:2|0:0|0:0,0:0:0:0:
356,109,23259,2,2,L|329:77,6,24.74999924469,2|2|2|2|2|2|2,3:2|0:0|0:0|0:0|3:2|0:0|0:0,0:0:0:0:
313,166,23634,2,2,L|271:162,6,24.74999924469,2|2|2|2|2|2|2,3:2|0:0|0:0|0:0|3:2|0:0|0:0,0:0:0:0:
314,242,24009,5,4,3:2:0:0:
61,38,24384,70,0,B|88:102|105:209|105:209|154:145|161:74,1,309.375,4|0,0:0|0:0,0:0:0:0:
256,38,24759,2,0,B|229:102|212:209|212:209|163:145|156:74,1,309.375,4|0,0:0|0:0,0:0:0:0:
211,206,25134,6,0,P|304:269|281:127,1,309.375,4|0,0:0|0:0,0:0:0:0:
283,197,25509,70,0,P|234:292|56:265,1,309.375,4|0,3:0|0:0,0:0:0:0:
44,228,25884,2,0,L|32:187,1,41.25,2|0,0:0|0:0,0:0:0:0:
88,128,26071,2,0,L|77:167,1,41.25,2|0,0:0|0:0,0:0:0:0:
35,58,26259,2,0,P|94:34|155:45,1,123.75,10|0,0:0|0:0,0:0:0:0:
230,95,26634,2,0,L|242:136,1,41.25,0|0,3:2|0:0,0:0:0:0:
218,224,26821,2,0,L|228:184,1,41.25,2|0,0:0|0:0,0:0:0:0:
308,70,27009,2,0,P|368:70|427:107,1,123.75,2|0,0:0|0:0,0:0:0:0:
441,163,27384,6,0,P|414:160|384:170,1,49.5,4|0,3:0|0:0,0:0:0:0:
478,256,27759,2,0,P|415:240|352:259,1,123.750004720688,8|0,0:0|0:0,0:0:0:0:
273,310,28134,2,2,L|265:342,4,20.625
273,297,28509,70,0,P|263:247|238:290,1,123.75,2|0,3:2|0:0,0:0:0:0:
133,318,28884,2,0,L|94:304,1,41.25,2|0,0:0|0:0,0:0:0:0:
46,210,29071,2,0,L|97:228,1,41.25,2|0,0:0|0:0,0:0:0:0:
231,225,29259,2,0,L|100:190,1,123.75,10|0,0:0|0:0,0:0:0:0:
244,127,29634,2,0,L|283:141,1,41.25,2|0,3:2|0:0,0:0:0:0:
399,121,29821,2,0,L|348:103,1,41.25,2|0,0:0|0:0,0:0:0:0:
266,30,30009,2,0,L|394:68,1,123.75,2|0,0:0|0:0,0:0:0:0:
498,167,30384,6,0,B|464:203|464:250|464:250|417:206|417:206|381:255|381:255|369:203|328:182,1,309.375,4|0,0:0|0:0,0:0:0:0:
206,92,30759,2,0,B|242:128|242:175|242:175|289:131|289:131|325:180|325:180|337:128|399:94,1,309.375,4|0,0:0|0:0,0:0:0:0:
497,17,31134,2,0,B|462:53|462:100|462:100|415:56|415:56|379:105|379:105|367:53|305:19,1,309.375,4|0,3:2|0:0,0:0:0:0:
206,92,31509,70,0,P|195:194|0:248,1,309.375,4|0,3:0|0:0,0:0:0:0:
93,146,31884,2,0,L|78:192,1,41.25,2|0,0:0|0:0,0:0:0:0:
114,262,32071,2,0,L|99:219,1,41.25,2|0,0:0|0:0,0:0:0:0:
68,344,32259,2,0,P|124:335|211:362,1,123.75,10|0,0:0|0:0,0:0:0:0:
306,365,32634,2,0,L|291:319,1,41.25,2|0,3:2|0:0,0:0:0:0:
327,249,32821,2,0,L|312:292,1,41.25,2|0,0:0|0:0,0:0:0:0:
281,167,33009,2,0,P|337:176|424:149,1,123.75,2|0,0:0|0:0,0:0:0:0:
423,128,33384,6,0,P|423:101|418:85,1,41.25,4|0,3:0|0:0,0:0:0:0:
318,68,33759,2,0,P|331:134|312:222,1,123.750004720688,10|0,0:0|0:0,0:0:0:0:
283,280,34134,2,2,L|271:262,4,20.625
327,311,34509,70,0,P|321:360|289:324,1,123.75,2|0,3:2|0:0,0:0:0:0:
375,237,34884,2,0,P|406:244|441:272,1,41.25,2|0,0:0|0:0,0:0:0:0:
508,178,35071,2,0,P|476:185|442:213,1,41.25,2|0,0:0|0:0,0:0:0:0:
393,155,35259,2,0,P|377:95|381:34,1,123.75,10|0,0:0|0:0,0:0:0:0:
286,101,35634,2,0,P|254:93|220:66,1,41.25,2|0,3:2|0:0,0:0:0:0:
178,182,35821,2,0,P|209:174|240:155,1,41.25,2|0,0:0|0:0,0:0:0:0:
289,238,36009,5,8,0:0:0:0:
289,238,36134,1,8,0:0:0:0:
289,238,36259,1,8,0:0:0:0:
373,274,36384,1,8,0:0:0:0:
373,274,36509,1,8,0:0:0:0:
373,274,36634,1,8,0:0:0:0:
450,202,36759,70,2,L|421:204,2,20.625
461,121,36946,1,2,0:0:0:0:
441,99,37040,1,2,0:0:0:0:
412,97,37134,1,8,0:0:0:0:
384,104,37227,1,8,0:0:0:0:
351,96,37321,1,8,0:0:0:0:
328,66,37415,1,8,0:0:0:0:
285,44,37509,22,0,B|353:-1|353:-1|414:57,1,165,2|8,3:2|0:0,0:0:0:0:
430,145,38071,1,2,3:2:0:0:
498,38,38259,1,10,0:0:0:0:
510,127,38446,1,2,0:0:0:0:
473,210,38634,1,2,0:0:0:0:
385,232,38821,1,2,0:0:0:0:
299,200,39009,22,0,B|340:170|340:170|353:273,1,123.75,2|0,3:2|0:0,0:0:0:0:
353,285,39384,1,8,0:0:0:0:
248,362,39571,2,0,P|231:314|236:276,1,82.5,2|8,3:2|0:0,0:0:0:0:
287,191,39946,1,2,0:0:0:0:
205,135,40134,2,0,L|98:143,1,82.5,2|2,0:0|0:0,0:0:0:0:
82,128,40415,1,2,0:0:0:0:
40,109,40509,54,0,P|27:56|116:53,1,165,2|8,3:2|0:0,0:0:0:0:
169,125,41071,1,0,3:0:0:0:
63,204,41259,1,8,0:0:0:0:
144,242,41446,1,0,3:0:0:0:
47,325,41634,1,2,0:0:0:0:
143,357,41821,1,8,0:0:0:0:
207,257,42009,21,2,3:2:0:0:
197,220,42102,1,2,0:0:0:0:
183,176,42196,2,0,B|176:139|176:139|196:95,1,66,2|8,0:0|0:0,0:0:0:0:
310,62,42571,2,0,L|340:63,2,16.5,0|2|2,3:2|0:0|0:0,0:0:0:0:
310,62,42759,2,0,L|313:143,1,66,10|0,0:0|0:0,0:0:0:0:
412,217,43134,2,2,L|410:191,2,16.5
341,249,43321,2,2,L|337:223,2,16.5
298,309,43509,6,0,P|159:309|108:224,1,247.5,4|0,3:0|0:0,0:0:0:0:
71,133,43884,2,0,B|132:128|132:128|170:95,1,98.9999969787599,2|0,0:0|0:0,0:0:0:0:
267,47,44259,2,0,P|216:41|185:19,1,51.5625,10|0,0:0|0:0,0:0:0:0:
147,6,44446,1,0,0:0:0:0:
354,122,44634,2,0,P|306:145|261:148,1,53.6249975452424,2|0,3:2|3:0,0:0:0:0:
225,141,44821,1,0,0:0:0:0:
461,164,45009,2,0,P|427:207|395:227,1,55.687500212431,2|0,0:0|0:0,0:0:0:0:
355,251,45196,1,0,0:0:0:0:
187,193,45384,1,2,3:2:0:0:
242,310,45571,1,2,0:0:0:0:
117,351,45759,54,0,P|127:308|125:286,1,57.7499982376099,8|0,0:0|0:0,0:0:0:0:
54,218,45946,2,0,P|45:245|44:274,1,57.7499982376099,2|0,0:0|0:0,0:0:0:0:
136,199,46134,2,0,P|107:147|50:127,1,115.49999647522,2|0,0:0|0:0,0:0:0:0:
57,127,46509,21,0,3:2:0:0:
35,245,46696,1,2,3:2:0:0:
147,242,46884,2,0,P|139:290|112:331,1,98.9999969787599,2|0,0:0|0:0,0:0:0:0:
225,182,47259,2,0,P|248:229|249:275,1,51.5625,10|0,0:0|0:0,0:0:0:0:
255,304,47446,1,0,0:0:0:0:
290,100,47634,2,0,P|333:134|359:172,1,53.6249975452424,2|0,3:2|0:0,0:0:0:0:
374,201,47821,1,0,0:0:0:0:
309,0,48009,2,0,P|364:11|403:33,1,55.687500212431,2|0,3:2|0:0,0:0:0:0:
430,60,48196,1,0,0:0:0:0:
430,60,48384,54,0,B|458:155|404:172|437:264,1,198,4|0,0:0|0:0,0:0:0:0:
378,287,48759,2,0,B|408:203|354:186|382:91,1,198,4|0,0:0|0:0,0:0:0:0:
325,103,49134,2,0,B|353:198|299:215|329:298,1,198,4|0,0:0|0:0,0:0:0:0:
406,353,49509,6,0,P|461:345|426:269,1,165,2|8,3:2|0:0,0:0:0:0:
323,291,50071,1,2,3:2:0:0:
357,182,50259,1,10,0:0:0:0:
269,132,50446,1,2,0:0:0:0:
298,61,50634,1,2,0:0:0:0:
388,115,50821,1,2,0:0:0:0:
388,115,50915,1,2,0:0:0:0:
388,115,51009,54,0,L|235:132,1,123.75,2|0,3:2|0:0,0:0:0:0:
226,130,51384,1,8,0:0:0:0:
130,48,51571,2,0,B|161:23|161:23|201:50,1,82.5,0|8,3:2|0:0,0:0:0:0:
275,118,51946,1,2,0:0:0:0:
193,170,52134,2,2,L|210:203,2,20.625
164,103,52321,2,2,L|147:70,2,20.625
117,163,52509,22,0,B|95:196|95:196|153:222|156:299,1,165,2|8,3:2|0:0,0:0:0:0:
69,364,53071,1,2,3:2:0:0:
16,243,53259,1,10,0:0:0:0:
101,286,53446,1,2,0:0:0:0:
116,136,53634,1,2,0:0:0:0:
202,173,53821,1,2,0:0:0:0:
204,36,54009,53,2,3:2:0:0:
119,4,54196,2,0,L|123:57,1,41.25,2|0,0:0|0:0,0:0:0:0:
129,136,54384,1,8,0:0:0:0:
282,187,54571,2,2,L|270:214,2,20.625
282,187,54759,2,8,L|171:192,1,82.5,0|2,0:0|0:0,0:0:0:0:
76,215,55134,2,2,L|96:210,2,20.625
79,289,55321,2,2,L|41:297,2,20.625
144,317,55509,6,0,P|283:317|334:232,1,247.5,4|0,3:0|0:0,0:0:0:0:
354,133,55884,2,0,B|415:128|415:128|453:95,1,98.9999969787599,2|0,0:0|0:0,0:0:0:0:
279,59,56259,2,0,B|221:69|223:28|86:59,1,154.6875,10|0,0:0|0:0,0:0:0:0:
50,133,56634,2,0,B|101:158|159:108|215:154,1,160.874992635727,2|0,3:2|0:0,0:0:0:0:
267,255,57009,2,0,B|169:266|189:216|84:237,1,167.062500637293,2|0,3:2|0:0,0:0:0:0:
39,189,57384,22,0,L|49:133,1,57.7499982376099,2|0,3:2|0:0,0:0:0:0:
81,47,57571,2,0,L|91:103,1,57.7499982376099,2|0,0:0|0:0,0:0:0:0:
136,193,57759,2,0,L|146:137,1,57.7499982376099,10|0,0:0|0:0,0:0:0:0:
200,43,57946,2,0,L|204:101,1,57.7499982376099,2|0,0:0|0:0,0:0:0:0:
232,189,58134,1,2,0:0:0:0:
232,189,58321,1,2,0:0:0:0:
343,88,58509,53,2,3:2:0:0:
427,147,58696,1,0,3:0:0:0:
310,265,58884,1,2,0:0:0:0:
337,184,59071,1,2,0:0:0:0:
398,314,59259,1,10,0:0:0:0:
310,265,59446,1,2,0:0:0:0:
301,296,59540,1,2,0:0:0:0:
294,323,59634,1,2,3:2:0:0:
337,184,59821,1,2,0:0:0:0:
299,62,60009,22,0,P|244:73|147:157,1,167.062500637293,4|0,3:2|0:0,0:0:0:0:
76,114,60384,2,0,P|155:136|225:208,1,179.437505475998,4|0,3:2|0:0,0:0:0:0:
309,179,60759,2,0,P|229:201|153:285,1,191.812501463413,12|0,3:2|0:0,0:0:0:0:
222,355,61134,2,0,P|154:281|58:250,1,204.187501947284,4|0,3:2|0:0,0:0:0:0:
1,315,61509,38,0,L|37:369,2,49.4999984893799,2|2|0,3:2|0:0|0:0,0:0:0:0:
30,228,62071,1,0,3:0:0:0:
124,261,62259,2,0,L|146:324,2,49.4999984893799,10|2|0,0:0|0:0|0:0,0:0:0:0:
149,169,62821,1,2,0:0:0:0:
287,202,63009,22,0,P|296:139|241:107,1,123.750004720688,2|2,3:2|0:0,0:0:0:0:
144,80,63571,1,2,3:2:0:0:
144,80,63665,1,2,0:0:0:0:
144,80,63759,1,10,0:0:0:0:
252,107,63946,2,0,P|284:107|316:91,1,49.4999984893799
358,46,64321,1,2,0:0:0:0:
458,149,64509,54,0,P|426:104|517:109,1,185.625007081032,2|0,3:2|3:0,0:0:0:0:
498,171,65259,1,8,0:0:0:0:
374,126,65446,2,0,L|319:117,1,30.937501180172,2|0,0:0|0:0,0:0:0:0:
287,181,65634,2,0,L|253:188,1,30.937501180172,2|0,0:0|0:0,0:0:0:0:
193,137,65821,2,0,L|151:116,1,30.937501180172,2|0,3:0|0:0,0:0:0:0:
53,187,66009,22,0,B|93:177|93:177|144:207,2,82.5,0|0|0,3:2|3:0|3:0,0:0:0:0:
62,278,66571,2,0,L|10:269,2,41.25,2|0|0,0:0|0:0|0:0,0:0:0:0:
120,355,66946,1,2,0:3:0:0:
205,308,67134,2,2,L|215:336,6,20.625
285,336,67509,54,0,B|310:303|310:303|315:255,2,74.2499977340699,2|2|2,3:2|0:0|0:0,0:0:0:0:
399,284,68259,2,0,L|397:228,2,49.4999984893799,10|2|2,0:0|0:0|0:0,0:0:0:0:
489,352,68821,1,2,0:3:0:0:
390,253,69009,22,0,B|380:223|380:223|421:238|465:213,1,98.9999969787599,2|0,3:2|3:0,0:0:0:0:
505,172,69571,1,2,0:0:0:0:
450,53,69759,2,0,L|442:117,1,49.4999984893799,10|2,0:0|0:0,0:0:0:0:
357,190,70134,1,8,0:0:0:0:
351,174,70227,1,8,0:0:0:0:
342,151,70321,1,8,0:0:0:0:
333,129,70415,1,8,0:0:0:0:
323,103,70509,53,2,3:2:0:0:
237,138,70696,1,2,0:0:0:0:
88,70,70884,1,8,0:0:0:0:
124,55,70977,1,8,0:0:0:0:
160,38,71071,1,8,0:0:0:0:
51,198,71259,1,8,0:0:0:0:
16,112,71446,22,2,L|39:108,2,16.5
16,204,71634,1,8,0:0:0:0:
38,228,71728,1,8,0:0:0:0:
71,227,71822,1,8,0:0:0:0:
109,217,71915,1,8,0:0:0:0:
148,252,72009,53,2,3:2:0:0:
465,63,72384,2,0,L|473:41,1,16.5,4|0,0:0|0:0,0:0:0:0:
363,107,72571,1,2,0:0:0:0:
340,154,72665,1,2,0:0:0:0:
339,210,72759,2,2,L|343:235,2,16.5
251,224,72946,1,8,0:0:0:0:
201,205,73040,1,8,0:0:0:0:
163,167,73134,1,8,3:2:0:0:
138,193,73227,1,8,0:0:0:0:
104,207,73321,1,8,0:0:0:0:
67,208,73415,1,8,0:0:0:0:
2,218,73509,70,0,P|54:278|1:361,1,148.49999546814,2|2,3:2|0:0,0:0:0:0:
163,224,73884,1,10,0:0:0:0:
65,33,74071,2,0,P|39:110|91:168,1,148.49999546814,2|0,0:0|3:0,0:0:0:0:
198,138,74446,69,2,0:3:0:0:
168,33,74634,1,8,0:0:0:0:
370,17,74821,1,2,0:0:0:0:
363,66,74915,1,2,0:0:0:0:
358,108,75009,2,0,B|404:125|404:125|444:110|444:110|515:171,1,148.49999546814,2|0,3:2|0:0,0:0:0:0:
471,20,75384,1,10,0:0:0:0:
425,215,75571,2,0,B|403:318|403:318|382:261,1,148.49999546814,2|0,0:0|3:0,0:0:0:0:
277,167,75946,5,2,0:0:0:0:
247,133,76040,1,2,0:0:0:0:
258,89,76134,1,10,0:0:0:0:
300,77,76227,1,2,0:0:0:0:
338,99,76321,1,2,0:0:0:0:
333,143,76415,1,2,0:0:0:0:
297,169,76509,70,0,P|257:193|312:281,1,148.49999546814,2|0,3:2|0:0,0:0:0:0:
408,338,76884,1,10,0:0:0:0:
282,293,77071,1,2,0:0:0:0:
238,302,77165,1,2,0:0:0:0:
194,310,77259,1,2,3:2:0:0:
271,192,77446,1,2,0:0:0:0:
409,246,77634,2,0,P|443:166|398:108,1,148.49999546814,10|0,0:0|0:0,0:0:0:0:
198,73,78009,6,0,B|233:51|233:51|295:83|295:83|352:57,1,148.49999546814,2|0,3:2|0:0,0:0:0:0:
480,17,78384,1,10,0:0:0:0:
398,122,78571,1,2,0:0:0:0:
371,86,78664,1,2,0:0:0:0:
342,51,78759,1,2,3:2:0:0:
456,211,78946,69,2,0:3:0:0:
413,310,79134,1,10,0:0:0:0:
299,153,79321,1,2,0:0:0:0:
318,198,79415,1,2,0:0:0:0:
332,244,79509,2,0,P|265:229|198:300,1,148.49999546814,2|0,3:2|0:0,0:0:0:0:
292,332,79884,1,10,0:0:0:0:
116,230,80071,2,0,P|99:310|151:368,1,148.49999546814,2|0,0:0|3:0,0:0:0:0:
124,125,80446,6,0,P|46:150|21:224,1,148.49999546814,2|10,0:0|0:0,0:0:0:0:
152,266,80821,1,2,0:0:0:0:
140,306,80915,1,2,0:0:0:0:
129,346,81009,2,0,B|190:328|235:369|235:369|286:338,1,148.49999546814,2|0,3:2|0:0,0:0:0:0:
364,289,81384,1,10,0:0:0:0:
411,182,81571,69,2,0:3:0:0:
411,182,81759,2,0,P|300:174|203:123,1,222.74999320221,2|0,3:2|0:0,0:0:0:0:
259,37,82134,2,0,P|223:110|57:95,1,222.74999320221,10|0,0:0|0:0,0:0:0:0:
24,14,82509,6,0,L|114:22,1,74.2499977340699,2|0,3:2|0:0,0:0:0:0:
259,37,82696,2,0,L|172:28,1,74.2499977340699,2|0,3:2|0:0,0:0:0:0:
125,107,82884,2,0,B|117:183|117:183|108:241|60:259,1,148.49999546814,12|0,0:0|0:0,0:0:0:0:
217,310,83259,2,2,L|212:270,2,37.1249988670349
270,361,83446,70,0,L|379:351,1,74.2499977340699,2|0,3:2|0:0,0:0:0:0:
496,337,83633,2,0,L|402:345,1,74.2499977340699,2|0,3:2|0:0,0:0:0:0:
334,276,83821,1,2,0:0:0:0:
334,238,83915,1,2,0:0:0:0:
338,188,84009,6,2,L|377:182,2,37.1249988670349,10|2|2,0:0|0:0|0:0,0:0:0:0:
288,110,84196,2,0,B|254:124|254:124|207:121,1,74.2499977340699,2|0,0:3|0:0,0:0:0:0:
126,214,84384,2,0,B|163:199|163:199|213:206,1,74.2499977340699,8|2,0:0|0:0,0:0:0:0:
240,283,84571,2,0,B|247:320|247:320|234:355,1,74.2499977340699,2|2,0:3|0:0,0:0:0:0:
322,362,84759,1,8,0:0:0:0:
361,342,84852,1,8,0:0:0:0:
400,322,84946,1,8,0:0:0:0:
457,220,85134,2,2,L|440:253,6,37.1249988670349
460,131,85509,70,0,P|470:47|390:120,1,222.74999320221,2|0,3:2|0:0,0:0:0:0:
380,167,85884,2,0,P|301:141|287:62,1,148.49999546814,10|2,0:0|0:0,0:0:0:0:
310,233,86259,1,2,3:2:0:0:
398,368,86446,2,0,P|381:295|477:283,1,148.49999546814,2|10,0:0|0:0,0:0:0:0:
304,351,86821,1,2,0:0:0:0:
260,360,86915,1,2,0:0:0:0:
201,368,87009,6,0,P|226:292|145:270,1,148.49999546814,2|2,3:2|0:0,0:0:0:0:
133,264,87290,1,2,0:0:0:0:
89,272,87384,1,8,0:0:0:0:
28,143,87571,2,0,P|54:111|83:195,1,148.49999546814,2|2,0:0|3:2,0:0:0:0:
286,56,87946,69,2,0:0:0:0:
313,92,88040,1,2,0:0:0:0:
299,135,88134,1,10,0:0:0:0:
256,143,88227,1,2,0:0:0:0:
220,118,88321,1,2,0:0:0:0:
229,75,88415,1,2,0:0:0:0:
274,43,88509,6,0,P|352:32|435:122,1,148.49999546814,2|0,3:2|0:0,0:0:0:0:
429,209,88884,1,10,0:0:0:0:
251,163,89071,1,2,0:0:0:0:
283,133,89165,1,2,0:0:0:0:
327,127,89259,1,2,3:2:0:0:
324,325,89446,1,2,0:0:0:0:
235,264,89634,1,10,0:0:0:0:
327,127,89821,1,2,0:3:0:0:
428,208,90009,70,0,B|462:239|462:239|359:231,1,148.49999546814,2|0,3:2|0:0,0:0:0:0:
251,221,90384,1,10,0:0:0:0:
77,278,90571,1,2,0:0:0:0:
121,277,90664,1,2,0:0:0:0:
167,275,90759,1,2,3:2:0:0:
301,238,90946,2,0,P|313:207|302:155,1,74.2499977340699,2|0,0:0|0:0,0:0:0:0:
328,324,91134,2,0,P|358:310|387:266,1,74.2499977340699,10|0,0:0|0:0,0:0:0:0:
431,171,91321,2,0,P|442:140|432:88,1,74.2499977340699,2|0,0:0|0:0,0:0:0:0:
322,8,91509,6,0,P|267:-15|258:67,1,148.49999546814,6|0,3:2|0:0,0:0:0:0:
263,163,91790,2,0,P|226:210|153:136,1,148.49999546814,2|0,0:0|0:0,0:0:0:0:
73,71,92071,2,0,P|103:125|26:167,1,148.49999546814,6|2,0:0|3:2,0:0:0:0:
20,17,92446,1,2,0:0:0:0:
63,0,92539,1,2,0:0:0:0:
107,7,92634,1,2,3:2:0:0:
45,172,92821,1,2,0:3:0:0:
221,118,93009,70,0,B|245:142|245:142|221:256,1,148.49999546814,2|2,3:2|0:0,0:0:0:0:
200,337,93290,2,0,P|148:278|192:224,1,148.49999546814,2|0,0:0|0:0,0:0:0:0:
288,224,93571,2,0,P|326:165|282:112,1,148.49999546814,2|0,0:3|3:2,0:0:0:0:
424,205,93946,1,2,0:0:0:0:
419,249,94039,1,2,0:0:0:0:
392,284,94134,2,0,P|363:314|312:325,1,74.2499977340699,10|0,0:0|0:0,0:0:0:0:
240,330,94321,2,0,P|198:322|161:287,1,74.2499977340699,2|0,0:0|0:0,0:0:0:0:
113,197,94509,6,0,P|108:137|200:153,1,148.49999546814,4|0,3:2|0:0,0:0:0:0:
270,185,94790,2,0,P|352:187|364:104,1,148.49999546814,2|0,0:0|0:0,0:0:0:0:
413,16,95071,2,0,B|409:58|409:58|425:94|425:94|436:372,1,296.99999093628,4|0,0:0|0:0,0:0:0:0:
470,162,95634,69,10,0:0:0:0:
474,116,95728,1,2,0:0:0:0:
439,87,95822,1,2,0:0:0:0:
398,102,95915,1,2,0:0:0:0:
379,142,96009,6,0,P|321:170|276:105,1,148.49999546814,4|0,3:2|0:0,0:0:0:0:
190,247,96384,70,0,B|224:283|224:330|224:330|271:286|271:286|307:335|307:335|319:283|360:262,1,309.375,4|0,0:0|0:0,0:0:0:0:
466,182,96759,2,0,B|434:213|434:255|434:255|392:216|392:216|361:259|361:259|350:213|296:183,1,278.437510621548,4|0,0:0|0:0,0:0:0:0:
213,116,97134,2,0,B|241:145|241:183|241:183|279:147|279:147|308:187|308:187|318:145|368:117,1,247.5,4|0,3:2|0:0,0:0:0:0:
432,90,97509,38,0,B|458:149|403:187|439:264,1,165,2|8,3:2|0:0,0:0:0:0:
468,320,98109,1,2,0:0:0:0:
440,344,98259,2,0,P|399:336|355:347,1,82.5,8|0,0:0|0:0,0:0:0:0:
265,374,98634,21,10,0:0:0:0:
190,374,98821,1,2,0:0:0:0:
119,349,99009,1,10,0:0:0:0:
75,288,99196,1,2,0:0:0:0:
48,218,99384,1,10,0:0:0:0:
53,144,99571,1,2,0:0:0:0:
81,75,99759,1,10,0:0:0:0:
139,29,99946,1,2,0:0:0:0:
302,74,100359,53,2,0:0:0:0:
321,108,100509,1,10,0:0:0:0:
405,23,100809,1,2,0:0:0:0:
490,107,101109,1,2,0:0:0:0:
483,144,101259,2,0,P|477:211|494:272,1,123.75,10|2,0:0|0:0,0:0:0:0:
510,296,101634,21,10,0:0:0:0:
476,229,101821,1,2,0:0:0:0:
416,183,102009,1,10,0:0:0:0:
343,168,102196,1,2,0:0:0:0:
268,172,102384,1,10,0:0:0:0:
201,204,102571,1,2,0:0:0:0:
162,267,102759,1,10,0:0:0:0:
149,339,102946,2,0,P|105:280|4:296,1,165,2|2,0:0|0:0,0:0:0:0:
65,354,103509,53,10,0:0:0:0:
150,199,103809,1,2,0:0:0:0:
223,268,104109,1,2,0:0:0:0:
259,259,104259,2,0,P|283:235|265:183,1,82.5,10|2,0:0|0:0,0:0:0:0:
274,190,104821,22,0,B|340:158|359:226|455:185,1,165,2|2,0:0|0:0,0:0:0:0:
181,166,105384,1,10,0:0:0:0:
255,110,105571,2,0,P|272:201|196:261,1,165,2|2,0:0|0:0,0:0:0:0:
154,265,106134,1,10,0:0:0:0:
79,348,106321,2,0,P|80:298|69:264,1,82.5,2|8,0:0|0:0,0:0:0:0:
26,170,106696,1,2,0:0:0:0:
101,253,106884,2,0,P|100:203|111:169,1,82.5,10|0,0:0|0:0,0:0:0:0:
109,172,107634,54,0,P|181:178|190:121,1,123.75,10|0,0:0|0:0,0:0:0:0:
194,102,108009,1,10,0:0:0:0:
287,152,108196,1,2,0:0:0:0:
287,152,108571,1,2,0:0:0:0:
318,249,108759,2,2,L|317:287,2,20.625
413,331,109134,2,2,L|434:362,2,20.625
289,141,109509,70,0,B|275:161|275:161|288:274,1,123.750004720688,2|2,3:2|0:3,0:0:0:0:
309,360,110071,1,8,0:0:0:0:
395,307,110259,1,2,3:2:0:0:
226,363,110446,2,0,P|191:318|246:304,1,123.750004720688,2|2,0:0|0:0,0:0:0:0:
339,305,111009,21,2,3:2:0:0:
355,267,111102,1,2,0:0:0:0:
345,226,111196,1,8,0:0:0:0:
251,197,111384,2,0,L|205:212,2,30.937501180172,8|2|2,0:0|0:0|0:0,0:0:0:0:
342,169,111759,1,2,3:2:0:0:
329,92,111946,1,2,0:0:0:0:
272,48,112134,2,2,L|263:32,3,10.3125003933907
260,108,112321,1,8,0:0:0:0:
221,139,112415,1,8,0:0:0:0:
176,152,112509,54,0,P|135:120|184:83,1,123.750004720688,2|2,3:2|0:3,0:0:0:0:
303,101,113071,1,0,0:0:0:0:
357,12,113259,1,2,3:2:0:0:
463,104,113446,2,0,P|494:49|446:39,2,123.750004720688,2|2|2,0:0|0:0|0:0,0:0:0:0:
346,99,114384,21,8,0:0:0:0:
381,220,114571,1,8,0:0:0:0:
272,241,114759,1,2,3:2:0:0:
166,263,114946,1,2,0:0:0:0:
62,286,115134,2,2,L|72:278,3,10.3125003933907
95,341,115321,1,8,0:0:0:0:
133,369,115415,1,8,0:0:0:0:
192,368,115509,54,0,B|214:331|214:331|244:360|307:370,1,123.750004720688,2|2,3:2|0:3,0:0:0:0:
409,335,116071,1,8,0:0:0:0:
443,266,116259,1,2,3:2:0:0:
305,353,116446,2,0,P|260:319|252:266,1,92.812503540516,2|2,0:0|0:0,0:0:0:0:
207,222,116821,22,0,P|214:277|182:320,1,92.812503540516,2|2,0:0|0:0,0:0:0:0:
108,341,117196,2,0,P|89:326|72:302,1,30.937501180172,8|8,0:0|0:0,0:0:0:0:
44,229,117384,2,0,P|41:211|45:180,2,30.937501180172,8|0|0,0:0|0:0|0:0,0:0:0:0:
155,282,117759,2,0,P|189:292|225:287,1,61.875002360344,2|2,3:2|0:0,0:0:0:0:
327,224,118134,2,2,L|317:232,3,10.3125003933907
366,268,118321,1,8,0:0:0:0:
416,295,118415,1,8,0:0:0:0:
477,293,118509,37,2,3:2:0:0:
491,186,118696,1,2,0:0:0:0:
373,78,118884,2,0,B|340:51|309:83|314:138|358:111|379:166|379:166|403:109|438:144|459:90|421:41|381:88,1,288.75,2|0,0:0|0:0,0:0:0:0:
359,70,119634,2,0,P|324:89|340:125,1,82.5,4|0,0:0|0:0,0:0:0:0:
434,241,120009,70,0,P|401:282|333:272,1,107.249995090485,2|2,3:2|0:0,0:0:0:0:
257,197,120290,1,0,3:0:0:0:
248,140,120384,2,0,B|239:177|270:219|270:219|261:312|130:329,1,247.500009441376,2|0,0:0|0:0,0:0:0:0:
103,326,120852,1,2,3:2:0:0:
57,306,120946,1,2,0:0:0:0:
42,255,121040,1,2,0:0:0:0:
56,196,121134,5,10,0:0:0:0:
128,160,121321,1,2,0:0:0:0:
88,96,121509,1,2,0:0:0:0:
24,140,121696,1,2,0:0:0:0:
56,172,121884,1,2,0:0:0:0:
76,148,122072,1,2,0:0:0:0:
104,160,122259,1,2,0:0:0:0:
396,113,122634,6,0,L|369:97,1,24.75,10|0,0:0|0:0,0:0:0:0:
342,92,123009,6,0,P|264:145|126:111,1,210.375004012585,4|0,3:0|0:0,0:0:0:0:
59,85,123384,2,0,B|64:126|64:126|41:191,1,82.5,2|2,0:0|0:3,0:0:0:0:
187,240,123759,1,10,0:0:0:0:
153,131,123947,1,2,0:0:0:0:
241,81,124134,1,2,3:2:0:0:
232,49,124321,1,8,0:0:0:0:
278,202,124509,21,8,0:0:0:0:
349,142,124696,1,2,0:0:0:0:
443,232,124884,1,0,3:2:0:0:
300,331,125071,1,2,0:0:0:0:
326,186,125259,2,0,P|247:189|169:132,1,154.6875,8|0,0:0|0:0,0:0:0:0:
145,73,125634,70,0,P|177:77|201:107,1,68.0625020771027,2|0,0:0|0:0,0:0:0:0:
218,138,126009,70,0,P|211:244|116:291,1,222.74999320221,4|0,3:0|0:0,0:0:0:0:
57,275,126384,1,2,0:0:0:0:
44,176,126571,1,8,0:0:0:0:
114,82,126759,1,10,0:0:0:0:
249,96,126946,1,2,0:3:0:0:
376,113,127134,2,0,L|522:131,1,123.75,0|0,3:0|0:0,0:0:0:0:
512,171,127509,21,8,0:0:0:0:
418,236,127696,2,0,P|412:264|425:307,1,41.25,4|0,0:0|0:0,0:0:0:0:
302,194,127884,1,2,3:2:0:0:
181,249,128071,1,4,0:0:0:0:
241,372,128259,2,0,P|320:375|415:237,1,222.74999320221,8|0,0:0|0:0,0:0:0:0:
408,194,128634,37,2,0:0:0:0:
379,282,128821,1,2,0:0:0:0:
329,115,129009,2,0,P|277:204|166:145,1,222.74999320221,4|0,3:0|0:0,0:0:0:0:
161,71,129384,5,2,0:0:0:0:
138,66,129477,1,2,0:0:0:0:
117,60,129571,1,8,0:0:0:0:
245,37,129759,2,0,L|305:48,1,61.875,10|0,0:0|0:0,0:0:0:0:
421,78,130134,6,0,P|406:93|385:104,1,30.937501180172,2|0,3:2|0:0,0:0:0:0:
309,121,130321,2,0,P|287:120|259:112,1,30.937501180172,2|0,0:0|0:0,0:0:0:0:
165,87,130509,2,0,L|140:78,1,20.625,8|0,0:0|0:0,0:0:0:0:
54,33,130696,5,2,0:0:0:0:
39,176,130884,2,2,L|17:191,2,15.468750590086
107,217,131071,1,8,0:0:0:0:
223,281,131259,1,2,0:0:0:0:
159,132,131634,38,0,B|163:94|206:84|258:118|224:171|224:171|224:198,1,173.24999471283,2|0,0:0|0:0,0:0:0:0:
83,278,132009,6,0,L|77:162,1,115.49999647522,4|0,3:0|0:0,0:0:0:0:
126,96,132290,1,8,0:0:0:0:
159,132,132384,2,0,L|165:262,1,115.49999647522,2|8,3:2|0:0,0:0:0:0:
231,303,132665,1,2,0:0:0:0:
267,270,132759,22,0,L|262:155,2,76.9999976501466,2|2|2,0:0|0:0|0:0,0:0:0:0:
377,351,133134,54,0,L|371:235,1,115.49999647522,2|8,3:2|0:0,0:0:0:0:
414,165,133415,1,2,0:0:0:0:
368,146,133509,2,0,L|361:4,1,115.49999647522,4|0,3:0|0:0,0:0:0:0:
251,79,133884,22,0,P|218:107|150:112,2,76.9999976501466,2|2|2,3:0|0:0|0:0,0:0:0:0:
293,250,134259,2,0,P|249:242|202:193,2,76.9999976501466,2|2|2,3:2|0:0|0:0,0:0:0:0:
444,204,134634,2,0,P|388:194|346:156,1,115.49999647522,2|8,3:2|0:0,0:0:0:0:
104,102,135009,2,0,B|134:74|173:63|173:63|256:103|276:48|339:76,1,230.99999295044,4|0,3:0|0:0,0:0:0:0:
320,69,135759,53,2,0:0:0:0:
387,246,136040,1,2,0:0:0:0:
355,267,136134,1,2,0:0:0:0:
325,286,136227,1,2,0:0:0:0:
186,248,136509,1,2,0:0:0:0:
193,242,136696,53,2,0:0:0:0:
169,209,136884,1,2,0:0:0:0:
195,148,137071,1,2,0:0:0:0:
161,90,137259,1,2,0:0:0:0:
220,27,137446,69,2,0:0:0:0:
88,2,137634,1,2,0:0:0:0:
53,155,137821,1,2,0:0:0:0:
191,169,138009,6,0,B|234:167|234:167|198:298,1,165,2|2,3:2|0:0,0:0:0:0:
287,365,138571,2,0,L|309:277,1,82.5,2|0,0:0|0:0,0:0:0:0:
348,158,138946,2,0,P|397:158|409:229,1,123.75,2|0,0:0|0:0,0:0:0:0:
307,191,139321,2,0,P|284:160|357:64,1,165,2|0,0:0|0:0,0:0:0:0:
431,64,139884,1,0,3:0:0:0:
236,314,140446,1,2,0:0:0:0:
318,314,140634,1,2,0:0:0:0:
397,364,140821,1,2,0:0:0:0:
503,378,141009,70,0,P|502:329|392:318,1,165,2|2,3:2|0:0,0:0:0:0:
306,361,141571,1,0,3:0:0:0:
288,242,141759,1,8,0:1:0:0:
161,291,141946,2,0,P|186:242|142:178,1,123.75,2|0,0:0|0:0,0:0:0:0:
77,134,142321,2,0,P|71:88|169:93,1,165,2|0,0:0|0:0,0:0:0:0:
226,159,142884,1,0,3:0:0:0:
4,349,143259,2,0,P|51:358|93:333,3,82.5,8|2|2|2,0:1|0:0|0:0|0:0,0:0:0:0:
47,253,144009,37,2,3:2:0:0:
98,188,144196,1,0,0:0:0:0:
175,160,144384,1,0,0:0:0:0:
256,171,144571,1,0,3:0:0:0:
326,214,144759,2,0,P|342:260|323:306,2,82.5,8|2|0,0:1|0:0|3:0,0:0:0:0:
326,214,145321,22,0,L|331:173,1,41.25,2|0,0:0|0:0,0:0:0:0:
343,70,145509,2,0,P|271:51|256:124,1,165,2|2,0:0|3:2,0:0:0:0:
471,136,146071,2,0,P|400:152|387:127,1,82.5,2|8,0:0|0:1,0:0:0:0:
196,216,146634,37,2,0:0:0:0:
83,187,146821,2,0,P|65:165|59:142,1,41.25,2|0,0:0|0:0,0:0:0:0:
76,43,147009,2,0,P|90:27|123:13,1,41.25,0|0,3:0|0:0,0:0:0:0:
268,46,147321,2,0,B|313:64|340:22|391:63,1,110,2|0,0:0|3:0,0:0:0:0:
477,160,147759,2,0,P|430:165|422:109,1,82.5,8|0,0:1|0:0,0:0:0:0:
310,45,148134,2,0,P|299:82|311:136,1,82.5,0|0,3:0|0:0,0:0:0:0:
267,233,148696,21,2,0:0:0:0:
286,237,148789,1,2,0:0:0:0:
306,235,148884,1,2,0:0:0:0:
323,224,148977,1,8,0:0:0:0:
343,221,149071,1,8,0:0:0:0:
363,224,149164,1,8,0:0:0:0:
387,252,149259,1,8,0:0:0:0:
277,354,149446,54,0,P|254:324|249:297,1,41.25,2|0,0:0|0:0,0:0:0:0:
271,233,149634,2,0,P|281:198|273:171,1,41.25,8|0,0:0|0:0,0:0:0:0:
232,116,149821,2,0,P|223:88|230:54,1,41.25,8|0,0:0|0:0,0:0:0:0:
418,112,150009,70,0,B|420:98|440:88|440:88|362:98|309:81,1,165,2|0,3:2|3:0,0:0:0:0:
203,203,150571,2,0,P|232:168|210:108,1,82.5,2|0,0:0|3:0,0:0:0:0:
77,78,150946,2,0,P|89:116|124:136,1,82.5,2|0,0:0|3:0,0:0:0:0:
188,6,151321,2,0,P|170:27|169:43,2,41.25,2|2|2,0:0|0:0|0:0,0:0:0:0:
262,99,151759,1,2,0:0:0:0:
221,180,152009,1,2,0:0:0:0:
276,281,152259,1,2,3:2:0:0:
248,372,152446,1,2,0:0:0:0:
248,372,152540,1,2,0:0:0:0:
220,366,152634,1,2,3:2:0:0:
197,349,152727,1,2,0:0:0:0:
184,323,152821,1,2,0:0:0:0:
178,294,152915,1,2,0:0:0:0:
175,250,153009,70,0,P|104:246|87:148,1,165,2|0,3:2|3:0,0:0:0:0:
151,65,153571,2,0,P|105:51|35:51,1,82.5,2|0,0:0|3:0,0:0:0:0:
226,143,153946,2,0,B|270:117|326:175|393:133,1,165,2|0,0:0|0:0,0:0:0:0:
414,111,154415,1,2,0:0:0:0:
444,81,154509,5,2,3:2:0:0:
441,246,154759,2,0,P|413:246|387:253,1,55,2|0,0:0|0:0,0:0:0:0:
305,266,155009,2,0,P|277:266|251:259,1,55,2|0,0:0|0:0,0:0:0:0:
179,215,155259,1,2,3:2:0:0:
446,148,155509,2,0,P|418:148|392:141,1,55,2|0,0:0|0:0,0:0:0:0:
310,128,155759,2,0,P|282:128|256:135,1,55,2|0,0:0|0:0,0:0:0:0:
170,174,156009,70,0,L|157:83,3,49.4999984893799,2|0|2|0,3:2|3:0|3:2|3:0,3:0:0:0:
98,240,156384,2,0,L|56:180,3,49.4999984893799,2|0|2|0,3:2|3:0|3:2|3:0,3:0:0:0:
179,317,156759,2,0,L|199:242,3,49.4999984893799,2|0|2|0,3:2|3:0|3:2|3:0,3:0:0:0:
308,342,157134,2,0,L|269:291,3,49.4999984893799,2|0|2|0,3:2|3:0|3:2|3:0,3:0:0:0:
317,208,157509,5,2,3:2:0:0:
317,208,157602,1,0,3:0:0:0:
317,208,157696,1,2,3:2:0:0:
317,208,157790,1,0,3:0:0:0:
317,208,157884,2,0,L|366:193,3,49.4999984893799,2|0|2|0,3:2|3:0|3:2|3:0,3:0:0:0:
457,165,158259,69,2,3:2:0:0:
447,142,158352,1,0,3:0:0:0:
431,123,158446,1,2,3:2:0:0:
409,111,158540,1,0,3:0:0:0:
374,106,158634,1,2,3:2:0:0:
339,107,158727,1,0,3:0:0:0:
305,96,158821,1,2,3:2:0:0:
279,72,158915,1,0,3:0:0:0:
262,41,159009,6,2,L|285:8,6,24.74999924469
178,51,159384,2,2,L|181:9,6,24.74999924469
109,86,159759,2,2,L|91:47,6,24.74999924469
68,152,160134,2,2,L|35:118,6,24.74999924469
125,212,160509,69,0,3:0:0:0:
125,212,160884,6,0,P|191:205|193:288,1,148.49999546814,4|0,3:2|0:0,0:0:0:0:
209,276,161259,2,0,P|217:165|107:161,1,247.4999924469,8|2,3:0|0:0,0:0:0:0:
50,236,161821,1,2,0:0:0:0:
217,238,162009,70,0,P|265:190|224:100,1,165,4|0,3:2|0:0,0:0:0:0:
110,58,162384,1,8,0:0:0:0:
266,106,162571,2,0,P|340:117|371:27,1,165
466,160,162946,2,0,P|471:211|369:224,1,165,2|8,0:0|0:0,0:0:0:0:
259,119,163321,1,2,0:0:0:0:
259,152,163415,1,2,0:0:0:0:
257,186,163509,2,0,P|249:232|148:215,1,165,2|0,3:2|0:0,0:0:0:0:
43,122,163884,2,0,P|68:196|14:254,2,165,10|2|0,0:0|0:0|3:0,0:0:0:0:
105,55,164446,5,2,0:0:0:0:
133,90,164540,1,2,0:0:0:0:
174,109,164634,1,10,0:0:0:0:
219,109,164727,1,2,0:0:0:0:
262,96,164821,1,2,0:0:0:0:
300,71,164915,1,2,0:0:0:0:
333,40,165009,70,0,P|325:97|436:127,1,165,2|0,3:2|0:0,0:0:0:0:
245,12,165384,1,10,0:0:0:0:
105,121,165571,1,2,0:0:0:0:
92,164,165665,1,2,0:0:0:0:
78,207,165759,1,2,3:2:0:0:
191,70,165946,1,2,0:0:0:0:
245,284,166134,2,0,P|279:204|234:146,1,165,10|0,0:0|0:0,0:0:0:0:
36,231,166509,6,0,B|77:213|77:213|128:238|128:238|198:216,1,165,2|0,3:2|0:0,0:0:0:0:
300,134,166884,1,10,0:0:0:0:
410,266,167071,1,2,0:0:0:0:
368,248,167164,1,2,0:0:0:0:
322,250,167259,1,2,3:2:0:0:
221,346,167446,1,2,0:0:0:0:
156,248,167634,1,10,0:0:0:0:
31,367,167821,1,2,0:0:0:0:
48,325,167914,1,2,0:0:0:0:
37,276,168009,70,0,P|34:197|128:264,1,247.5,0|0,3:2|0:0,0:0:0:0:
125,357,168384,1,10,0:0:0:0:
244,298,168571,2,0,P|215:255|244:141,1,165,2|0,0:0|3:0,0:0:0:0:
370,112,168946,1,2,0:0:0:0:
231,10,169134,1,10,0:0:0:0:
101,136,169321,1,2,0:0:0:0:
79,95,169415,1,2,0:0:0:0:
55,56,169509,6,0,B|15:32|15:32|41:173,1,165,2|0,3:2|0:0,0:0:0:0:
54,282,169884,1,10,0:0:0:0:
160,159,170071,1,2,0:0:0:0:
175,269,170259,2,0,P|234:271|300:114,1,247.5,2|0,3:2|0:0,0:0:0:0:
188,30,170634,2,0,P|216:117|362:90,1,247.5,10|0,0:0|0:0,0:0:0:0:
424,17,171009,69,0,3:2:0:0:
478,172,171196,1,0,3:2:0:0:
254,116,171384,2,0,P|238:182|303:289,1,165,12|0,3:2|0:0,0:0:0:0:
385,310,171759,2,2,L|438:315,2,41.25,2|2|2,3:2|0:0|0:0,0:0:0:0:
308,293,171946,2,0,P|280:244|294:185,1,82.5,2|0,0:0|0:0,0:0:0:0:
285,135,172134,2,0,P|280:95|257:62,1,82.5,10|0,0:0|0:0,0:0:0:0:
151,26,172321,1,2,0:0:0:0:
105,28,172415,1,2,0:0:0:0:
60,52,172509,6,2,L|20:39,2,41.25
40,131,172696,1,2,0:0:0:0:
74,161,172790,1,2,0:0:0:0:
119,165,172884,1,8,0:0:0:0:
159,185,172977,1,8,0:0:0:0:
163,230,173071,1,8,0:0:0:0:
135,265,173165,1,8,0:0:0:0:
92,281,173259,70,0,L|79:338,2,41.25,2|0|0,0:0|0:0|0:0,0:0:0:0:
38,252,173446,1,8,0:0:0:0:
196,88,173634,2,2,L|264:79,6,41.25
56,130,174009,6,0,P|108:86|174:210,1,247.5,4|0,3:2|0:0,0:0:0:0:
158,239,174384,1,10,0:0:0:0:
77,344,174571,2,0,P|140:320|209:394,1,165,2|0,0:0|3:0,0:0:0:0:
389,287,174946,2,0,P|334:343|274:288,1,165,2|8,0:0|0:0,0:0:0:0:
363,188,175321,1,2,0:0:0:0:
387,149,175415,1,2,0:0:0:0:
389,104,175509,2,0,B|300:138|292:76|202:102,1,165,2|0,3:2|0:0,0:0:0:0:
47,213,175884,2,0,B|136:247|144:185|234:211,2,165,10|2|0,0:2|0:0|3:0,0:0:0:0:
10,72,176446,69,2,0:0:0:0:
54,68,176540,1,2,0:0:0:0:
96,82,176634,1,8,0:0:0:0:
128,114,176727,1,2,0:0:0:0:
150,154,176821,1,2,0:0:0:0:
159,198,176915,1,2,0:0:0:0:
160,242,177009,6,0,P|194:196|294:253,1,165,2|0,3:2|0:0,0:0:0:0:
417,320,177384,2,0,P|473:277|415:218,1,165,10|0,0:0|0:0,0:0:0:0:
271,240,177759,2,0,P|213:233|186:194,1,82.5,2|0,3:2|0:0,0:0:0:0:
157,135,177946,2,0,P|163:76|203:50,1,82.5,2|0,0:0|0:0,0:0:0:0:
281,9,178134,1,10,0:0:0:0:
161,95,178321,2,0,P|61:80|62:16,1,165,2|0,0:0|3:0,0:0:0:0:
245,83,178696,1,2,0:0:0:0:
236,127,178790,1,2,0:0:0:0:
204,159,178884,1,10,0:0:0:0:
348,122,179071,2,2,P|360:73|353:42,2,82.5,2|2|2,0:0|0:0|3:2,0:0:0:0:
211,136,179446,70,0,P|197:174|203:216,1,82.5,2|0,0:0|0:0,0:0:0:0:
360,232,179634,2,0,P|334:200|295:185,1,82.5,10|0,0:0|0:0,0:0:0:0:
202,313,179821,2,0,P|242:305|275:279,1,82.5,2|0,0:0|0:0,0:0:0:0:
203,216,180009,6,0,P|122:224|112:313,1,165,2|0,3:2|0:0,0:0:0:0:
267,273,180290,2,0,P|366:224|345:154,1,165,2|0,0:0|0:0,0:0:0:0:
226,77,180571,2,0,P|269:139|338:106,1,165,0|2,0:0|3:2,0:0:0:0:
169,27,180946,1,2,0:0:0:0:
131,52,181039,1,2,0:0:0:0:
109,92,181134,1,10,0:0:0:0:
94,197,181321,1,0,0:0:0:0:
250,285,181509,70,0,B|291:203|187:210|255:112,1,165,2|0,3:2|0:0,0:0:0:0:
291,45,181790,2,0,P|347:97|312:166,1,165,2|0,0:0|0:0,0:0:0:0:
175,250,182071,2,0,P|132:315|181:374,1,165,2|2,0:0|3:2,0:0:0:0:
322,276,182446,1,2,0:0:0:0:
317,232,182539,1,2,0:0:0:0:
290,197,182634,2,0,P|261:167|210:156,1,82.5,10|0,0:0|0:0,0:0:0:0:
138,151,182821,2,0,P|96:159|59:194,1,82.5,2|0,0:0|0:0,0:0:0:0:
108,335,183009,6,0,P|103:275|195:291,1,165,2|0,3:2|0:0,0:0:0:0:
253,93,183290,2,0,P|215:161|138:151,1,165,2|0,0:0|0:0,0:0:0:0:
172,8,183571,2,0,B|168:50|168:50|184:86|184:86|137:220|268:217|195:364,1,330,4|0,0:0|0:0,0:0:0:0:
400,337,184134,69,10,0:0:0:0:
382,294,184228,1,2,0:0:0:0:
382,248,184322,1,2,0:0:0:0:
395,204,184415,1,2,0:0:0:0:
411,161,184509,2,0,P|421:94|309:127,1,165,4|0,0:0|0:0,0:0:0:0:
191,138,184884,6,0,B|239:147|251:189|251:189|269:140|326:137,1,165,2|0,3:2|0:0,0:0:0:0:
255,334,185259,2,0,B|243:269|138:289|154:219,1,165,2|0,3:2|0:0,0:0:0:0:
357,219,185634,2,0,B|373:289|268:269|257:334,1,165,12|0,0:0|0:0,0:0:0:0:
400,316,186009,6,0,P|435:259|426:183,1,123.75,4|0,3:2|0:0,0:0:0:0:
371,126,186384,2,0,P|391:84|484:99,1,123.75,10|0,0:0|0:0,0:0:0:0:
347,22,186759,2,0,B|304:10|304:10|238:25,1,82.5,2|0,3:2|0:0,0:0:0:0:
148,115,187134,2,0,B|185:133|185:133|257:121,1,82.5,10|0,0:0|0:0,0:0:0:0:
348,115,187509,21,2,3:2:0:0:
351,137,187602,1,2,0:0:0:0:
351,157,187696,1,2,0:0:0:0:
352,179,187790,1,2,0:0:0:0:
355,201,187884,2,0,P|280:196|211:221,1,123.75,10|0,0:0|0:0,0:0:0:0:
171,296,188259,2,0,P|202:243|192:184,1,123.75,2|0,3:2|0:0,0:0:0:0:
111,132,188634,1,10,0:0:0:0:
80,140,188727,1,2,0:0:0:0:
78,171,188821,1,2,0:0:0:0:
52,191,188915,1,2,0:0:0:0:
60,228,189009,54,0,B|79:288|79:288|46:354,1,123.75,2|0,3:2|0:0,0:0:0:0:
145,370,189384,2,0,B|161:353|161:353|181:363|181:363|205:348|205:348|226:359|226:359|245:349,1,92.812503540516,10|0,0:0|0:0,0:0:0:0:
317,376,189759,2,0,P|327:354|331:333,1,30.937501180172,2|0,3:2|0:0,0:0:0:0:
338,250,189946,2,0,P|360:221|418:257,1,92.812503540516,2|0,0:0|0:0,0:0:0:0:
435,281,190321,1,2,0:0:0:0:
437,320,190415,1,2,0:0:0:0:
408,359,190509,21,2,3:2:0:0:
379,312,190602,1,2,0:0:0:0:
388,269,190696,1,2,0:0:0:0:
412,229,190790,1,2,0:0:0:0:
401,174,190884,1,10,0:0:0:0:
421,102,191071,1,2,0:0:0:0:
295,110,191259,1,2,0:0:0:0:
308,31,191446,1,2,0:0:0:0:
427,27,191634,2,0,P|440:51|442:95,1,41.25,8|0,0:0|0:0,0:0:0:0:
425,156,191821,2,0,P|428:178|445:203,1,49.4999984893799,8|0,0:0|0:0,0:0:0:0:
496,288,192009,6,0,B|442:266|442:266|390:305|364:248|310:276,1,185.625007081032,4|0,3:0|0:0,0:0:0:0:
264,330,192384,2,0,P|261:286|222:251,1,82.5,10|2,0:0|0:0,0:0:0:0:
147,220,192665,37,2,0:0:0:0:
85,176,192759,2,0,P|110:201|194:156,1,123.75,2|0,3:2|0:0,0:0:0:0:
227,86,193134,2,0,L|269:113,1,41.25,8|0,0:0|0:0,0:0:0:0:
341,159,193321,5,2,0:0:0:0:
377,149,193415,1,2,0:0:0:0:
411,135,193509,2,0,L|408:213,1,49.4999984893799,2|0,3:2|0:0,0:0:0:0:
487,254,193696,2,0,L|488:204,1,49.4999984893799,2|0,0:0|0:0,0:0:0:0:
402,277,193884,2,0,P|368:313|335:317,1,49.4999984893799,10|0,0:0|0:0,0:0:0:0:
207,319,194071,6,0,P|255:309|276:283,1,49.4999984893799,2|0,0:0|0:0,0:0:0:0:
321,225,194259,2,0,P|333:203|335:179,1,49.4999984893799,2|0,3:2|0:0,0:0:0:0:
292,60,194446,38,0,P|280:82|278:106,1,49.4999984893799,2|0,0:0|0:0,0:0:0:0:
374,106,194634,1,10,0:0:0:0:
417,113,194727,1,2,0:0:0:0:
451,141,194821,1,2,0:0:0:0:
472,180,194915,1,2,0:0:0:0:
472,224,195009,70,0,P|407:213|382:311,1,148.49999546814,0|0,3:2|0:0,0:0:0:0:
356,351,195384,6,0,P|333:304|277:291,1,98.9999969787599,10|0,0:0|0:0,0:0:0:0:
13,325,195759,2,0,P|71:365|140:281,1,173.24999471283,2|0,3:2|0:0,0:0:0:0:
174,236,196134,69,10,0:0:0:0:
174,236,196227,2,0,P|187:272|228:295,1,57.7499982376099,2|2,0:0|0:0,0:0:0:0:
141,142,196509,2,0,P|77:145|135:52,1,198,4|0,3:2|0:0,0:0:0:0:
208,35,196884,6,0,B|235:99|252:206|252:206|301:142|308:71,1,309.375,4|0,3:2|0:0,0:0:0:0:
403,35,197259,2,0,B|376:99|359:206|359:206|310:142|303:71,1,309.375,4|0,3:2|0:0,0:0:0:0:
358,203,197634,70,0,P|451:266|428:124,1,309.375,4|0,3:2|0:0,0:0:0:0:
431,196,198009,1,4,3:2:0:0:
