osu file format v14

[General]
AudioFilename: audio.mp3
AudioLeadIn: 0
PreviewTime: 54695
Countdown: 0
SampleSet: Normal
StackLeniency: 0.7
Mode: 1
LetterboxInBreaks: 0
WidescreenStoryboard: 0

[Editor]
DistanceSpacing: 1.33
BeatDivisor: 4
GridSize: 8
TimelineZoom: 2.2

[Metadata]
Title:Rettou Joutou (Cover)
TitleUnicode:劣等上等 (Cover)
Artist:Giga feat. Tanaka Hime & Suzuki Hina
ArtistUnicode:Giga feat. 田中ヒメ & 鈴木ヒナ
Creator:komasy
Version:BRING IT ON!
Source:
Tags:ギガ ギガP GigaP Reol マジカルミライ Magical Mirai 鏡音 リン レン 10th Anniversary テーマソング Theme Song
BeatmapID:1929535
BeatmapSetID:923988

[Difficulty]
HPDrainRate:6
CircleSize:5
OverallDifficulty:5
ApproachRate:6
SliderMultiplier:1.4
SliderTickRate:1

[Events]
//Background and Video events
0,0,"bg.jpg",0,20
//Break Periods
2,147989,152739
//Storyboard Layer 0 (Background)
//Storyboard Layer 1 (Fail)
//Storyboard Layer 2 (Pass)
//Storyboard Layer 3 (Foreground)
//Storyboard Sound Samples

[TimingPoints]
2289,375,4,1,0,70,1,0
3789,-113.636363636364,4,1,0,70,0,0
5289,-133.333333333333,4,1,0,70,0,0
8195,-100,4,1,0,80,0,0
12695,-90.9090909090909,4,1,0,80,0,0
12789,-83.3333333333333,4,1,0,80,0,0
12976,-66.6666666666667,4,1,0,80,0,0
13164,-55.5555555555556,4,1,0,80,0,0
13351,-47.6190476190476,4,1,0,80,0,0
13445,-40,4,1,0,40,0,0
14195,-80,4,1,0,80,0,0
14289,-80,4,1,0,80,0,1
25914,-80,4,1,0,80,0,0
26289,-100,4,1,0,80,0,1
38195,-117.647058823529,4,1,0,60,0,1
38289,-117.647058823529,4,1,0,60,0,0
38382,-133.333333333333,4,1,0,60,0,0
50195,-113.636363636364,4,1,0,70,0,0
50945,-100,4,1,0,70,0,0
51695,-89.2857142857143,4,1,0,70,0,0
52070,-80.6451612903226,4,1,0,70,0,0
52445,-73.5294117647059,4,1,0,70,0,0
52820,-67.5675675675676,4,1,0,70,0,0
53195,-62.5,4,1,0,70,0,0
53382,-133.333333333333,4,1,0,70,0,0
54695,-100,4,1,0,90,0,0
54789,-100,4,1,0,90,0,1
66414,-100,4,1,0,90,0,0
66789,-80,4,1,0,90,0,1
72695,-100,4,1,0,70,0,1
72789,-100,4,1,0,70,0,0
78226,-105.263157894737,4,1,0,70,0,0
78414,-111.111111111111,4,1,0,70,0,0
78695,-133.333333333333,4,1,0,80,0,0
84414,-133.333333333333,4,1,0,80,0,1
84789,-133.333333333333,4,1,0,80,0,0
90789,-113.636363636364,4,1,0,80,0,0
96414,-113.636363636364,4,1,0,80,0,1
96789,-100,4,1,0,80,0,0
102039,-100,4,1,0,80,0,1
102414,-103.092783505155,4,1,0,80,0,1
102507,-106.382978723404,4,1,0,80,0,1
102601,-109.89010989011,4,1,0,80,0,1
102695,-113.636363636364,4,1,0,60,0,1
102789,-113.636363636364,4,1,0,60,0,0
102882,-133.333333333333,4,1,0,60,0,0
110945,-125,4,1,0,60,0,0
111132,-117.647058823529,4,1,0,60,0,0
111320,-111.111111111111,4,1,0,60,0,0
111507,-105.263157894737,4,1,0,60,0,0
111695,-100,4,1,0,70,0,0
112539,-76.9230769230769,4,1,0,70,0,0
112726,-68.9655172413793,4,1,0,70,0,0
112914,-62.5,4,1,0,70,0,0
113382,-113.636363636364,4,1,0,70,0,0
114414,-133.333333333333,4,1,0,70,0,0
114695,-100,4,1,0,90,0,0
114789,-100,4,1,0,90,0,1
126414,-100,4,1,0,90,0,0
126789,-80,4,1,0,90,0,1
132789,-80,4,1,0,90,0,0
132882,-113.636363636364,4,1,0,50,0,0
135320,-113.636363636364,4,1,0,70,0,0
135789,-133.333333333333,4,1,0,80,0,1
146101,-125,4,1,0,80,0,1
146195,-117.647058823529,4,1,0,80,0,1
146289,-113.636363636364,4,1,0,80,0,1
147039,-100,4,1,0,80,0,1
147226,-96.1538461538461,4,1,0,80,0,1
147320,-92.5925925925926,4,1,0,80,0,1
147414,-89.2857142857143,4,1,0,80,0,1
147507,-86.2068965517241,4,1,0,80,0,1
147601,-83.3333333333333,4,1,0,80,0,1
147695,-80.6451612903226,4,1,0,80,0,1
147789,-78.125,4,1,0,80,0,0
147882,-100,4,1,0,40,0,0
149289,-106.382978723404,4,1,0,40,0,0
150789,-113.636363636364,4,1,0,40,0,0
152289,-121.951219512195,4,1,0,40,0,0
153695,-133.333333333333,4,1,0,50,0,0
159695,-113.636363636364,4,1,0,60,0,0
171789,-100,4,1,0,80,0,1
172164,-100,4,1,0,80,0,0
172351,-100,4,1,0,80,0,1
172726,-100,4,1,0,80,0,0
172914,-100,4,1,0,80,0,1
173289,-100,4,1,0,80,0,0
173476,-100,4,1,0,80,0,1
174414,-100,4,1,0,80,0,0
174789,-83.3333333333333,4,1,0,80,0,1
175164,-83.3333333333333,4,1,0,80,0,0
175351,-83.3333333333333,4,1,0,80,0,1
175726,-83.3333333333333,4,1,0,80,0,0
175914,-83.3333333333333,4,1,0,80,0,1
176289,-83.3333333333333,4,1,0,80,0,0
176476,-83.3333333333333,4,1,0,80,0,1
177414,-83.3333333333333,4,1,0,80,0,0
177789,-71.4285714285714,4,1,0,80,0,1
178164,-71.4285714285714,4,1,0,80,0,0
178351,-71.4285714285714,4,1,0,80,0,1
178726,-71.4285714285714,4,1,0,80,0,0
178914,-71.4285714285714,4,1,0,80,0,1
179289,-71.4285714285714,4,1,0,80,0,0
179476,-71.4285714285714,4,1,0,80,0,1
180414,-71.4285714285714,4,1,0,80,0,0
180789,-62.5,4,1,0,80,0,1
181164,-62.5,4,1,0,80,0,0
181351,-62.5,4,1,0,80,0,1
181726,-62.5,4,1,0,80,0,0
181914,-62.5,4,1,0,80,0,1
182289,-62.5,4,1,0,80,0,0
182476,-62.5,4,1,0,80,0,1
182570,-50,4,1,0,40,0,1
182664,-50,4,1,0,40,0,0
183789,-83.3333333333333,4,1,0,40,0,0
184632,-100,4,1,0,80,0,0
185289,-100,4,1,0,80,0,1
185476,-133.333333333333,4,1,0,80,0,1
191289,-66.6666666666667,4,1,0,80,0,0
192789,-100,4,1,0,80,0,0
195789,-80,4,1,0,90,0,1
204414,-80,4,1,0,90,0,0
204789,-66.6666666666667,4,1,0,90,0,1
209664,-66.6666666666667,4,1,0,90,0,0
210132,-100,4,1,0,90,0,0
210507,-80,4,1,0,90,0,0
210789,-80,4,1,0,90,0,1
216789,-33.3333333333333,4,1,0,90,0,0
217070,-133.333333333333,4,1,0,80,0,0
217164,-133.333333333333,4,1,0,80,0,1
222414,-133.333333333333,4,1,0,80,0,0
222789,-80,4,1,0,80,0,1
225789,-66.6666666666667,4,1,0,80,0,1
228789,-66.6666666666667,4,1,0,80,0,0
230289,375,4,1,0,80,1,8
231320,-25,4,1,0,100,0,0
231414,-25,4,1,0,100,0,1
233289,-25,4,1,0,100,0,0

[HitObjects]
367,236,2289,5,4,0:0:0:0:
398,273,5289,1,4,0:0:0:0:
431,297,5664,1,8,0:0:0:0:
431,297,6414,1,8,0:0:0:0:
407,300,6601,1,8,0:0:0:0:
431,297,7164,1,8,0:0:0:0:
423,307,7726,1,8,0:0:0:0:
447,316,7914,1,8,0:0:0:0:
370,281,8007,1,8,0:0:0:0:
377,282,8101,1,8,0:0:0:0:
377,279,8289,1,4,0:0:0:0:
363,299,8570,1,8,0:0:0:0:
363,299,8664,1,0,0:0:0:0:
363,299,8851,1,8,0:0:0:0:
339,292,9039,1,0,0:0:0:0:
269,130,9132,1,0,0:0:0:0:
333,290,9226,1,8,0:0:0:0:
333,290,9414,1,0,0:0:0:0:
333,290,9601,1,8,0:0:0:0:
333,290,9695,1,8,0:0:0:0:
296,149,9789,1,0,0:0:0:0:
296,149,9882,1,8,0:0:0:0:
296,149,9976,1,8,0:0:0:0:
439,157,10164,1,0,0:0:0:0:
439,157,10351,1,8,0:0:0:0:
439,157,10445,1,8,0:0:0:0:
439,157,10539,1,0,0:0:0:0:
439,157,10726,1,8,0:0:0:0:
296,159,10914,1,0,0:0:0:0:
296,159,11007,1,0,0:0:0:0:
296,159,11101,1,8,0:0:0:0:
397,174,11195,1,8,0:0:0:0:
397,174,11289,1,0,0:0:0:0:
412,185,11476,1,0,0:0:0:0:
412,185,11570,1,8,0:0:0:0:
412,185,11664,1,0,0:0:0:0:
411,177,11851,1,8,0:0:0:0:
370,196,11945,1,8,0:0:0:0:
391,207,12039,1,0,0:0:0:0:
373,136,12101,1,0,0:0:0:0:
373,136,12164,1,0,0:0:0:0:
373,136,12226,1,8,0:0:0:0:
393,149,12320,1,8,0:0:0:0:
393,149,12414,1,0,0:0:0:0:
393,149,12601,1,0,0:0:0:0:
358,219,12695,1,8,0:0:0:0:
336,165,12789,1,0,0:0:0:0:
336,165,12835,1,0,0:0:0:0:
336,165,12976,1,0,0:0:0:0:
336,165,13023,1,0,0:0:0:0:
336,165,13164,1,8,0:0:0:0:
336,165,13210,1,8,0:0:0:0:
392,214,13351,1,8,0:0:0:0:
258,227,13398,1,8,0:0:0:0:
256,192,13539,12,0,13914,0:0:0:0:
440,299,14289,5,4,0:0:0:0:
493,196,14476,1,8,0:0:0:0:
384,134,14570,1,8,0:0:0:0:
478,254,14664,1,0,0:0:0:0:
440,299,14851,1,8,0:0:0:0:
440,299,15039,1,0,0:0:0:0:
343,90,15132,1,0,0:0:0:0:
440,299,15226,1,8,0:0:0:0:
340,150,15320,1,0,0:0:0:0:
340,150,15414,1,0,0:0:0:0:
440,299,15601,1,8,0:0:0:0:
440,299,15789,1,0,0:0:0:0:
384,156,15976,1,0,0:0:0:0:
384,156,16070,1,8,0:0:0:0:
384,156,16164,1,0,0:0:0:0:
376,156,16351,1,8,0:0:0:0:
251,198,16539,1,0,0:0:0:0:
251,198,16632,1,8,0:0:0:0:
251,198,16726,1,0,0:0:0:0:
258,190,16820,1,0,0:0:0:0:
253,191,16914,1,8,0:0:0:0:
265,130,17195,1,8,0:0:0:0:
265,130,17289,1,0,0:0:0:0:
493,196,17476,1,8,0:0:0:0:
384,134,17570,1,8,0:0:0:0:
478,254,17664,1,0,0:0:0:0:
440,299,17851,1,8,0:0:0:0:
440,299,18039,1,0,0:0:0:0:
343,90,18132,1,0,0:0:0:0:
440,299,18226,1,8,0:0:0:0:
340,150,18320,1,8,0:0:0:0:
340,150,18414,1,0,0:0:0:0:
232,134,18601,1,8,0:0:0:0:
440,299,18789,1,0,0:0:0:0:
384,156,18976,1,0,0:0:0:0:
384,156,19070,1,8,0:0:0:0:
384,156,19164,1,0,0:0:0:0:
376,156,19351,1,8,0:0:0:0:
251,198,19539,1,0,0:0:0:0:
251,198,19632,1,8,0:0:0:0:
251,198,19726,1,0,0:0:0:0:
258,190,19820,1,0,0:0:0:0:
253,191,19914,1,8,0:0:0:0:
324,132,20289,1,0,0:0:0:0:
282,168,20476,1,8,0:0:0:0:
282,168,20570,1,8,0:0:0:0:
282,168,20664,1,0,0:0:0:0:
282,168,20851,1,8,0:0:0:0:
278,150,21039,1,0,0:0:0:0:
278,150,21132,1,0,0:0:0:0:
278,150,21320,1,8,0:0:0:0:
278,150,21414,1,0,0:0:0:0:
278,150,21601,1,8,0:0:0:0:
278,150,21789,1,0,0:0:0:0:
278,150,21882,1,0,0:0:0:0:
278,150,21976,1,8,0:0:0:0:
278,150,22164,1,0,0:0:0:0:
278,150,22351,1,8,0:0:0:0:
278,150,22445,1,8,0:0:0:0:
278,150,22539,1,0,0:0:0:0:
396,223,22726,1,0,0:0:0:0:
424,211,22914,1,12,0:0:0:0:
402,200,23101,1,8,0:0:0:0:
402,200,23195,1,8,0:0:0:0:
402,200,23289,1,0,0:0:0:0:
368,194,23570,1,8,0:0:0:0:
368,194,23664,1,0,0:0:0:0:
322,181,23851,1,8,0:0:0:0:
280,182,24039,1,0,0:0:0:0:
280,182,24132,1,0,0:0:0:0:
289,182,24320,1,8,0:0:0:0:
289,182,24414,1,0,0:0:0:0:
280,182,24601,1,8,0:0:0:0:
280,182,24789,1,0,0:0:0:0:
280,182,24882,1,8,0:0:0:0:
280,182,25070,1,8,0:0:0:0:
282,179,25164,1,0,0:0:0:0:
282,187,25257,1,0,0:0:0:0:
282,187,25351,1,8,0:0:0:0:
282,187,25539,1,0,0:0:0:0:
282,187,25632,1,0,0:0:0:0:
282,187,25726,1,0,0:0:0:0:
282,187,25820,1,0,0:0:0:0:
282,187,25914,1,8,0:0:0:0:
279,169,26289,1,4,0:0:0:0:
339,131,26476,1,8,0:0:0:0:
349,137,26664,1,0,0:0:0:0:
339,131,26757,1,0,0:0:0:0:
240,125,26851,1,8,0:0:0:0:
258,150,27039,1,0,0:0:0:0:
258,150,27132,1,8,0:0:0:0:
258,150,27320,1,8,0:0:0:0:
258,150,27414,1,0,0:0:0:0:
242,145,27601,1,8,0:0:0:0:
242,145,27789,1,0,0:0:0:0:
244,145,27882,1,0,0:0:0:0:
244,145,27976,1,8,0:0:0:0:
242,145,28070,1,8,0:0:0:0:
334,147,28164,1,0,0:0:0:0:
236,130,28351,1,8,0:0:0:0:
329,149,28539,1,0,0:0:0:0:
280,150,28726,1,8,0:0:0:0:
280,150,28820,1,8,0:0:0:0:
280,150,28914,1,0,0:0:0:0:
280,150,29101,1,0,0:0:0:0:
309,103,29195,1,8,0:0:0:0:
250,60,29382,1,8,0:0:0:0:
250,60,29476,1,0,0:0:0:0:
276,140,29570,1,0,0:0:0:0:
276,140,29664,1,8,0:0:0:0:
276,138,29851,1,8,0:0:0:0:
276,138,29945,1,8,0:0:0:0:
276,138,30039,1,0,0:0:0:0:
248,135,30226,1,8,0:0:0:0:
248,135,30414,1,0,0:0:0:0:
272,101,30507,1,8,0:0:0:0:
248,135,30601,1,8,0:0:0:0:
248,135,30695,1,0,0:0:0:0:
296,108,30789,1,0,0:0:0:0:
296,108,30882,1,8,0:0:0:0:
296,108,31070,1,8,0:0:0:0:
296,108,31164,1,0,0:0:0:0:
296,108,31351,1,8,0:0:0:0:
429,221,31445,1,8,0:0:0:0:
296,108,31539,1,0,0:0:0:0:
296,108,31726,1,8,0:0:0:0:
320,163,31914,1,0,0:0:0:0:
392,219,32101,1,8,0:0:0:0:
280,128,32195,1,0,0:0:0:0:
385,224,32382,1,0,0:0:0:0:
386,224,32476,1,8,0:0:0:0:
386,224,32664,1,0,0:0:0:0:
264,145,32851,1,8,0:0:0:0:
264,145,32945,1,8,0:0:0:0:
264,145,33039,1,0,0:0:0:0:
264,145,33320,1,8,0:0:0:0:
264,145,33414,1,8,0:0:0:0:
289,134,33601,1,8,0:0:0:0:
287,134,33695,1,8,0:0:0:0:
287,134,33789,1,0,0:0:0:0:
287,134,33976,1,0,0:0:0:0:
287,134,34070,1,8,0:0:0:0:
287,134,34164,1,0,0:0:0:0:
329,85,34257,1,8,0:0:0:0:
287,134,34445,1,8,0:0:0:0:
289,134,34539,1,0,0:0:0:0:
380,141,34820,1,8,0:0:0:0:
442,131,34914,1,8,0:0:0:0:
359,143,35101,1,8,0:0:0:0:
359,143,35289,1,0,0:0:0:0:
342,148,35476,1,0,0:0:0:0:
342,148,35570,1,0,0:0:0:0:
340,146,35664,1,8,0:0:0:0:
340,146,35851,1,8,0:0:0:0:
340,146,36039,1,0,0:0:0:0:
340,146,36226,1,8,0:0:0:0:
340,146,36320,1,8,0:0:0:0:
311,139,36414,1,0,0:0:0:0:
342,148,36601,1,8,0:0:0:0:
243,157,36789,1,0,0:0:0:0:
360,210,36976,1,8,0:0:0:0:
360,210,37070,1,8,0:0:0:0:
328,145,37164,1,0,0:0:0:0:
328,145,37226,1,0,0:0:0:0:
328,145,37289,1,0,0:0:0:0:
298,116,37351,1,8,0:0:0:0:
353,160,37445,1,8,0:0:0:0:
349,158,37539,1,0,0:0:0:0:
349,158,37632,1,0,0:0:0:0:
349,158,37726,1,0,0:0:0:0:
349,158,37820,1,0,0:0:0:0:
349,158,37914,1,8,0:0:0:0:
349,158,38289,1,4,0:0:0:0:
327,173,38664,1,8,0:0:0:0:
327,173,38851,1,0,0:0:0:0:
327,173,39226,1,0,0:0:0:0:
327,173,39414,1,8,0:0:0:0:
327,173,39601,1,0,0:0:0:0:
327,173,39789,1,0,0:0:0:0:
261,80,39976,1,0,0:0:0:0:
261,80,40164,1,8,0:0:0:0:
311,164,40539,1,8,0:0:0:0:
253,114,40726,1,0,0:0:0:0:
253,114,40914,1,8,0:0:0:0:
253,114,41101,1,0,0:0:0:0:
253,114,41289,1,0,0:0:0:0:
253,114,41664,1,8,0:0:0:0:
253,114,41851,1,0,0:0:0:0:
253,114,42226,1,0,0:0:0:0:
253,114,42414,1,8,0:0:0:0:
253,114,42601,1,0,0:0:0:0:
253,114,42789,1,0,0:0:0:0:
253,114,42976,1,0,0:0:0:0:
253,114,43164,1,8,0:0:0:0:
253,114,43351,1,0,0:0:0:0:
416,199,43539,1,8,0:0:0:0:
416,199,43632,1,8,0:0:0:0:
253,114,43726,1,0,0:0:0:0:
253,114,43914,1,8,0:0:0:0:
349,158,44289,1,4,0:0:0:0:
327,173,44664,1,8,0:0:0:0:
327,173,44851,1,0,0:0:0:0:
327,173,45226,1,0,0:0:0:0:
327,173,45414,1,8,0:0:0:0:
327,173,45601,1,0,0:0:0:0:
327,173,45789,1,0,0:0:0:0:
261,80,45976,1,0,0:0:0:0:
261,80,46164,1,8,0:0:0:0:
253,114,46351,1,0,0:0:0:0:
253,114,46726,1,0,0:0:0:0:
253,114,46914,1,8,0:0:0:0:
253,114,47101,1,0,0:0:0:0:
253,114,47289,1,0,0:0:0:0:
253,114,47664,1,8,0:0:0:0:
253,114,47851,1,0,0:0:0:0:
337,246,48039,1,8,0:0:0:0:
253,114,48414,1,8,0:0:0:0:
253,114,48601,1,0,0:0:0:0:
253,114,48789,1,0,0:0:0:0:
253,114,48976,1,0,0:0:0:0:
253,114,49164,1,8,0:0:0:0:
253,114,49351,1,0,0:0:0:0:
416,199,49445,1,8,0:0:0:0:
416,199,49539,1,8,0:0:0:0:
253,114,49726,1,0,0:0:0:0:
253,114,49914,1,8,0:0:0:0:
415,170,50101,1,0,0:0:0:0:
400,178,50289,1,12,0:0:0:0:
351,173,50664,1,8,0:0:0:0:
351,173,50851,1,0,0:0:0:0:
356,171,51039,1,12,0:0:0:0:
365,133,51414,1,8,0:0:0:0:
365,133,51601,1,0,0:0:0:0:
356,171,51789,1,12,0:0:0:0:
356,171,52164,1,12,0:0:0:0:
356,171,52539,1,12,0:0:0:0:
359,194,52726,1,0,0:0:0:0:
356,171,52914,1,12,0:0:0:0:
359,194,53101,1,0,0:0:0:0:
359,194,53289,1,4,0:0:0:0:
373,212,54039,1,8,0:0:0:0:
327,194,54226,1,0,0:0:0:0:
327,194,54320,1,0,0:0:0:0:
366,174,54414,1,8,0:0:0:0:
366,174,54789,1,4,0:0:0:0:
409,194,55070,1,8,0:0:0:0:
387,187,55164,1,0,0:0:0:0:
376,187,55351,1,8,0:0:0:0:
358,185,55539,1,0,0:0:0:0:
344,188,55726,1,8,0:0:0:0:
344,188,55820,1,8,0:0:0:0:
342,186,55914,1,0,0:0:0:0:
342,186,56101,1,8,0:0:0:0:
324,181,56289,1,0,0:0:0:0:
324,181,56382,1,0,0:0:0:0:
324,181,56570,1,8,0:0:0:0:
324,181,56664,1,0,0:0:0:0:
324,181,56851,1,8,0:0:0:0:
324,181,57039,1,0,0:0:0:0:
324,181,57132,1,0,0:0:0:0:
324,181,57226,1,8,0:0:0:0:
324,181,57320,1,8,0:0:0:0:
324,181,57414,1,0,0:0:0:0:
324,181,57601,1,8,0:0:0:0:
324,181,57789,1,0,0:0:0:0:
324,181,58070,1,8,0:0:0:0:
324,181,58164,1,0,0:0:0:0:
324,181,58351,1,8,0:0:0:0:
324,181,58539,1,0,0:0:0:0:
324,181,58726,1,8,0:0:0:0:
324,181,58820,1,8,0:0:0:0:
324,181,58914,1,0,0:0:0:0:
324,181,59101,1,0,0:0:0:0:
324,181,59195,1,8,0:0:0:0:
340,181,59382,1,8,0:0:0:0:
340,181,59476,1,0,0:0:0:0:
340,181,59664,1,8,0:0:0:0:
340,181,59851,1,0,0:0:0:0:
340,181,59945,1,0,0:0:0:0:
340,181,60039,1,8,0:0:0:0:
340,181,60226,1,0,0:0:0:0:
340,181,60414,1,8,0:0:0:0:
397,157,60507,1,0,0:0:0:0:
369,143,60601,1,0,0:0:0:0:
289,128,60695,1,8,0:0:0:0:
366,174,60789,1,0,0:0:0:0:
409,194,61070,1,8,0:0:0:0:
387,187,61164,1,0,0:0:0:0:
376,187,61351,1,8,0:0:0:0:
358,185,61539,1,0,0:0:0:0:
344,188,61726,1,8,0:0:0:0:
344,188,61820,1,8,0:0:0:0:
342,186,61914,1,0,0:0:0:0:
342,186,62101,1,8,0:0:0:0:
324,181,62289,1,0,0:0:0:0:
324,181,62382,1,0,0:0:0:0:
324,181,62570,1,8,0:0:0:0:
324,181,62664,1,0,0:0:0:0:
324,181,62851,1,8,0:0:0:0:
324,181,63039,1,0,0:0:0:0:
324,181,63132,1,0,0:0:0:0:
324,181,63226,1,8,0:0:0:0:
324,181,63320,1,8,0:0:0:0:
324,181,63414,1,0,0:0:0:0:
324,181,63601,1,8,0:0:0:0:
324,181,63789,1,0,0:0:0:0:
324,181,63976,1,0,0:0:0:0:
361,98,64164,1,12,0:0:0:0:
324,181,64351,1,8,0:0:0:0:
352,95,64445,1,8,0:0:0:0:
324,181,64539,1,0,0:0:0:0:
324,181,64726,1,0,0:0:0:0:
324,181,64914,1,12,0:0:0:0:
324,181,65101,1,0,0:0:0:0:
324,181,65195,1,8,0:0:0:0:
399,79,65289,1,8,0:0:0:0:
340,181,65476,1,0,0:0:0:0:
340,181,65664,1,8,0:0:0:0:
309,132,65757,1,8,0:0:0:0:
340,181,65851,1,0,0:0:0:0:
340,181,65945,1,0,0:0:0:0:
340,181,66039,1,8,0:0:0:0:
340,181,66226,1,0,0:0:0:0:
340,181,66414,1,12,0:0:0:0:
289,128,66789,1,4,0:0:0:0:
353,124,67070,1,8,0:0:0:0:
353,124,67164,1,0,0:0:0:0:
353,124,67351,1,8,0:0:0:0:
348,126,67539,1,0,0:0:0:0:
276,136,67632,1,8,0:0:0:0:
348,126,67820,1,0,0:0:0:0:
212,135,67914,1,8,0:0:0:0:
345,125,68007,1,8,0:0:0:0:
202,148,68101,1,0,0:0:0:0:
345,124,68289,1,0,0:0:0:0:
348,126,68476,1,8,0:0:0:0:
348,126,68570,1,8,0:0:0:0:
348,126,68664,1,0,0:0:0:0:
348,126,68851,1,8,0:0:0:0:
347,124,69039,1,0,0:0:0:0:
309,112,69226,1,8,0:0:0:0:
307,96,69320,1,0,0:0:0:0:
307,96,69414,1,8,0:0:0:0:
309,154,69507,1,8,0:0:0:0:
309,154,69601,1,0,0:0:0:0:
309,154,69789,1,0,0:0:0:0:
336,204,69976,1,8,0:0:0:0:
336,204,70070,1,8,0:0:0:0:
312,195,70164,1,0,0:0:0:0:
312,195,70351,1,8,0:0:0:0:
312,195,70539,1,0,0:0:0:0:
312,195,70601,1,8,0:0:0:0:
229,151,70664,1,8,0:0:0:0:
289,210,70726,1,8,0:0:0:0:
283,171,70820,1,0,0:0:0:0:
225,181,70914,1,8,0:0:0:0:
171,125,71007,1,8,0:0:0:0:
225,181,71101,1,0,0:0:0:0:
296,99,71289,1,0,0:0:0:0:
356,225,71382,1,0,0:0:0:0:
326,132,71476,1,8,0:0:0:0:
326,132,71570,1,8,0:0:0:0:
448,308,71664,1,0,0:0:0:0:
448,308,71710,1,0,0:0:0:0:
448,308,71851,1,8,0:0:0:0:
448,308,71898,1,8,0:0:0:0:
448,308,72039,1,0,0:0:0:0:
448,308,72132,1,8,0:0:0:0:
448,308,72226,1,0,0:0:0:0:
313,192,72289,1,0,0:0:0:0:
271,190,72351,1,0,0:0:0:0:
298,151,72414,1,8,0:0:0:0:
398,223,72789,5,4,0:0:0:0:
414,236,73164,1,8,0:0:0:0:
414,236,73539,1,8,0:0:0:0:
414,236,73820,1,8,0:0:0:0:
414,236,73914,1,8,0:0:0:0:
414,236,74101,1,8,0:0:0:0:
477,288,74289,1,0,0:0:0:0:
477,288,74476,1,8,0:0:0:0:
458,283,74664,1,8,0:0:0:0:
418,271,74851,1,8,0:0:0:0:
418,271,75039,1,8,0:0:0:0:
418,271,75414,1,8,0:0:0:0:
422,274,75789,1,0,0:0:0:0:
422,274,76164,1,8,0:0:0:0:
422,274,76539,1,8,0:0:0:0:
422,274,76820,1,8,0:0:0:0:
422,274,76914,1,8,0:0:0:0:
422,274,77101,1,8,0:0:0:0:
422,274,77289,1,0,0:0:0:0:
422,274,77476,1,8,0:0:0:0:
422,274,77664,1,8,0:0:0:0:
422,274,77851,1,8,0:0:0:0:
422,274,78039,1,8,0:0:0:0:
371,115,78085,1,8,0:0:0:0:
371,115,78226,1,8,0:0:0:0:
371,115,78273,1,8,0:0:0:0:
376,153,78414,1,12,0:0:0:0:
225,177,78789,1,4,0:0:0:0:
255,192,79164,1,8,0:0:0:0:
255,192,79351,1,0,0:0:0:0:
255,192,79445,1,0,0:0:0:0:
255,192,79539,1,8,0:0:0:0:
255,192,79820,1,8,0:0:0:0:
255,192,80007,1,8,0:0:0:0:
255,192,80101,1,8,0:0:0:0:
255,192,80289,1,0,0:0:0:0:
331,158,80382,1,8,0:0:0:0:
336,162,80570,1,8,0:0:0:0:
336,162,80664,1,0,0:0:0:0:
398,187,80851,1,0,0:0:0:0:
398,187,81039,1,8,0:0:0:0:
358,214,81320,1,8,0:0:0:0:
358,214,81507,1,8,0:0:0:0:
358,214,81601,1,8,0:0:0:0:
358,214,81695,1,8,0:0:0:0:
358,214,81789,1,0,0:0:0:0:
301,194,81882,1,0,0:0:0:0:
315,170,82070,1,0,0:0:0:0:
246,151,82164,1,8,0:0:0:0:
315,170,82351,1,0,0:0:0:0:
315,170,82539,1,8,0:0:0:0:
439,230,82726,1,8,0:0:0:0:
439,230,82820,1,8,0:0:0:0:
318,134,82914,1,8,0:0:0:0:
318,134,83101,1,8,0:0:0:0:
294,155,83289,1,0,0:0:0:0:
394,200,83476,1,8,0:0:0:0:
394,200,83539,1,8,0:0:0:0:
394,200,83601,1,8,0:0:0:0:
277,185,83664,1,0,0:0:0:0:
277,185,83851,1,0,0:0:0:0:
277,185,84039,1,8,0:0:0:0:
344,112,84226,1,0,0:0:0:0:
344,112,84414,1,12,0:0:0:0:
225,177,84789,1,4,0:0:0:0:
255,192,85164,1,8,0:0:0:0:
255,192,85351,1,0,0:0:0:0:
255,192,85445,1,0,0:0:0:0:
255,192,85539,1,8,0:0:0:0:
255,192,85820,1,8,0:0:0:0:
255,192,86007,1,8,0:0:0:0:
255,192,86101,1,8,0:0:0:0:
255,192,86289,1,0,0:0:0:0:
331,158,86476,1,8,0:0:0:0:
336,162,86570,1,8,0:0:0:0:
336,162,86664,1,0,0:0:0:0:
398,187,86851,1,0,0:0:0:0:
398,187,87039,1,8,0:0:0:0:
358,214,87320,1,8,0:0:0:0:
463,261,87507,1,8,0:0:0:0:
358,214,87601,1,8,0:0:0:0:
360,200,87695,1,8,0:0:0:0:
358,214,87789,1,0,0:0:0:0:
301,194,87882,1,8,0:0:0:0:
315,170,87976,1,0,0:0:0:0:
246,151,88164,1,8,0:0:0:0:
315,170,88351,1,0,0:0:0:0:
432,131,88445,1,0,0:0:0:0:
315,170,88539,1,8,0:0:0:0:
439,230,88726,1,0,0:0:0:0:
318,134,88914,1,8,0:0:0:0:
318,134,89101,1,8,0:0:0:0:
294,155,89289,1,0,0:0:0:0:
394,200,89476,1,8,0:0:0:0:
394,200,89570,1,8,0:0:0:0:
277,185,89664,1,0,0:0:0:0:
277,185,89851,1,8,0:0:0:0:
400,149,90226,1,8,0:0:0:0:
395,150,90414,1,8,0:0:0:0:
434,205,90789,1,4,0:0:0:0:
439,213,91070,1,0,0:0:0:0:
439,213,91164,1,0,0:0:0:0:
465,219,91351,1,8,0:0:0:0:
420,214,91539,1,8,0:0:0:0:
248,141,91632,1,8,0:0:0:0:
420,214,91726,1,0,0:0:0:0:
379,210,91914,1,8,0:0:0:0:
379,210,92101,1,8,0:0:0:0:
379,210,92289,1,0,0:0:0:0:
426,168,92570,1,0,0:0:0:0:
426,168,92664,1,0,0:0:0:0:
413,165,92851,1,8,0:0:0:0:
413,165,93039,1,8,0:0:0:0:
245,139,93132,1,8,0:0:0:0:
388,168,93226,1,0,0:0:0:0:
404,194,93320,1,0,0:0:0:0:
388,168,93414,1,8,0:0:0:0:
326,165,93601,1,8,0:0:0:0:
316,162,93789,1,0,0:0:0:0:
309,162,94070,1,0,0:0:0:0:
309,162,94164,1,8,0:0:0:0:
309,162,94351,1,0,0:0:0:0:
309,162,94539,1,8,0:0:0:0:
308,161,94632,1,8,0:0:0:0:
308,161,94726,1,0,0:0:0:0:
289,148,95101,1,8,0:0:0:0:
325,161,95289,1,0,0:0:0:0:
241,143,95476,1,8,0:0:0:0:
241,143,95570,1,0,0:0:0:0:
241,143,95664,1,8,0:0:0:0:
241,143,95851,1,0,0:0:0:0:
241,143,96039,1,8,0:0:0:0:
347,227,96132,1,8,0:0:0:0:
241,143,96226,1,0,0:0:0:0:
241,143,96414,1,12,0:0:0:0:
286,126,96789,1,4,0:0:0:0:
258,130,96976,1,8,0:0:0:0:
251,128,97070,1,8,0:0:0:0:
258,130,97164,1,0,0:0:0:0:
259,130,97257,1,0,0:0:0:0:
259,130,97351,1,8,0:0:0:0:
262,130,97539,1,0,0:0:0:0:
378,232,97632,1,0,0:0:0:0:
378,232,97820,1,8,0:0:0:0:
378,232,97914,1,0,0:0:0:0:
371,232,98101,1,8,0:0:0:0:
341,233,98289,1,0,0:0:0:0:
341,233,98476,1,8,0:0:0:0:
341,233,98570,1,8,0:0:0:0:
341,233,98664,1,0,0:0:0:0:
341,233,98757,1,0,0:0:0:0:
341,233,98851,1,8,0:0:0:0:
341,233,99039,1,0,0:0:0:0:
388,228,99132,1,8,0:0:0:0:
388,228,99320,1,8,0:0:0:0:
360,189,99414,1,0,0:0:0:0:
360,189,99507,1,0,0:0:0:0:
360,189,99601,1,8,0:0:0:0:
363,201,99789,1,0,0:0:0:0:
367,239,99976,1,8,0:0:0:0:
311,228,100070,1,0,0:0:0:0:
311,228,100164,1,0,0:0:0:0:
311,228,100351,1,8,0:0:0:0:
311,228,100539,1,0,0:0:0:0:
311,228,100632,1,0,0:0:0:0:
311,228,100726,1,8,0:0:0:0:
304,227,100914,1,0,0:0:0:0:
395,195,101101,1,8,0:0:0:0:
395,195,101195,1,8,0:0:0:0:
275,141,101289,1,0,0:0:0:0:
342,150,101382,1,8,0:0:0:0:
342,150,101476,1,0,0:0:0:0:
342,150,101570,1,0,0:0:0:0:
342,150,101664,1,8,0:0:0:0:
324,110,101757,1,8,0:0:0:0:
324,110,101851,1,0,0:0:0:0:
324,110,101945,1,0,0:0:0:0:
445,272,102039,1,8,0:0:0:0:
437,275,102085,1,8,0:0:0:0:
445,272,102226,1,8,0:0:0:0:
445,272,102273,1,8,0:0:0:0:
413,137,102414,1,0,0:0:0:0:
413,137,102507,1,0,0:0:0:0:
413,137,102601,1,0,0:0:0:0:
349,158,102789,1,4,0:0:0:0:
327,173,103164,1,8,0:0:0:0:
327,173,103351,1,0,0:0:0:0:
327,173,103726,1,0,0:0:0:0:
327,173,103914,1,8,0:0:0:0:
327,173,104101,1,0,0:0:0:0:
327,173,104289,1,0,0:0:0:0:
261,80,104476,1,0,0:0:0:0:
261,80,104664,1,8,0:0:0:0:
311,164,105039,1,8,0:0:0:0:
253,114,105226,1,0,0:0:0:0:
253,114,105414,1,8,0:0:0:0:
253,114,105601,1,0,0:0:0:0:
253,114,105789,1,0,0:0:0:0:
253,114,106164,1,8,0:0:0:0:
253,114,106351,1,0,0:0:0:0:
253,114,106726,1,0,0:0:0:0:
253,114,106914,1,8,0:0:0:0:
253,114,107101,1,0,0:0:0:0:
253,114,107289,1,0,0:0:0:0:
253,114,107476,1,0,0:0:0:0:
253,114,107664,1,8,0:0:0:0:
280,127,107757,1,8,0:0:0:0:
253,114,107851,1,8,0:0:0:0:
253,114,108226,1,0,0:0:0:0:
253,114,108414,1,8,0:0:0:0:
349,167,108601,1,8,0:0:0:0:
349,167,108695,1,8,0:0:0:0:
349,158,108789,1,0,0:0:0:0:
262,150,108976,1,0,0:0:0:0:
327,173,109164,1,8,0:0:0:0:
327,173,109351,1,0,0:0:0:0:
327,173,109726,1,0,0:0:0:0:
327,173,109914,1,8,0:0:0:0:
327,173,110101,1,0,0:0:0:0:
327,173,110289,1,0,0:0:0:0:
261,80,110476,1,0,0:0:0:0:
261,80,110664,1,8,0:0:0:0:
350,130,111039,1,8,0:0:0:0:
253,114,111226,1,0,0:0:0:0:
253,114,111414,1,8,0:0:0:0:
253,114,111601,1,0,0:0:0:0:
253,114,111789,1,0,0:0:0:0:
328,196,112070,1,8,0:0:0:0:
347,203,112164,1,0,0:0:0:0:
328,196,112351,1,8,0:0:0:0:
328,196,112539,1,0,0:0:0:0:
328,196,112726,1,0,0:0:0:0:
231,142,112914,1,0,0:0:0:0:
231,142,113007,1,0,0:0:0:0:
231,141,113101,1,0,0:0:0:0:
231,141,113195,1,0,0:0:0:0:
231,141,113289,1,8,0:0:0:0:
231,142,114039,1,12,0:0:0:0:
233,137,114414,1,0,0:0:0:0:
366,174,114789,1,4,0:0:0:0:
409,194,115070,1,8,0:0:0:0:
387,187,115164,1,0,0:0:0:0:
376,187,115351,1,8,0:0:0:0:
358,185,115539,1,0,0:0:0:0:
344,188,115726,1,8,0:0:0:0:
344,188,115820,1,8,0:0:0:0:
342,186,115914,1,0,0:0:0:0:
342,186,116101,1,8,0:0:0:0:
324,181,116289,1,0,0:0:0:0:
324,181,116382,1,0,0:0:0:0:
324,181,116570,1,8,0:0:0:0:
324,181,116664,1,0,0:0:0:0:
324,181,116851,1,8,0:0:0:0:
324,181,117039,1,0,0:0:0:0:
324,181,117132,1,0,0:0:0:0:
324,181,117226,1,8,0:0:0:0:
324,181,117320,1,8,0:0:0:0:
324,181,117414,1,0,0:0:0:0:
324,181,117601,1,8,0:0:0:0:
324,181,117789,1,0,0:0:0:0:
357,290,117882,1,8,0:0:0:0:
324,181,118070,1,8,0:0:0:0:
324,181,118164,1,0,0:0:0:0:
324,181,118351,1,8,0:0:0:0:
324,181,118539,1,0,0:0:0:0:
324,181,118726,1,8,0:0:0:0:
324,181,118820,1,8,0:0:0:0:
324,181,118914,1,0,0:0:0:0:
324,181,119101,1,0,0:0:0:0:
324,181,119195,1,8,0:0:0:0:
340,181,119382,1,8,0:0:0:0:
340,181,119476,1,0,0:0:0:0:
393,274,119570,1,0,0:0:0:0:
340,181,119664,1,8,0:0:0:0:
340,181,119851,1,0,0:0:0:0:
340,181,120039,1,8,0:0:0:0:
340,181,120132,1,8,0:0:0:0:
340,181,120226,1,0,0:0:0:0:
340,181,120414,1,8,0:0:0:0:
322,240,120507,1,0,0:0:0:0:
369,143,120601,1,0,0:0:0:0:
289,128,120695,1,8,0:0:0:0:
366,174,120789,1,0,0:0:0:0:
409,194,121070,1,8,0:0:0:0:
387,187,121164,1,0,0:0:0:0:
376,187,121351,1,8,0:0:0:0:
358,185,121539,1,0,0:0:0:0:
344,188,121632,1,0,0:0:0:0:
344,188,121726,1,8,0:0:0:0:
342,186,121914,1,0,0:0:0:0:
342,186,122101,1,8,0:0:0:0:
270,87,122195,1,8,0:0:0:0:
324,181,122289,1,0,0:0:0:0:
324,181,122382,1,8,0:0:0:0:
324,181,122570,1,8,0:0:0:0:
324,181,122664,1,0,0:0:0:0:
324,181,122851,1,8,0:0:0:0:
324,181,123039,1,0,0:0:0:0:
324,181,123132,1,0,0:0:0:0:
324,181,123226,1,8,0:0:0:0:
324,181,123320,1,8,0:0:0:0:
324,181,123414,1,0,0:0:0:0:
324,181,123601,1,8,0:0:0:0:
324,181,123789,1,0,0:0:0:0:
307,143,123882,1,8,0:0:0:0:
324,181,123976,1,0,0:0:0:0:
361,98,124164,1,12,0:0:0:0:
324,181,124351,1,8,0:0:0:0:
352,95,124445,1,8,0:0:0:0:
324,181,124539,1,0,0:0:0:0:
307,143,124632,1,8,0:0:0:0:
324,181,124726,1,0,0:0:0:0:
324,181,124914,1,12,0:0:0:0:
324,181,125101,1,0,0:0:0:0:
324,181,125195,1,8,0:0:0:0:
399,79,125289,1,8,0:0:0:0:
307,143,125382,1,8,0:0:0:0:
340,181,125476,1,0,0:0:0:0:
340,181,125664,1,8,0:0:0:0:
340,181,125851,1,0,0:0:0:0:
340,181,125945,1,8,0:0:0:0:
340,181,126039,1,0,0:0:0:0:
259,144,126132,1,0,0:0:0:0:
340,181,126226,1,8,0:0:0:0:
340,181,126320,1,0,0:0:0:0:
188,128,126414,1,8,0:0:0:0:
289,128,126789,1,4,0:0:0:0:
353,124,127070,1,8,0:0:0:0:
353,124,127164,1,0,0:0:0:0:
353,124,127351,1,8,0:0:0:0:
348,126,127539,1,0,0:0:0:0:
276,136,127632,1,8,0:0:0:0:
348,126,127726,1,8,0:0:0:0:
348,126,127820,1,0,0:0:0:0:
345,125,127914,1,8,0:0:0:0:
202,148,128101,1,0,0:0:0:0:
202,148,128195,1,8,0:0:0:0:
345,124,128289,1,0,0:0:0:0:
348,126,128476,1,8,0:0:0:0:
348,126,128570,1,8,0:0:0:0:
348,126,128664,1,0,0:0:0:0:
348,126,128851,1,8,0:0:0:0:
347,124,129039,1,0,0:0:0:0:
309,112,129132,1,0,0:0:0:0:
307,96,129226,1,8,0:0:0:0:
307,96,129320,1,0,0:0:0:0:
307,96,129414,1,8,0:0:0:0:
309,154,129507,1,8,0:0:0:0:
309,154,129601,1,0,0:0:0:0:
309,154,129789,1,0,0:0:0:0:
336,204,129976,1,8,0:0:0:0:
336,204,130070,1,8,0:0:0:0:
312,195,130164,1,0,0:0:0:0:
312,195,130351,1,8,0:0:0:0:
312,195,130539,1,0,0:0:0:0:
312,195,130601,1,8,0:0:0:0:
229,151,130664,1,8,0:0:0:0:
289,210,130726,1,8,0:0:0:0:
283,171,130820,1,0,0:0:0:0:
225,181,130914,1,8,0:0:0:0:
171,125,131007,1,8,0:0:0:0:
225,181,131101,1,0,0:0:0:0:
296,99,131289,1,0,0:0:0:0:
355,199,131382,1,0,0:0:0:0:
326,132,131476,1,8,0:0:0:0:
326,132,131570,1,8,0:0:0:0:
448,308,131664,1,0,0:0:0:0:
448,308,131710,1,0,0:0:0:0:
448,308,131851,1,8,0:0:0:0:
448,308,131898,1,8,0:0:0:0:
448,308,132039,1,0,0:0:0:0:
448,308,132132,1,8,0:0:0:0:
448,308,132226,1,0,0:0:0:0:
378,216,132289,1,0,0:0:0:0:
236,247,132351,1,0,0:0:0:0:
266,93,132414,1,8,0:0:0:0:
266,93,132507,1,8,0:0:0:0:
266,93,132601,1,8,0:0:0:0:
266,93,132695,1,8,0:0:0:0:
266,93,132789,1,0,0:0:0:0:
438,234,134289,1,8,0:0:0:0:
438,234,134382,1,8,0:0:0:0:
438,234,134570,1,8,0:0:0:0:
438,234,134664,1,8,0:0:0:0:
276,134,134757,1,0,0:0:0:0:
438,234,134851,1,8,0:0:0:0:
438,234,134945,1,0,0:0:0:0:
438,234,135039,1,0,0:0:0:0:
329,167,135132,1,8,0:0:0:0:
329,167,135226,1,8,0:0:0:0:
242,230,135414,1,12,0:0:0:0:
242,230,135789,1,4,0:0:0:0:
364,194,136164,1,8,0:0:0:0:
364,194,136226,1,8,0:0:0:0:
364,194,136289,1,8,0:0:0:0:
364,194,136351,1,0,0:0:0:0:
364,194,136539,1,12,0:0:0:0:
223,153,136726,1,0,0:0:0:0:
223,153,136820,1,0,0:0:0:0:
223,153,136914,1,8,0:0:0:0:
223,153,137101,1,0,0:0:0:0:
307,141,137289,1,8,0:0:0:0:
315,142,137476,1,8,0:0:0:0:
315,142,137570,1,8,0:0:0:0:
315,142,137664,1,0,0:0:0:0:
315,142,137851,1,0,0:0:0:0:
399,178,138039,1,12,0:0:0:0:
270,105,138226,1,0,0:0:0:0:
399,178,138320,1,8,0:0:0:0:
399,178,138414,1,0,0:0:0:0:
307,113,138476,1,0,0:0:0:0:
307,113,138539,1,0,0:0:0:0:
261,105,138601,1,8,0:0:0:0:
261,105,138695,1,8,0:0:0:0:
261,105,138789,1,0,0:0:0:0:
324,192,139164,1,8,0:0:0:0:
289,96,139226,1,8,0:0:0:0:
289,96,139289,1,8,0:0:0:0:
289,96,139351,1,0,0:0:0:0:
289,96,139539,1,12,0:0:0:0:
353,123,139726,1,0,0:0:0:0:
353,123,139820,1,8,0:0:0:0:
353,123,139914,1,8,0:0:0:0:
299,143,140101,1,0,0:0:0:0:
278,243,140164,1,0,0:0:0:0:
278,243,140226,1,0,0:0:0:0:
200,179,140289,1,8,0:0:0:0:
251,75,140476,1,8,0:0:0:0:
302,175,140523,1,8,0:0:0:0:
303,111,140664,1,0,0:0:0:0:
303,111,140710,1,0,0:0:0:0:
303,111,140851,1,8,0:0:0:0:
303,111,140898,1,8,0:0:0:0:
296,96,141039,1,12,0:0:0:0:
382,123,141226,1,0,0:0:0:0:
382,123,141320,1,8,0:0:0:0:
382,123,141414,1,0,0:0:0:0:
382,123,141507,1,0,0:0:0:0:
382,123,141601,1,8,0:0:0:0:
364,152,141695,1,8,0:0:0:0:
364,152,141789,1,0,0:0:0:0:
364,194,142164,1,8,0:0:0:0:
364,194,142226,1,8,0:0:0:0:
364,194,142289,1,8,0:0:0:0:
364,194,142351,1,0,0:0:0:0:
364,194,142539,1,12,0:0:0:0:
223,153,142726,1,0,0:0:0:0:
223,153,142820,1,0,0:0:0:0:
223,153,142914,1,8,0:0:0:0:
223,153,143101,1,0,0:0:0:0:
307,141,143289,1,8,0:0:0:0:
315,142,143476,1,0,0:0:0:0:
315,142,143570,1,8,0:0:0:0:
315,142,143664,1,0,0:0:0:0:
315,142,143851,1,0,0:0:0:0:
399,178,144039,1,12,0:0:0:0:
270,105,144226,1,8,0:0:0:0:
399,178,144320,1,0,0:0:0:0:
399,178,144414,1,8,0:0:0:0:
307,113,144507,1,0,0:0:0:0:
261,105,144601,1,8,0:0:0:0:
261,105,144695,1,8,0:0:0:0:
261,105,144789,1,0,0:0:0:0:
289,96,145164,1,0,0:0:0:0:
289,96,145257,1,0,0:0:0:0:
289,96,145351,1,0,0:0:0:0:
289,96,145539,1,12,0:0:0:0:
353,123,145726,1,8,0:0:0:0:
353,123,145820,1,8,0:0:0:0:
353,123,145914,1,0,0:0:0:0:
299,143,146101,1,0,0:0:0:0:
299,143,146195,1,0,0:0:0:0:
200,179,146289,1,8,0:0:0:0:
251,75,146476,1,8,0:0:0:0:
302,175,146523,1,8,0:0:0:0:
303,111,146664,1,0,0:0:0:0:
303,111,146710,1,0,0:0:0:0:
303,111,146851,1,0,0:0:0:0:
303,111,146898,1,0,0:0:0:0:
296,96,147039,1,12,0:0:0:0:
382,123,147226,1,0,0:0:0:0:
382,123,147320,1,0,0:0:0:0:
382,123,147414,1,8,0:0:0:0:
382,123,147507,1,0,0:0:0:0:
382,123,147601,1,8,0:0:0:0:
364,152,147695,1,8,0:0:0:0:
364,152,147789,1,0,0:0:0:0:
311,241,153789,5,0,0:0:0:0:
344,245,154539,1,8,0:0:0:0:
344,245,154726,1,8,0:0:0:0:
311,216,155101,1,0,0:0:0:0:
348,242,155476,1,8,0:0:0:0:
311,216,155664,1,0,0:0:0:0:
348,242,156039,1,8,0:0:0:0:
348,242,156414,1,8,0:0:0:0:
311,216,156789,1,0,0:0:0:0:
299,212,157351,1,0,0:0:0:0:
299,212,157539,1,8,0:0:0:0:
299,212,157726,1,8,0:0:0:0:
299,212,158101,1,0,0:0:0:0:
299,212,158476,1,8,0:0:0:0:
299,212,158664,1,0,0:0:0:0:
299,212,159039,1,8,0:0:0:0:
354,212,159414,1,8,0:0:0:0:
354,212,159601,1,8,0:0:0:0:
354,212,159789,1,0,0:0:0:0:
392,225,159976,1,8,0:0:0:0:
338,222,160351,1,8,0:0:0:0:
338,222,160539,1,8,0:0:0:0:
372,125,160914,1,8,0:0:0:0:
322,137,161101,1,0,0:0:0:0:
236,195,161476,1,0,0:0:0:0:
230,205,161664,1,8,0:0:0:0:
230,205,161851,1,0,0:0:0:0:
370,194,162039,1,8,0:0:0:0:
370,194,162414,1,8,0:0:0:0:
370,194,162789,1,0,0:0:0:0:
370,194,162976,1,8,0:0:0:0:
396,190,163351,1,8,0:0:0:0:
396,190,163539,1,0,0:0:0:0:
396,190,163914,1,8,0:0:0:0:
396,190,164101,1,8,0:0:0:0:
244,160,164148,1,8,0:0:0:0:
396,190,164476,1,8,0:0:0:0:
396,190,164664,1,0,0:0:0:0:
375,185,165039,1,8,0:0:0:0:
363,215,165414,1,8,0:0:0:0:
369,215,165507,1,8,0:0:0:0:
369,215,165601,1,8,0:0:0:0:
369,215,165789,1,0,0:0:0:0:
300,278,165976,1,0,0:0:0:0:
300,278,166351,1,0,0:0:0:0:
300,278,166539,1,8,0:0:0:0:
242,143,166914,1,8,0:0:0:0:
242,143,167101,1,8,0:0:0:0:
242,143,167289,1,0,0:0:0:0:
231,123,167476,1,8,0:0:0:0:
232,123,167664,1,0,0:0:0:0:
232,123,168039,1,8,0:0:0:0:
238,135,168414,1,8,0:0:0:0:
243,130,168601,1,8,0:0:0:0:
395,140,168789,1,0,0:0:0:0:
303,152,169164,1,8,0:0:0:0:
303,152,169351,1,0,0:0:0:0:
303,152,169539,1,8,0:0:0:0:
303,152,169726,1,8,0:0:0:0:
284,175,169914,1,0,0:0:0:0:
284,175,170101,1,8,0:0:0:0:
257,166,170476,1,8,0:0:0:0:
250,165,170664,1,0,0:0:0:0:
250,165,170851,1,0,0:0:0:0:
318,139,170945,1,0,0:0:0:0:
249,165,171039,1,8,0:0:0:0:
316,183,171226,1,8,0:0:0:0:
294,179,171414,1,0,0:0:0:0:
464,237,171789,5,12,0:0:0:0:
418,252,172070,1,0,0:0:0:0:
418,252,172164,1,0,0:0:0:0:
464,237,172351,1,12,0:0:0:0:
418,252,172632,1,0,0:0:0:0:
418,252,172726,1,0,0:0:0:0:
464,237,172914,1,12,0:0:0:0:
393,274,173195,1,0,0:0:0:0:
393,274,173289,1,0,0:0:0:0:
484,239,173476,1,12,0:0:0:0:
358,183,173664,1,0,0:0:0:0:
403,233,173851,1,0,0:0:0:0:
358,183,173945,1,0,0:0:0:0:
403,233,174039,1,0,0:0:0:0:
403,233,174226,1,0,0:0:0:0:
403,233,174414,1,8,0:0:0:0:
299,148,174789,1,4,0:0:0:0:
299,148,175070,1,8,0:0:0:0:
299,148,175164,1,8,0:0:0:0:
299,148,175351,1,4,0:0:0:0:
299,148,175632,1,8,0:0:0:0:
299,148,175726,1,8,0:0:0:0:
299,148,175914,1,4,0:0:0:0:
299,148,176195,1,8,0:0:0:0:
299,148,176289,1,8,0:0:0:0:
299,148,176476,1,4,0:0:0:0:
344,161,176664,1,8,0:0:0:0:
344,161,176851,1,8,0:0:0:0:
344,161,176945,1,8,0:0:0:0:
344,161,177039,1,8,0:0:0:0:
350,162,177226,1,8,0:0:0:0:
361,144,177414,1,0,0:0:0:0:
366,108,177460,1,0,0:0:0:0:
361,144,177601,1,0,0:0:0:0:
366,108,177648,1,0,0:0:0:0:
370,145,177789,1,12,0:0:0:0:
385,152,178070,1,8,0:0:0:0:
385,152,178164,1,8,0:0:0:0:
371,144,178351,1,4,0:0:0:0:
282,156,178539,1,8,0:0:0:0:
385,152,178632,1,0,0:0:0:0:
385,152,178726,1,0,0:0:0:0:
371,144,178914,1,12,0:0:0:0:
385,152,179195,1,8,0:0:0:0:
386,152,179289,1,8,0:0:0:0:
371,144,179476,1,4,0:0:0:0:
307,130,179664,1,8,0:0:0:0:
307,130,179851,1,0,0:0:0:0:
307,130,179945,1,0,0:0:0:0:
357,159,180039,1,0,0:0:0:0:
357,159,180226,1,0,0:0:0:0:
254,71,180414,1,8,0:0:0:0:
385,160,180789,1,4,0:0:0:0:
449,188,180976,1,8,0:0:0:0:
320,111,181070,1,0,0:0:0:0:
320,111,181164,1,0,0:0:0:0:
320,111,181351,1,12,0:0:0:0:
280,156,181539,1,0,0:0:0:0:
317,101,181632,1,0,0:0:0:0:
318,102,181726,1,8,0:0:0:0:
320,111,181914,1,4,0:0:0:0:
259,110,182101,1,8,0:0:0:0:
316,103,182195,1,0,0:0:0:0:
258,103,182289,1,0,0:0:0:0:
320,111,182476,1,12,0:0:0:0:
256,192,182664,12,8,184539,0:0:0:0:
283,135,184726,5,0,0:0:0:0:
297,132,184914,1,8,0:0:0:0:
297,132,185101,1,8,0:0:0:0:
297,132,185195,1,8,0:0:0:0:
231,230,185289,5,0,0:0:0:0:
231,230,186039,1,12,0:0:0:0:
231,230,186789,1,0,0:0:0:0:
231,230,187164,1,0,0:0:0:0:
231,230,187539,1,12,0:0:0:0:
231,230,188289,1,0,0:0:0:0:
231,230,189039,1,12,0:0:0:0:
231,230,189789,1,0,0:0:0:0:
231,230,190164,1,0,0:0:0:0:
231,230,190539,1,12,0:0:0:0:
413,203,191289,1,4,0:0:0:0:
401,254,192789,1,0,0:0:0:0:
401,254,193164,1,0,0:0:0:0:
401,254,193539,1,0,0:0:0:0:
401,254,193726,1,0,0:0:0:0:
401,254,193914,1,12,0:0:0:0:
375,243,194289,1,0,0:0:0:0:
375,243,194664,1,0,0:0:0:0:
375,243,194945,1,8,0:0:0:0:
375,243,195039,1,0,0:0:0:0:
375,243,195226,1,0,0:0:0:0:
375,243,195414,1,12,0:0:0:0:
384,245,195789,1,4,0:0:0:0:
382,187,196070,1,0,0:0:0:0:
382,187,196164,1,8,0:0:0:0:
305,128,196351,1,0,0:0:0:0:
305,128,196539,1,8,0:0:0:0:
305,128,196726,1,0,0:0:0:0:
305,128,196820,1,0,0:0:0:0:
305,128,196914,1,8,0:0:0:0:
305,128,197101,1,0,0:0:0:0:
305,128,197195,1,8,0:0:0:0:
305,128,197382,1,8,0:0:0:0:
305,128,197476,1,0,0:0:0:0:
384,277,197570,1,0,0:0:0:0:
399,180,197664,1,8,0:0:0:0:
399,180,197851,1,0,0:0:0:0:
399,180,198039,1,8,0:0:0:0:
399,180,198132,1,8,0:0:0:0:
399,180,198226,1,0,0:0:0:0:
282,162,198320,1,0,0:0:0:0:
282,162,198414,1,8,0:0:0:0:
338,185,198601,1,8,0:0:0:0:
338,185,198695,1,8,0:0:0:0:
304,174,198789,1,0,0:0:0:0:
304,174,199070,1,8,0:0:0:0:
304,174,199164,1,0,0:0:0:0:
304,174,199351,1,8,0:0:0:0:
389,191,199539,1,0,0:0:0:0:
379,307,199632,1,0,0:0:0:0:
389,191,199726,1,8,0:0:0:0:
389,191,199820,1,8,0:0:0:0:
389,191,199914,1,0,0:0:0:0:
389,191,200101,1,8,0:0:0:0:
389,191,200289,1,0,0:0:0:0:
347,186,200382,1,8,0:0:0:0:
389,191,200570,1,8,0:0:0:0:
389,191,200664,1,0,0:0:0:0:
389,191,200851,1,8,0:0:0:0:
269,198,200945,1,8,0:0:0:0:
389,191,201039,1,0,0:0:0:0:
389,191,201132,1,8,0:0:0:0:
214,185,201226,1,0,0:0:0:0:
389,191,201320,1,0,0:0:0:0:
389,191,201414,1,8,0:0:0:0:
229,132,201601,1,0,0:0:0:0:
229,132,201695,1,8,0:0:0:0:
272,150,201789,1,0,0:0:0:0:
152,254,201882,1,8,0:0:0:0:
152,254,201976,1,0,0:0:0:0:
369,168,202164,1,12,0:0:0:0:
350,172,202351,1,8,0:0:0:0:
350,172,202445,1,8,0:0:0:0:
350,172,202539,1,0,0:0:0:0:
345,250,202632,1,8,0:0:0:0:
316,161,202726,1,0,0:0:0:0:
316,161,202914,1,12,0:0:0:0:
374,170,203101,1,0,0:0:0:0:
374,170,203195,1,8,0:0:0:0:
374,170,203289,1,8,0:0:0:0:
318,179,203382,1,8,0:0:0:0:
374,170,203476,1,0,0:0:0:0:
320,177,203539,1,0,0:0:0:0:
252,151,203601,1,0,0:0:0:0:
374,170,203664,1,8,0:0:0:0:
374,170,203757,1,8,0:0:0:0:
374,170,203851,1,0,0:0:0:0:
398,164,203945,1,0,0:0:0:0:
398,164,204039,1,8,0:0:0:0:
349,145,204101,1,8,0:0:0:0:
349,145,204164,1,8,0:0:0:0:
398,164,204226,1,0,0:0:0:0:
340,125,204320,1,0,0:0:0:0:
284,108,204414,1,0,0:0:0:0:
312,299,204789,5,12,0:0:0:0:
387,288,205070,1,0,0:0:0:0:
387,288,205164,1,0,0:0:0:0:
379,284,205351,1,0,0:0:0:0:
396,285,205539,1,12,0:0:0:0:
436,334,205726,1,0,0:0:0:0:
436,334,205820,1,8,0:0:0:0:
436,334,205914,1,0,0:0:0:0:
369,225,206101,1,0,0:0:0:0:
396,285,206289,1,12,0:0:0:0:
361,237,206570,1,0,0:0:0:0:
361,237,206664,1,0,0:0:0:0:
361,236,206851,1,0,0:0:0:0:
396,285,207039,1,12,0:0:0:0:
361,237,207226,1,0,0:0:0:0:
361,237,207320,1,0,0:0:0:0:
361,237,207414,1,8,0:0:0:0:
361,237,207601,1,0,0:0:0:0:
396,285,207789,1,12,0:0:0:0:
335,187,207976,1,0,0:0:0:0:
370,169,208070,1,0,0:0:0:0:
362,205,208164,1,8,0:0:0:0:
295,225,208257,1,0,0:0:0:0:
295,225,208351,1,0,0:0:0:0:
295,225,208445,1,0,0:0:0:0:
295,225,208539,1,8,0:0:0:0:
322,139,208726,1,0,0:0:0:0:
384,160,208820,1,0,0:0:0:0:
295,225,208914,1,8,0:0:0:0:
216,60,209007,1,8,0:0:0:0:
322,139,209101,1,0,0:0:0:0:
372,146,209289,1,8,0:0:0:0:
372,146,209351,1,0,0:0:0:0:
372,146,209414,1,0,0:0:0:0:
372,146,209476,1,0,0:0:0:0:
372,146,209539,1,0,0:0:0:0:
302,67,209601,1,0,0:0:0:0:
372,146,209664,1,8,0:0:0:0:
411,230,210226,1,0,0:0:0:0:
353,221,210320,1,0,0:0:0:0:
411,230,210414,1,8,0:0:0:0:
362,188,210601,1,8,0:0:0:0:
362,188,210664,1,8,0:0:0:0:
362,188,210726,1,8,0:0:0:0:
362,188,210789,1,0,0:0:0:0:
439,166,210914,1,8,0:0:0:0:
439,166,211039,1,8,0:0:0:0:
427,161,211164,1,0,0:0:0:0:
339,183,211351,1,8,0:0:0:0:
339,183,211539,1,0,0:0:0:0:
347,194,211632,1,0,0:0:0:0:
339,183,211726,1,8,0:0:0:0:
339,183,211820,1,0,0:0:0:0:
339,183,211914,1,8,0:0:0:0:
347,194,212007,1,8,0:0:0:0:
339,183,212101,1,0,0:0:0:0:
334,136,212289,1,0,0:0:0:0:
289,201,212414,1,8,0:0:0:0:
289,201,212539,1,8,0:0:0:0:
289,201,212664,1,0,0:0:0:0:
351,185,212851,1,8,0:0:0:0:
302,218,212945,1,8,0:0:0:0:
391,188,213039,1,0,0:0:0:0:
391,188,213132,1,0,0:0:0:0:
391,188,213226,1,8,0:0:0:0:
391,188,213320,1,0,0:0:0:0:
391,188,213414,1,8,0:0:0:0:
391,188,213507,1,8,0:0:0:0:
391,188,213601,1,0,0:0:0:0:
391,188,213695,1,8,0:0:0:0:
391,188,213789,1,0,0:0:0:0:
352,140,213976,1,8,0:0:0:0:
352,140,214070,1,8,0:0:0:0:
334,118,214164,1,0,0:0:0:0:
293,130,214257,1,8,0:0:0:0:
325,118,214351,1,8,0:0:0:0:
247,157,214445,1,8,0:0:0:0:
294,152,214539,1,0,0:0:0:0:
294,152,214601,1,0,0:0:0:0:
294,152,214664,1,0,0:0:0:0:
289,151,214726,1,8,0:0:0:0:
318,163,214820,1,0,0:0:0:0:
318,163,214914,1,8,0:0:0:0:
318,163,215007,1,8,0:0:0:0:
318,163,215101,1,0,0:0:0:0:
318,163,215195,1,8,0:0:0:0:
302,105,215289,1,0,0:0:0:0:
316,165,215335,1,0,0:0:0:0:
316,165,215476,1,0,0:0:0:0:
316,165,215523,1,0,0:0:0:0:
316,165,215664,1,8,0:0:0:0:
289,214,215710,1,8,0:0:0:0:
289,214,215851,1,8,0:0:0:0:
289,214,215945,1,8,0:0:0:0:
207,154,216039,1,0,0:0:0:0:
290,143,216101,1,0,0:0:0:0:
290,143,216164,1,0,0:0:0:0:
248,199,216226,1,8,0:0:0:0:
224,176,216289,1,0,0:0:0:0:
380,157,216351,1,0,0:0:0:0:
248,199,216414,1,8,0:0:0:0:
208,197,217164,5,4,0:0:0:0:
252,191,217539,1,8,0:0:0:0:
356,132,217789,1,8,0:0:0:0:
356,132,217914,1,0,0:0:0:0:
310,161,218289,1,8,0:0:0:0:
310,177,218539,1,0,0:0:0:0:
310,177,218664,1,0,0:0:0:0:
389,152,218914,1,0,0:0:0:0:
310,177,219039,1,8,0:0:0:0:
352,193,219289,1,8,0:0:0:0:
352,193,219414,1,0,0:0:0:0:
352,193,219789,1,8,0:0:0:0:
415,160,220039,1,8,0:0:0:0:
415,160,220164,1,0,0:0:0:0:
413,106,220351,1,0,0:0:0:0:
413,106,220539,1,8,0:0:0:0:
389,159,220664,1,8,0:0:0:0:
389,159,220789,1,8,0:0:0:0:
389,159,220914,1,0,0:0:0:0:
404,206,221164,1,0,0:0:0:0:
347,131,221289,1,8,0:0:0:0:
318,174,221476,1,0,0:0:0:0:
318,174,221570,1,0,0:0:0:0:
318,174,221664,1,8,0:0:0:0:
318,174,221851,1,0,0:0:0:0:
318,174,222039,1,8,0:0:0:0:
334,139,222414,1,12,0:0:0:0:
334,139,222789,1,4,0:0:0:0:
367,179,222976,1,8,0:0:0:0:
367,179,223164,1,0,0:0:0:0:
364,140,223257,1,0,0:0:0:0:
367,179,223351,1,8,0:0:0:0:
255,212,223539,1,0,0:0:0:0:
261,201,223726,1,8,0:0:0:0:
261,201,223820,1,8,0:0:0:0:
261,201,223914,1,0,0:0:0:0:
261,201,224007,1,0,0:0:0:0:
263,201,224101,1,8,0:0:0:0:
263,201,224289,1,0,0:0:0:0:
327,217,224476,1,8,0:0:0:0:
327,217,224664,1,0,0:0:0:0:
327,217,224757,1,0,0:0:0:0:
327,217,224851,1,8,0:0:0:0:
327,217,225039,1,0,0:0:0:0:
327,217,225132,1,8,0:0:0:0:
327,217,225320,1,8,0:0:0:0:
327,217,225414,1,0,0:0:0:0:
324,185,225507,1,0,0:0:0:0:
327,217,225601,1,8,0:0:0:0:
147,99,225695,1,8,0:0:0:0:
147,99,225789,1,0,0:0:0:0:
264,168,225976,1,0,0:0:0:0:
264,168,226070,1,8,0:0:0:0:
307,161,226164,1,0,0:0:0:0:
307,161,226351,1,8,0:0:0:0:
380,197,226539,1,0,0:0:0:0:
380,197,226632,1,0,0:0:0:0:
380,197,226726,1,8,0:0:0:0:
380,197,226820,1,8,0:0:0:0:
380,197,226914,1,0,0:0:0:0:
380,197,227101,1,8,0:0:0:0:
380,197,227289,1,0,0:0:0:0:
321,145,227476,1,8,0:0:0:0:
321,145,227570,1,0,0:0:0:0:
321,145,227664,1,8,0:0:0:0:
321,145,227851,1,0,0:0:0:0:
326,153,227945,1,0,0:0:0:0:
321,145,228039,1,8,0:0:0:0:
375,158,228101,1,0,0:0:0:0:
215,199,228164,1,0,0:0:0:0:
321,145,228226,1,0,0:0:0:0:
321,145,228320,1,0,0:0:0:0:
321,145,228414,1,8,0:0:0:0:
313,153,228476,1,8,0:0:0:0:
291,156,228539,1,8,0:0:0:0:
313,153,228601,1,0,0:0:0:0:
313,153,228695,1,8,0:0:0:0:
329,207,231414,1,4,0:0:0:0:
