osu file format v14

[General]
AudioFilename: audio.mp3
AudioLeadIn: 0
PreviewTime: 51855
Countdown: 0
SampleSet: Soft
StackLeniency: 1
Mode: 0
LetterboxInBreaks: 0
WidescreenStoryboard: 1

[Editor]
Bookmarks: 137345
DistanceSpacing: 1.9
BeatDivisor: 4
GridSize: 32
TimelineZoom: 2.9

[Metadata]
Title:BRING IT ON
TitleUnicode:劣等上等
Artist:Giga feat. Reol
ArtistUnicode:Giga feat. Reol
Creator:Yugu
Version:aika's InSane
Source:
Tags:Intensity Callionet Hollow Wings Hollow_Wings Ryuusei Aika Ryuusei_Aika 事実上 Jijitsujou jpop japanese pop Giga れをる ギガ okiku お菊 鏡音リン 鏡音レン kagamine rin len ren rettou joutou Pata-mon
BeatmapID:2170150
BeatmapSetID:974362

[Difficulty]
HPDrainRate:5
CircleSize:4
OverallDifficulty:7.3
ApproachRate:8.7
SliderMultiplier:1.88
SliderTickRate:1

[Events]
//Background and Video events
0,0,"72365882_p0.jpg",0,0
//Break Periods
//Storyboard Layer 0 (Background)
//Storyboard Layer 1 (Fail)
//Storyboard Layer 2 (Pass)
//Storyboard Layer 3 (Foreground)
//Storyboard Layer 4 (Overlay)
//Storyboard Sound Samples

[TimingPoints]
1074,375,4,2,1,70,1,0
1074,-66.6666666666667,4,2,1,70,0,0
1449,-400,4,2,1,70,0,0
3136,-100,4,2,1,50,0,0
4074,-66.6666666666667,4,2,1,70,0,0
4449,-100,4,2,1,50,0,0
6511,-200,4,2,1,50,0,0
6886,-66.6666666666667,4,2,1,50,0,0
7074,-125,4,2,1,70,0,0
10074,-100,4,2,1,75,0,0
10824,-100,4,2,1,80,0,0
11199,-66.6666666666667,4,2,1,80,0,0
11574,-66.6666666666667,4,2,1,85,0,0
12324,-100,4,2,1,60,0,0
13074,-100,4,2,1,80,0,0
15886,-66.6666666666667,4,2,1,80,0,0
16074,-83.3333333333333,4,2,1,80,0,0
17574,-100,4,2,1,80,0,0
18886,-66.6666666666667,4,2,1,80,0,0
19074,-100,4,2,1,80,0,0
23386,-66.6666666666667,4,2,1,80,0,0
23574,-100,4,2,1,80,0,0
24699,-25,4,2,1,80,0,0
25074,-45.4545454545455,4,2,1,80,0,0
25261,-90.9090909090909,4,2,1,80,0,0
27511,-45.4545454545455,4,2,1,80,0,0
27699,-90.9090909090909,4,2,1,80,0,0
29386,-45.4545454545455,4,2,1,80,0,0
29574,-90.9090909090909,4,2,1,80,0,0
33699,-45.4545454545455,4,2,1,80,0,0
33886,-90.9090909090909,4,2,1,80,0,0
34449,-83.3333333333333,4,2,1,80,0,0
35199,-76.9230769230769,4,2,1,80,0,0
35761,-90.9090909090909,4,2,1,80,0,0
37074,-83.3333333333333,4,2,1,80,0,0
37449,-125,4,2,1,50,0,0
42699,-100,4,2,1,50,0,0
43074,-83.3333333333333,4,2,1,80,0,0
43449,-125,4,2,1,50,0,0
49074,-100,4,2,1,80,0,0
49449,-100,4,2,1,50,0,0
49824,-100,4,2,1,80,0,0
50199,-100,4,2,1,50,0,0
50574,-83.3333333333333,4,2,1,80,0,0
52824,-50,4,2,1,70,0,0
53199,-100,4,2,1,70,0,0
53574,-66.6666666666667,4,2,1,90,0,0
57886,-80,4,2,1,90,0,0
58261,-40,4,2,1,90,0,0
58449,-57.1428571428571,4,2,1,90,0,0
58824,-66.6666666666667,4,2,1,90,0,0
59199,-100,4,2,1,90,0,0
59574,-66.6666666666667,4,2,1,90,0,0
62574,-57.1428571428571,4,2,1,90,0,0
63886,-50,4,2,1,90,0,0
64261,-66.6666666666667,4,2,1,90,0,0
70824,-80,4,2,1,90,0,0
71574,-100,4,2,1,70,0,0
76074,-66.6666666666667,4,2,1,70,0,0
77574,-50,4,2,1,85,0,0
77949,-100,4,2,1,60,0,0
82261,-100,4,2,1,60,0,0
82449,-100,4,2,1,60,0,0
83199,-100,4,2,1,70,0,0
83574,-50,4,2,1,80,0,0
83949,-100,4,2,1,60,0,0
89386,-50,4,2,1,60,0,0
89574,-26.6666666666667,4,2,1,80,0,0
89949,-80,4,2,1,70,0,0
95199,-133.333333333333,4,2,1,70,0,0
95574,-40,4,2,1,80,0,0
95949,-80,4,2,1,70,0,0
98574,-66.6666666666667,4,2,1,70,0,0
98949,-80,4,2,1,70,0,0
99324,-66.6666666666667,4,2,1,70,0,0
99699,-80,4,2,1,70,0,0
100824,-50,4,2,1,70,0,0
100886,-50,4,2,1,5,0,0
101011,-50,4,2,1,70,0,0
101074,-50,4,2,1,5,0,0
101199,-57.1428571428571,4,2,1,70,0,0
101386,-66.6666666666667,4,2,1,70,0,0
101574,-83.3333333333333,4,2,1,70,0,0
101949,-125,4,2,1,50,0,0
107199,-100,4,2,1,50,0,0
107574,-83.3333333333333,4,2,1,70,0,0
107949,-125,4,2,1,50,0,0
110574,-100,4,2,1,50,0,0
113011,-66.6666666666667,4,2,1,50,0,0
113199,-83.3333333333333,4,2,1,70,0,0
113574,-66.6666666666667,4,2,1,90,0,0
117886,-80,4,2,1,90,0,0
118449,-57.1428571428571,4,2,1,90,0,0
118824,-66.6666666666667,4,2,1,90,0,0
119199,-100,4,2,1,90,0,0
119574,-66.6666666666667,4,2,1,90,0,0
122574,-57.1428571428571,4,2,1,90,0,0
123886,-50,4,2,1,90,0,0
124261,-66.6666666666667,4,2,1,90,0,0
125199,-66.6666666666667,4,2,1,90,0,0
125574,-66.6666666666667,4,2,1,90,0,0
130824,-80,4,2,1,90,0,0
131199,-100,4,2,1,90,0,0
131574,-100,4,2,1,70,0,0
131949,-100,4,2,1,60,0,0
132324,-100,4,2,1,60,0,0
132511,-100,4,2,1,60,0,0
132699,-100,4,2,1,60,0,0
133074,-100,4,2,1,60,0,0
133542,-100,4,2,1,63,0,0
133636,-100,4,2,1,66,0,0
133730,-100,4,2,1,69,0,0
133824,-100,4,2,1,72,0,0
133917,-100,4,2,1,75,0,0
134011,-100,4,2,1,80,0,0
134199,-80,4,2,1,80,0,0
134574,-57.1428571428571,4,2,1,70,0,0
134949,-66.6666666666667,4,2,1,40,0,0
135324,-100,4,2,1,60,0,0
135886,-100,4,2,1,60,0,0
136074,-100,4,2,1,70,0,0
136402,-100,4,2,1,5,0,0
136449,-100,4,2,1,60,0,0
136777,-100,4,2,1,5,0,0
136824,-66.6666666666667,4,2,1,60,0,0
137199,-100,4,2,1,60,0,0
137574,-57.1428571428571,4,2,1,60,0,0
137949,-66.6666666666667,4,2,1,60,0,0
138136,-100,4,2,1,60,0,0
138324,-66.6666666666667,4,2,1,60,0,0
138511,-100,4,2,1,60,0,0
139074,-66.6666666666667,4,2,1,60,0,0
139824,-57.1428571428571,4,2,1,60,0,0
140949,-133.333333333333,4,2,1,60,0,0
141324,-66.6666666666667,4,2,1,60,0,0
142074,-100,4,2,1,60,0,0
143011,-80,4,2,1,60,0,0
143199,-66.6666666666667,4,2,1,60,0,0
143386,-100,4,2,1,60,0,0
143574,-57.1428571428571,4,2,1,60,0,0
143949,-100,4,2,1,60,0,0
145074,-66.6666666666667,4,2,1,60,0,0
146574,-200,4,2,1,60,0,0
148824,-100,4,2,1,60,0,0
149199,-200,4,2,1,60,0,0
151824,-100,4,2,1,60,0,0
154449,-200,4,2,1,60,0,0
154824,-100,4,2,1,60,0,0
162886,-50,4,2,1,60,0,0
163074,-100,4,2,1,60,0,0
164574,-80,4,2,1,60,0,0
167574,-66.6666666666667,4,2,1,60,0,0
169824,-57.1428571428571,4,2,1,60,0,0
170199,-200,4,2,1,60,0,0
170574,-50,4,2,1,60,0,0
172261,-50,4,2,1,60,0,0
173199,-100,4,2,1,60,0,0
173574,-50,4,2,1,60,0,0
179199,-200,4,2,1,60,0,0
179574,-50,4,2,1,60,0,0
181261,-133.333333333333,4,2,1,60,0,0
183886,-66.6666666666667,4,2,1,60,0,0
184074,-133.333333333333,4,2,1,60,0,0
186699,-100,4,2,1,60,0,0
187074,-133.333333333333,4,2,1,60,0,0
188199,-100,4,2,1,60,0,0
188574,-133.333333333333,4,2,1,60,0,0
189324,-100,4,2,1,60,0,0
190074,-200,4,2,1,60,0,0
191011,-66.6666666666667,4,2,1,60,0,0
192699,-25,4,2,1,60,0,0
193074,-100,4,2,1,60,0,0
194199,-50,4,2,1,60,0,0
194574,-66.6666666666667,4,2,1,60,0,0
195886,-80,4,2,1,90,0,0
196261,-40,4,2,1,90,0,0
196449,-57.1428571428571,4,2,1,90,0,0
196824,-66.6666666666667,4,2,1,90,0,0
197199,-100,4,2,1,90,0,0
197574,-66.6666666666667,4,2,1,90,0,0
200574,-57.1428571428571,4,2,1,90,0,0
201886,-50,4,2,1,90,0,0
202261,-25,4,2,1,90,0,0
202449,-50,4,2,1,90,0,0
203574,-66.6666666666667,4,2,1,90,0,0
203949,-200,4,2,1,90,0,0
204324,-66.6666666666667,4,2,1,90,0,0
204699,-200,4,2,1,90,0,0
205074,-66.6666666666667,4,2,1,90,0,0
205449,-200,4,2,1,90,0,0
205824,-66.6666666666667,4,2,1,90,0,0
206199,-200,4,2,1,90,0,0
206574,-66.6666666666667,4,2,1,90,0,0
208074,-33.3333333333333,4,2,1,90,0,0
208449,-66.6666666666667,4,2,1,90,0,0
209386,-50,4,2,1,90,0,0
209574,-66.6666666666667,4,2,1,90,0,0
212574,-57.1428571428571,4,2,1,90,0,0
214074,-80,4,2,1,90,0,0
215199,-50,4,2,1,90,0,0
215949,-400,4,2,1,90,0,0
216699,-1000,4,2,1,90,0,1
216745,-1000,4,2,1,90,0,0
216792,-1000,4,2,1,90,0,1
216839,-1000,4,2,1,90,0,0
216886,-1000,4,2,1,90,0,1
216933,-1000,4,2,1,90,0,0
216980,-1000,4,2,1,90,0,1
217027,-1000,4,2,1,90,0,0
217074,-1000,4,2,1,90,0,1
217120,-1000,4,2,1,90,0,0
217167,-1000,4,2,1,90,0,1
217214,-1000,4,2,1,90,0,0
217261,-1000,4,2,1,90,0,1
217308,-1000,4,2,1,90,0,0
217355,-1000,4,2,1,90,0,1
217402,-1000,4,2,1,90,0,0
217449,-1000,4,2,1,90,0,1
217495,-1000,4,2,1,90,0,0
217542,-1000,4,2,1,90,0,1
217589,-1000,4,2,1,90,0,0
217636,-1000,4,2,1,90,0,1
217683,-1000,4,2,1,90,0,0
217730,-1000,4,2,1,90,0,1
217777,-1000,4,2,1,90,0,0
217824,-1000,4,2,1,90,0,1
217870,-1000,4,2,1,90,0,0
217917,-1000,4,2,1,90,0,1
217964,-1000,4,2,1,90,0,0
218011,-1000,4,2,1,90,0,1
218058,-1000,4,2,1,90,0,0
218105,-1000,4,2,1,90,0,1
218152,-1000,4,2,1,90,0,0
218199,-1000,4,2,1,90,0,1
218245,-1000,4,2,1,90,0,0
218292,-1000,4,2,1,90,0,1
218339,-1000,4,2,1,90,0,0
218386,-1000,4,2,1,90,0,1
218433,-1000,4,2,1,90,0,0
218480,-1000,4,2,1,90,0,1
218527,-1000,4,2,1,90,0,0
218574,-1000,4,2,1,90,0,1
218620,-1000,4,2,1,90,0,0
218667,-1000,4,2,1,90,0,1
218714,-1000,4,2,1,90,0,0
218761,-1000,4,2,1,90,0,1
218808,-1000,4,2,1,90,0,0
218855,-1000,4,2,1,90,0,1
218902,-1000,4,2,1,90,0,0
218949,-1000,4,2,1,90,0,1
218995,-1000,4,2,1,90,0,0
219042,-1000,4,2,1,90,0,1
219089,-1000,4,2,1,90,0,0
219136,-1000,4,2,1,90,0,1
219183,-1000,4,2,1,90,0,0
219230,-1000,4,2,1,90,0,1
219277,-1000,4,2,1,90,0,0
219324,-1000,4,2,1,90,0,1
219370,-1000,4,2,1,90,0,0
219417,-1000,4,2,1,90,0,1
219464,-1000,4,2,1,90,0,0
219511,-1000,4,2,1,90,0,1
219558,-1000,4,2,1,90,0,0
219605,-1000,4,2,1,90,0,1
219652,-1000,4,2,1,90,0,0
219699,-1000,4,2,1,90,0,1
219745,-1000,4,2,1,90,0,0
219792,-1000,4,2,1,90,0,1
219839,-1000,4,2,1,90,0,0
219886,-1000,4,2,1,90,0,1
219933,-1000,4,2,1,90,0,0
219980,-1000,4,2,1,90,0,1
220027,-1000,4,2,1,90,0,0
220074,-1000,4,2,1,90,0,1
220120,-1000,4,2,1,90,0,0
220167,-1000,4,2,1,90,0,1
220214,-1000,4,2,1,90,0,0
220261,-1000,4,2,1,90,0,1
220308,-1000,4,2,1,90,0,0
220355,-1000,4,2,1,90,0,1
220402,-1000,4,2,1,90,0,0
220449,-1000,4,2,1,90,0,1
220495,-1000,4,2,1,90,0,0
220542,-1000,4,2,1,90,0,1
220589,-1000,4,2,1,90,0,0
220636,-1000,4,2,1,90,0,1
220683,-1000,4,2,1,90,0,0
220730,-1000,4,2,1,90,0,1
220777,-1000,4,2,1,90,0,0
220824,-1000,4,2,1,90,0,1
220870,-1000,4,2,1,90,0,0
220917,-1000,4,2,1,90,0,1
220964,-1000,4,2,1,90,0,0
221011,-1000,4,2,1,90,0,1
221058,-1000,4,2,1,90,0,0
221105,-1000,4,2,1,90,0,1
221152,-1000,4,2,1,90,0,0
221199,-1000,4,2,1,90,0,1
221261,-66.6666666666667,4,2,1,90,0,0
221574,-83.3333333333333,4,2,1,90,0,0
227199,-50,4,2,1,90,0,0
230199,-50,4,2,1,90,0,1
230480,-50,4,2,1,90,0,0

[Colours]
Combo1 : 26,240,149
Combo2 : 255,244,38
Combo3 : 17,249,255
Combo4 : 255,21,243
SliderBorder : 17,249,255

[HitObjects]
75,66,1074,6,0,B|132:72|132:72|150:87|150:87|211:93,1,141.000005378723,4|0,1:2|0:0,0:0:0:0:
210,93,1355,1,0,0:0:0:0:
210,93,1449,6,2,L|194:292,1,199.75,0|0,0:0|0:0,0:0:0:0:
189,305,3136,5,0,0:0:0:0:
122,270,3324,1,2,0:0:0:0:
62,330,3511,1,0,0:0:0:0:
129,365,3699,2,0,L|241:358,1,94,2|0,0:0|0:0,0:0:0:0:
436,318,4074,6,0,B|376:311|376:311|358:296|358:296|301:290,1,141.000005378723,4|0,1:2|0:0,0:0:0:0:
302,291,4355,1,0,0:0:0:0:
302,291,4449,6,2,L|309:192,1,94,2|0,0:0|0:0,0:0:0:0:
318,191,4730,1,0,0:0:0:0:
326,184,4824,5,0,3:0:0:0:
418,145,5199,2,0,L|413:72,1,70.5,0|0,0:0|0:0,0:0:0:0:
424,65,5386,2,0,L|466:61,2,23.5,0|0|0,3:0|3:0|3:0,0:0:0:0:
360,22,5574,5,0,0:0:0:0:
276,151,5761,1,0,3:0:0:0:
405,235,5949,1,2,3:2:0:0:
363,299,6136,1,0,0:0:0:0:
389,222,6324,5,8,0:0:0:0:
463,359,6511,2,0,P|490:368|473:348,1,70.5,0|0,3:0|0:0,0:0:0:0:
469,345,6886,2,0,B|472:314|472:314|470:307|470:307|473:276,1,70.5000026893617,8|0,3:2|3:0,0:0:0:0:
484,125,7074,5,4,1:2:0:0:
489,49,7261,1,0,0:0:0:0:
489,49,7355,1,0,0:0:0:0:
489,49,7449,2,0,L|378:41,1,75.2,0|0,1:0|3:0,0:0:0:0:
400,51,7730,1,0,3:0:0:0:
394,37,7824,2,0,L|283:29,1,75.2,0|0,1:0|3:0,0:0:0:0:
179,87,8199,1,12,1:0:0:0:
246,27,8386,2,0,L|244:54,1,18.8,0|0,3:0|3:0,0:0:0:0:
249,49,8480,2,0,L|247:76,1,18.8,0|0,3:0|0:0,0:0:0:0:
252,71,8574,6,0,L|244:182,1,75.2,0|0,1:0|3:0,0:0:0:0:
241,160,8855,1,0,3:0:0:0:
235,173,8949,1,0,1:0:0:0:
229,248,9136,1,0,3:0:0:0:
223,323,9324,1,0,1:0:0:0:
245,235,9511,5,0,3:0:0:0:
155,248,9699,1,12,1:0:0:0:
56,262,9886,1,0,0:0:0:0:
138,135,10074,6,0,L|133:259,1,94,0|0,1:0|3:0,0:0:0:0:
33,372,10449,2,0,L|36:278,1,94,0|0,1:0|3:0,0:0:0:0:
11,103,10824,2,0,B|0:140|0:206,1,94,0|0,1:0|3:0,0:0:0:0:
0,196,11105,1,0,3:0:0:0:
0,196,11199,2,0,P|102:184|224:200,1,211.500008068085,12|0,1:0|3:0,0:0:0:0:
282,239,11574,6,0,B|278:274,2,35.2500013446808,0|2|2,1:0|0:0|0:0,0:0:0:0:
358,211,11761,2,0,B|354:175,2,35.2500013446808,2|2|2,0:0|0:0|0:0,0:0:0:0:
434,239,11949,2,0,B|430:274,2,35.2500013446808,2|2|2,0:0|0:0|0:0,0:0:0:0:
510,211,12136,2,0,B|506:175,2,35.2500013446808,2|2|2,0:0|0:0|0:0,0:0:0:0:
451,255,12324,6,0,B|231:283|325:131|94:161,1,376,4|4,0:1|1:0,0:0:0:0:
46,218,13261,5,2,0:1:0:0:
46,218,13636,5,2,0:1:0:0:
46,218,14011,5,2,0:1:0:0:
46,218,14386,5,2,0:1:0:0:
56,131,14574,5,0,1:0:0:0:
63,48,14761,1,2,0:0:0:0:
146,55,14949,1,0,1:0:0:0:
138,138,15136,1,2,0:0:0:0:
116,69,15324,5,0,1:1:0:0:
142,142,15511,1,2,0:0:0:0:
215,116,15699,2,0,P|235:104|268:75,1,47,4|0,1:2|0:0,0:0:0:0:
345,9,15886,6,0,B|343:40|343:40|346:48|346:48|343:78,1,70.5000026893617,0|0,0:0|0:0,0:0:0:0:
338,211,16074,5,0,1:0:0:0:
338,211,16261,2,0,P|311:231|280:264,1,56.3999982788086,2|0,0:1|0:0,0:0:0:0:
328,323,16449,5,0,1:0:0:0:
328,323,16636,2,0,P|294:326|251:339,1,56.3999982788086,2|0,0:1|0:0,0:0:0:0:
399,268,16824,5,0,1:0:0:0:
399,268,17011,2,0,P|430:255|468:231,1,56.3999982788086,2|0,0:1|0:0,0:0:0:0:
492,167,17199,5,0,1:0:0:0:
492,167,17386,2,0,P|464:166|437:162,1,56.3999982788086,2|0,0:1|0:0,0:0:0:0:
384,90,17574,5,0,1:0:0:0:
404,18,17761,1,2,0:0:0:0:
404,18,17855,1,0,0:0:0:0:
404,18,17949,1,0,1:0:0:0:
319,0,18136,1,2,0:0:0:0:
245,41,18324,6,0,L|180:53,1,47,0|0,1:0|0:0,0:0:0:0:
159,36,18511,1,8,0:0:0:0:
100,94,18699,2,0,L|91:140,1,47,4|0,1:2|0:0,0:0:0:0:
55,221,18886,6,0,B|85:227|85:227|92:232|92:232|121:237,1,70.5000026893617,8|0,0:0|0:0,0:0:0:0:
231,266,19074,1,0,1:0:0:0:
231,266,19261,5,2,0:0:0:0:
192,196,19449,1,2,1:2:0:0:
134,251,19636,1,2,0:0:0:0:
166,368,19824,5,0,1:0:0:0:
179,291,20011,1,2,0:2:0:0:
89,275,20199,1,2,1:2:0:0:
179,291,20386,1,2,0:0:0:0:
269,307,20574,6,0,P|314:305|375:293,1,94,0|2,1:0|0:2,0:0:0:0:
446,183,20949,2,0,P|401:185|340:197,1,94,0|2,1:0|0:2,0:0:0:0:
345,348,21324,1,2,1:2:0:0:
354,287,21511,2,0,B|348:334,1,47,8|0,0:2|0:0,0:0:0:0:
421,373,21699,2,0,B|434:280,1,94,8|8,1:2|0:0,0:0:0:0:
434,280,21980,1,0,0:0:0:0:
434,280,22074,5,0,1:0:0:0:
493,119,22355,1,2,0:0:0:0:
332,60,22636,1,2,0:0:0:0:
285,125,22824,5,0,1:0:0:0:
395,106,23011,1,2,0:0:0:0:
411,102,23105,1,2,0:0:0:0:
415,118,23199,1,0,1:0:0:0:
434,229,23386,2,0,B|406:236|406:236|395:233|395:233|364:241,1,70.5000026893617,2|0,0:0|0:0,0:0:0:0:
228,274,23574,5,0,1:0:0:0:
282,194,23761,1,2,0:0:0:0:
291,186,23855,2,0,P|295:209|291:245,1,47,2|0,0:0|1:0,0:0:0:0:
310,303,24042,1,0,0:0:0:0:
321,300,24136,2,0,P|312:321|291:351,1,47,2|0,0:0|0:0,0:0:0:0:
204,382,24324,1,0,1:0:0:0:
195,363,24417,2,0,L|101:360,1,94,0|0,1:0|1:0,0:0:0:0:
7,352,24699,2,0,P|-7:338|10:347,1,47,12|0,1:0|0:0,0:0:0:0:
0,344,25074,5,4,1:2:0:0:
73,278,25261,1,2,0:0:0:0:
73,278,25355,1,0,0:0:0:0:
73,278,25449,1,0,1:0:0:0:
33,207,25636,1,2,0:0:0:0:
62,132,25824,2,0,P|67:82|65:29,1,103.400003155518,2|2,1:2|0:0,0:0:0:0:
238,0,26199,2,0,P|233:50|235:103,1,103.400003155518,0|2,1:0|0:0,0:0:0:0:
303,175,26574,5,2,1:2:0:0:
158,139,26761,1,2,0:0:0:0:
211,198,26949,1,0,1:2:0:0:
250,116,27136,1,2,0:0:0:0:
234,160,27324,5,0,1:0:0:0:
227,166,27511,2,0,P|238:150|233:169,1,51.7000015777588,8|0,0:2|0:0,0:0:0:0:
194,274,27699,1,0,1:0:0:0:
201,288,27792,1,0,0:0:0:0:
208,302,27886,6,0,L|312:298,1,103.400003155518,8|0,0:0|1:0,0:0:0:0:
442,376,28261,2,0,L|467:374,1,25.8500007888794,2|0,0:0|0:0,0:0:0:0:
473,367,28449,2,0,L|369:371,1,103.400003155518,0|2,1:0|0:0,0:0:0:0:
361,347,28730,1,2,0:0:0:0:
383,337,28824,5,0,1:0:0:0:
416,261,29011,1,2,0:0:0:0:
457,166,29199,1,0,1:0:0:0:
490,90,29386,2,0,L|488:53,4,25.8500007888794,2|0|0|0|0,0:0|0:0|0:0|0:0|0:0,0:0:0:0:
504,114,29574,6,0,P|452:112|400:115,1,103.400003155518,0|2,1:0|0:0,0:0:0:0:
251,187,29949,2,0,P|292:189|403:178,1,103.400003155518,2|2,1:2|0:0,0:0:0:0:
418,40,30324,5,0,1:0:0:0:
341,8,30511,2,0,P|245:15|197:112,1,206.800006311035,8|8,0:0|0:0,0:0:0:0:
196,104,30980,1,0,0:0:0:0:
196,104,31074,5,0,1:0:0:0:
255,47,31261,1,2,0:0:0:0:
241,25,31355,1,0,0:0:0:0:
228,4,31449,6,0,L|211:243,1,206.800006311035,2|2,1:2|1:2,0:0:0:0:
243,277,32011,1,0,0:0:0:0:
228,201,32199,2,0,P|174:207|130:232,1,103.400003155518,0|2,1:0|0:0,0:0:0:0:
131,230,32480,1,2,0:0:0:0:
131,230,32574,5,0,1:0:0:0:
114,249,32667,1,0,0:0:0:0:
88,251,32761,2,0,B|81:302,1,51.7000015777588,2|0,0:0|0:0,0:0:0:0:
6,295,32949,2,0,B|20:192,1,103.400003155518,2|2,1:2|0:0,0:0:0:0:
84,74,33324,1,0,1:0:0:0:
0,90,33511,1,0,0:0:0:0:
84,74,33699,2,0,B|105:56|105:56|59:57,1,51.7000015777588,0|0,1:0|0:0,0:0:0:0:
10,101,33886,5,2,0:0:0:0:
145,152,34074,2,0,B|193:145|250:124,1,103.400003155518,0|2,1:0|0:0,0:0:0:0:
245,126,34355,1,0,0:0:0:0:
245,126,34449,2,0,P|244:177|236:241,1,112.799996557617,0|2,1:0|0:0,0:0:0:0:
340,368,34824,2,0,P|332:312|331:255,1,112.799996557617,0|2,1:0|0:0,0:0:0:0:
386,13,35199,2,0,P|384:68|376:137,1,122.199994406128,0|2,1:0|0:0,0:0:0:0:
258,309,35574,1,0,1:0:0:0:
183,338,35761,5,0,0:1:0:0:
183,338,35949,1,0,1:0:0:0:
183,338,36136,1,0,0:0:0:0:
101,360,36324,1,0,1:0:0:0:
101,360,36417,1,0,0:0:0:0:
101,360,36511,1,0,0:0:0:0:
244,384,36699,1,12,1:0:0:0:
484,212,37074,6,0,P|486:117|480:-1,1,197.39999397583,4|0,0:0|0:0,0:0:0:0:
481,14,37449,1,8,0:0:0:0:
451,92,37636,1,0,1:0:0:0:
451,92,37730,1,0,0:0:0:0:
451,92,37824,1,0,0:0:0:0:
373,62,38011,2,0,P|372:94|375:162,1,75.2,0|8,1:0|0:0,0:0:0:0:
377,148,38386,1,0,1:0:0:0:
401,217,38574,6,0,L|350:221,1,37.6,0|0,1:0|0:0,0:0:0:0:
301,178,38761,2,0,L|250:182,1,37.6,0|0,1:0|0:0,0:0:0:0:
198,217,38949,1,10,0:0:0:0:
198,217,39136,2,0,L|199:119,1,75.2,0|0,1:0|0:0,0:0:0:0:
236,76,39511,2,0,L|159:81,1,75.2,0|8,1:0|0:0,0:0:0:0:
157,91,39886,1,0,1:0:0:0:
100,33,40074,5,0,1:0:0:0:
96,46,40261,1,0,0:0:0:0:
92,59,40449,1,8,0:0:0:0:
18,26,40636,5,0,1:0:0:0:
25,103,40824,2,0,P|28:172|21:276,1,150.4,0|8,0:0|0:0,0:0:0:0:
9,326,41386,1,0,1:0:0:0:
9,326,41574,6,0,L|60:322,1,37.6,0|0,3:0|0:0,0:0:0:0:
107,366,41761,2,0,L|158:362,1,37.6,2|0,1:0|0:0,0:0:0:0:
219,335,41949,2,0,B|258:332|292:346,1,75.2,2|2,3:0|1:0,0:0:0:0:
293,347,42230,1,0,0:0:0:0:
293,347,42324,2,0,L|299:206,1,131.6,0|0,0:0|0:0,0:0:0:0:
310,207,42699,2,0,L|308:258,1,47,2|0,1:0|0:0,0:0:0:0:
368,299,42886,1,0,3:0:0:0:
475,378,43074,6,0,P|473:283|479:165,1,197.39999397583,4|0,0:2|0:0,0:0:0:0:
478,180,43449,1,8,0:0:0:0:
512,262,43636,1,0,1:0:0:0:
512,262,43730,1,0,0:0:0:0:
512,262,43824,1,0,0:0:0:0:
435,308,44011,1,0,1:0:0:0:
397,153,44199,2,0,P|399:202|398:251,1,75.2,8|0,0:0|1:0,0:0:0:0:
503,71,44573,5,0,1:0:0:0:
503,71,44667,1,0,0:0:0:0:
503,71,44761,2,0,L|393:77,1,75.2,0|8,3:0|0:0,0:0:0:0:
302,30,45136,1,0,1:0:0:0:
292,102,45324,1,0,0:0:0:0:
167,57,45511,1,0,1:0:0:0:
167,57,45699,1,8,0:0:0:0:
228,9,45886,1,0,1:0:0:0:
154,49,46074,6,0,L|146:157,1,75.2,0|0,1:0|0:0,0:0:0:0:
232,222,46449,2,0,L|227:148,1,75.2,8|0,0:0|1:0,0:0:0:0:
125,302,46824,2,0,L|199:296,1,75.2,0|0,0:0|1:0,0:0:0:0:
298,224,47199,2,0,L|223:218,1,75.2,8|0,0:0|1:0,0:0:0:0:
65,205,47574,5,0,3:0:0:0:
142,175,47761,1,0,1:0:0:0:
112,98,47949,1,8,0:0:0:0:
35,128,48136,1,0,1:0:0:0:
117,137,48323,5,0,0:0:0:0:
106,235,48511,2,0,P|102:266|106:330,1,75.2,4|8,3:0|3:0,0:0:0:0:
151,367,48886,1,4,3:0:0:0:
260,344,49074,6,0,L|167:349,1,94,4|0,1:2|0:0,0:0:0:0:
38,356,49449,1,2,3:0:0:0:
34,280,49636,1,0,1:0:0:0:
162,273,49824,2,0,L|255:268,1,94,4|0,1:2|0:0,0:0:0:0:
384,261,50199,1,2,3:0:0:0:
390,233,50386,1,0,1:0:0:0:
325,98,50574,6,0,P|313:153|314:210,1,112.799996557617,4|0,1:2|0:0,0:0:0:0:
460,284,50949,2,0,P|471:229|472:173,1,112.799996557617,4|0,1:2|0:0,0:0:0:0:
416,53,51324,1,4,1:2:0:0:
416,53,51511,1,0,1:0:0:0:
460,179,51699,1,4,1:2:0:0:
471,104,51886,1,0,1:0:0:0:
316,72,52074,5,4,1:0:0:0:
212,62,52824,2,0,P|224:48|221:67,1,47,2|0,3:0|0:0,0:0:0:0:
130,60,53011,1,0,3:0:0:0:
105,36,53105,1,0,3:0:0:0:
136,28,53199,5,0,1:0:0:0:
39,71,53386,5,0,0:0:0:0:
107,95,53574,6,0,L|93:376,2,282.000010757447,4|4|4,1:2|1:2|1:2,0:0:0:0:
69,161,54511,1,2,1:2:0:0:
150,180,54699,1,0,1:0:0:0:
120,303,54886,1,2,1:2:0:0:
39,284,55074,6,0,L|261:257,1,211.500008068085,4|0,1:2|0:0,0:0:0:0:
298,194,55449,2,0,L|508:220,1,211.500008068085,4|0,1:2|0:0,0:0:0:0:
497,238,55824,1,4,1:2:0:0:
442,173,56011,1,2,1:2:0:0:
356,247,56199,1,0,1:0:0:0:
430,333,56386,1,2,1:2:0:0:
512,140,56574,6,0,P|476:83|405:82,1,141.000005378723,0|0,1:0|0:0,0:0:0:0:
394,88,56855,1,0,0:0:0:0:
387,100,56949,1,2,1:0:0:0:
512,140,57136,1,2,1:0:0:0:
469,41,57324,1,2,1:2:0:0:
296,117,57511,2,0,B|260:118|214:97,1,70.5000026893617,2|2,0:1|1:2,0:0:0:0:
150,47,57699,1,2,1:2:0:0:
150,47,57886,6,0,B|143:101|143:101|149:107|149:107|142:162,1,117.5,0|0,1:1|0:0,0:0:0:0:
43,265,58261,1,2,1:0:0:0:
50,254,58355,1,0,0:0:0:0:
57,243,58449,2,0,P|92:227|126:253,1,82.2500007843971,2|0,1:2|0:0,0:0:0:0:
160,334,58636,2,0,P|191:357|227:341,1,82.2500007843971,2|0,1:0|0:0,0:0:0:0:
291,273,58824,2,0,P|358:286|431:324,1,141.000005378723,2|2,1:2|1:0,0:0:0:0:
436,334,59105,1,0,1:0:0:0:
441,346,59199,1,2,1:0:0:0:
491,267,59386,6,0,L|495:235,1,23.5,0|0,1:0|0:0,0:0:0:0:
475,248,59480,2,0,L|471:216,1,23.5,0|0,0:0|0:0,0:0:0:0:
485,215,59574,6,0,P|461:116|365:81,1,211.500008068085,4|0,1:2|0:0,0:0:0:0:
312,137,59949,2,0,P|253:219|151:218,1,211.500008068085,4|0,1:2|0:0,0:0:0:0:
106,154,60324,1,4,1:2:0:0:
187,121,60511,1,2,1:2:0:0:
139,235,60699,1,0,1:0:0:0:
25,187,60886,1,2,1:2:0:0:
71,75,61074,5,4,1:2:0:0:
71,75,61261,1,0,0:0:0:0:
149,52,61449,2,0,L|134:344,1,282.000010757447,4|0,1:2|1:2,0:0:0:0:
61,358,62011,1,2,1:0:0:0:
188,255,62199,1,0,1:0:0:0:
291,382,62386,1,2,1:0:0:0:
361,346,62574,6,0,L|369:181,1,164.500001568794,2|0,1:0|1:0,0:0:0:0:
313,127,62855,1,0,0:0:0:0:
309,106,62948,1,4,1:2:0:0:
384,162,63136,1,0,0:0:0:0:
235,150,63324,6,0,L|243:314,1,164.500001568794,2|0,1:0|1:0,0:0:0:0:
188,369,63605,1,0,0:0:0:0:
169,360,63698,1,4,1:2:0:0:
457,374,63886,6,0,P|465:233|454:93,1,282,2|0,1:0|0:0,0:0:0:0:
416,29,64261,2,0,L|477:16,2,35.2500013446808,2|0|0,3:1|0:0|3:0,0:0:0:0:
304,113,64449,1,0,3:0:0:0:
220,1,64636,1,2,1:0:0:0:
293,184,64824,1,2,1:0:0:0:
380,99,65011,5,4,3:0:0:0:
368,82,65105,1,4,3:0:0:0:
356,65,65199,1,8,3:0:0:0:
235,80,65386,1,4,3:0:0:0:
138,5,65574,6,0,L|56:17,1,70.5000026893617,4|0,1:2|0:0,0:0:0:0:
16,75,65761,1,0,0:0:0:0:
29,92,65855,1,0,0:0:0:0:
42,109,65949,6,0,L|45:191,1,70.5000026893617,2|0,1:0|0:0,0:0:0:0:
123,251,66136,2,0,L|125:180,1,70.5000026893617,2|0,0:1|0:0,0:0:0:0:
162,111,66324,1,0,1:0:0:0:
182,126,66417,1,0,0:0:0:0:
202,141,66511,1,2,0:0:0:0:
222,156,66605,1,0,1:0:0:0:
242,171,66699,6,0,L|313:169,1,70.5000026893617,2|0,1:0|0:0,0:0:0:0:
365,254,66886,2,0,L|294:252,1,70.5000026893617,2|0,1:0|0:0,0:0:0:0:
217,249,67074,1,0,1:0:0:0:
217,249,67167,1,0,0:0:0:0:
217,249,67261,1,0,0:0:0:0:
196,264,67355,1,0,0:0:0:0:
178,280,67449,6,0,L|172:350,1,70.5000026893617,2|0,1:1|0:0,0:0:0:0:
253,375,67636,2,0,L|323:370,1,70.5000026893617,2|0,0:1|0:0,0:0:0:0:
401,328,67824,1,0,1:0:0:0:
401,328,67917,1,0,0:0:0:0:
401,328,68011,1,2,0:1:0:0:
425,313,68105,1,0,1:0:0:0:
452,318,68199,6,0,L|455:238,1,70.5000026893617,2|0,1:0|0:0,0:0:0:0:
507,163,68386,2,2,L|505:93,1,70.5000026893617,2|0,1:0|0:0,0:0:0:0:
435,20,68574,1,0,1:0:0:0:
409,9,68667,1,0,0:0:0:0:
374,8,68761,1,0,0:0:0:0:
345,28,68855,1,0,0:0:0:0:
333,61,68949,6,0,L|242:56,1,70.5000026893617,2|0,1:0|0:0,0:0:0:0:
185,158,69136,2,0,L|276:153,1,70.5000026893617,2|0,0:1|0:0,0:0:0:0:
360,139,69324,1,0,1:0:0:0:
386,149,69417,1,0,0:0:0:0:
410,173,69511,1,0,0:0:0:0:
417,207,69605,1,0,1:0:0:0:
402,239,69699,6,0,L|397:330,1,70.5000026893617,2|0,1:0|0:0,0:0:0:0:
309,238,69886,2,0,P|220:247|135:332,1,211.500008068085,2|0,1:0|0:0,0:0:0:0:
129,317,70261,2,0,L|126:279,2,35.2500013446808,2|0|0,3:2|0:0|0:0,0:0:0:0:
218,272,70449,2,0,L|197:240,2,35.2500013446808,2|0|0,1:1|0:0|0:0,0:0:0:0:
210,349,70636,2,0,L|207:384,2,35.2500013446808,0|0|0,3:1|0:0|0:0,0:0:0:0:
60,361,70824,6,0,B|28:356|28:356|39:371,2,39.1666666666667,8|8|8,3:0|3:0|3:0,0:0:0:0:
48,284,71011,2,0,B|16:279|16:279|27:294,2,39.1666666666667,4|4|4,3:0|3:0|3:0,0:0:0:0:
48,284,71199,2,0,P|66:180|88:107,1,176.25,12|0,1:0|0:0,0:0:0:0:
160,62,71574,6,0,B|317:51,1,141,4|0,3:1|0:0,0:0:0:0:
376,24,71949,2,0,B|367:149,1,94,2|0,3:0|0:0,0:0:0:0:
380,132,72230,1,0,0:0:0:0:
390,146,72324,1,2,3:0:0:0:
470,58,72511,2,0,L|473:122,1,47,0|0,0:0|3:0,0:0:0:0:
473,105,72699,2,0,P|469:150|471:222,1,94,2|2,3:0|3:0,0:0:0:0:
489,324,73074,5,0,3:0:0:0:
428,275,73261,2,0,P|392:269|418:293,2,94,2|2|2,3:0|3:0|3:0,0:0:0:0:
484,333,73824,2,0,L|481:366,1,23.5,2|0,3:0|0:0,0:0:0:0:
490,351,73917,2,0,L|337:365,1,141,0|2,0:0|3:0,0:0:0:0:
331,282,74292,1,0,0:0:0:0:
331,282,74386,2,0,P|312:272|305:292,1,47,0|0,0:0|0:0,0:0:0:0:
345,352,74574,6,0,P|287:334|183:349,1,141,0|0,3:0|0:0,0:0:0:0:
139,379,74949,2,0,L|37:373,1,94,2|0,3:0|0:0,0:0:0:0:
4,308,75230,1,0,0:0:0:0:
0,292,75324,6,0,B|-3:261|-3:261|32:296,1,47,2|0,3:0|0:0,0:0:0:0:
118,292,75511,2,0,B|121:261|121:261|86:296,1,47,0|0,3:0|3:0,0:0:0:0:
100,286,75699,1,2,3:0:0:0:
60,211,75886,1,2,3:0:0:0:
28,140,76074,6,0,L|40:-8,1,141.000005378723,2|2,0:0|0:0,0:0:0:0:
25,17,76449,5,0,3:0:0:0:
48,33,76542,1,2,0:0:0:0:
71,49,76636,1,0,3:0:0:0:
94,65,76730,1,2,0:0:0:0:
116,80,76824,6,0,P|138:92|121:74,1,70.5000026893617,0|0,3:0|0:0,0:0:0:0:
281,75,77011,2,0,P|258:86|275:68,1,70.5000026893617,0|2,3:0|0:0,0:0:0:0:
246,137,77199,2,0,B|229:166|229:193|229:193|215:167|206:157|206:157|197:174|180:197|180:197|174:166|145:131,1,211.500008068085,2|0,1:3|0:0,0:0:0:0:
113,230,77574,6,0,B|266:174|228:281|370:332,1,282,4|0,1:0|0:0,0:0:0:0:
343,339,77949,6,0,P|370:314|351:344,1,94,2|0,0:3|0:0,0:0:0:0:
266,365,78324,1,8,3:1:0:0:
452,326,78605,2,0,P|455:252|454:231,1,94,2|0,0:3|0:0,0:0:0:0:
392,193,78886,5,2,0:3:0:0:
392,193,78980,1,0,0:0:0:0:
392,193,79074,1,0,1:0:0:0:
397,175,79167,1,0,0:0:0:0:
448,120,79355,1,0,0:0:0:0:
443,102,79448,1,0,1:0:0:0:
392,47,79636,1,2,0:3:0:0:
512,67,79824,5,8,0:1:0:0:
323,82,80105,2,0,B|235:77|235:77|221:86|221:86|209:65,1,117.5,2|0,0:3|0:0,0:0:0:0:
207,81,80386,2,0,P|217:66|214:84,1,47,0|0,0:0|0:0,0:0:0:0:
179,148,80574,5,0,1:0:0:0:
162,140,80667,1,0,0:0:0:0:
143,143,80761,1,0,0:0:0:0:
137,151,80855,1,0,0:0:0:0:
131,159,80949,2,0,L|126:273,1,94,2|0,0:3|0:0,0:0:0:0:
163,366,81324,2,0,L|165:319,1,47,8|0,0:1|0:0,0:0:0:0:
180,331,81511,2,0,L|86:326,1,94,0|0,0:0|0:0,0:0:0:0:
73,322,81792,5,0,0:0:0:0:
87,316,81886,1,2,0:3:0:0:
93,330,81980,1,0,0:0:0:0:
79,336,82074,1,0,1:0:0:0:
44,255,82261,2,0,B|38:240|38:240|52:234|52:234|58:249,1,47,2|0,0:3|0:0,0:0:0:0:
58,268,82449,5,0,1:0:0:0:
50,244,82542,1,0,0:0:0:0:
42,220,82636,1,2,0:3:0:0:
50,196,82730,1,0,0:0:0:0:
58,172,82824,1,8,0:1:0:0:
85,103,83011,1,0,0:0:0:0:
0,25,83199,1,2,3:0:0:0:
8,49,83293,1,0,0:0:0:0:
20,77,83387,1,0,0:0:0:0:
23,81,83574,6,0,P|174:101|227:144,1,188,4|0,1:0|0:0,0:0:0:0:
266,205,83855,1,0,0:0:0:0:
266,205,83949,6,0,L|259:292,1,70.5,2|0,0:3|0:0,0:0:0:0:
242,282,84136,2,0,B|262:283|262:283|256:285|256:285|275:286,1,47,0|0,0:0|0:0,0:0:0:0:
285,281,84324,2,0,B|182:275|182:275|156:302,1,141,8|2,0:1|0:3,0:0:0:0:
120,367,84699,2,0,B|122:387|122:387|147:377,1,47,0|0,0:0|0:0,0:0:0:0:
155,302,84886,1,2,0:3:0:0:
173,306,84980,1,0,0:0:0:0:
191,310,85074,5,0,1:0:0:0:
207,326,85167,1,0,0:0:0:0:
223,342,85261,2,0,B|269:344,1,47,2|0,0:3|0:0,0:0:0:0:
355,346,85449,1,0,1:0:0:0:
359,350,85636,1,0,0:0:0:0:
360,331,85730,1,0,0:0:0:0:
363,312,85824,6,0,L|359:285,1,23.5,8|0,0:1|0:0,0:0:0:0:
446,336,86011,1,0,0:0:0:0:
446,336,86105,2,0,P|440:284|444:218,1,117.5,2|0,0:3|0:0,0:0:0:0:
457,216,86386,2,0,P|468:211|492:193,2,23.5
405,151,86574,5,0,1:0:0:0:
390,140,86667,1,0,0:0:0:0:
372,136,86761,1,0,0:0:0:0:
265,178,86949,1,2,0:3:0:0:
283,174,87043,1,0,0:0:0:0:
298,163,87136,2,0,L|306:48,1,94,0|8,0:0|0:1,0:0:0:0:
321,58,87417,5,0,0:0:0:0:
304,48,87511,1,0,0:0:0:0:
287,38,87605,1,2,0:3:0:0:
270,28,87699,2,0,L|424:39,1,141,0|0,0:0|0:0,0:0:0:0:
427,29,88074,5,0,1:0:0:0:
389,112,88261,1,2,0:0:0:0:
206,95,88449,1,0,1:0:0:0:
200,64,88542,1,0,3:0:0:0:
194,33,88636,1,2,0:0:0:0:
191,5,88730,1,0,3:0:0:0:
216,16,88824,5,8,0:1:0:0:
168,74,89011,1,2,0:0:0:0:
120,132,89199,1,2,0:0:0:0:
72,189,89386,2,0,P|51:212|78:194,1,94,2|0,0:0|0:0,0:0:0:0:
230,159,89574,6,0,B|248:157|248:157|256:160|256:160|273:158,12,44.0625010505319,4|0|0|0|0|0|0|0|0|0|0|0|0,1:0|0:0|0:0|0:0|0:0|0:0|0:0|0:0|0:0|0:0|0:0|0:0|0:0,0:0:0:0:
252,143,89949,6,0,P|242:201|239:260,8,117.5,2|0|2|4|2|0|4|2|2,3:2|3:0|3:2|1:3|3:2|3:0|1:3|3:2|3:2,0:0:0:0:
325,113,91636,6,0,L|395:110,1,58.75,0|0,0:0|0:0,0:0:0:0:
378,185,91824,2,0,L|448:182,1,58.75,0|0,1:0|0:0,0:0:0:0:
431,257,92011,2,0,L|501:254,1,58.75,4|0,1:3|0:0,0:0:0:0:
459,173,92199,2,0,P|449:263|452:365,1,176.25,2|0,0:1|3:0,0:0:0:0:
466,358,92574,6,0,B|408:313|379:386|295:365,1,176.25,4|0,1:3|0:0,0:0:0:0:
245,297,92949,1,2,3:2:0:0:
245,297,93136,1,0,0:0:0:0:
134,383,93324,1,2,3:2:0:0:
134,383,93511,1,4,1:3:0:0:
164,295,93699,5,2,3:2:0:0:
81,314,93886,1,2,0:0:0:0:
164,295,94074,2,0,L|157:231,1,58.75,4|0,1:3|0:0,0:0:0:0:
85,318,94261,2,0,L|78:254,1,58.75,2|0,0:0|0:0,0:0:0:0:
68,128,94449,2,0,L|62:187,1,58.75,2|0,3:2|0:0,0:0:0:0:
6,240,94636,5,0,0:0:0:0:
6,240,94824,1,0,1:0:0:0:
42,168,95011,1,4,1:3:0:0:
88,90,95199,2,0,P|106:61|77:86,1,105.750004034043,0|0,0:0|0:0,0:0:0:0:
115,19,95574,6,0,B|229:28|229:28|238:33|238:33|362:40,1,235,4|0,1:2|0:0,0:0:0:0:
421,15,95855,1,0,0:0:0:0:
435,25,95949,6,0,B|431:86,1,58.75,4|0,1:3|3:0,0:0:0:0:
497,133,96136,2,0,B|463:183,1,58.75,2|2,3:2|3:2,0:0:0:0:
390,225,96324,1,4,1:3:0:0:
361,226,96417,1,2,3:2:0:0:
333,217,96511,1,0,3:2:0:0:
308,202,96605,1,2,3:2:0:0:
291,177,96699,1,4,1:3:0:0:
291,177,96792,2,0,B|297:146,2,29.375,0|0|2,3:0|0:0|3:2,0:0:0:0:
318,251,96980,1,2,3:2:0:0:
318,251,97074,6,0,P|259:253|208:282,1,117.5,4|0,1:3|3:0,0:0:0:0:
239,350,97355,1,2,3:2:0:0:
251,341,97449,2,0,P|200:312|141:309,1,117.5,4|2,1:3|3:2,0:0:0:0:
85,357,97730,1,2,3:2:0:0:
93,370,97824,2,0,L|21:365,1,58.75,4|2,1:3|3:2,0:0:0:0:
0,300,98011,1,0,3:0:0:0:
107,226,98199,2,0,L|35:231,1,58.75,4|0,1:3|0:0,0:0:0:0:
14,296,98386,2,0,L|10:341,2,29.375,2|0|2,3:2|0:0|0:2,0:0:0:0:
80,260,98574,6,0,B|82:180|78:119,1,141.000005378723,4|2,1:3|0:1,0:0:0:0:
83,116,98949,2,0,L|167:112,1,58.75,4|0,1:3|0:0,0:0:0:0:
165,40,99136,2,0,L|249:44,1,58.75,2|0,0:1|0:0,0:0:0:0:
296,118,99324,2,0,B|368:107|435:111,1,141.000005378723,4|2,1:3|0:1,0:0:0:0:
437,112,99699,2,0,L|441:28,1,58.75,4|0,1:3|0:0,0:0:0:0:
498,162,99886,2,0,L|494:246,1,58.75,2|0,0:1|0:0,0:0:0:0:
435,275,100074,6,0,P|356:305|288:290,1,117.5,4|2,3:0|0:0,0:0:0:0:
301,296,100355,1,2,0:0:0:0:
289,280,100449,2,0,P|369:282|395:299,1,58.75,2|2,3:2|3:2,0:0:0:0:
425,298,100636,2,0,P|479:357|487:387,1,58.75,2|2,3:2|3:2,0:0:0:0:
365,384,100824,6,0,P|355:351|377:377,1,94,2|0,0:3|0:0,0:0:0:0:
238,380,101011,2,0,P|254:350|251:384,1,94,2|0,0:3|0:0,0:0:0:0:
163,339,101199,2,0,B|150:317|133:310|133:310|150:317|174:314,2,82.2500007843971,2|2|2,0:3|0:3|0:3,0:0:0:0:
250,367,101480,1,0,0:0:0:0:
250,367,101574,6,0,P|250:231|259:146,1,197.39999397583,4|0,0:2|0:0,0:0:0:0:
255,169,101949,1,8,0:0:0:0:
217,240,102136,1,0,1:0:0:0:
217,240,102230,1,0,0:0:0:0:
217,240,102324,1,0,0:0:0:0:
144,192,102511,1,0,1:0:0:0:
189,49,102699,2,0,P|190:86|188:124,1,75.2,8|0,0:0|1:0,0:0:0:0:
79,120,103074,6,0,L|123:118,1,37.6,0|0,1:0|0:0,0:0:0:0:
192,128,103261,2,0,L|236:126,1,37.6,0|0,1:0|0:0,0:0:0:0:
283,72,103449,1,8,0:0:0:0:
283,72,103636,2,0,L|277:46,2,18.8,0|0|0,1:0|0:0|0:0,0:0:0:0:
357,52,103824,2,0,L|360:33,2,18.8,0|0|0,0:0|0:0|0:0,0:0:0:0:
357,52,104011,1,0,1:0:0:0:
433,138,104199,5,8,0:0:0:0:
470,132,104386,1,0,1:0:0:0:
465,94,104574,1,0,1:0:0:0:
427,100,104761,1,0,0:0:0:0:
453,22,104949,5,8,0:0:0:0:
453,110,105136,1,0,1:0:0:0:
453,110,105230,1,0,0:0:0:0:
453,110,105324,1,0,0:0:0:0:
445,190,105511,1,0,3:0:0:0:
497,351,105699,5,8,0:0:0:0:
475,275,105886,1,0,1:0:0:0:
475,275,105979,1,0,0:0:0:0:
475,275,106074,2,0,L|431:273,1,37.6,0|0,3:0|0:0,0:0:0:0:
402,340,106261,2,0,L|358:342,1,37.6,0|0,1:0|0:0,0:0:0:0:
303,296,106449,1,10,0:0:0:0:
303,296,106636,6,0,L|306:277,2,18.8,0|0|0,0:0|0:0|0:0,0:0:0:0:
254,359,106824,2,0,L|260:385,2,18.8,0|0|0,0:0|0:0|0:0,0:0:0:0:
184,321,107011,2,0,L|139:325,1,37.6,0|2,1:0|0:2,0:0:0:0:
64,335,107199,1,8,0:0:0:0:
64,335,107386,1,0,1:0:0:0:
64,335,107480,1,0,0:0:0:0:
64,335,107574,6,0,P|65:278|63:221,1,112.799996557617,4|0,0:2|0:0,0:0:0:0:
23,160,107855,1,0,0:0:0:0:
23,160,107949,1,8,0:0:0:0:
53,89,108136,5,0,1:0:0:0:
26,14,108324,1,0,0:0:0:0:
131,81,108511,1,0,1:0:0:0:
104,6,108699,1,8,0:0:0:0:
131,81,108886,1,0,1:0:0:0:
209,73,109074,6,0,L|258:75,1,37.6,0|0,1:0|0:0,0:0:0:0:
285,140,109261,2,0,L|334:138,1,37.6,0|0,1:0|0:0,0:0:0:0:
385,95,109449,1,8,0:0:0:0:
334,39,109636,2,0,L|331:4,2,18.8,0|0|0,1:0|0:0|0:0,0:0:0:0:
405,22,109824,2,0,L|408:-13,2,18.8,0|0|0,0:0|0:0|0:0,0:0:0:0:
405,22,110011,1,0,1:0:0:0:
451,153,110199,1,8,0:0:0:0:
474,73,110386,1,0,1:0:0:0:
451,152,110574,6,0,P|448:199|449:246,1,94,0|0,1:0|0:0,0:0:0:0:
511,384,110949,2,0,P|513:337|512:290,1,94,0|0,1:0|0:0,0:0:0:0:
512,290,111230,1,0,0:0:0:0:
512,290,111324,1,0,1:0:0:0:
441,318,111511,1,0,1:0:0:0:
351,259,111699,1,0,1:0:0:0:
328,252,111792,1,0,1:0:0:0:
305,258,111886,1,0,1:0:0:0:
223,374,112074,1,4,1:0:0:0:
298,341,112261,5,0,0:0:0:0:
298,341,112449,1,0,0:0:0:0:
298,341,112636,1,0,0:0:0:0:
364,388,112824,5,12,0:1:0:0:
305,258,113011,6,0,B|274:261|274:261|265:266|265:266|232:269,1,70.5000026893617,4|0,3:0|0:0,0:0:0:0:
163,226,113199,6,0,B|26:222|44:310|44:310,1,169.199994836426,4|0,1:3|0:0,0:0:0:0:
56,321,113574,6,0,P|71:186|90:98,1,211.500008068085,4|0,1:2|0:0,0:0:0:0:
61,40,113949,2,0,P|140:109|226:170,1,211.500008068085,4|0,1:2|0:0,0:0:0:0:
298,144,114324,1,4,1:2:0:0:
217,181,114511,5,2,1:2:0:0:
258,70,114699,1,0,1:0:0:0:
369,111,114886,1,2,1:2:0:0:
221,185,115074,5,4,1:2:0:0:
328,222,115261,1,0,0:0:0:0:
360,235,115355,1,0,0:0:0:0:
394,226,115449,2,0,P|430:220|512:348,1,211.500008068085,4|0,1:2|0:0,0:0:0:0:
498,357,115824,1,4,1:2:0:0:
458,282,116011,1,2,1:2:0:0:
481,201,116199,1,0,1:0:0:0:
379,309,116386,1,2,1:2:0:0:
241,261,116573,5,2,1:0:0:0:
276,182,116761,1,0,0:0:0:0:
304,204,116855,1,0,0:0:0:0:
313,234,116949,2,0,P|314:281|310:381,1,141.000005378723,2|2,1:0|1:0,0:0:0:0:
133,347,117324,2,0,L|257:338,1,105.750004034043,2|0,1:2|0:0,0:0:0:0:
224,347,117511,2,0,B|192:344|192:344|183:339|183:339|154:337,1,70.5000026893617,2|0,0:1|1:0,0:0:0:0:
88,373,117699,1,2,1:2:0:0:
25,327,117886,6,0,P|28:272|25:209,1,117.5,0|0,1:0|0:0,0:0:0:0:
25,209,118167,1,0,0:0:0:0:
25,209,118261,1,2,1:0:0:0:
13,121,118449,2,0,B|56:125|56:125|88:146,1,82.2500007843971,0|0,1:0|0:0,0:0:0:0:
188,107,118636,2,0,B|195:149|195:149|182:186,1,82.2500007843971,2|2,1:0|0:2,0:0:0:0:
105,175,118824,2,0,B|99:142|99:142|111:106,1,70.5000026893617,2|0,1:2|0:0,0:0:0:0:
166,32,119011,1,2,1:0:0:0:
200,26,119104,1,2,0:0:0:0:
234,37,119199,1,2,1:0:0:0:
273,139,119386,6,0,L|306:141,1,23.5,0|0,1:0|0:0,0:0:0:0:
296,121,119480,2,0,L|329:119,1,23.5,0|0,0:0|0:0,0:0:0:0:
328,134,119574,6,0,P|398:135|444:212,1,141.000005378723,4|0,1:2|0:0,0:0:0:0:
431,196,119855,1,0,0:0:0:0:
417,192,119949,2,0,P|415:285|313:346,1,211.500008068085,4|0,1:2|0:0,0:0:0:0:
254,318,120324,1,4,1:2:0:0:
336,355,120511,1,2,1:2:0:0:
343,334,120605,1,0,0:0:0:0:
341,313,120699,1,0,1:0:0:0:
203,246,120886,1,2,1:2:0:0:
267,281,121074,6,2,L|91:299,1,141.000005378723,4|0,1:2|0:0,0:0:0:0:
122,309,121355,1,0,0:0:0:0:
133,318,121449,2,0,P|128:201|132:90,1,211.500008068085,4|0,1:2|0:0,0:0:0:0:
178,50,121824,1,4,1:2:0:0:
149,135,122011,1,2,1:0:0:0:
121,129,122105,1,0,0:0:0:0:
100,114,122199,1,0,1:0:0:0:
124,0,122386,1,2,1:0:0:0:
46,64,122574,6,0,P|43:134|47:251,1,164.500001568794,0|2,1:0|1:0,0:0:0:0:
55,238,122855,1,0,0:0:0:0:
41,248,122949,2,0,P|124:245|206:248,1,164.500001568794,4|0,1:2|0:0,0:0:0:0:
418,376,123324,6,0,P|415:306|419:189,1,164.500001568794,0|2,1:0|1:0,0:0:0:0:
372,152,123605,1,0,0:0:0:0:
355,166,123699,1,4,1:2:0:0:
288,22,123886,6,0,L|275:303,1,282,2|0,1:0|0:0,0:0:0:0:
225,362,124261,2,0,L|173:374,2,35.2500013446808,2|0|0,3:1|0:0|3:0,0:0:0:0:
345,340,124449,1,0,3:0:0:0:
203,266,124636,1,0,1:0:0:0:
277,124,124824,1,2,1:0:0:0:
335,186,125011,5,4,3:0:0:0:
304,203,125105,1,4,3:0:0:0:
270,209,125198,1,8,3:0:0:0:
192,137,125386,1,4,3:0:0:0:
282,39,125574,6,0,L|368:32,1,70.5000026893617,4|0,1:2|0:0,0:0:0:0:
432,71,125761,1,0,0:0:0:0:
443,84,125855,1,0,0:0:0:0:
454,97,125949,2,0,L|383:102,1,70.5000026893617,2|0,1:0|0:0,0:0:0:0:
348,30,126136,2,0,L|277:35,1,70.5000026893617,2|0,0:1|0:0,0:0:0:0:
203,77,126324,1,0,1:0:0:0:
137,22,126511,5,0,1:0:0:0:
150,11,126605,1,0,1:0:0:0:
163,0,126699,2,0,L|168:71,1,70.5000026893617,2|0,1:0|0:0,0:0:0:0:
96,106,126886,2,0,L|60:103,2,35.2500013446808,2|0|0,1:0|0:0|0:0,0:0:0:0:
162,148,127074,1,0,1:0:0:0:
118,211,127167,5,0,0:0:0:0:
105,200,127261,1,0,0:0:0:0:
92,189,127355,2,0,L|87:260,1,70.5000026893617,0|2,0:0|1:0,0:0:0:0:
28,310,127542,1,0,0:0:0:0:
62,298,127635,1,2,0:1:0:0:
97,298,127729,1,0,1:0:0:0:
129,312,127823,1,0,1:0:0:0:
155,335,127917,6,0,L|197:341,2,35.2500013446808,0|0|0,0:0|0:0|1:0,0:0:0:0:
190,266,128105,2,0,L|193:219,2,35.2500013446808,0|0|2,1:0|0:0|1:0,0:0:0:0:
257,306,128292,1,0,0:0:0:0:
269,293,128386,2,0,P|338:289|417:331,1,141.000005378723,2|0,1:0|1:0,0:0:0:0:
387,333,128667,1,0,0:0:0:0:
368,343,128761,5,0,0:0:0:0:
360,308,128855,1,0,0:0:0:0:
371,274,128949,1,2,1:0:0:0:
479,187,129136,1,2,0:1:0:0:
487,222,129230,1,0,0:0:0:0:
476,256,129324,2,0,L|523:259,2,35.2500013446808,0|0|0,1:0|0:0|0:0,0:0:0:0:
402,202,129511,5,0,0:0:0:0:
382,166,129605,1,0,1:0:0:0:
366,134,129699,1,2,1:0:0:0:
402,202,129886,2,0,L|407:21,1,141.000005378723,2|0,1:0|1:0,0:0:0:0:
468,17,130167,1,0,0:0:0:0:
476,30,130261,6,0,L|492:61,2,35.2500013446808,2|0|0,3:1|0:0|0:0,0:0:0:0:
342,24,130449,2,0,L|323:54,2,35.2500013446808,2|0|0,1:1|0:0|0:0,0:0:0:0:
409,65,130636,2,0,L|408:100,2,35.2500013446808,0|0|0,3:1|0:0|0:0,0:0:0:0:
317,149,130824,6,0,B|315:131|315:131|336:128,2,39.1666666666667,8|8|8,3:0|3:0|3:0,0:0:0:0:
234,109,131011,2,0,B|237:127|237:127|216:130,2,39.1666666666667,4|4|4,3:0|3:0|3:0,0:0:0:0:
235,110,131199,2,0,L|253:235,1,94,8|8,1:2|1:2,0:0:0:0:
174,215,131574,5,4,1:0:0:0:
99,226,131949,1,2,3:0:0:0:
28,241,132324,5,2,3:0:0:0:
103,230,132511,1,2,3:0:0:0:
178,219,132699,2,0,L|164:125,1,94,2|0,3:0|0:0,0:0:0:0:
75,42,133074,6,0,L|88:135,1,94,8|0,0:0|1:0,0:0:0:0:
83,148,133355,1,0,1:0:0:0:
61,134,133449,5,0,1:0:0:0:
80,118,133542,1,8,1:3:0:0:
108,124,133636,1,8,1:3:0:0:
127,108,133729,1,4,1:3:0:0:
155,114,133824,1,4,1:3:0:0:
178,102,133917,1,4,1:3:0:0:
178,102,134011,5,8,1:2:0:0:
136,197,134199,2,0,P|125:284|124:372,1,176.25,12|0,1:0|0:0,0:0:0:0:
212,323,134574,6,0,B|220:307|255:274|329:296|364:308|338:349|352:390|251:381,1,246.750002353191,4|0,1:0|0:0,0:0:0:0:
255,380,134949,2,0,B|155:368|162:240|333:289|317:289|355:327|355:327,1,211.500008068085,0|0,1:0|3:2,0:0:0:0:
363,361,135324,6,0,L|425:355,1,47,12|0,1:0|0:0,0:0:0:0:
390,277,135511,2,0,L|452:271,1,47,2|0,3:0|0:0,0:0:0:0:
463,188,135699,2,0,L|417:193,1,47,2|0,3:0|0:0,0:0:0:0:
347,145,135886,1,0,1:0:0:0:
347,145,135980,1,0,1:0:0:0:
347,145,136074,6,0,P|268:136|180:159,1,141,0|0,1:0|0:0,0:0:0:0:
141,107,136449,2,0,P|220:116|308:93,1,141,4|0,1:0|0:0,0:0:0:0:
320,36,136824,2,0,P|338:18|330:42,1,70.5000026893617,12|0,1:0|0:0,0:0:0:0:
272,96,137011,1,0,3:0:0:0:
212,48,137199,2,0,B|142:55|142:55|148:61|148:61|81:68,1,141,0|0,1:0|0:0,0:0:0:0:
14,49,137574,6,0,B|165:32|165:32|150:71|150:71|97:78,1,246.750002353191,4|0,1:0|0:0,0:0:0:0:
31,124,137949,6,0,B|9:128|9:128|15:175,1,70.5000026893617,2|0,1:0|0:0,0:0:0:0:
92,176,138136,2,0,L|138:172,1,47,0|0,3:0|0:0,0:0:0:0:
231,206,138324,2,2,B|208:210|208:210|214:257,1,70.5000026893617,14|2,1:0|0:0,0:0:0:0:
172,323,138511,1,2,3:1:0:0:
144,329,138605,1,2,3:1:0:0:
116,335,138699,1,0,0:0:0:0:
273,344,138886,6,0,L|296:342,1,23.5,2|0,1:0|0:0,0:0:0:0:
301,338,138980,2,0,L|324:336,1,23.5,2|0,1:0|0:0,0:0:0:0:
329,332,139074,2,0,P|364:292|343:204,1,141.000005378723,2|2,1:0|1:0,0:0:0:0:
340,24,139449,2,0,P|384:53|386:144,1,141.000005378723,2|2,1:0|1:0,0:0:0:0:
277,162,139824,6,0,B|239:162|239:162|233:168|233:168|197:169,1,82.2500007843971,4|0,1:2|0:0,0:0:0:0:
387,139,140011,2,0,B|424:138|424:138|430:132|430:132|466:131,1,82.2500007843971,4|0,1:2|0:0,0:0:0:0:
512,195,140199,1,2,1:0:0:0:
320,93,140386,1,2,1:0:0:0:
279,71,140480,1,2,1:0:0:0:
233,51,140574,6,0,B|89:35|152:180|-19:180,1,246.750002353191,4|0,1:0|0:0,0:0:0:0:
120,108,140949,2,0,P|141:76|109:97,1,105.750004034043,2|2,1:2|3:2,0:0:0:0:
0,247,141324,2,0,L|92:251,1,70.5000026893617,12|0,1:0|0:0,0:0:0:0:
180,232,141511,1,2,3:0:0:0:
201,229,141699,1,2,3:0:0:0:
136,300,141886,5,0,1:0:0:0:
139,321,141980,1,0,1:0:0:0:
142,342,142074,2,0,L|1:335,1,141,0|0,1:0|0:0,0:0:0:0:
11,324,142449,2,0,B|66:323|78:360|145:362,1,141,0|0,1:0|0:0,0:0:0:0:
314,289,142824,6,0,P|337:289|368:302,1,47,12|0,1:0|0:0,0:0:0:0:
224,384,143011,2,0,P|242:361|269:352,1,58.75,0|0,3:0|0:0,0:0:0:0:
416,349,143199,2,0,P|449:344|477:318,1,70.5000026893617,0|0,3:0|0:0,0:0:0:0:
510,204,143386,2,0,B|503:225|510:249,1,47,0|0,1:0|0:0,0:0:0:0:
511,251,143574,2,0,P|411:191|268:215,1,246.750002353191,4|0,1:0|0:0,0:0:0:0:
221,249,143949,5,2,0:1:0:0:
241,137,144136,1,2,0:1:0:0:
77,111,144324,1,14,1:0:0:0:
57,223,144511,1,2,0:1:0:0:
168,187,144699,2,0,L|162:136,1,47,0|0,0:0|0:0,0:0:0:0:
142,14,144886,2,0,L|136:60,1,47,6|0,1:0|0:0,0:0:0:0:
215,41,145074,6,0,L|365:31,1,141.000005378723,0|2,0:0|0:1,0:0:0:0:
289,41,145355,1,0,0:0:0:0:
289,41,145449,1,4,1:0:0:0:
471,40,145636,1,2,1:1:0:0:
463,67,145730,1,0,1:0:0:0:
473,93,145824,2,0,L|402:97,1,70.5000026893617,8|0,1:0|0:0,0:0:0:0:
333,117,146011,1,0,1:0:0:0:
374,278,146199,6,0,P|389:151|263:135,1,282.000010757447,12|0,1:0|1:0,0:0:0:0:
220,200,147324,1,0,1:0:0:0:
220,200,147511,1,2,1:2:0:0:
254,273,147886,2,0,L|138:280,1,94,2|0,1:2|1:0,0:0:0:0:
99,323,148449,1,0,1:0:0:0:
99,323,148824,2,0,P|82:353|111:334,1,94,0|0,1:0|0:0,0:0:0:0:
13,384,149199,1,0,1:0:0:0:
42,263,149574,6,0,P|55:173|55:74,1,188,2|0,1:2|1:0,0:0:0:0:
6,22,150511,2,0,B|51:34|51:34|106:8,1,94,2|2,1:2|1:2,0:0:0:0:
97,9,151261,1,0,1:0:0:0:
100,4,151449,1,0,1:0:0:0:
157,60,151824,2,0,P|174:90|145:71,1,94,0|2,1:0|0:0,0:0:0:0:
234,12,152199,2,0,P|281:14|329:50,1,94,0|2,1:0|0:0,0:0:0:0:
476,132,152574,6,0,P|473:179|438:227,1,94,0|0,1:0|0:0,0:0:0:0:
444,221,152949,2,0,B|333:228|389:172|255:176,1,188,2|0,0:0|1:0,0:0:0:0:
201,217,153511,2,0,L|197:301,1,70.5,2|0,1:2|0:0,0:0:0:0:
190,304,153699,2,0,L|274:308,1,47,0|0,0:0|0:0,0:0:0:0:
337,344,153886,2,0,B|340:281|340:281|292:279,1,94,2|2,1:2|0:0,0:0:0:0:
151,370,154261,1,0,1:0:0:0:
151,370,154449,6,0,L|67:374,1,70.5,0|0,1:0|0:0,0:0:0:0:
234,367,154824,2,0,L|86:287,1,141,0|0,1:0|0:0,0:0:0:0:
46,338,155199,2,0,L|37:384,2,47,0|0|2,1:0|0:0|0:0,0:0:0:0:
15,268,155574,6,0,L|10:62,1,188,2|0,1:2|0:0,0:0:0:0:
14,76,156136,1,2,0:0:0:0:
129,105,156324,2,0,P|154:107|176:127,1,47,0|0,1:0|0:0,0:0:0:0:
90,174,156511,2,0,P|106:193|107:222,1,47,0|0,1:0|0:0,0:0:0:0:
13,154,156699,1,2,0:0:0:0:
40,254,156886,2,0,P|134:252|225:187,1,188,0|2,1:0|0:0,0:0:0:0:
256,136,157449,6,0,B|276:124|276:124|296:136|296:136|316:124|316:124|336:136|336:136|356:124|356:124|376:136|376:136|400:124|400:124|424:136,2,188,0|2|2,0:0|0:0|0:0,0:0:0:0:
252,140,158386,1,0,1:0:0:0:
426,207,158574,5,4,1:2:0:0:
371,374,158761,1,2,0:1:0:0:
305,324,159136,6,0,L|357:297,1,47,0|0,0:0|0:0,0:0:0:0:
478,263,159324,1,8,0:0:0:0:
463,338,159699,5,2,0:0:0:0:
353,229,159886,2,0,L|217:241,1,94,0|0,0:0|0:0,0:0:0:0:
255,233,160261,6,0,P|275:186|262:131,2,94,0|2|0,0:0|1:2|0:0,0:0:0:0:
194,286,160824,2,0,B|87:263|23:367|23:367,1,188,8|2,0:0|0:0,0:0:0:0:
59,286,161386,2,0,L|63:240,1,47,0|0,0:0|0:0,0:0:0:0:
70,165,161574,5,0,1:0:0:0:
205,77,161761,1,0,0:0:0:0:
183,156,162136,5,0,0:0:0:0:
92,86,162324,1,8,0:0:0:0:
92,86,162417,1,0,0:0:0:0:
92,86,162511,2,0,L|98:33,2,47,0|0|2,0:0|0:0|0:0,0:0:0:0:
9,116,162886,2,0,B|-10:104|-10:104|14:99,2,47,0|0|0,0:0|0:0|0:0,0:0:0:0:
288,75,163261,5,0,0:0:0:0:
413,61,163449,2,0,L|366:66,1,47,2|0,1:2|0:0,0:0:0:0:
285,91,163636,1,0,0:0:0:0:
299,0,163824,2,0,L|519:25,1,188,8|0,0:0|0:0,0:0:0:0:
477,202,164386,2,0,L|472:153,1,47,0|0,0:0|0:0,0:0:0:0:
512,92,164574,5,0,1:0:0:0:
434,266,164761,1,2,0:1:0:0:
496,316,165136,5,0,0:0:0:0:
365,301,165324,1,8,0:0:0:0:
365,301,165511,1,0,0:0:0:0:
258,384,165699,5,2,0:0:0:0:
135,335,165886,2,0,P|116:258|242:214,1,235,0|0,0:0|0:0,0:0:0:0:
338,378,166449,1,2,1:2:0:0:
125,205,166824,6,0,P|148:240|111:219,1,117.5,8|0,0:0|0:0,0:0:0:0:
122,14,167199,2,0,B|92:52|107:144,1,117.5,2|0,0:0|0:0,0:0:0:0:
105,128,167574,6,0,P|226:104|389:338,1,423.00001613617,0|0,1:0|0:0,0:0:0:0:
188,150,168324,2,0,P|199:179|252:196,1,70.5000026893617,8|0,0:0|0:0,0:0:0:0:
412,238,168511,2,0,P|381:233|340:270,1,70.5000026893617,2|0,0:0|0:0,0:0:0:0:
294,308,168699,1,0,0:0:0:0:
490,313,168886,6,0,P|339:296|311:187,1,282.000010757447,2|2,0:0|0:0,0:0:0:0:
444,380,169449,2,0,P|419:360|365:371,1,70.5000026893617,0|0,1:0|0:0,0:0:0:0:
310,384,169636,1,8,3:0:0:0:
208,275,169824,6,0,L|126:282,1,82.2500007843971,0|0,1:0|0:0,0:0:0:0:
37,293,170011,1,4,3:0:0:0:
45,304,170199,6,0,L|51:248,1,47,4|0,3:0|0:0,0:0:0:0:
201,106,170574,6,0,P|191:133|222:111,2,94,4|0|0,1:2|0:0|0:0,0:0:0:0:
250,37,170855,1,0,1:0:0:0:
228,30,170949,1,0,1:3:0:0:
0,104,171136,6,0,P|81:35|168:53,1,188,4|0,1:2|0:0,0:0:0:0:
298,99,171417,1,0,1:0:0:0:
320,106,171511,1,0,1:0:0:0:
489,39,171699,6,0,P|481:169|352:196,1,282,4|0,1:2|1:0,0:0:0:0:
342,177,172074,1,0,1:0:0:0:
249,231,172261,6,0,P|241:264|262:237,1,94,0|0,1:0|0:0,0:0:0:0:
253,235,172449,6,0,P|245:268|266:241,1,94,0|0,1:0|0:0,0:0:0:0:
257,239,172636,6,0,P|249:272|270:245,1,94,0|0,1:0|0:0,0:0:0:0:
261,243,172824,6,0,P|253:276|274:249,1,94,0|0,1:0|0:0,0:0:0:0:
265,247,173011,6,0,P|257:280|278:253,1,94,0|0,1:0|0:0,0:0:0:0:
322,342,173199,6,0,P|272:315|185:330,1,141,0|0,0:0|0:0,0:0:0:0:
187,330,173574,6,0,P|58:308|103:172,1,282,4|0,1:2|1:0,0:0:0:0:
148,159,173949,1,0,1:0:0:0:
330,47,174136,6,0,B|255:-10|255:-10|161:9,1,188,4|0,1:2|0:0,0:0:0:0:
92,36,174417,1,0,1:0:0:0:
92,36,174511,1,0,1:0:0:0:
31,122,174699,6,0,B|-13:105|-13:105|31:91,2,94,4|0|0,1:2|0:0|0:0,0:0:0:0:
112,112,174980,1,0,1:0:0:0:
112,112,175074,1,0,1:0:0:0:
227,344,175261,6,0,P|270:348|315:328,1,94,0|0,1:0|0:0,0:0:0:0:
407,249,175449,2,0,P|410:206|390:161,1,94,0|0,1:0|0:0,0:0:0:0:
311,166,175636,2,0,P|296:208|303:256,1,94,0|0,1:0|0:0,0:0:0:0:
402,323,175824,2,0,P|447:334|492:321,1,94,0|0,1:0|0:0,0:0:0:0:
492,236,176011,6,0,L|399:242,1,94,0|0,1:0|0:0,0:0:0:0:
313,248,176199,2,0,B|246:252|246:252|192:223|192:223|113:229,1,188,4|4,3:0|3:0,0:0:0:0:
127,233,176480,1,4,3:0:0:0:
123,239,176574,6,0,B|217:234|217:234|274:158,1,188,4|0,1:2|0:0,0:0:0:0:
236,84,176855,2,0,L|175:164,1,94,0|0,1:0|1:0,0:0:0:0:
53,274,177136,6,0,B|163:268|131:330|259:322,1,188,4|0,1:2|0:0,0:0:0:0:
91,352,177417,2,0,P|44:349|0:363,1,94,0|0,1:0|1:0,0:0:0:0:
289,378,177699,6,0,B|430:407|425:279|425:279,1,188,4|0,1:2|0:0,0:0:0:0:
358,258,177980,2,0,P|327:286|357:284,1,94,0|0,1:0|1:0,0:0:0:0:
486,85,178261,6,0,P|399:96|397:187,2,188,0|0|0,1:0|1:0|1:0,0:0:0:0:
309,187,178824,1,0,1:0:0:0:
467,226,179011,1,0,1:0:0:0:
467,226,179199,6,0,P|494:218|470:211,1,70.5,0|0,0:0|0:0,0:0:0:0:
329,146,179574,6,0,B|459:145|450:43|199:60,1,282,4|0,1:0|1:0,0:0:0:0:
149,88,179949,1,0,1:0:0:0:
232,52,180136,6,0,B|101:52|110:154|361:137,1,282,4|0,1:0|1:0,0:0:0:0:
412,110,180511,1,0,1:0:0:0:
331,11,180699,6,0,B|317:104|317:104|355:189|355:189|333:329,1,282,4|0,1:0|1:0,0:0:0:0:
285,368,181074,1,0,1:0:0:0:
435,320,181261,6,0,L|46:346,1,387.750014791489,4|0,1:0|3:0,0:0:0:0:
30,333,182386,1,2,3:0:0:0:
30,333,182480,1,2,3:0:0:0:
30,333,182573,1,8,0:0:0:0:
87,269,182949,1,8,0:0:0:0:
57,192,183324,1,8,0:0:0:0:
99,118,183511,5,0,1:0:0:0:
26,73,183699,1,0,1:0:0:0:
46,48,183886,2,0,L|50:9,2,35.2500013446808,0|0|0,1:0|1:0|1:0,0:0:0:0:
99,100,184074,6,0,B|231:81|249:178|385:162,1,282.000010757447,4|8,3:0|0:1,0:0:0:0:
440,121,185199,1,0,0:0:0:0:
440,121,185386,2,0,L|445:75,1,35.2500013446808,2|0,0:0|0:0,0:0:0:0:
478,192,185574,6,0,L|520:186,2,35.2500013446808,4|0|0,3:0|0:0|0:0,0:0:0:0:
423,244,185949,2,0,P|419:300|417:385,1,141.000005378723,4|8,3:0|0:1,0:0:0:0:
409,376,186511,2,0,L|463:377,1,35.2500013446808,2|0,0:0|0:0,0:0:0:0:
342,331,186699,2,0,L|180:355,1,141,2|0,0:0|0:0,0:0:0:0:
123,366,187074,6,0,P|193:320|176:248,1,141.000005378723,4|0,3:0|0:0,0:0:0:0:
124,233,187636,1,2,0:0:0:0:
258,171,187824,2,0,P|223:173|191:188,1,70.5000026893617,8|0,0:1|0:0,0:0:0:0:
120,237,188199,2,0,L|53:242,2,47,0|0|2,0:0|0:0|0:0,0:0:0:0:
20,315,188574,6,0,L|34:165,1,141.000005378723,4|4,3:0|3:0,0:0:0:0:
37,170,189136,1,0,0:0:0:0:
6,101,189324,2,0,P|43:44|123:50,1,141,8|0,0:1|0:0,0:0:0:0:
114,46,189699,2,0,B|197:31|163:84|288:59,1,141,2|0,0:0|0:0,0:0:0:0:
409,2,190074,6,0,P|390:87|384:197,1,188,4|2,0:1|0:0,0:0:0:0:
374,82,191011,6,0,P|403:84|375:95,1,70.5000026893617,0|0,1:0|0:0,0:0:0:0:
373,177,191199,2,0,P|392:198|364:186,1,70.5000026893617,0|0,1:0|0:0,0:0:0:0:
307,129,191386,2,0,B|272:134|272:134|309:147,1,70.5000026893617,0|0,1:0|0:0,0:0:0:0:
459,147,191574,5,0,1:0:0:0:
258,247,191949,1,0,1:0:0:0:
100,94,192324,1,0,1:0:0:0:
100,94,192699,2,0,P|89:77|119:91,2,94,4|0|0,1:2|0:0|0:0,0:0:0:0:
32,144,193074,6,0,P|55:240|57:351,1,188,0|0,1:0|1:0,0:0:0:0:
196,113,193824,2,0,P|184:161|183:216,1,94,0|0,1:0|0:0,0:0:0:0:
151,351,194199,2,0,B|266:352|218:264|352:296,1,188,4|0,1:2|0:0,0:0:0:0:
445,53,194574,6,0,P|331:70|290:263,1,282.000010757447,0|2,1:2|1:2,0:0:0:0:
413,270,195136,1,2,1:0:0:0:
442,238,195230,1,0,0:0:0:0:
436,195,195324,1,0,1:0:0:0:
246,286,195511,2,0,P|213:295|172:292,1,70.5000026893617,2|2,0:1|1:2,0:0:0:0:
114,250,195699,1,2,1:0:0:0:
10,339,195886,6,0,P|122:344|71:232,1,235,0|2,1:0|1:0,0:0:0:0:
48,212,196355,1,0,0:0:0:0:
35,220,196449,2,0,B|25:180|25:180|41:132,1,82.2500007843971,2|0,1:2|0:0,0:0:0:0:
76,59,196636,1,2,1:0:0:0:
76,59,196824,2,0,P|128:94|233:82,1,141.000005378723,2|2,1:2|1:0,0:0:0:0:
273,47,197105,1,0,1:0:0:0:
292,37,197199,2,0,L|398:42,1,94,2|0,1:0|1:0,0:0:0:0:
400,43,197433,6,0,L|397:12,1,23.5,0|0,0:0|0:0,0:0:0:0:
396,7,197574,6,0,L|378:159,1,141.000005378723,4|0,1:2|0:0,0:0:0:0:
313,209,197855,1,0,0:0:0:0:
302,192,197949,2,0,P|398:194|399:364,1,282.000010757447,4|4,1:2|1:2,0:0:0:0:
234,282,198511,2,0,L|236:237,2,35.2500013446808,2|0|0,1:2|0:0|0:0,0:0:0:0:
340,336,198699,2,0,B|256:332|284:380|200:371,1,141.000005378723,0|2,1:0|1:2,0:0:0:0:
137,181,199074,6,0,P|149:243|131:355,1,141.000005378723,4|0,1:2|0:0,0:0:0:0:
44,159,199355,1,0,0:0:0:0:
44,159,199449,2,0,P|16:102|4:-10,1,141.000005378723,4|0,1:2|0:0,1:2:0:0:
9,286,199824,1,2,1:2:0:0:
9,286,200011,5,0,1:0:0:0:
44,159,200199,1,2,1:2:0:0:
82,19,200386,1,2,1:2:0:0:
243,75,200574,6,0,P|335:67|372:3,1,164.500001568794,0|2,1:0|1:0,0:0:0:0:
239,71,200949,2,0,P|389:37|468:169,1,329.000003137589,4|0,1:2|1:0,0:0:0:0:
258,266,201511,2,0,B|240:228|240:228|253:189,1,82.2500007843971,2|0,1:0|0:0,0:0:0:0:
379,135,201699,2,0,B|396:173|396:173|383:212,1,82.2500007843971,4|0,1:2|0:0,0:0:0:0:
288,349,201886,6,0,B|148:369|148:369|79:224,1,282,2|0,1:0|0:0,0:0:0:0:
38,103,202261,2,0,P|30:66|62:85,2,94,2|0|0,0:1|0:0|3:0,0:0:0:0:
38,103,202449,6,0,P|86:102|142:132,1,94,0|0,3:0|3:0,0:0:0:0:
257,159,202636,2,0,P|302:153|341:113,1,94,0|0,3:0|3:0,0:0:0:0:
391,9,202824,2,0,P|240:4|207:225,1,376,0|0,1:0|1:0,0:0:0:0:
386,317,203386,1,2,3:0:0:0:
426,341,203480,1,2,3:0:0:0:
466,365,203574,6,0,L|480:121,1,211.500008068085,0|0,1:0|0:0,0:0:0:0:
455,156,203949,2,0,L|501:150,1,47,4|0,1:2|0:0,0:0:0:0:
248,133,204324,6,0,P|361:159|357:273,1,211.500008068085,0|0,1:0|0:0,0:0:0:0:
352,244,204699,2,0,L|306:250,1,47,4|0,1:2|0:0,0:0:0:0:
0,302,205074,6,0,B|104:290|104:290|170:382,1,211.500008068085,0|0,1:0|0:0,0:0:0:0:
175,355,205449,1,4,1:2:0:0:
67,374,205636,1,0,0:0:0:0:
213,281,205824,6,0,P|209:198|148:186,1,141.000005378723,0|0,1:0|0:0,0:0:0:0:
148,189,206105,1,0,1:0:0:0:
136,201,206199,1,4,1:2:0:0:
263,124,206386,1,0,1:0:0:0:
78,115,206574,6,0,B|-21:80|-21:80|63:4,1,211.500008068085,0|0,1:0|0:0,0:0:0:0:
161,43,206949,2,0,L|195:36,1,35.2500013446808,0|0,1:0|0:0,0:0:0:0:
183,57,207042,2,0,L|217:63,1,35.2500013446808,2|0,1:2|0:0,0:0:0:0:
205,43,207136,2,0,L|239:36,1,35.2500013446808,0|0,1:0|0:0,0:0:0:0:
227,57,207230,2,0,L|261:63,1,35.2500013446808,2|0,1:2|0:0,0:0:0:0:
249,43,207324,6,0,P|327:44|334:231,1,282.000010757447,4|0,1:2|1:0,0:0:0:0:
196,357,207886,1,0,3:0:0:0:
137,295,208074,6,0,B|135:259|135:259|171:257,6,70.5000026893617,0|0|0|0|0|0|0,1:0|1:0|1:0|1:0|1:0|1:0|1:0,0:0:0:0:
119,278,208449,2,0,B|295:269|295:269|366:353,1,282.000010757447,0|0,1:0|0:0,0:0:0:0:
439,367,209011,6,0,L|475:364,2,35.2500013446808,0|0|0,1:0|0:0|1:0,0:0:0:0:
455,381,209199,2,0,B|457:335|457:335|462:325|462:325|466:265,1,105.750004034043,2|0,1:3|0:0,0:0:0:0:
468,137,209386,2,0,P|496:112|498:150,1,94,4|0,1:3|0:0,0:0:0:0:
428,204,209574,6,0,L|225:215,1,141.000005378723,4|0,1:2|0:0,0:0:0:0:
217,143,209855,1,0,0:0:0:0:
205,165,209949,5,0,1:0:0:0:
195,130,210042,1,0,3:0:0:0:
229,121,210136,1,2,3:2:0:0:
239,155,210230,1,0,3:0:0:0:
221,148,210324,5,0,1:0:0:0:
188,135,210417,1,0,3:0:0:0:
153,135,210511,1,2,3:2:0:0:
120,148,210605,1,0,1:0:0:0:
95,173,210699,1,0,1:0:0:0:
37,302,210886,2,0,L|34:351,2,35.2500013446808,2|0|0,1:2|0:0|1:0,0:0:0:0:
101,253,211074,6,0,P|15:247|5:196,1,141.000005378723,2|0,1:0|0:0,0:0:0:0:
31,130,211355,1,0,0:0:0:0:
31,130,211449,5,0,1:0:0:0:
15,100,211543,1,0,3:0:0:0:
0,71,211636,1,2,3:2:0:0:
29,55,211730,1,0,3:0:0:0:
58,40,211824,5,0,1:0:0:0:
104,34,211917,1,0,3:0:0:0:
148,49,212011,1,2,1:2:0:0:
180,83,212105,1,0,1:0:0:0:
184,87,212199,1,0,1:0:0:0:
308,104,212386,2,0,L|305:55,2,35.2500013446808,2|0|0,1:2|0:0|1:0,0:0:0:0:
242,145,212574,6,0,L|410:133,1,164.500001568794,2|0,1:0|0:0,0:0:0:0:
506,123,212855,1,0,0:0:0:0:
484,107,212949,5,0,1:0:0:0:
478,147,213042,1,0,3:0:0:0:
472,187,213136,1,2,3:2:0:0:
466,227,213230,1,0,3:0:0:0:
470,231,213324,5,0,1:0:0:0:
416,216,213417,1,0,3:0:0:0:
367,242,213511,1,2,3:2:0:0:
349,293,213605,1,0,3:0:0:0:
376,342,213699,2,0,B|302:305|302:305|217:329,1,164.500001568794,0|2,1:0|1:2,0:0:0:0:
35,376,214074,1,2,1:0:0:0:
35,376,214261,6,0,P|30:342|44:300,1,58.75,0|0,0:0|0:0,0:0:0:0:
160,203,214449,2,0,P|181:229|190:273,1,58.75,0|0,3:0|3:0,0:0:0:0:
157,363,214636,2,0,P|125:350|95:317,1,58.75,0|2,1:0|1:2,0:0:0:0:
49,244,214824,6,0,L|-4:248,2,39.1666666666667,0|0|0,1:0|0:0|0:0,0:0:0:0:
49,244,215011,1,0,1:0:0:0:
204,101,215199,6,0,P|361:79|506:238,1,376,0|2,1:0|1:2,0:0:0:0:
287,380,215949,2,0,L|292:328,1,47,4|12,1:0|0:2,0:0:0:0:
295,329,216511,1,0,0:0:0:0:
257,263,216699,6,0,B|252:255|252:255|255:244,12,18.8,4|0|4|2|0|4|0|2|4|0|8|8|2,1:3|3:0|1:3|3:0|3:0|1:3|3:0|3:0|1:3|3:0|1:2|1:2|3:0,0:0:0:0:
270,252,221261,6,0,B|149:271|204:198|48:230,1,188.000007171631,0|0,0:0|0:0,0:0:0:0:
77,234,221574,5,4,1:2:0:0:
68,23,221761,2,0,L|60:82,1,56.3999982788086,2|0,0:1|0:0,0:0:0:0:
109,143,221949,2,0,L|203:131,2,56.3999982788086,0|0|2,1:0|0:0|0:1,0:0:0:0:
104,139,222324,6,0,L|261:119,1,112.799996557617,0|2,1:0|0:1,0:0:0:0:
297,86,222605,1,0,0:0:0:0:
272,68,222699,2,0,L|282:-10,2,56.3999982788086,0|0|2,1:0|0:0|0:1,0:0:0:0:
438,130,223074,6,0,P|460:148|443:167,1,56.3999982788086,0|0,1:0|0:0,0:0:0:0:
296,204,223261,2,0,P|274:186|291:167,1,56.3999982788086,2|0,0:1|0:0,0:0:0:0:
371,171,223449,1,0,1:0:0:0:
371,171,223542,1,0,0:0:0:0:
371,171,223636,2,0,B|385:226|385:226|357:286,1,112.799996557617,2|0,0:1|1:0,0:0:0:0:
512,384,224011,6,0,B|479:338|479:338|425:322,1,112.799996557617,2|0,0:1|1:0,0:0:0:0:
349,295,224292,1,0,0:0:0:0:
349,295,224386,2,0,L|265:306,1,56.3999982788086,2|0,0:1|0:0,0:0:0:0:
189,350,224574,5,0,1:0:0:0:
189,350,224761,5,0,1:0:0:0:
189,350,224949,5,0,1:0:0:0:
189,350,225136,5,0,1:0:0:0:
189,350,225323,5,0,1:0:0:0:
189,350,225511,5,0,1:0:0:0:
189,350,225699,5,0,1:0:0:0:
189,350,225886,5,0,1:0:0:0:
189,350,226074,5,0,1:0:0:0:
189,350,226261,5,0,1:0:0:0:
189,350,226448,5,0,1:0:0:0:
189,350,226636,5,0,1:0:0:0:
280,382,226824,6,0,L|294:197,1,169.199994836426,0|0,1:0|0:0,0:0:0:0:
310,15,227199,6,0,B|225:-54|58:-35|87:134|239:189|239:189,1,376,0|4,1:0|1:0,0:0:0:0:
218,178,230199,6,0,B|197:174|182:155|182:155|185:186|222:213|344:200|344:200|310:194|293:213,1,282,4|0,1:2|0:0,0:0:0:0:
