osu file format v14

[General]
AudioFilename: audio.mp3
AudioLeadIn: 0
PreviewTime: 51855
Countdown: 0
SampleSet: Soft
StackLeniency: 0.2
Mode: 0
LetterboxInBreaks: 0
WidescreenStoryboard: 0

[Editor]
DistanceSpacing: 1.9
BeatDivisor: 4
GridSize: 32
TimelineZoom: 2.9

[Metadata]
Title:BRING IT ON
TitleUnicode:劣等上等
Artist:Giga feat. Reol
ArtistUnicode:Giga feat. Reol
Creator:Yugu
Version:SuPerior?
Source:
Tags:Intensity Callionet Hollow Wings Hollow_Wings Ryuusei Aika Ryuusei_Aika 事実上 Jijitsujou jpop japanese pop Giga れをる ギガ okiku お菊 鏡音リン 鏡音レン kagamine rin len ren rettou joutou Pata-mon
BeatmapID:2039533
BeatmapSetID:974362

[Difficulty]
HPDrainRate:5.8
CircleSize:4.5
OverallDifficulty:8.7
ApproachRate:9.5
SliderMultiplier:2.2
SliderTickRate:1

[Events]
//Background and Video events
0,0,"72365882_p0.jpg",0,0
//Break Periods
//Storyboard Layer 0 (Background)
//Storyboard Layer 1 (Fail)
//Storyboard Layer 2 (Pass)
//Storyboard Layer 3 (Foreground)
//Storyboard Layer 4 (Overlay)
//Storyboard Sound Samples

[TimingPoints]
1074,375,4,2,1,70,1,0
1074,-83.3333333333333,4,2,1,70,0,0
3136,-142.857142857143,4,2,1,50,0,0
4074,-83.3333333333333,4,2,1,70,0,0
4449,-83.3333333333333,4,2,1,50,0,0
4824,-142.857142857143,4,2,1,50,0,0
5386,-100,4,2,1,50,0,0
5949,-142.857142857143,4,2,1,50,0,0
6886,-100,4,2,1,50,0,0
7074,-83.3333333333333,4,2,1,70,0,0
10074,-83.3333333333333,4,2,1,75,0,0
10261,-83.3333333333333,4,2,1,70,0,0
10449,-83.3333333333333,4,2,1,65,0,0
10636,-83.3333333333333,4,2,1,60,0,0
10824,-83.3333333333333,4,2,1,55,0,0
11199,-83.3333333333333,4,2,1,50,0,0
11574,-25,4,2,1,55,0,0
11761,-25,4,2,1,60,0,0
11949,-25,4,2,1,65,0,0
12136,-25,4,2,1,70,0,0
12324,-71.4285714285714,4,2,1,60,0,0
13074,-83.3333333333333,4,2,1,80,0,0
15699,-66.6666666666667,4,2,1,80,0,0
16074,-83.3333333333333,4,2,1,80,0,0
18699,-50,4,2,1,80,0,0
19074,-83.3333333333333,4,2,1,80,0,0
24699,-200,4,2,1,80,0,0
25074,-83.3333333333333,4,2,1,80,0,0
27511,-66.6666666666667,4,2,1,80,0,0
28074,-83.3333333333333,4,2,1,80,0,0
35761,-83.3333333333333,4,2,22,80,0,0
35949,-83.3333333333333,4,2,22,80,0,0
36089,-83.3333333333333,4,2,1,5,0,0
36136,-83.3333333333333,4,2,22,80,0,0
36277,-83.3333333333333,4,2,1,5,0,0
36324,-83.3333333333333,4,2,22,80,0,0
36464,-83.3333333333333,4,2,1,5,0,0
36511,-83.3333333333333,4,2,22,80,0,0
36604,-83.3333333333333,4,2,1,5,0,0
36699,-83.3333333333333,4,2,1,80,0,0
37074,-142.857142857143,4,2,1,80,0,0
37449,-142.857142857143,4,2,1,50,0,0
42511,-142.857142857143,4,2,1,45,0,0
42699,-142.857142857143,4,2,1,40,0,0
42886,-142.857142857143,4,2,1,35,0,0
43074,-142.857142857143,4,2,1,80,0,0
43449,-142.857142857143,4,2,1,50,0,0
48511,-142.857142857143,4,2,1,45,0,0
48699,-142.857142857143,4,2,1,40,0,0
48886,-142.857142857143,4,2,1,35,0,0
49074,-142.857142857143,4,2,1,80,0,0
49449,-142.857142857143,4,2,1,50,0,0
49824,-142.857142857143,4,2,1,80,0,0
50199,-142.857142857143,4,2,1,50,0,0
50574,-142.857142857143,4,2,1,80,0,0
51511,-142.857142857143,4,2,1,60,0,0
51699,-142.857142857143,4,2,1,80,0,0
51886,-142.857142857143,4,2,1,60,0,0
52824,-142.857142857143,4,2,1,70,0,0
53199,-83.3333333333333,4,2,1,70,0,0
53574,-71.4285714285714,4,2,1,90,0,0
59386,-100,4,2,1,90,0,0
59574,-71.4285714285714,4,2,1,90,0,0
64074,-71.4285714285714,4,2,1,85,0,0
64261,-71.4285714285714,4,2,1,80,0,0
64449,-71.4285714285714,4,2,1,75,0,0
64636,-71.4285714285714,4,2,1,70,0,0
64824,-71.4285714285714,4,2,1,65,0,0
65199,-50,4,2,1,90,0,0
65574,-71.4285714285714,4,2,1,90,0,0
70261,-71.4285714285714,4,2,1,85,0,0
70449,-71.4285714285714,4,2,1,80,0,0
70636,-71.4285714285714,4,2,1,75,0,0
70824,-71.4285714285714,4,2,1,70,0,0
70886,-71.4285714285714,4,2,1,65,0,0
70949,-71.4285714285714,4,2,1,60,0,0
71011,-71.4285714285714,4,2,1,55,0,0
71074,-71.4285714285714,4,2,1,50,0,0
71136,-71.4285714285714,4,2,1,45,0,0
71199,-71.4285714285714,4,2,1,80,0,0
71574,-200,4,2,1,70,0,0
74574,-125,4,2,1,70,0,0
74949,-200,4,2,1,70,0,0
77199,-200,4,2,1,90,0,0
77574,-45.756203031911,4,2,1,85,0,0
77949,-90.9090909090909,4,2,1,60,0,0
79074,-76.9230769230769,4,2,1,60,0,0
79261,-66.6666666666667,4,2,1,60,0,0
79449,-58.8235294117647,4,2,1,60,0,0
79636,-52.6315789473684,4,2,1,60,0,0
79824,-90.9090909090909,4,2,1,60,0,0
82449,-76.9230769230769,4,2,1,60,0,0
82824,-66.6666666666667,4,2,1,60,0,0
83199,-58.8235294117647,4,2,1,90,0,0
83574,-68.5710763122814,4,2,1,80,0,0
83949,-66.6666666666667,4,2,1,60,0,0
84324,-100,4,2,1,60,0,0
84699,-66.6666666666667,4,2,1,60,0,0
85074,-76.9230769230769,4,2,1,60,0,0
85261,-66.6666666666667,4,2,1,60,0,0
85449,-58.8235294117647,4,2,1,60,0,0
85636,-52.6315789473684,4,2,1,60,0,0
85824,-90.9090909090909,4,2,1,60,0,0
89574,-50.3922372204265,4,2,1,80,0,0
89949,-125,4,2,1,70,0,0
92574,-83.3333333333333,4,2,1,70,0,0
94636,-125,4,2,1,70,0,0
95199,-370.37037037037,4,2,1,70,0,0
95574,-62.7712536834713,4,2,1,80,0,0
95949,-83.3333333333333,4,2,1,70,0,0
98949,-66.6666666666667,4,2,1,70,0,0
99324,-83.3333333333333,4,2,1,70,0,0
99699,-66.6666666666667,4,2,1,70,0,0
100824,-50,4,2,1,70,0,0
100886,-50,4,2,1,5,0,0
101011,-50,4,2,1,70,0,0
101074,-50,4,2,1,5,0,0
101199,-50,4,2,1,70,0,0
101386,-50,4,2,1,70,0,0
101449,-50,4,2,1,5,0,0
101574,-142.857142857143,4,2,1,70,0,0
101949,-142.857142857143,4,2,1,50,0,0
106449,-142.857142857143,4,2,23,50,0,0
106480,-142.857142857143,4,2,1,5,0,0
106511,-142.857142857143,4,2,23,50,0,0
106542,-142.857142857143,4,2,1,5,0,0
106574,-142.857142857143,4,2,23,50,0,0
106605,-142.857142857143,4,2,1,5,0,0
106636,-142.857142857143,4,2,23,50,0,0
106667,-142.857142857143,4,2,1,5,0,0
106699,-142.857142857143,4,2,23,50,0,0
106730,-142.857142857143,4,2,1,5,0,0
106761,-142.857142857143,4,2,23,50,0,0
106792,-142.857142857143,4,2,2,5,0,0
106824,-142.857142857143,4,2,23,50,0,0
106855,-142.857142857143,4,2,1,5,0,0
106886,-142.857142857143,4,2,23,50,0,0
106917,-142.857142857143,4,2,1,5,0,0
106949,-142.857142857143,4,2,23,50,0,0
106980,-142.857142857143,4,2,1,5,0,0
107011,-142.857142857143,4,2,23,50,0,0
107042,-142.857142857143,4,2,1,5,0,0
107074,-142.857142857143,4,2,23,50,0,0
107105,-142.857142857143,4,2,1,50,0,0
107199,-71.4285714285714,4,2,1,50,0,0
107574,-100,4,2,1,70,0,0
107949,-142.857142857143,4,2,1,50,0,0
113199,-71.4285714285714,4,2,1,70,0,0
113574,-71.4285714285714,4,2,1,90,0,0
113949,-83.3333333333333,4,2,1,90,0,0
114324,-71.4285714285714,4,2,1,90,0,0
115449,-83.3333333333333,4,2,1,90,0,0
115824,-71.4285714285714,4,2,1,90,0,0
119386,-100,4,2,1,90,0,0
119574,-71.4285714285714,4,2,1,90,0,0
125199,-50,4,2,1,90,0,0
125574,-71.4285714285714,4,2,1,90,0,0
131199,-83.3333333333333,4,2,1,90,0,0
131386,-62.5,4,2,1,90,0,0
131949,-133.333333333333,4,2,1,60,0,0
132230,-133.333333333333,4,2,1,5,0,0
132324,-100,4,2,1,60,0,0
132417,-100,4,2,1,5,0,0
132511,-80,4,2,1,60,0,0
132605,-80,4,2,1,5,0,0
132699,-66.6666666666667,4,2,1,60,0,0
133074,-100,4,2,1,60,0,0
133542,-100,4,2,1,63,0,0
133636,-100,4,2,1,66,0,0
133730,-100,4,2,1,69,0,0
133824,-100,4,2,1,72,0,0
133917,-100,4,2,1,75,0,0
134011,-100,4,2,1,80,0,0
134199,-66.6666666666667,4,2,1,80,0,0
134949,-25,4,2,1,40,0,0
135324,-71.4285714285714,4,2,1,60,0,0
135464,-71.4285714285714,4,2,1,5,0,0
135511,-71.4285714285714,4,2,1,60,0,0
135699,-71.4285714285714,4,2,1,60,0,0
135839,-71.4285714285714,4,2,1,5,0,0
135886,-71.4285714285714,4,2,1,60,0,0
136402,-83.3333333333333,4,2,1,5,0,0
136449,-83.3333333333333,4,2,1,60,0,0
136777,-100,4,2,1,5,0,0
136824,-100,4,2,1,60,0,0
137199,-71.4285714285714,4,2,1,60,0,0
137574,-66.6666666666667,4,2,1,60,0,0
137949,-62.5,4,2,1,60,0,0
139074,-71.4285714285714,4,2,1,60,0,0
139261,-66.6666666666667,4,2,1,60,0,0
139449,-62.5,4,2,1,60,0,0
139636,-58.8235294117647,4,2,1,60,0,0
139824,-100,4,2,1,80,0,0
140011,-100,4,2,1,75,0,0
140199,-100,4,2,1,70,0,0
140386,-100,4,2,1,60,0,0
140574,-66.6666666666667,4,2,1,60,0,0
140949,-25,4,2,1,40,0,0
141324,-71.4285714285714,4,2,1,60,0,0
141464,-71.4285714285714,4,2,1,5,0,0
141511,-71.4285714285714,4,2,1,60,0,0
141651,-71.4285714285714,4,2,1,5,0,0
141699,-71.4285714285714,4,2,1,60,0,0
141839,-71.4285714285714,4,2,1,5,0,0
141886,-71.4285714285714,4,2,1,60,0,0
142402,-62.5,4,2,1,5,0,0
142449,-62.5,4,2,1,60,0,0
142824,-62.5,4,2,1,60,0,0
143199,-58.8235294117647,4,2,1,60,0,0
143386,-71.4285714285714,4,2,1,60,0,0
143527,-66.6666666666667,4,2,1,5,0,0
143574,-66.6666666666667,4,2,1,60,0,0
143949,-83.3333333333333,4,2,1,60,0,0
144324,-71.4285714285714,4,2,1,60,0,0
145074,-83.3333333333333,4,2,1,60,0,0
146199,-71.4285714285714,4,2,1,60,0,0
146574,-71.4285714285714,4,2,1,40,0,0
158574,-71.4285714285714,4,2,1,60,0,0
158761,-71.4285714285714,4,2,1,40,0,0
158949,-133.333333333333,4,2,1,40,0,0
164574,-71.4285714285714,4,2,1,60,0,0
164761,-71.4285714285714,4,2,1,40,0,0
164949,-71.4285714285714,4,2,1,40,0,0
165324,-133.333333333333,4,2,1,40,0,0
167574,-66.6666666666667,4,2,1,60,0,0
167949,-66.6666666666667,4,2,1,40,0,0
168324,-100,4,2,1,60,0,0
168699,-100,4,2,1,40,0,0
168886,-100,4,2,1,60,0,0
169074,-100,4,2,1,40,0,0
169261,-100,4,2,1,60,0,0
170199,-166.666666666667,4,2,1,60,0,0
170574,-71.4285714285714,4,2,1,80,0,0
172355,-71.4285714285714,4,2,1,5,0,0
172449,-71.4285714285714,4,2,1,80,0,0
172542,-71.4285714285714,4,2,1,5,0,0
172636,-71.4285714285714,4,2,1,80,0,0
172730,-71.4285714285714,4,2,1,5,0,0
172824,-71.4285714285714,4,2,1,80,0,0
172917,-71.4285714285714,4,2,1,5,0,0
173011,-71.4285714285714,4,2,1,80,0,0
173199,-166.666666666667,4,2,1,60,0,0
173574,-71.4285714285714,4,2,1,80,0,0
175355,-71.4285714285714,4,2,1,5,0,0
175449,-71.4285714285714,4,2,1,80,0,0
175542,-71.4285714285714,4,2,1,5,0,0
175636,-71.4285714285714,4,2,1,80,0,0
175730,-71.4285714285714,4,2,1,5,0,0
175824,-71.4285714285714,4,2,1,80,0,0
175917,-71.4285714285714,4,2,1,5,0,0
176011,-71.4285714285714,4,2,1,80,0,0
178355,-71.4285714285714,4,2,1,5,0,0
178449,-71.4285714285714,4,2,1,80,0,0
178542,-71.4285714285714,4,2,1,5,0,0
178636,-71.4285714285714,4,2,1,80,0,0
178730,-71.4285714285714,4,2,1,5,0,0
178824,-71.4285714285714,4,2,1,80,0,0
178917,-71.4285714285714,4,2,1,5,0,0
179011,-71.4285714285714,4,2,1,80,0,0
179199,-166.666666666667,4,2,1,60,0,0
179574,-62.5,4,2,1,80,0,0
181261,-166.666666666667,4,2,1,80,0,0
181824,-333.333333333333,4,2,1,50,0,0
183511,-333.333333333333,4,2,1,70,0,0
184074,-166.666666666667,4,2,1,70,0,0
190824,-166.666666666667,4,2,1,50,0,0
191574,-71.4285714285714,4,2,1,90,0,0
194199,-125,4,2,1,90,0,0
194574,-71.4285714285714,4,2,1,90,0,0
197386,-100,4,2,1,90,0,0
197574,-71.4285714285714,4,2,1,90,0,0
203574,-100,4,2,1,90,0,0
203949,-57.1428571428571,4,2,1,90,0,0
204324,-100,4,2,1,90,0,0
204699,-57.1428571428571,4,2,1,90,0,0
205074,-100,4,2,1,90,0,0
205449,-57.1428571428571,4,2,1,90,0,0
205824,-100,4,2,1,90,0,0
206574,-57.1428571428571,4,2,1,90,0,0
207699,-100,4,2,1,90,0,0
208074,-57.1428571428571,4,2,1,90,0,0
208495,-57.1428571428571,4,2,1,5,0,0
209011,-71.4285714285714,4,2,1,80,0,0
209574,-71.4285714285714,4,2,1,90,0,0
214636,-100,4,2,1,50,0,0
214730,-100,4,2,1,55,0,0
214824,-100,4,2,1,60,0,0
214917,-100,4,2,1,65,0,0
215011,-100,4,2,1,70,0,0
215105,-100,4,2,1,75,0,0
215199,-100,4,2,1,80,0,0
215292,-100,4,2,1,85,0,0
215386,-100,4,2,1,90,0,0
215480,-100,4,2,1,95,0,0
215574,-100,4,2,1,100,0,0
215949,-83.3333333333333,4,2,1,70,0,0
216699,-100,4,2,1,70,0,0
217449,-83.3333333333333,4,2,1,70,0,0
217824,-71.4285714285714,4,2,1,70,0,0
218574,-58.8235294117647,4,2,1,70,0,0
218949,-83.3333333333333,4,2,1,70,0,0
219324,-71.4285714285714,4,2,1,70,0,0
220074,-58.8235294117647,4,2,1,70,0,0
220449,-83.3333333333333,4,2,1,70,0,0
221199,-200,4,2,1,50,0,0
221574,-83.3333333333333,4,2,1,80,0,0
224574,-83.3333333333333,4,2,1,90,0,0
227949,-83.3333333333333,4,2,1,30,0,0
229074,-133.333333333333,4,2,1,35,0,0
229824,-133.333333333333,4,2,1,40,0,0
230199,-55.5555555555556,4,2,1,80,0,0

[Colours]
Combo1 : 26,240,149
Combo2 : 255,244,38
Combo3 : 17,249,255
Combo4 : 255,21,243
SliderBorder : 17,249,255

[HitObjects]
331,54,1074,6,0,B|348:91|348:91|333:189,1,131.99999597168,4|0,1:2|0:0,0:0:0:0:
149,247,3136,2,0,L|70:231,1,76.9999976501466,0|2,0:0|0:0,0:0:0:0:
154,329,3511,1,0,0:0:0:0:
154,329,3699,2,0,L|75:313,1,76.9999976501466,2|0,0:0|0:0,0:0:0:0:
199,168,4074,6,0,B|228:191|228:191|245:304,1,131.99999597168,4|0,1:2|0:0,0:0:0:0:
242,285,4449,1,2,0:0:0:0:
376,255,4824,2,0,B|500:280|500:280|495:315,1,153.999995300293,0|0,3:0|0:0,0:0:0:0:
499,197,5386,2,0,L|514:193,4,13.75,0|0|0|0|0,3:0|3:0|3:0|3:0|3:0,0:0:0:0:
499,197,5574,5,0,0:0:0:0:
414,178,5761,1,0,3:0:0:0:
459,51,5949,2,0,B|478:83|478:83|467:142,1,76.9999976501466,2|0,3:2|0:0,0:0:0:0:
329,159,6324,1,8,0:0:0:0:
212,68,6511,2,0,L|108:85,1,76.9999976501466,0|8,3:0|0:0,0:0:0:0:
230,142,6886,2,0,L|248:138,6,13.75,8|0|0|0|0|0|0,3:2|3:0|3:0|3:0|3:0|3:0|3:0,0:0:0:0:
223,159,7074,6,0,B|236:192|236:192|218:296,1,131.99999597168,4|0,1:2|0:0,0:0:0:0:
145,330,7355,1,0,0:0:0:0:
145,330,7449,6,0,B|41:312,1,65.9999979858399,0|0,1:0|0:0,0:0:0:0:
298,325,7636,2,0,B|363:336,1,65.9999979858399,0|0,3:0|3:0,0:0:0:0:
144,244,7824,2,0,B|40:226,1,65.9999979858399,0|0,1:0|0:0,0:0:0:0:
313,241,8011,2,0,B|378:252,1,65.9999979858399,0|0,3:0|3:0,0:0:0:0:
217,128,8199,1,12,1:0:0:0:
387,239,8386,2,0,B|432:246,2,32.99999899292,0|0|0,3:0|3:0|3:0,0:0:0:0:
378,252,8574,6,0,B|313:241,1,65.9999979858399,0|0,1:0|0:0,0:0:0:0:
447,170,8761,1,0,3:0:0:0:
447,170,8855,1,0,3:0:0:0:
447,170,8949,6,0,B|512:181,1,65.9999979858399,0|0,1:0|0:0,0:0:0:0:
337,77,9136,2,0,B|314:15,1,65.9999979858399,0|0,3:0|3:0,0:0:0:0:
419,92,9324,2,0,B|461:41,1,65.9999979858399,0|0,1:0|0:0,0:0:0:0:
283,140,9511,2,0,B|218:128,1,65.9999979858399,0|0,3:0|3:0,0:0:0:0:
106,20,9699,2,0,L|134:160,1,131.99999597168,12|0,1:0|0:0,0:0:0:0:
183,218,9980,1,0,0:0:0:0:
127,283,10074,6,0,L|57:297,1,65.9999979858399,0|0,1:0|3:0,0:0:0:0:
376,342,10261,2,0,L|446:328,1,65.9999979858399,0|0,3:0|3:0,0:0:0:0:
128,300,10449,2,0,L|56:295,1,65.9999979858399,0|0,1:0|3:0,0:0:0:0:
374,324,10636,2,0,L|445:328,1,65.9999979858399,0|0,3:0|3:0,0:0:0:0:
285,37,10824,6,0,L|287:1,2,32.99999899292,0|0|0,1:0|3:0|3:0,0:0:0:0:
291,47,11011,1,0,3:0:0:0:
248,114,11105,1,0,3:0:0:0:
285,185,11199,2,0,B|297:239|297:239|315:217,1,65.9999979858399,12|0,1:0|0:0,0:0:0:0:
106,20,11386,2,0,B|21:33,1,65.9999979858399,0|0,3:0|3:0,0:0:0:0:
328,118,11574,6,0,B|393:108,4,55,0|2|2|2|2,1:0|0:0|0:0|0:0|0:0,0:0:0:0:
183,218,11761,2,0,B|117:208,4,55,2|2|2|2|2,0:0|0:0|0:0|0:0|0:0,0:0:0:0:
204,91,11949,2,0,B|194:25,4,55,2|2|2|2|2,0:0|0:0|0:0|0:0|0:0,0:0:0:0:
301,242,12136,2,0,B|291:307,4,55,2|2|2|2|2,0:0|0:0|0:0|0:0|0:0,0:0:0:0:
252,165,12324,6,0,B|297:137|355:149|406:197|387:268|387:268|343:280|301:242|301:242|293:296|293:296|258:305|235:280|235:280|203:300|209:337|209:337|151:371,1,538.999983551026,4|0,0:1|0:0,0:0:0:0:
104,306,13074,5,4,1:0:0:0:
234,370,13261,2,0,L|336:353,1,65.9999979858399,2|0,0:1|0:0,0:0:0:0:
391,194,13449,5,0,1:0:0:0:
305,345,13636,2,0,L|407:362,1,65.9999979858399,2|0,0:1|0:0,0:0:0:0:
301,242,13824,5,0,1:0:0:0:
376,370,14011,2,0,L|478:353,1,65.9999979858399,2|0,0:1|0:0,0:0:0:0:
500,244,14199,5,0,1:0:0:0:
447,345,14386,2,0,L|549:362,1,65.9999979858399,2|0,0:1|0:0,0:0:0:0:
488,133,14574,5,0,1:0:0:0:
301,242,14761,1,2,0:0:0:0:
488,119,14949,1,0,1:0:0:0:
290,233,15136,1,2,0:0:0:0:
488,105,15324,1,0,1:1:0:0:
279,224,15511,2,0,L|208:207,1,65.9999979858399,2|0,0:0|0:0,0:0:0:0:
368,58,15699,6,0,B|408:76|414:133|377:165|336:159|336:159|268:142|268:142|299:108,1,247.500009441376,4|0,1:2|0:0,0:0:0:0:
361,244,16074,5,0,1:0:0:0:
236,75,16261,2,0,L|191:123,1,65.9999979858399,2|0,0:1|0:0,0:0:0:0:
279,224,16449,5,0,1:0:0:0:
204,48,16636,2,0,L|189:112,1,65.9999979858399,2|0,0:1|0:0,0:0:0:0:
197,204,16824,5,0,1:0:0:0:
162,40,17011,2,0,L|181:102,1,65.9999979858399,2|0,0:1|0:0,0:0:0:0:
115,184,17199,5,0,1:0:0:0:
121,54,17386,2,0,L|168:99,1,65.9999979858399,2|0,0:1|0:0,0:0:0:0:
33,164,17573,5,0,1:0:0:0:
221,286,17761,1,2,0:0:0:0:
20,170,17948,1,0,1:0:0:0:
219,299,18136,1,2,0:0:0:0:
8,177,18323,1,0,1:0:0:0:
217,313,18511,2,0,L|296:300,1,65.9999979858399,8|0,0:0|0:0,0:0:0:0:
74,276,18699,6,0,B|80:316|80:316|74:347|74:347|83:394,1,110,4|0,1:2|0:0,0:0:0:0:
151,214,18886,2,0,B|144:173|144:173|151:143|151:143|142:96,1,110,8|0,0:0|0:0,0:0:0:0:
366,288,19074,5,0,1:0:0:0:
366,288,19261,1,2,0:0:0:0:
217,313,19449,1,2,1:2:0:0:
435,178,19636,1,2,0:0:0:0:
412,358,19824,5,0,1:0:0:0:
389,108,20011,1,2,0:2:0:0:
291,300,20199,1,2,1:2:0:0:
481,248,20386,1,2,0:0:0:0:
238,208,20574,6,0,B|128:191|128:191|122:228,1,131.99999597168,0|2,1:0|0:2,0:0:0:0:
11,216,20855,1,0,0:0:0:0:
11,216,20949,2,0,B|121:232|121:232|127:196,1,131.99999597168,0|2,1:0|0:2,0:0:0:0:
28,106,21324,5,2,1:2:0:0:
26,292,21511,2,0,B|136:308,1,65.9999979858399,8|0,0:2|0:0,0:0:0:0:
238,210,21699,1,8,1:2:0:0:
154,382,21886,1,8,0:0:0:0:
154,382,21980,1,0,0:0:0:0:
154,382,22074,6,0,B|182:195,1,131.99999597168,0|2,1:0|0:0,0:0:0:0:
248,144,22355,1,2,0:0:0:0:
248,144,22449,2,0,B|233:235,1,65.9999979858399,0|0,1:2|0:0,0:0:0:0:
348,310,22636,1,2,0:0:0:0:
500,154,22824,6,0,B|313:125,1,131.99999597168,0|2,1:0|0:0,0:0:0:0:
262,60,23105,1,2,0:0:0:0:
262,60,23199,2,0,B|353:74,1,65.9999979858399,0|0,1:0|0:0,0:0:0:0:
486,238,23386,1,2,0:0:0:0:
388,384,23574,6,0,P|334:372|367:306,1,131.99999597168,0|2,1:0|0:0,0:0:0:0:
470,175,23855,1,2,0:0:0:0:
470,175,23949,2,0,P|483:205|486:238,1,65.9999979858399,0|0,1:0|0:0,0:0:0:0:
241,309,24136,1,2,0:0:0:0:
349,4,24324,5,0,1:0:0:0:
363,83,24417,1,0,1:0:0:0:
316,148,24511,1,0,1:0:0:0:
237,160,24605,1,0,1:0:0:0:
172,113,24699,6,0,P|132:113|93:144,1,82.5,12|0,1:0|0:0,0:0:0:0:
90,225,25074,6,0,P|151:236|140:171,1,131.99999597168,4|2,1:2|0:0,0:0:0:0:
27,103,25355,1,0,0:0:0:0:
27,103,25449,2,0,P|20:144|35:186,1,65.9999979858399,0|0,1:0|0:0,0:0:0:0:
29,328,25636,6,0,L|129:319,1,65.9999979858399,2|0,0:0|0:0,0:0:0:0:
269,235,25824,1,2,1:2:0:0:
330,296,26011,6,0,L|335:361,1,65.9999979858399,2|2,0:0|0:0,0:0:0:0:
455,119,26199,1,0,1:0:0:0:
434,204,26386,6,0,L|328:213,1,65.9999979858399,2|0,0:0|0:0,0:0:0:0:
476,34,26574,5,2,1:2:0:0:
455,119,26761,1,2,0:0:0:0:
248,150,26949,1,0,1:2:0:0:
269,235,27136,1,2,0:0:0:0:
434,204,27324,5,0,1:0:0:0:
248,150,27511,2,0,L|142:159,1,82.5000031471254,8|0,0:2|0:0,0:0:0:0:
327,144,27699,1,0,1:0:0:0:
86,162,27886,2,0,L|-20:171,1,82.5000031471254,8|0,0:0|0:0,0:0:0:0:
183,42,28074,6,0,P|236:96|244:174,1,131.99999597168,0|2,1:0|0:0,0:0:0:0:
186,244,28355,1,2,0:0:0:0:
186,244,28449,2,0,L|-4:260,1,131.99999597168,0|2,1:0|0:0,0:0:0:0:
157,340,28730,1,2,0:0:0:0:
157,340,28824,6,0,L|271:349,1,65.9999979858399,0|0,1:0|0:0,0:0:0:0:
309,353,29011,2,0,L|423:362,1,65.9999979858399,2|0,0:0|0:0,0:0:0:0:
512,263,29199,2,0,L|321:279,1,131.99999597168,0|2,1:0|0:0,0:0:0:0:
253,172,29574,5,0,1:0:0:0:
309,353,29761,1,2,0:0:0:0:
338,158,29949,1,2,1:2:0:0:
183,35,30136,2,0,B|170:69|170:69|195:109,1,65.9999979858399,2|0,0:0|0:0,0:0:0:0:
307,238,30324,5,0,1:0:0:0:
168,186,30511,2,0,B|144:172|144:172|28:191,2,131.99999597168,8|8|8,0:0|1:2|0:0,0:0:0:0:
307,238,31074,2,0,B|331:252|331:252|447:233,1,131.99999597168,0|2,1:0|0:0,0:0:0:0:
276,318,31449,1,2,1:2:0:0:
338,158,31636,1,0,0:0:0:0:
260,315,31824,6,0,B|236:329|236:329|98:303|98:303|68:321,1,197.99999395752,2|0,1:2|0:0,0:0:0:0:
9,366,32199,1,0,1:0:0:0:
166,316,32386,1,2,0:0:0:0:
166,316,32480,1,2,0:0:0:0:
166,316,32574,6,0,L|190:186,1,131.99999597168,0|2,1:0|0:0,0:0:0:0:
10,237,32949,1,2,1:2:0:0:
102,384,33136,1,2,0:0:0:0:
260,315,33324,6,0,B|284:301|284:301|422:327|422:327|452:309,1,197.99999395752,0|0,1:0|0:0,0:0:0:0:
511,264,33699,1,0,1:0:0:0:
299,379,33886,1,2,0:0:0:0:
378,171,34074,6,0,B|408:256|408:256|349:244,1,131.99999597168,0|2,1:0|0:0,0:0:0:0:
271,114,34449,2,0,B|329:45|329:45|348:102,1,131.99999597168,0|2,1:0|0:0,0:0:0:0:
276,236,34824,2,0,B|187:219|187:219|227:174,1,131.99999597168,0|2,1:0|0:0,0:0:0:0:
418,103,35199,1,0,1:0:0:0:
187,122,35386,1,2,0:0:0:0:
256,336,35574,5,0,1:0:0:0:
256,336,35761,2,2,B|268:266|329:188|383:167|426:173|426:173|401:183|392:195|392:195|329:188|329:188|262:222|213:184|213:184|168:197|168:197|210:226|209:266,1,593.999981872559,0|2,0:1|0:1,2:1:0:0:
131,268,36699,1,12,1:0:0:0:
131,268,37074,6,0,L|6:251,1,115.49999647522,4|0,0:0|0:0,0:0:0:0:
16,252,37449,1,8,0:0:0:0:
67,110,37636,2,0,L|85:196,1,76.9999976501466,0|0,1:0|0:0,0:0:0:0:
157,131,38011,1,0,1:0:0:0:
157,131,38199,1,8,0:0:0:0:
227,71,38386,1,0,1:0:0:0:
317,92,38574,5,0,1:0:0:0:
227,71,38761,1,0,1:0:0:0:
227,71,38949,1,10,0:0:0:0:
317,92,39136,2,0,L|415:74,1,76.9999976501466,0|0,1:0|0:0,0:0:0:0:
488,47,39511,2,0,L|454:140,1,76.9999976501466,0|8,1:0|0:0,0:0:0:0:
441,217,39886,1,0,1:0:0:0:
441,217,40074,6,0,L|376:141,1,76.9999976501466,0|0,1:0|0:0,0:0:0:0:
391,158,40449,1,8,0:0:0:0:
365,261,40636,2,0,B|357:291|357:291|248:317,1,115.49999647522,0|0,1:0|0:0,0:0:0:0:
237,318,41011,1,0,1:0:0:0:
237,318,41199,1,8,0:0:0:0:
153,278,41386,1,0,1:0:0:0:
237,318,41574,5,0,3:0:0:0:
153,278,41761,2,0,L|83:245,1,76.9999976501466,2|2,1:0|3:0,0:0:0:0:
229,225,42136,1,2,1:0:0:0:
229,225,42324,2,0,L|159:192,1,76.9999976501466,0|2,0:0|1:1,0:0:0:0:
159,192,42699,1,2,1:0:0:0:
153,15,42886,1,0,3:0:0:0:
64,39,43074,6,0,L|74:155,1,115.49999647522,4|0,0:2|0:0,0:0:0:0:
73,154,43449,1,8,0:0:0:0:
234,95,43636,2,0,L|157:101,1,76.9999976501466,0|0,1:0|0:0,0:0:0:0:
159,192,44011,1,0,1:0:0:0:
159,192,44199,1,8,0:0:0:0:
244,230,44386,1,0,1:0:0:0:
263,320,44574,5,0,1:0:0:0:
244,230,44761,1,0,3:0:0:0:
244,230,44949,1,8,0:0:0:0:
263,320,45136,2,0,L|357:331,1,76.9999976501466,0|0,1:0|0:0,0:0:0:0:
431,341,45511,1,0,1:0:0:0:
431,341,45699,1,8,0:0:0:0:
396,254,45886,1,0,1:0:0:0:
488,267,46074,6,0,L|499:173,1,76.9999976501466,0|0,1:0|0:0,0:0:0:0:
396,254,46449,2,0,L|407:160,1,76.9999976501466,8|0,0:0|1:0,0:0:0:0:
329,35,46824,2,0,L|338:112,1,76.9999976501466,0|0,0:0|1:0,0:0:0:0:
237,49,47199,2,0,L|248:143,1,76.9999976501466,8|0,0:0|1:0,0:0:0:0:
178,188,47574,5,0,3:0:0:0:
86,177,47761,1,0,1:0:0:0:
86,177,47949,1,8,0:0:0:0:
3,167,48136,2,0,P|65:200|93:271,1,115.49999647522,0|0,1:0|0:0,0:0:0:0:
91,275,48511,1,4,3:0:0:0:
91,275,48699,1,8,3:0:0:0:
64,363,48886,1,4,3:0:0:0:
306,310,49074,5,4,1:2:0:0:
306,310,49449,1,2,3:0:0:0:
256,192,49636,1,0,1:0:0:0:
206,74,49824,5,4,1:2:0:0:
206,74,50199,1,2,3:0:0:0:
256,192,50386,1,0,1:0:0:0:
306,310,50574,5,4,1:2:0:0:
206,74,50949,1,4,1:2:0:0:
294,307,51324,5,4,1:2:0:0:
218,77,51511,1,0,1:0:0:0:
282,304,51699,1,4,1:2:0:0:
230,80,51886,1,0,1:0:0:0:
256,192,52074,5,4,1:0:0:0:
256,192,52824,6,0,L|194:182,1,38.4999988250733,2|0,3:0|0:0,0:0:0:0:
407,119,53011,1,0,3:0:0:0:
389,127,53105,1,0,3:0:0:0:
425,111,53199,2,0,B|257:84|257:84|283:128,1,197.99999395752,0|0,1:0|0:0,0:0:0:0:
333,215,53574,6,0,P|325:312|238:269,1,230.99999295044,4|0,1:2|0:0,0:0:0:0:
142,215,53949,6,0,B|146:187|171:170|171:170|205:156|229:170|229:170|253:183|261:219|261:219|259:249|238:267,1,230.99999295044,4|0,1:2|0:0,0:0:0:0:
77,247,54324,6,0,P|133:280|143:216,1,153.999995300293,4|2,1:2|1:2,0:0:0:0:
57,132,54699,1,0,1:0:0:0:
35,353,54886,1,2,1:2:0:0:
237,267,55074,6,0,L|464:307,1,230.99999295044,4|0,1:2|0:0,0:0:0:0:
339,159,55449,2,0,B|328:216|328:216|322:230|322:230|321:251|321:251|323:269|323:269|314:291|314:291|307:311|307:311|308:332|308:332|297:386,1,230.99999295044,4|0,1:2|0:0,0:0:0:0:
474,297,55824,2,0,L|322:269,1,153.999995300293,4|2,1:2|1:2,0:0:0:0:
432,143,56199,1,0,1:0:0:0:
246,175,56386,1,2,1:2:0:0:
345,25,56574,6,0,B|414:41|496:7|496:7|467:46|488:115,1,230.99999295044,0|0,1:0|0:0,0:0:0:0:
432,143,56949,1,2,1:0:0:0:
212,80,57136,1,2,1:0:0:0:
426,157,57324,1,2,1:2:0:0:
151,209,57511,2,0,L|166:285,1,76.9999976501466,2|2,0:1|1:2,0:0:0:0:
246,175,57699,1,2,1:2:0:0:
116,113,57886,6,0,B|52:128|52:128|102:373,1,307.999990600586,0|2,1:1|1:0,0:0:0:0:
275,361,58449,2,0,P|315:360|362:322,1,76.9999976501466,2|0,1:2|0:0,0:0:0:0:
416,303,58636,2,0,P|456:304|503:342,1,76.9999976501466,2|0,1:0|0:0,0:0:0:0:
293,284,58824,1,2,1:2:0:0:
489,177,59011,1,2,1:0:0:0:
415,159,59105,1,0,1:0:0:0:
341,141,59199,1,2,1:0:0:0:
502,13,59386,2,0,P|481:38|447:50,1,55,0|0,1:0|0:0,0:0:0:0:
377,39,59574,6,0,P|282:63|340:141,1,230.99999295044,4|0,1:2|0:0,0:0:0:0:
409,226,59949,6,0,B|435:217|448:189|448:189|456:153|438:132|438:132|421:111|384:109|384:109|355:116|341:140,1,230.99999295044,4|0,1:2|0:0,0:0:0:0:
390,298,60324,6,0,P|347:248|408:226,1,153.999995300293,4|2,1:2|1:2,0:0:0:0:
482,351,60699,1,0,1:0:0:0:
284,327,60886,1,2,1:2:0:0:
173,183,61074,6,0,B|121:181|94:246|94:246|60:317|-4:314,1,230.99999295044,4|0,1:2|0:0,0:0:0:0:
9,136,61449,2,0,B|61:134|88:199|88:199|122:270|186:267,1,230.99999295044,4|0,1:2|0:0,0:0:0:0:
249,219,61824,1,0,1:2:0:0:
8,209,62011,5,2,1:0:0:0:
305,157,62199,1,0,1:0:0:0:
512,373,62386,1,2,1:0:0:0:
223,139,62574,5,2,1:0:0:0:
488,289,62761,1,0,1:0:0:0:
135,361,62949,1,4,1:2:0:0:
135,361,63324,5,2,1:0:0:0:
427,351,63511,1,0,1:0:0:0:
512,68,63699,1,4,1:2:0:0:
281,356,63886,1,2,1:0:0:0:
180,91,64074,6,0,P|236:143|256:217,1,153.999995300293,0|2,1:0|3:1,0:0:0:0:
103,282,64355,1,0,3:0:0:0:
60,208,64449,2,0,P|96:197|144:207,1,76.9999976501466,0|0,3:0|3:0,0:0:0:0:
452,208,64636,2,0,P|415:197|368:207,1,76.9999976501466,2|0,1:0|3:0,0:0:0:0:
256,368,64824,5,2,1:0:0:0:
256,292,65011,1,4,3:0:0:0:
253,307,65105,1,4,3:0:0:0:
250,322,65199,2,0,P|245:265|254:182,1,110,8|0,3:0|0:0,0:0:0:0:
264,110,65386,2,0,P|269:167|260:250,1,110,4|0,3:0|0:0,0:0:0:0:
16,129,65574,5,4,1:2:0:0:
23,115,65761,2,0,L|151:104,1,76.9999976501466,0|0,0:0|0:0,0:0:0:0:
241,22,65949,2,0,L|164:15,1,76.9999976501466,2|0,1:0|0:0,0:0:0:0:
275,120,66136,2,0,L|403:109,1,76.9999976501466,2|0,0:1|0:0,0:0:0:0:
510,33,66324,5,0,1:0:0:0:
496,25,66511,2,0,L|479:134,1,76.9999976501466,2|0,0:0|1:0,0:0:0:0:
446,303,66699,2,0,L|418:125,1,153.999995300293,2|2,1:0|1:0,0:0:0:0:
510,210,66980,1,0,0:0:0:0:
510,210,67074,5,0,1:0:0:0:
510,210,67261,2,0,L|401:227,1,76.9999976501466,0|0,0:0|0:0,0:0:0:0:
373,372,67449,2,0,L|361:295,1,76.9999976501466,2|0,1:1|0:0,0:0:0:0:
197,261,67636,1,2,0:1:0:0:
197,261,67730,1,0,0:0:0:0:
197,261,67824,6,0,L|273:249,1,76.9999976501466,0|0,1:0|0:0,0:0:0:0:
129,186,68011,2,0,P|85:187|47:169,1,76.9999976501466,2|0,0:1|1:0,0:0:0:0:
214,16,68199,2,0,P|239:90|221:175,1,153.999995300293,2|2,1:0|1:0,0:0:0:0:
99,283,68480,1,0,0:0:0:0:
99,283,68574,5,0,1:0:0:0:
99,283,68761,2,0,P|61:311|32:360,1,76.9999976501466,0|0,0:0|0:0,0:0:0:0:
197,261,68949,2,0,P|202:307|230:357,1,76.9999976501466,2|0,1:0|0:0,0:0:0:0:
226,165,69136,2,0,P|269:183|326:184,1,76.9999976501466,2|0,0:1|0:0,0:0:0:0:
392,56,69324,5,0,1:0:0:0:
377,50,69417,1,0,0:0:0:0:
361,49,69511,2,0,L|372:156,1,76.9999976501466,0|0,0:0|1:0,0:0:0:0:
429,171,69699,2,0,L|440:278,1,76.9999976501466,2|0,1:0|0:0,0:0:0:0:
497,293,69886,2,0,L|508:400,1,76.9999976501466,2|0,1:0|0:0,0:0:0:0:
512,164,70074,5,0,1:0:0:0:
508,149,70261,2,0,P|471:144|425:166,1,76.9999976501466,2|0,3:2|0:0,0:0:0:0:
226,165,70449,2,0,P|261:179|302:239,1,76.9999976501466,2|0,1:1|0:0,0:0:0:0:
436,247,70636,2,0,P|414:283|409:338,1,76.9999976501466,0|0,3:1|0:0,0:0:0:0:
283,316,70824,6,0,L|292:375,2,51.3333317667644,8|8|8,3:0|3:0|3:0,0:0:0:0:
317,336,71011,2,0,L|295:391,2,51.3333317667644,4|4|4,3:0|3:0|3:0,0:0:0:0:
378,384,71199,1,12,1:0:0:0:
222,240,71574,6,0,P|196:271|182:310,1,82.5,4|0,3:1|0:0,0:0:0:0:
182,310,71949,2,0,P|208:279|222:240,1,82.5,2|0,3:0|0:0,0:0:0:0:
129,158,72324,6,0,L|60:147,1,55,2|0,3:0|0:0,0:0:0:0:
186,100,72605,1,0,3:0:0:0:
186,100,72699,2,0,L|161:34,1,55,2|2,3:0|3:0,0:0:0:0:
264,120,73074,5,0,3:0:0:0:
264,120,73261,2,0,L|286:92,1,27.5,2|0,3:0|0:0,0:0:0:0:
348,156,73449,2,0,L|353:121,1,27.5,2|0,3:0|0:0,0:0:0:0:
438,145,73636,2,0,L|425:112,1,27.5,2|0,3:0|0:0,0:0:0:0:
462,50,73824,6,0,L|451:156,1,82.5,2|0,3:0|0:0,0:0:0:0:
402,228,74199,2,0,L|413:334,1,82.5,2|0,3:0|0:0,0:0:0:0:
478,354,74574,6,0,P|414:341|357:371,1,132,0|0,3:0|0:0,0:0:0:0:
251,336,74949,6,0,P|212:350|169:351,1,82.5,2|0,3:0|0:0,0:0:0:0:
80,288,75324,2,0,P|55:276|28:271,1,55,2|0,3:0|3:0,0:0:0:0:
153,241,75605,1,0,3:0:0:0:
153,241,75699,2,0,P|150:213|141:187,1,55,2|2,3:0|3:0,0:0:0:0:
50,97,76074,2,0,L|59:36,1,55,2|2,0:0|0:0,0:0:0:0:
176,114,76449,5,0,3:0:0:0:
184,59,76542,1,2,0:0:0:0:
173,108,76636,5,0,3:0:0:0:
186,65,76729,1,2,0:0:0:0:
172,103,76823,5,0,3:0:0:0:
188,70,76916,1,2,0:0:0:0:
172,103,77011,5,0,3:0:0:0:
189,79,77105,1,2,0:0:0:0:
180,91,77199,5,2,1:3:0:0:
180,91,77574,6,0,B|186:90|191:89|191:89|193:84|193:84|194:94|194:94|196:88|196:88|202:88|207:88|207:88|209:83|209:83|209:93|209:93|212:88|212:88|218:88|223:89|223:89|226:85|226:85|224:94|224:94|227:90|227:90|234:91|238:93|238:93|242:89|242:89|239:98|239:98|243:94|243:94|249:96|253:98|253:98|257:95|257:95|253:104|253:104|257:101|257:101|263:104|267:106|267:106|272:103|272:103|266:112|266:112|271:109|271:109|276:113|279:116|279:116|285:114|285:114|278:121|278:121|283:119|283:119|288:124|290:127|290:127|296:126|296:126|288:132|288:132|294:131|294:131|297:136|300:140|300:140|305:140|305:140|297:145|297:145|302:145|302:145|305:150|307:154|307:154|313:155|313:155|303:159|303:159|309:159|309:159|311:165|312:169|312:169|318:171|318:171|308:173|308:173|314:174|314:174|314:179|315:181,1,360.606855687583,4|0,1:0|0:0,0:0:0:0:
401,175,77949,6,0,L|354:386,1,181.500005538941,2|0,0:3|0:0,0:0:0:0:
499,289,78324,2,0,L|380:262,1,121.000003692627,8|0,3:1|0:0,0:0:0:0:
243,325,78605,2,0,L|361:351,1,121.000003692627,2|0,0:3|0:0,0:0:0:0:
256,265,78886,2,0,L|242:324,1,60.5000018463135,2|0,0:3|0:0,0:0:0:0:
177,372,79074,6,0,L|159:295,1,71.4999967269899,0|0,1:0|0:0,0:0:0:0:
158,227,79261,2,0,L|137:319,1,82.5000031471254,2|0,0:3|0:0,0:0:0:0:
79,384,79449,2,0,L|56:284,1,93.500001783371,0|0,1:0|0:0,0:0:0:0:
181,125,79636,2,0,L|152:254,1,104.499997209549,2|0,0:3|0:0,0:0:0:0:
40,201,79824,6,0,L|208:238,1,121.000003692627,8|0,0:1|0:0,0:0:0:0:
271,144,80105,2,0,L|91:104,1,181.500005538941,2|0,0:3|0:0,0:0:0:0:
292,54,80574,6,0,L|247:254,1,181.500005538941,0|0,1:0|0:0,0:0:0:0:
397,177,80949,2,0,L|352:-23,1,181.500005538941,2|0,0:3|0:0,0:0:0:0:
495,61,81324,6,0,L|353:92,1,121.000003692627,8|0,0:1|0:0,0:0:0:0:
337,190,81605,1,2,0:3:0:0:
337,190,81699,2,0,L|419:171,1,60.5000018463135,0|0,0:0|0:0,0:0:0:0:
455,163,81886,2,0,L|395:176,1,60.5000018463135,2|0,0:3|0:0,0:0:0:0:
304,282,82074,6,0,L|386:263,1,60.5000018463135,0|0,1:0|0:0,0:0:0:0:
422,255,82261,2,0,L|362:268,1,60.5000018463135,2|0,0:3|0:0,0:0:0:0:
281,297,82449,6,0,L|363:278,1,71.4999967269899,0|0,1:0|0:0,0:0:0:0:
448,258,82636,2,0,L|365:276,1,71.4999967269899,2|0,0:3|0:0,0:0:0:0:
258,312,82824,6,0,L|356:289,1,82.5000031471254,8|0,0:1|0:0,0:0:0:0:
475,261,83011,2,0,L|383:281,1,82.5000031471254,0|0,0:0|0:0,0:0:0:0:
235,327,83199,6,0,L|544:257,1,280.500005350113,2|0,3:0|0:0,0:0:0:0:
315,384,83574,6,0,B|305:382|305:382|302:383|302:383|303:379|303:379|300:381|300:381|290:378|290:378|287:380|287:380|288:376|288:376|285:377|285:377|275:375|275:375|272:376|272:376|273:372|273:372|270:374|270:374|259:371|259:371|257:373|257:373|257:369|257:369|255:370|255:370|244:368|244:368|242:369|242:369|242:366|242:366|240:367|240:367|229:365|229:365|226:366|226:366|227:362|227:362|224:364|224:364|214:361|214:361|211:363|211:363|212:359|212:359|209:360|209:360|199:358|199:358|196:359|196:359|197:355|197:355|194:357|194:357|184:354|184:354|181:356|181:356|182:352|182:352|179:353|179:353|169:351|169:351|166:352|166:352|167:349|167:349|164:350|164:350|154:348|154:348|151:349|151:349|152:345|152:345|149:347|149:347|138:344,1,240.626243467391,4|0,1:0|0:0,0:0:0:0:
13,240,83949,6,0,L|173:276,1,165.000006294251,2|0,0:3|0:0,0:0:0:0:
441,189,84324,6,0,L|280:225,1,165,8|2,0:1|0:3,0:0:0:0:
133,183,84699,6,0,L|293:146,1,165.000006294251,0|2,0:0|0:3,0:0:0:0:
48,38,85074,6,0,L|73:149,1,71.4999967269899,0|0,1:0|0:0,0:0:0:0:
133,183,85261,2,0,L|158:71,1,82.5000031471254,2|0,0:3|0:0,0:0:0:0:
150,20,85449,2,0,L|175:131,1,93.500001783371,0|0,1:0|0:0,0:0:0:0:
109,284,85636,2,0,L|133:183,1,104.499997209549,0|0,0:0|0:0,0:0:0:0:
252,2,85824,6,0,L|288:165,1,121.000003692627,8|0,0:1|0:0,0:0:0:0:
302,227,86105,2,0,L|262:49,1,181.500005538941,2|0,0:3|0:0,0:0:0:0:
479,188,86574,6,0,L|301:227,1,181.500005538941,0|0,1:0|0:0,0:0:0:0:
240,365,86949,2,0,L|417:325,1,181.500005538941,2|0,0:3|0:0,0:0:0:0:
301,226,87324,2,0,L|328:349,1,121.000003692627,8|0,0:1|0:0,0:0:0:0:
240,365,87605,2,0,L|221:282,1,60.5000018463135,2|0,0:3|0:0,0:0:0:0:
210,232,87792,1,0,0:0:0:0:
210,232,87886,2,0,L|191:149,1,60.5000018463135,2|0,0:3|0:0,0:0:0:0:
103,136,88074,5,0,1:0:0:0:
109,165,88167,1,0,3:0:0:0:
119,209,88261,5,2,0:0:0:0:
125,238,88354,1,0,3:0:0:0:
135,282,88449,5,0,1:0:0:0:
141,311,88542,1,0,3:0:0:0:
151,355,88637,5,2,0:0:0:0:
157,384,88730,1,0,3:0:0:0:
69,350,88824,6,0,L|128:336,1,60.5000018463135,8|0,0:1|0:0,0:0:0:0:
222,314,89011,1,2,0:0:0:0:
11,265,89199,1,2,0:0:0:0:
241,211,89387,1,2,0:0:0:0:
15,19,89574,6,0,B|16:25|17:30|17:30|12:36|12:36|20:39|20:39|22:45|24:50|24:50|32:51|32:51|28:59|28:59|31:64|33:68|33:68|30:76|30:76|39:77|39:77|43:82|46:85|46:85|54:84|54:84|52:93|52:93|57:97|61:100|61:100|60:109|60:109|68:106|68:106|74:110|77:112|77:112|85:109|85:109|86:117|86:117|92:120|96:122|96:122|98:130|98:130|105:126|105:126|111:128|116:129|116:129|122:123|122:123|126:131|126:131|132:132|136:132|136:132|141:140|141:140|146:133|146:133|153:133|157:133|157:133|162:125|162:125|167:132|167:132|174:131|178:130|178:130|185:135|185:135|188:127|188:127|197:125|204:121,1,327.43139696796,4|0,1:0|0:0,0:0:0:0:
259,63,89949,5,2,3:2:0:0:
379,153,90136,1,0,3:0:0:0:
241,211,90324,1,2,3:2:0:0:
266,71,90511,5,4,1:3:0:0:
368,155,90699,1,2,3:2:0:0:
244,200,90886,1,0,3:0:0:0:
274,79,91074,5,4,1:3:0:0:
357,157,91261,2,0,L|288:141,1,44,2|0,3:2|0:0,0:0:0:0:
247,189,91449,1,2,3:2:0:0:
435,197,91636,6,0,L|444:154,1,44
358,275,91824,2,0,L|367:232,1,44,0|0,1:0|0:0,0:0:0:0:
503,239,92011,2,0,L|512:196,1,44,4|0,1:3|0:0,0:0:0:0:
425,317,92199,2,0,L|434:274,1,44,2|0,0:1|0:0,0:0:0:0:
254,196,92386,1,0,3:0:0:0:
254,196,92480,1,0,3:0:0:0:
254,196,92574,6,0,L|284:328,1,131.99999597168,4|0,1:3|0:0,0:0:0:0:
75,225,92949,5,2,3:2:0:0:
195,315,93136,1,0,0:0:0:0:
57,373,93324,1,2,3:2:0:0:
82,233,93511,5,4,1:3:0:0:
184,317,93699,1,2,3:2:0:0:
60,362,93886,1,2,0:0:0:0:
90,241,94074,5,4,1:3:0:0:
173,319,94261,1,2,0:0:0:0:
63,351,94449,1,2,3:2:0:0:
157,199,94636,6,0,L|148:156,1,44
224,157,94824,2,0,L|215:114,1,44,0|0,1:0|0:0,0:0:0:0:
79,121,95011,2,0,L|70:78,1,44,4|0,1:3|0:0,0:0:0:0:
147,79,95199,6,0,L|138:36,1,44.5500010876465,0|0,0:0|0:0,0:0:0:0:
283,76,95574,6,0,B|293:74|293:74|300:80|300:80|303:72|303:72|313:69|313:69|317:62|317:62|323:67|323:67|333:65|333:65|340:71|340:71|343:63|343:63|353:61|353:61|357:53|357:53|363:59|363:59|373:57|373:57|380:62|380:62|383:54|383:54|393:52|393:52|397:44|397:44|403:50|403:50|413:48|413:48|420:54|420:54|423:46|423:46|434:44|434:44|437:36|437:36|443:41|443:41|454:39|454:39|460:45|460:45|463:37|463:37|477:34,1,262.859167663951,4|0,1:2|0:0,0:0:0:0:
493,112,95949,5,4,1:3:0:0:
477,140,96042,1,0,3:0:0:0:
469,172,96136,1,2,3:2:0:0:
469,205,96230,1,2,3:2:0:0:
488,231,96324,5,4,1:3:0:0:
504,259,96417,1,2,3:2:0:0:
512,291,96511,1,0,3:2:0:0:
512,324,96605,1,2,3:2:0:0:
494,351,96699,6,0,L|399:335,1,65.9999979858399,4|0,1:3|3:0,0:0:0:0:
373,280,96886,1,2,3:2:0:0:
373,280,96980,1,2,3:2:0:0:
373,280,97074,6,0,L|278:296,1,65.9999979858399,4|2,1:3|3:2,0:0:0:0:
226,188,97261,2,0,L|242:283,1,65.9999979858399,0|2,3:0|3:2,0:0:0:0:
134,335,97449,2,0,L|229:319,1,65.9999979858399,4|0,1:3|3:0,0:0:0:0:
309,215,97636,2,0,L|298:149,1,65.9999979858399,2|2,3:2|3:2,0:0:0:0:
233,66,97824,5,4,1:3:0:0:
200,71,97917,1,2,3:2:0:0:
168,77,98011,2,0,L|102:87,1,65.9999979858399,0|2,3:0|0:2,0:0:0:0:
22,174,98199,2,0,L|87:163,1,65.9999979858399,4|0,1:3|0:0,0:0:0:0:
226,188,98386,2,0,L|160:198,1,65.9999979858399,2|2,3:2|0:2,0:0:0:0:
25,260,98574,6,0,P|19:325|47:384,1,131.99999597168,4|2,1:3|0:1,0:0:0:0:
135,226,98949,2,0,P|169:299|163:380,1,165.000006294251,4|2,1:3|0:1,0:0:0:0:
448,209,99324,6,0,P|453:274|425:333,1,131.99999597168,4|2,1:3|0:1,0:0:0:0:
338,175,99699,2,0,P|303:248|309:329,1,165.000006294251,4|2,1:3|0:1,0:0:0:0:
422,96,100074,6,0,L|468:82,2,41.2500015735627,4|0|0,3:0|3:0|3:0,0:0:0:0:
343,12,100261,1,2,0:0:0:0:
343,12,100355,1,2,0:0:0:0:
343,12,100449,2,0,L|389:-2,2,41.2500015735627,2|2|2,3:2|3:2|3:2,0:0:0:0:
259,91,100636,2,0,L|213:77,2,41.2500015735627,2|2|2,3:2|3:2|3:2,0:0:0:0:
154,137,100824,6,0,P|120:138|100:97,1,73.3333333333333,2|0,0:3|0:0,0:0:0:0:
55,25,101011,2,0,P|21:24|1:65,1,73.3333333333333,2|0,0:3|0:0,0:0:0:0:
0,258,101199,6,0,P|44:259|70:206,1,110,2|2,0:3|0:3,0:0:0:0:
206,221,101386,2,0,P|172:220|152:261,1,73.3333333333333,2|0,0:3|0:0,0:0:0:0:
232,320,101574,6,0,L|355:335,1,115.49999647522,4|0,0:2|0:0,0:0:0:0:
347,334,101949,1,8,0:0:0:0:
453,383,102136,2,0,L|435:309,1,76.9999976501466,0|0,1:0|0:0,0:0:0:0:
368,244,102511,1,0,1:0:0:0:
368,244,102699,1,8,0:0:0:0:
390,155,102886,1,0,1:0:0:0:
458,217,103074,5,0,1:0:0:0:
390,155,103261,1,0,1:0:0:0:
390,155,103449,1,8,0:0:0:0:
300,182,103636,2,0,L|214:162,1,76.9999976501466,0|0,1:0|0:0,0:0:0:0:
110,71,104011,2,0,L|134:145,1,76.9999976501466,0|8,1:0|0:0,0:0:0:0:
110,291,104386,1,0,1:0:0:0:
110,291,104574,6,0,L|169:226,1,76.9999976501466,0|0,1:0|0:0,0:0:0:0:
162,234,104949,1,8,0:0:0:0:
231,294,105136,2,0,L|288:345,1,76.9999976501466,0|0,1:0|0:0,0:0:0:0:
379,330,105511,1,0,3:0:0:0:
379,330,105699,1,8,0:0:0:0:
288,345,105886,1,0,1:0:0:0:
379,330,106074,5,0,3:0:0:0:
408,242,106261,1,0,1:0:0:0:
408,242,106449,2,2,B|406:238|354:235|348:168|388:125|446:137|462:177|462:177|474:75,1,269.499991775513,10|2,0:0|0:2,0:2:0:0:
482,87,107199,6,0,L|473:163,1,76.9999976501466,8|2,0:0|0:0,0:0:0:0:
482,304,107386,5,0,1:0:0:0:
482,304,107480,1,0,0:0:0:0:
482,304,107574,6,0,P|452:251|373:258,1,110,4|0,0:2|0:0,0:0:0:0:
339,305,107949,2,0,P|318:336|277:349,1,76.9999976501466,8|0,0:0|1:0,0:0:0:0:
211,290,108324,2,0,L|200:189,1,76.9999976501466,0|0,0:0|1:0,0:0:0:0:
202,213,108699,1,8,0:0:0:0:
122,167,108886,1,0,1:0:0:0:
202,213,109074,5,0,1:0:0:0:
122,167,109261,1,0,1:0:0:0:
122,167,109449,1,8,0:0:0:0:
202,120,109636,2,0,L|308:102,1,76.9999976501466,0|0,1:0|0:0,0:0:0:0:
121,74,110011,2,0,L|15:56,2,76.9999976501466,0|8|0,1:0|0:0|1:0,0:0:0:0:
62,237,110574,5,0,1:0:0:0:
121,74,110949,1,0,1:0:0:0:
63,330,111324,5,0,1:0:0:0:
122,167,111511,1,0,1:0:0:0:
63,330,111699,5,0,1:0:0:0:
106,323,111793,1,0,1:0:0:0:
148,315,111887,1,0,1:0:0:0:
191,307,111981,1,0,1:0:0:0:
233,299,112074,5,4,1:0:0:0:
233,299,112824,5,12,0:1:0:0:
296,182,113011,2,0,B|319:183|319:183|337:193,1,38.4999988250733,4|0,3:0|0:0,0:0:0:0:
450,298,113199,2,0,B|435:289|430:276|430:276|407:303|407:303|399:271|399:271|377:290|377:290|367:267|367:267|347:278|347:278|335:263|335:263|317:266|317:266|303:258|303:258|272:250,1,230.99999295044,4|0,1:3|0:0,0:0:0:0:
196,221,113574,6,0,P|274:278|297:183,1,230.99999295044,4|0,1:2|0:0,0:0:0:0:
202,218,113949,6,0,P|269:267|289:186,1,197.99999395752,4|0,1:2|0:0,0:0:0:0:
211,213,114324,6,0,P|264:252|280:188,1,153.999995300293,4|2,1:2|1:2,0:0:0:0:
140,129,114699,1,0,1:0:0:0:
393,173,114886,1,2,1:2:0:0:
218,42,115074,6,0,B|141:128|141:128|27:151,1,230.99999295044,4|0,1:2|0:0,0:0:0:0:
205,49,115449,6,0,B|138:123|138:123|41:143,1,197.99999395752,4|0,1:2|0:0,0:0:0:0:
185,60,115824,6,0,B|134:117|134:117|59:132,1,153.999995300293,4|2,1:2|1:2,0:0:0:0:
193,218,116199,1,0,1:0:0:0:
82,29,116386,1,2,1:2:0:0:
325,95,116574,6,0,B|500:69|500:69|474:127,1,230.99999295044,2|0,1:0|0:0,0:0:0:0:
446,188,116949,1,2,1:0:0:0:
376,6,117136,1,2,1:0:0:0:
319,203,117324,1,2,1:2:0:0:
312,82,117511,2,0,B|235:93,1,76.9999976501466,2|0,0:1|1:0,0:0:0:0:
432,178,117699,1,2,1:2:0:0:
211,15,117886,6,0,B|230:166|230:166|184:207|184:207|197:321,1,307.999990600586,0|2,1:0|1:0,0:0:0:0:
56,105,118449,2,0,L|69:219,1,76.9999976501466,0|0,1:0|0:0,0:0:0:0:
75,264,118636,2,0,L|88:378,1,76.9999976501466,2|2,1:0|0:2,0:0:0:0:
269,240,118824,1,2,1:2:0:0:
135,62,119011,1,2,1:0:0:0:
143,138,119104,1,2,0:0:0:0:
151,214,119199,1,2,1:0:0:0:
288,84,119386,2,0,L|281:153,1,55,0|0,1:0|0:0,0:0:0:0:
263,225,119574,6,0,B|361:217|361:217|395:196|395:196|509:186,1,230.99999295044,4|0,1:2|0:0,0:0:0:0:
493,202,119949,2,0,B|400:210|400:210|366:231|366:231|268:239,1,230.99999295044,4|0,1:2|0:0,0:0:0:0:
392,365,120324,2,0,L|401:203,1,153.999995300293,4|2,1:2|1:2,0:0:0:0:
507,105,120699,1,0,1:0:0:0:
318,142,120886,1,2,1:2:0:0:
430,30,121074,6,0,B|423:93|423:93|323:120|323:120|286:68,1,230.99999295044,4|0,1:2|0:0,0:0:0:0:
159,146,121449,2,0,B|165:82|165:82|265:55|265:55|302:107,1,230.99999295044,4|0,1:2|0:0,0:0:0:0:
242,283,121824,1,4,1:2:0:0:
240,191,122011,5,2,1:0:0:0:
437,284,122199,1,0,1:0:0:0:
161,239,122386,1,2,1:0:0:0:
323,327,122574,5,0,1:0:0:0:
250,64,122761,1,2,1:0:0:0:
59,259,122949,1,4,1:2:0:0:
59,259,123324,5,0,1:0:0:0:
367,229,123511,1,2,1:0:0:0:
140,27,123699,1,4,1:2:0:0:
410,103,123886,1,2,1:0:0:0:
256,320,124074,6,0,B|243:247|243:247|261:146,1,153.999995300293,0|2,1:0|3:1,0:0:0:0:
372,27,124355,1,0,3:0:0:0:
455,41,124449,2,0,L|402:114,1,76.9999976501466,0|0,3:0|3:0,0:0:0:0:
101,103,124636,2,0,L|57:41,1,76.9999976501466,0|0,1:0|3:0,0:0:0:0:
256,16,124824,5,2,1:0:0:0:
256,92,125011,1,4,3:0:0:0:
253,77,125105,1,4,3:0:0:0:
250,62,125199,2,0,B|240:116|240:116|254:202,1,110,8|0,3:0|0:0,0:0:0:0:
264,274,125386,2,0,B|274:220|274:220|260:134,1,110,4|0,3:0|0:0,0:0:0:0:
11,154,125574,5,4,1:2:0:0:
14,169,125761,2,0,P|57:172|98:189,1,76.9999976501466,0|0,0:0|0:0,0:0:0:0:
241,264,125949,2,0,P|259:302|265:346,1,76.9999976501466,2|0,1:0|0:0,0:0:0:0:
149,88,126136,2,0,P|167:126|173:170,1,76.9999976501466,2|0,0:1|0:0,0:0:0:0:
35,323,126324,5,0,1:0:0:0:
27,336,126511,2,0,L|114:327,1,76.9999976501466,0|0,1:0|1:0,0:0:0:0:
258,247,126699,2,0,L|449:266,1,153.999995300293,2|2,1:0|1:0,0:0:0:0:
512,349,126980,1,0,0:0:0:0:
512,349,127074,5,0,1:0:0:0:
512,349,127261,2,0,L|435:341,1,76.9999976501466,0|0,0:0|0:0,0:0:0:0:
335,255,127449,2,0,L|342:178,1,76.9999976501466,2|0,1:0|0:0,0:0:0:0:
431,32,127636,1,2,0:1:0:0:
431,32,127730,1,0,1:0:0:0:
431,32,127824,6,0,L|423:108,1,76.9999976501466,0|0,1:0|0:0,0:0:0:0:
512,228,128011,2,0,P|482:201|436:192,1,76.9999976501466,0|0,1:0|1:0,0:0:0:0:
288,93,128199,2,0,P|221:129|144:129,1,153.999995300293,2|2,1:0|1:0,0:0:0:0:
28,126,128480,1,0,0:0:0:0:
28,126,128574,5,0,1:0:0:0:
28,126,128761,2,0,P|51:170|54:221,1,76.9999976501466,0|0,0:0|0:0,0:0:0:0:
153,221,128949,2,0,P|126:262|83:291,1,76.9999976501466,2|0,1:0|0:0,0:0:0:0:
133,376,129136,2,0,P|83:373|37:351,1,76.9999976501466,2|0,0:1|0:0,0:0:0:0:
201,149,129324,5,0,1:0:0:0:
215,145,129417,1,0,0:0:0:0:
229,141,129511,2,0,L|247:254,1,76.9999976501466,0|0,0:0|1:0,0:0:0:0:
303,351,129699,2,0,L|321:238,1,76.9999976501466,2|0,1:0|0:0,0:0:0:0:
305,57,129886,2,0,L|323:170,1,76.9999976501466,2|0,1:0|0:0,0:0:0:0:
385,322,130074,5,0,1:0:0:0:
387,337,130261,2,0,L|405:224,1,76.9999976501466,2|0,3:1|0:0,0:0:0:0:
507,109,130449,2,0,L|400:149,1,76.9999976501466,0|0,1:0|0:0,0:0:0:0:
255,226,130636,2,0,L|343:298,1,76.9999976501466,0|0,3:0|0:0,0:0:0:0:
344,186,130824,2,0,L|353:129,2,51.3333317667644,8|8|8,3:0|3:0|3:0,0:0:0:0:
269,136,131011,2,0,L|215:156,2,51.3333317667644,4|4|4,3:0|3:0|3:0,0:0:0:0:
261,291,131199,6,0,L|255:226,1,65.9999979858399,8|0,1:2|0:0,0:0:0:0:
181,92,131386,6,0,L|190:179,1,88,8|0,1:2|0:0,0:0:0:0:
0,384,131574,5,4,1:0:0:0:
3,367,131949,6,0,L|139:350,1,123.750004720688,2|0,3:0|0:0,0:0:0:0:
101,248,132324,6,0,L|166:275,1,55,2|0,3:0|0:0,0:0:0:0:
172,155,132511,6,0,L|214:209,1,68.75,2|0,3:0|0:0,0:0:0:0:
287,107,132699,6,0,L|319:367,1,247.500009441376,2|0,3:0|0:0,0:0:0:0:
244,384,133074,5,8,0:0:0:0:
397,303,133261,2,0,L|463:318,1,55,0|0,1:0|1:0,0:0:0:0:
504,155,133449,5,0,1:0:0:0:
489,131,133542,5,8,1:3:0:0:
464,108,133636,5,8,1:3:0:0:
429,90,133730,5,4,1:3:0:0:
386,79,133824,5,4,1:3:0:0:
337,83,133917,5,4,1:3:0:0:
287,107,134011,6,0,L|299:210,1,55,8|0,1:2|0:0,0:0:0:0:
146,284,134199,2,0,B|180:259|184:224|184:224|197:256|228:270|228:270|234:250|259:239|259:239|294:256|348:234,1,247.500009441376,12|0,1:0|0:0,0:0:0:0:
351,239,134574,6,0,L|79:203,1,247.500009441376,4|0,1:0|0:0,0:0:0:0:
31,178,134949,6,0,L|85:185,12,55,0|2|2|2|2|2|2|2|2|2|2|2|0,1:0|3:2|3:2|3:2|3:2|3:2|3:2|3:2|3:2|3:2|3:2|3:2|3:2,0:0:0:0:
208,141,135324,6,0,L|330:124,1,115.49999647522,12|0,1:0|0:0,0:0:0:0:
337,122,135511,2,0,L|266:29,1,115.49999647522,2|0,3:0|0:0,0:0:0:0:
256,19,135699,2,0,L|211:126,1,115.49999647522,2|0,3:0|0:0,0:0:0:0:
352,119,135886,5,0,1:0:0:0:
421,84,135980,1,0,1:0:0:0:
494,110,136074,2,0,L|461:394,1,269.499991775513,0|0,1:0|0:0,0:0:0:0:
467,381,136449,6,0,L|496:125,1,230.99999295044,4|0,1:0|0:0,0:0:0:0:
411,182,136824,2,0,L|401:264,1,55,12|0,1:0|0:0,0:0:0:0:
395,185,137011,2,0,L|388:239,1,55,0|0,3:0|0:0,0:0:0:0:
347,319,137199,2,0,P|381:229|286:242,1,230.99999295044,0|0,1:0|0:0,0:0:0:0:
246,312,137574,6,0,L|-22:336,1,247.500009441376,4|0,1:0|0:0,0:0:0:0:
67,259,137949,2,0,L|190:247,1,88,2|0,1:0|0:0,0:0:0:0:
164,238,138136,2,0,L|76:245,1,88,0|0,3:0|0:0,0:0:0:0:
0,111,138324,2,0,L|123:123,1,88,14|0,1:0|0:0,0:0:0:0:
185,139,138511,1,2,3:1:0:0:
141,135,138604,1,2,3:1:0:0:
97,132,138699,2,0,L|9:125,1,88,0|0,0:0|0:0,0:0:0:0:
210,30,138886,2,0,L|246:64,1,44,2|0,1:0|0:0,0:0:0:0:
254,26,138980,2,0,L|290:60,1,44,2|0,1:0|0:0,0:0:0:0:
298,23,139074,6,0,L|386:16,1,76.9999976501466,2|0,1:0|0:0,0:0:0:0:
451,33,139261,2,0,L|351:40,1,82.5000031471254,2|0,1:0|0:0,0:0:0:0:
288,205,139449,2,0,L|375:198,1,88,2|0,1:0|0:0,0:0:0:0:
475,209,139636,2,0,L|381:216,1,93.500001783371,2|0,1:0|0:0,0:0:0:0:
494,128,139824,6,0,P|497:156|480:205,1,55,4|0,1:2|0:0,0:0:0:0:
427,288,140011,2,0,P|409:309|362:332,1,55,4|0,1:2|0:0,0:0:0:0:
266,353,140199,2,0,P|237:356|189:339,1,55,2|0,1:0|0:0,0:0:0:0:
106,285,140386,2,0,P|84:267|61:220,1,55,2|0,1:0|0:0,0:0:0:0:
180,118,140574,6,0,L|200:369,1,247.500009441376,4|0,1:0|0:0,0:0:0:0:
101,339,140949,2,0,L|108:251,12,55,2|2|2|2|2|2|2|2|2|2|2|2|2,1:2|3:2|3:2|3:2|3:2|3:2|3:2|3:2|3:2|3:2|3:2|3:2|3:2,0:0:0:0:
46,238,141324,6,0,L|36:115,1,115.49999647522,12|0,1:0|0:0,0:0:0:0:
35,107,141511,2,0,L|139:156,1,115.49999647522,2|0,3:0|0:0,0:0:0:0:
153,162,141699,2,0,L|57:227,1,115.49999647522,2|0,3:0|0:0,0:0:0:0:
34,92,141886,5,0,1:0:0:0:
69,23,141980,1,0,1:0:0:0:
146,24,142074,2,0,B|200:72|271:57|271:57|342:43|396:91,1,269.499991775513,0|0,1:0|0:0,0:0:0:0:
414,95,142449,2,0,B|332:111|271:56|271:56|209:2|128:18,1,308,0|0,1:0|0:0,0:0:0:0:
140,96,142824,2,0,P|177:120|220:121,1,88,12|0,1:0|0:0,0:0:0:0:
353,202,143011,2,0,P|316:178|272:177,1,88,0|0,3:0|0:0,0:0:0:0:
116,226,143199,2,0,P|159:232|205:209,1,93.500001783371,0|0,3:0|0:0,0:0:0:0:
260,369,143386,2,0,P|202:369|150:345,1,115.49999647522,0|0,1:0|0:0,0:0:0:0:
125,312,143574,6,0,L|398:354,1,247.500009441376,4|0,1:0|0:0,0:0:0:0:
353,202,143949,6,0,L|370:307,1,65.9999979858399,2|0,0:1|0:0,0:0:0:0:
480,202,144136,2,0,L|463:307,1,65.9999979858399,2|0,0:1|0:0,0:0:0:0:
340,193,144324,6,0,L|357:298,1,76.9999976501466,14|0,1:0|0:0,0:0:0:0:
493,193,144511,2,0,L|476:298,1,76.9999976501466,2|0,0:1|0:0,0:0:0:0:
416,116,144699,2,0,L|416:193,1,76.9999976501466,0|0,0:0|0:0,0:0:0:0:
416,380,144886,1,6,1:0:0:0:
318,346,145074,6,0,P|270:352|265:391,1,65.9999979858399,0|0,0:0|0:0,0:0:0:0:
237,259,145261,1,2,0:1:0:0:
218,260,145355,1,0,0:0:0:0:
199,261,145449,6,0,P|181:304|211:328,1,65.9999979858399,4|0,1:0|0:0,0:0:0:0:
102,253,145636,1,2,1:1:0:0:
84,285,145730,1,0,1:0:0:0:
66,321,145824,6,0,P|94:358|131:343,1,65.9999979858399,8|0,1:0|0:0,0:0:0:0:
308,223,146011,2,0,P|279:185|242:200,1,65.9999979858399,0|0,1:0|0:0,0:0:0:0:
16,176,146199,2,0,P|125:148|183:52,1,230.99999295044,12|0,1:0|0:0,0:0:0:0:
122,6,146574,5,0,1:0:0:0:
122,6,146949,1,2,0:2:0:0:
122,6,147324,1,0,1:0:0:0:
198,13,147511,1,2,1:2:0:0:
274,20,147699,1,0,0:0:0:0:
350,27,147886,1,2,1:2:0:0:
426,34,148074,5,2,0:0:0:0:
426,34,149199,1,0,1:0:0:0:
350,41,149386,1,2,0:0:0:0:
274,48,149574,1,2,1:2:0:0:
274,48,149949,1,0,0:0:0:0:
274,48,150324,1,0,1:0:0:0:
281,124,150511,1,2,1:2:0:0:
288,200,150699,1,0,0:0:0:0:
295,276,150886,1,2,1:2:0:0:
302,352,151074,5,2,0:0:0:0:
302,352,152011,1,2,0:0:0:0:
361,229,152199,1,0,1:0:0:0:
225,240,152386,1,2,0:0:0:0:
302,352,152574,5,0,1:0:0:0:
302,352,152949,1,2,0:0:0:0:
302,352,153324,1,0,1:0:0:0:
228,328,153511,1,2,1:2:0:0:
154,304,153699,1,0,0:0:0:0:
80,281,153886,1,2,1:2:0:0:
6,257,154074,1,2,0:0:0:0:
6,257,155199,1,0,1:0:0:0:
81,245,155386,1,2,0:0:0:0:
114,175,155574,5,2,1:2:0:0:
448,309,156136,1,2,0:0:0:0:
254,4,156699,1,2,0:0:0:0:
232,364,157261,1,2,0:0:0:0:
463,86,157824,1,2,0:0:0:0:
321,321,158199,1,2,0:0:0:0:
189,80,158574,6,0,B|297:106|297:106|243:128,1,153.999995300293,4|2,1:2|0:1,0:0:0:0:
242,226,158949,1,2,0:0:0:0:
28,180,159324,2,0,L|118:168,1,82.5000031471254,8|0,0:0|0:0,0:0:0:0:
157,63,159699,1,2,0:0:0:0:
213,164,159886,2,0,L|178:247,1,82.5000031471254,0|0,0:0|0:0,0:0:0:0:
134,332,160261,6,0,L|78:260,2,82.5000031471254,0|2|0,0:0|1:2|0:0,0:0:0:0:
181,241,160824,2,0,B|299:267|299:267|237:291,1,165.000006294251,8|2,0:0|0:0,0:0:0:0:
313,360,161386,1,0,0:0:0:0:
434,248,161574,6,0,L|460:136,1,82.5000031471254,0|0,1:0|0:0,0:0:0:0:
380,94,161949,1,2,0:0:0:0:
321,274,162324,2,0,L|295:162,1,82.5000031471254,8|0,0:0|0:0,0:0:0:0:
196,146,162699,1,2,0:0:0:0:
301,94,162886,2,0,L|410:127,1,82.5000031471254,0|0,0:0|0:0,0:0:0:0:
466,166,163261,6,0,L|382:244,2,82.5000031471254,0|2|0,0:0|1:2|0:0,0:0:0:0:
499,52,163824,2,0,L|304:-7,1,165.000006294251,8|0,0:0|0:0,0:0:0:0:
301,94,164386,1,0,0:0:0:0:
137,37,164574,6,0,B|100:22|100:22|146:169,1,153.999995300293,0|2,1:0|0:1,0:0:0:0:
13,213,164949,1,2,0:0:0:0:
239,165,165324,2,0,L|216:262,1,82.5000031471254,8|0,0:0|0:0,0:0:0:0:
108,277,165699,1,2,0:0:0:0:
203,341,165886,2,0,L|298:312,1,82.5000031471254,0|0,0:0|0:0,0:0:0:0:
373,284,166261,6,0,L|300:215,2,82.5000031471254,0|2|0,0:0|1:2|0:0,0:0:0:0:
463,223,166824,2,0,P|479:302|439:372,1,165.000006294251,8|2,0:0|0:0,0:0:0:0:
438,372,167574,6,0,B|424:312|424:312|435:277|435:277|420:213|420:213|430:180|430:180|413:97,1,247.500009441376,0|0,1:0|0:0,0:0:0:0:
475,65,167949,1,2,0:0:0:0:
336,131,168136,1,0,0:0:0:0:
179,0,168324,2,0,L|163:66,1,55,8|0,0:0|0:0,0:0:0:0:
254,145,168511,2,0,L|238:79,1,55,2|0,0:0|0:0,0:0:0:0:
93,78,168699,1,0,0:0:0:0:
249,165,168886,2,0,L|256:192,2,27.5,2|0|0,0:0|0:0|0:0,0:0:0:0:
322,49,169074,5,0,0:0:0:0:
301,262,169261,2,0,L|288:315,1,55,2|0,0:0|0:0,0:0:0:0:
170,119,169449,1,0,1:0:0:0:
304,343,169636,1,8,3:0:0:0:
334,69,169824,1,0,1:0:0:0:
125,205,170011,1,4,3:0:0:0:
354,181,170199,6,0,L|232:194,1,98.9999969787599,4|0,3:0|0:0,0:0:0:0:
270,291,170574,6,0,P|335:253|354:181,1,153.999995300293,4|0,1:2|0:0,0:0:0:0:
256,192,170855,1,0,1:0:0:0:
225,195,170949,1,0,1:3:0:0:
65,212,171136,6,0,P|84:139|149:102,1,153.999995300293,4|0,1:2|0:0,0:0:0:0:
194,198,171417,1,0,1:0:0:0:
163,201,171510,1,0,1:0:0:0:
15,287,171699,6,0,P|80:324|155:313,1,153.999995300293,4|0,1:2|0:0,0:0:0:0:
132,204,171980,1,0,1:0:0:0:
101,207,172074,1,0,1:0:0:0:
78,79,172261,6,0,P|116:81|148:101,1,76.9999976501466,4|0,1:2|0:0,0:0:0:0:
171,328,172449,2,0,P|207:315|233:287,1,76.9999976501466,0|0,1:0|0:0,0:0:0:0:
236,101,172636,2,0,P|273:93|309:104,1,76.9999976501466,0|0,1:0|0:0,0:0:0:0:
321,300,172824,2,0,P|357:287|383:259,1,76.9999976501466,0|0,1:0|0:0,0:0:0:0:
397,118,173011,2,0,P|431:101|469:102,1,76.9999976501466,0|0,1:0|0:0,0:0:0:0:
512,180,173199,6,0,L|390:193,1,98.9999969787599
309,153,173574,6,0,L|334:1,1,153.999995300293,4|0,1:2|0:0,0:0:0:0:
215,31,173855,1,0,1:0:0:0:
220,61,173948,1,0,1:0:0:0:
121,213,174136,6,0,L|95:61,1,153.999995300293,4|0,1:2|0:0,0:0:0:0:
215,91,174418,1,0,1:0:0:0:
210,121,174512,1,0,1:0:0:0:
309,273,174699,6,0,L|334:121,1,153.999995300293,4|0,1:2|0:0,0:0:0:0:
215,151,174980,1,0,1:0:0:0:
220,181,175073,1,0,1:0:0:0:
113,382,175261,6,0,P|117:343|136:310,1,76.9999976501466,0|0,1:0|0:0,0:0:0:0:
406,300,175449,2,0,P|388:265|359:240,1,76.9999976501466,0|0,1:0|0:0,0:0:0:0:
115,232,175636,2,0,P|109:194|118:157,1,76.9999976501466,0|0,1:0|0:0,0:0:0:0:
336,158,175824,2,0,P|318:123|289:98,1,76.9999976501466,0|0,1:0|0:0,0:0:0:0:
140,77,176011,2,0,P|144:38|163:5,1,76.9999976501466,0|0,1:0|0:0,0:0:0:0:
261,24,176199,1,4,3:0:0:0:
215,211,176386,1,4,3:0:0:0:
398,237,176574,6,0,P|435:171|415:99,1,153.999995300293,4|0,1:2|0:0,0:0:0:0:
336,158,176855,1,0,1:0:0:0:
312,177,176948,1,0,1:0:0:0:
140,76,177136,6,0,P|187:20|261:24,1,153.999995300293,4|0,1:2|0:0,0:0:0:0:
283,188,177417,1,0,1:0:0:0:
253,193,177511,1,0,1:0:0:0:
65,182,177699,6,0,P|84:255|145:300,1,153.999995300293,4|0,1:2|0:0,0:0:0:0:
222,190,177980,1,0,1:0:0:0:
193,180,178073,1,0,1:0:0:0:
157,380,178261,6,0,P|194:375|217:345,1,76.9999976501466,0|0,1:0|0:0,0:0:0:0:
282,156,178449,2,0,P|244:160|221:190,1,76.9999976501466,0|0,1:0|0:0,0:0:0:0:
285,379,178636,2,0,P|299:344|285:309,1,76.9999976501466,0|0,1:0|0:0,0:0:0:0:
152,157,178824,2,0,P|137:191|151:226,1,76.9999976501466,0|0,1:0|0:0,0:0:0:0:
348,267,179011,2,0,P|325:237|287:232,1,76.9999976501466,0|0,1:0|0:0,0:0:0:0:
92,272,179199,6,0,L|200:260,1,98.9999969787599
282,156,179574,6,0,B|324:132|323:83|323:83|347:126|396:125,1,176,4|0,1:0|0:0,0:0:0:0:
426,35,179855,1,0,1:0:0:0:
392,45,179949,1,0,1:0:0:0:
357,200,180136,6,0,B|399:223|398:272|398:272|422:229|471:230,1,176,4|0,1:0|0:0,0:0:0:0:
500,320,180417,1,0,1:0:0:0:
466,310,180511,1,0,1:0:0:0:
183,384,180699,6,0,B|226:360|225:311|225:311|249:354|298:353,1,176,4|0,1:0|0:0,0:0:0:0:
326,264,180980,1,0,1:0:0:0:
292,274,181074,1,0,1:0:0:0:
45,83,181261,6,0,L|65:267,1,164.9999949646,4|0,1:0|0:0,0:0:0:0:
52,280,181824,6,0,L|47:306,5,16.49999949646,0|0|0|0|0|0,3:0|3:0|3:0|3:0|3:0|3:0,0:0:0:0:
141,251,182386,2,0,L|149:276,1,16.49999949646,2|2,3:0|3:0,0:0:0:0:
203,181,182574,5,8,0:0:0:0:
203,181,182761,1,0,1:0:0:0:
221,89,182949,1,8,0:0:0:0:
221,89,183136,1,0,1:0:0:0:
190,0,183324,1,8,0:0:0:0:
190,0,183511,5,0,1:0:0:0:
190,128,183699,1,0,1:0:0:0:
250,232,183886,2,0,L|241:230,1,8.24999974822999,0|0,1:0|1:0,0:0:0:0:
254,236,183980,2,0,L|245:234,1,8.24999974822999,0|0,1:0|1:0,0:0:0:0:
258,239,184074,6,0,P|267:304|262:369,1,131.99999597168,4|0,3:0|0:0,0:0:0:0:
169,380,184636,1,2,0:0:0:0:
352,384,184824,2,0,P|374:321|382:256,1,131.99999597168,8|0,0:1|0:0,0:0:0:0:
439,184,185386,1,2,0:0:0:0:
277,125,185574,2,0,P|266:76|276:28,1,98.9999969787599,4|0,3:0|0:0,0:0:0:0:
357,57,185949,2,0,P|367:105|357:153,1,98.9999969787599,4|0,3:0|0:0,0:0:0:0:
342,182,186324,2,0,L|332:254,2,65.9999979858399,8|2|2,0:1|0:0|0:0,0:0:0:0:
142,94,187074,6,0,L|-2:60,1,131.99999597168,4|0,3:0|0:0,0:0:0:0:
19,155,187636,1,2,0:0:0:0:
205,46,187824,2,0,P|217:111|162:171,1,131.99999597168,8|0,0:1|0:0,0:0:0:0:
229,241,188386,1,2,0:0:0:0:
43,255,188574,6,0,P|38:312|96:339,1,98.9999969787599,4|0,3:0|0:0,0:0:0:0:
139,313,188949,2,0,P|143:255|85:228,1,98.9999969787599,4|0,3:0|0:0,0:0:0:0:
107,198,189324,2,0,L|94:120,2,65.9999979858399,8|2|2,0:1|0:0|0:0,0:0:0:0:
256,0,190074,1,4,0:1:0:0:
256,0,190824,5,2,0:0:0:0:
308,86,191011,2,0,L|296:146,1,32.99999899292,0|0,1:0|0:0,0:0:0:0:
210,118,191199,2,0,L|203:85,1,32.99999899292,0|0,1:0|0:0,0:0:0:0:
256,197,191386,2,0,L|256:254,1,32.99999899292,0|0,1:0|0:0,0:0:0:0:
80,150,191574,6,0,B|80:136|80:136|88:104|88:104|80:80|80:80|72:48|72:48|80:0,1,153.999995300293,0|0,1:0|0:0,0:0:0:0:
432,0,191949,2,0,B|440:48|440:48|432:80|432:80|424:104|424:104|432:136|432:136|432:162,1,153.999995300293,0|0,1:0|0:0,0:0:0:0:
256,384,192324,2,0,L|256:96,1,230.99999295044,0|0,1:0|0:0,0:0:0:0:
256,0,192699,1,4,1:2:0:0:
256,0,193074,6,0,B|256:77|310:95|310:95|377:117,1,153.999995300293,0|0,1:0|0:0,0:0:0:0:
256,384,193449,2,0,B|256:307|310:289|310:289|377:267,1,153.999995300293,0|0,1:0|0:0,0:0:0:0:
512,192,193824,2,0,L|224:192,1,230.99999295044,0|0,1:0|0:0,0:0:0:0:
64,192,194199,6,0,L|202:192,1,132,4|0,1:2|0:0,0:0:0:0:
232,309,194574,6,0,P|169:311|222:196,1,230.99999295044,0|0,1:2|0:0,0:0:0:0:
246,126,194949,1,2,1:2:0:0:
48,66,195136,1,2,1:0:0:0:
253,21,195324,1,0,1:0:0:0:
41,171,195511,2,0,P|37:220|55:268,1,76.9999976501466,2|2,0:1|1:2,0:0:0:0:
136,125,195699,1,2,1:0:0:0:
75,261,195886,6,0,P|204:237|135:124,1,307.999990600586,0|2,1:0|1:0,0:0:0:0:
144,355,196449,2,0,P|182:349|217:332,1,76.9999976501466,2|0,1:2|0:0,0:0:0:0:
276,152,196636,2,0,P|258:117|234:88,1,76.9999976501466,2|0,1:0|0:0,0:0:0:0:
280,252,196824,1,2,1:2:0:0:
425,183,197011,1,2,1:0:0:0:
417,259,197105,1,0,1:0:0:0:
409,335,197199,1,2,1:0:0:0:
490,141,197386,2,0,P|463:116|435:107,1,55,0|0,1:0|0:0,0:0:0:0:
362,84,197574,6,0,B|521:57|521:57|434:32,1,230.99999295044,4|0,1:2|0:0,0:0:0:0:
341,2,197949,2,0,P|278:88|351:167,1,230.99999295044,4|0,1:2|0:0,0:0:0:0:
392,284,198324,2,0,P|407:212|350:166,1,153.999995300293,4|2,1:2|1:2,0:0:0:0:
178,171,198699,1,0,1:0:0:0:
341,236,198886,1,2,1:2:0:0:
122,383,199074,6,0,B|116:324|165:273|150:276|150:276|133:286|184:228|178:170,1,230.99999295044,4|0,1:2|0:0,0:0:0:0:
66,172,199449,2,0,B|60:230|109:281|94:278|94:278|77:268|128:326|122:384,1,230.99999295044,4|0,1:2|0:0,0:0:0:0:
30,368,199824,1,2,1:2:0:0:
214,368,200011,5,0,1:0:0:0:
0,104,200199,1,2,1:2:0:0:
256,192,200386,1,2,1:2:0:0:
471,13,200574,5,0,1:0:0:0:
316,252,200761,1,2,1:0:0:0:
40,30,200949,1,4,1:2:0:0:
40,30,201324,5,0,1:0:0:0:
234,273,201511,1,2,1:0:0:0:
511,86,201699,1,4,1:2:0:0:
256,107,201886,1,2,1:0:0:0:
397,353,202074,6,0,L|420:181,1,153.999995300293,0|2,1:0|0:1,0:0:0:0:
331,70,202355,1,0,3:0:0:0:
255,34,202449,2,0,B|242:70|242:70|255:106,1,76.9999976501466,0|0,3:0|3:0,0:0:0:0:
511,159,202636,2,0,B|523:122|523:122|511:86,1,76.9999976501466,0|0,3:0|3:0,0:0:0:0:
256,192,202824,2,0,B|217:200|184:160|184:160|152:208|152:208|112:184|112:184|88:192|88:192|48:192,1,230.99999295044,0|0,1:0|3:0,0:0:0:0:
0,192,203199,5,0,1:0:0:0:
137,0,203386,2,0,L|172:38,1,38.4999988250733,2|0,3:0|0:0,0:0:0:0:
112,80,203480,2,0,L|127:30,1,38.4999988250733,2|0,3:0|0:0,0:0:0:0:
195,60,203574,6,0,B|235:62|251:49|251:49|283:66|283:66|322:48|351:60,1,165,0|0,1:0|0:0,0:0:0:0:
351,60,203949,2,0,B|383:37|383:37|169:78|169:78|195:60,1,288.750002753735,4|0,1:2|0:0,0:0:0:0:
191,236,204324,6,0,B|151:238|135:225|135:225|103:242|103:242|64:224|35:236,1,165,0|0,1:0|0:0,0:0:0:0:
35,236,204699,2,0,B|2:213|2:213|216:254|216:254|190:236,1,288.750002753735,4|0,1:2|0:0,0:0:0:0:
304,361,205074,6,0,B|290:321|290:321|317:242|317:242|304:203,1,165,0|0,1:0|0:0,0:0:0:0:
304,205,205449,2,0,B|278:179|278:179|304:269|304:269|304:295|304:295|329:386|329:386|304:360,1,288.750002753735,4|0,1:2|0:0,0:0:0:0:
391,182,205824,1,0,1:0:0:0:
445,338,206011,2,0,L|458:265,1,55,0|0,0:0|1:0,0:0:0:0:
440,77,206199,1,4,1:2:0:0:
512,228,206386,1,0,1:0:0:0:
299,110,206574,6,0,B|287:98|287:98|159:110|159:110|31:121|31:121|19:110,1,288.750002753735,0|0,1:0|0:0,0:0:0:0:
89,29,206949,1,0,1:0:0:0:
136,34,207042,1,2,1:2:0:0:
230,16,207136,1,0,1:0:0:0:
277,21,207229,1,2,1:2:0:0:
371,3,207324,6,0,B|382:14|382:14|371:142|371:142|359:270|359:270|371:282,1,288.750002753735,4|0,1:2|0:0,0:0:0:0:
372,378,207699,2,0,L|387:386,12,13.75,0|0|0|0|0|0|0|0|0|0|0|0|0,1:0|3:0|3:0|3:0|3:0|3:0|3:0|3:0|3:0|3:0|3:0|3:0|3:0,0:0:0:0:
461,309,208074,6,0,L|382:318,1,48.1250004589558,0|0,1:0|1:0,0:0:0:0:
384,302,208167,2,0,L|308:279,1,48.1250004589558,0|0,1:0|1:0,0:0:0:0:
306,295,208261,2,0,L|227:304,1,48.1250004589558,0|0,1:0|1:0,0:0:0:0:
228,288,208355,2,0,L|152:265,1,48.1250004589558,0|0,1:0|1:0,0:0:0:0:
151,281,208449,2,0,L|72:290,1,48.1250004589558,0|4,1:0|1:0,0:0:0:0:
144,271,209011,5,0,1:0:0:0:
201,218,209105,1,0,1:0:0:0:
127,196,209199,2,0,P|99:182|100:135,1,76.9999976501466,2|0,1:3|0:0,0:0:0:0:
154,88,209386,2,0,P|182:102|181:149,1,76.9999976501466,4|0,1:3|0:0,0:0:0:0:
0,49,209574,6,0,B|88:49|88:49|114:11|161:11|161:11|235:11,1,230.99999295044,4|0,1:2|0:0,0:0:0:0:
376,11,209949,2,0,L|299:11,1,76.9999976501466,0|0,1:0|3:0,0:0:0:0:
335,162,210136,1,2,3:2:0:0:
408,136,210230,1,0,3:0:0:0:
348,85,210324,2,0,L|314:157,1,76.9999976501466,0|0,1:0|3:0,0:0:0:0:
239,229,210511,1,2,3:2:0:0:
166,203,210605,1,0,1:0:0:0:
226,152,210699,2,0,L|259:224,1,76.9999976501466,0|0,1:0|3:0,0:0:0:0:
496,345,210886,2,0,P|509:325|513:308,1,38.4999988250733,2|0,1:2|0:0,0:0:0:0:
509,301,210980,2,0,P|512:270|503:249,1,38.4999988250733,0|0,1:0|0:0,0:0:0:0:
494,258,211074,6,0,B|406:258|406:258|380:296|333:296|333:296|259:296,1,230.99999295044,2|0,1:0|0:0,0:0:0:0:
188,356,211449,2,0,L|178:279,1,76.9999976501466,0|0,1:0|3:0,0:0:0:0:
23,232,211636,1,2,3:2:0:0:
77,176,211730,1,0,3:0:0:0:
97,251,211824,2,0,L|106:327,1,76.9999976501466,0|0,1:0|3:0,0:0:0:0:
249,107,212011,1,2,1:2:0:0:
195,51,212105,1,0,1:0:0:0:
175,126,212199,2,0,L|166:202,1,76.9999976501466,0|0,1:0|3:0,0:0:0:0:
40,26,212386,2,0,L|48:89,1,38.4999988250733,2|0,1:2|0:0,0:0:0:0:
34,71,212480,2,0,L|42:134,1,38.4999988250733,0|0,1:0|0:0,0:0:0:0:
28,117,212574,6,0,L|-1:360,1,230.99999295044,2|0,1:0|0:0,0:0:0:0:
105,335,212949,2,0,P|143:334|178:349,1,76.9999976501466,0|0,1:0|3:0,0:0:0:0:
180,178,213136,1,2,3:2:0:0:
180,178,213230,1,0,3:0:0:0:
180,178,213324,2,0,P|194:197|200:220,1,38.4999988250733,0|0,1:0|0:0,0:0:0:0:
217,200,213417,2,0,P|219:224|213:247,1,38.4999988250733,0|0,3:0|0:0,0:0:0:0:
240,240,213511,2,0,P|259:272|263:310,1,76.9999976501466,2|0,3:2|3:0,0:0:0:0:
389,309,213699,2,0,P|370:341|339:363,1,76.9999976501466,0|0,1:0|3:0,0:0:0:0:
436,206,213886,2,0,L|520:198,1,76.9999976501466,2|0,1:2|3:0,0:0:0:0:
361,108,214074,6,0,L|93:82,1,230.99999295044,2|0,1:0|0:0,0:0:0:0:
26,42,214449,2,0,L|14:20,4,19.2499994125366,0|0|0|0|0,3:0|3:0|3:0|3:0|3:0,0:0:0:0:
52,37,214636,5,0,1:0:0:0:
84,36,214730,5,2,1:2:0:0:
122,38,214824,5,0,1:0:0:0:
164,44,214917,5,2,1:2:0:0:
211,58,215011,5,0,1:0:0:0:
260,80,215105,5,2,1:2:0:0:
309,113,215199,5,0,1:0:0:0:
355,159,215292,5,2,1:2:0:0:
395,218,215386,5,0,1:0:0:0:
427,287,215480,5,2,1:2:0:0:
441,368,215574,5,2,1:2:0:0:
441,368,215949,6,0,P|410:291|505:257,1,197.99999395752,4|0,1:0|0:0,0:0:0:0:
464,361,216324,2,0,L|256:326,1,197.99999395752,12|0,0:2|0:0,0:0:0:0:
179,210,216699,6,0,L|199:385,1,165,4|0,1:3|0:0,0:0:0:0:
189,202,217074,2,0,L|209:377,1,165,0|0,3:0|0:0,0:0:0:0:
199,194,217449,6,0,L|175:396,1,197.99999395752,4|0,1:3|0:0,0:0:0:0:
22,317,217824,6,0,P|22:223|145:154,1,230.99999295044,2|0,3:0|0:0,0:0:0:0:
22,317,218199,2,0,P|13:223|130:143,1,230.99999295044,0|0,3:0|0:0,0:0:0:0:
144,131,218574,6,0,P|23:184|22:317,1,280.500005350113,4|0,1:3|0:0,0:0:0:0:
125,252,218949,6,0,L|348:218,1,197.99999395752,0|0,3:0|0:0,0:0:0:0:
112,217,219324,6,0,L|366:255,1,230.99999295044,2|0,3:0|0:0,0:0:0:0:
119,205,219699,2,0,L|373:243,1,230.99999295044,4|0,1:3|0:0,0:0:0:0:
421,147,220074,6,0,L|535:125,1,93.500001783371,0|0,3:0|0:0,0:0:0:0:
333,59,220261,1,0,1:0:0:0:
344,95,220355,1,0,1:0:0:0:
415,137,220449,6,0,L|529:115,1,65.9999979858399,8|0,1:2|0:0,0:0:0:0:
397,4,220636,1,0,1:0:0:0:
347,239,220824,2,0,P|364:321|476:373,1,197.99999395752,8|0,1:2|0:0,0:0:0:0:
458,373,221199,6,0,B|433:373|433:373|422:372|422:372|411:375|411:375|402:373|402:373|361:373,1,82.5,2|0,3:0|0:0,0:0:0:0:
290,347,221574,5,4,1:2:0:0:
458,260,221761,2,0,P|488:273|506:308,1,65.9999979858399,2|0,0:1|0:0,0:0:0:0:
378,220,221949,5,0,1:0:0:0:
209,133,222136,2,0,P|179:145|161:180,1,65.9999979858399,2|0,0:1|0:0,0:0:0:0:
288,89,222324,5,0,1:0:0:0:
457,2,222511,2,0,P|486:14|504:49,1,65.9999979858399,2|0,0:1|0:0,0:0:0:0:
498,127,222699,5,0,1:0:0:0:
234,205,222886,2,0,P|230:237|251:270,1,65.9999979858399,2|0,0:1|0:0,0:0:0:0:
313,161,223074,5,0,1:0:0:0:
112,93,223261,2,0,P|82:105|64:140,1,65.9999979858399,2|0,0:1|0:0,0:0:0:0:
0,195,223449,5,0,1:0:0:0:
199,225,223636,2,0,P|228:237|246:272,1,65.9999979858399,2|0,0:1|0:0,0:0:0:0:
323,314,223824,5,0,1:0:0:0:
124,344,224011,2,0,P|94:356|76:391,1,65.9999979858399,2|0,0:1|0:0,0:0:0:0:
213,371,224199,5,0,1:0:0:0:
46,235,224386,2,0,P|16:222|-1:187,1,65.9999979858399,2|0,0:1|0:0,0:0:0:0:
29,74,224574,5,0,1:0:0:0:
29,310,224761,1,0,1:0:0:0:
105,67,224949,5,0,1:0:0:0:
105,317,225136,1,0,1:0:0:0:
182,61,225324,5,0,1:0:0:0:
182,323,225511,1,0,1:0:0:0:
259,55,225699,5,0,1:0:0:0:
259,329,225886,1,0,1:0:0:0:
336,49,226074,5,0,1:0:0:0:
336,335,226261,1,0,1:0:0:0:
412,43,226449,5,0,1:0:0:0:
412,341,226636,1,0,1:0:0:0:
489,37,226824,5,0,1:0:0:0:
489,347,227011,1,0,1:0:0:0:
26,172,227199,5,0,1:0:0:0:
486,212,227386,1,0,1:0:0:0:
256,192,227574,5,4,1:0:0:0:
247,175,227949,5,2,0:0:0:0:
275,192,228042,1,2,0:0:0:0:
245,208,228136,1,2,0:0:0:0:
256,192,228324,1,2,0:0:0:0:
315,116,228511,1,2,0:0:0:0:
340,110,228605,1,2,0:0:0:0:
365,104,228699,2,0,L|403:96,6,32.99999899292,2|2|2|2|2|2|2,0:0|0:0|0:0|0:0|0:0|0:0|0:0,0:0:0:0:
263,56,229074,5,2,0:0:0:0:
238,50,229168,1,2,0:0:0:0:
213,44,229261,2,0,L|226:104,1,41.2500015735627,2|2,0:0|0:0,0:0:0:0:
213,163,229449,1,2,0:0:0:0:
220,187,229542,2,0,L|265:145,2,41.2500015735627,2|2|2,0:0|0:0|0:0,0:0:0:0:
126,148,229824,6,0,L|-2:129,1,123.750004720688,2|0,0:0|0:0,0:0:0:0:
3,129,230199,6,0,L|305:104,1,296.99999093628,4|0,1:2|0:0,0:0:0:0:
