osu file format v14

[General]
AudioFilename: audio.mp3
AudioLeadIn: 0
PreviewTime: 51855
Countdown: 0
SampleSet: Soft
StackLeniency: 0.2
Mode: 0
LetterboxInBreaks: 0
WidescreenStoryboard: 1

[Editor]
Bookmarks: 6847,12847,18847,36847,53347,65347,77347,89347,101347,113347,125347,134347,146347,170347,183847,191347,203347,209347,215347
DistanceSpacing: 1.2
BeatDivisor: 4
GridSize: 32
TimelineZoom: 2.300001

[Metadata]
Title:BRING IT ON
TitleUnicode:劣等上等
Artist:Giga feat. Reol
ArtistUnicode:Giga feat. Reol
Creator:Yugu
Version:Pata-Mon's ExPert
Source:
Tags:Intensity Callionet Hollow Wings Hollow_Wings Ryuusei Aika Ryuusei_Aika 事実上 Jijitsujou jpop japanese pop Giga れをる ギガ okiku お菊 鏡音リン 鏡音レン kagamine rin len ren rettou joutou Pata-mon
BeatmapID:2668468
BeatmapSetID:974362

[Difficulty]
HPDrainRate:5.5
CircleSize:4.3
OverallDifficulty:8
ApproachRate:9.2
SliderMultiplier:1.8
SliderTickRate:1

[Events]
//Background and Video events
0,0,"72365882_p0.jpg",0,0
//Break Periods
//Storyboard Layer 0 (Background)
//Storyboard Layer 1 (Fail)
//Storyboard Layer 2 (Pass)
//Storyboard Layer 3 (Foreground)
//Storyboard Layer 4 (Overlay)
//Storyboard Sound Samples

[TimingPoints]
1074,375,4,2,29,80,1,0
1449,-100,4,2,29,5,0,0
4074,-100,4,2,29,80,0,0
4449,-100,4,2,29,5,0,0
7074,-66.6666666666667,4,2,29,80,0,0
7449,-100,4,2,29,80,0,0
8199,-66.6666666666667,4,2,29,80,0,0
8574,-100,4,2,29,80,0,0
9511,-66.6666666666667,4,2,29,80,0,0
11199,-50,4,2,29,80,0,0
11574,-66.6666666666667,4,2,29,80,0,0
12324,-200,4,2,29,60,0,0
12605,-200,4,2,29,5,0,0
12699,-66.6666666666667,4,2,29,80,0,0
12980,-66.6666666666667,4,2,29,5,0,0
13074,-200,4,2,29,90,0,0
13261,-25,4,2,29,90,0,0
13449,-200,4,2,29,90,0,0
13636,-25,4,2,29,90,0,0
13824,-200,4,2,29,90,0,0
14011,-25,4,2,29,90,0,0
14199,-200,4,2,29,90,0,0
14386,-25,4,2,29,90,0,0
14574,-66.6666666666667,4,2,29,90,0,0
16074,-200,4,2,29,90,0,0
16261,-25,4,2,29,90,0,0
16449,-200,4,2,29,90,0,0
16636,-25,4,2,29,90,0,0
16824,-200,4,2,29,90,0,0
17011,-25,4,2,29,90,0,0
17199,-200,4,2,29,90,0,0
17386,-25,4,2,29,90,0,0
17574,-66.6666666666667,4,2,29,90,0,0
19074,-100,4,2,29,80,0,0
24699,-50,4,2,29,80,0,0
25074,-100,4,2,29,80,0,0
32199,-50,4,2,29,80,0,0
32574,-100,4,2,29,80,0,0
33699,-50,4,2,29,80,0,0
34074,-100,4,2,29,80,0,0
36699,-50,4,2,29,80,0,0
37074,-80,4,2,29,80,0,0
37449,-133.333333333333,4,2,29,60,0,0
41761,-80,4,2,29,60,0,0
42699,-57.1428571428571,4,2,29,60,0,0
43074,-80,4,2,29,80,0,0
43449,-133.333333333333,4,2,29,60,0,0
49074,-50,4,2,29,80,0,0
49449,-133.333333333333,4,2,29,80,0,0
49824,-50,4,2,29,80,0,0
50199,-133.333333333333,4,2,29,80,0,0
50574,-50,4,2,29,80,0,0
51324,-33.3333333333333,4,2,29,80,0,0
52074,-200,4,2,29,80,0,0
52824,-100,4,2,29,80,0,0
53199,-66.6666666666667,4,2,29,80,0,0
53574,-66.6666666666667,4,2,29,100,0,1
62574,-50,4,2,29,100,0,1
62761,-133.333333333333,4,2,29,100,0,1
62949,-50,4,2,29,100,0,1
63511,-133.333333333333,4,2,29,100,0,1
63699,-50,4,2,29,100,0,1
63886,-33.3333333333333,4,2,29,100,0,1
65011,-33.3333333333333,4,2,29,80,0,1
65199,-50,4,2,29,100,0,1
65386,-200,4,2,29,100,0,1
65949,-50,4,2,29,100,0,1
66136,-200,4,2,29,100,0,1
66699,-50,4,2,29,100,0,1
66886,-200,4,2,29,100,0,1
67449,-50,4,2,29,100,0,1
67636,-200,4,2,29,100,0,1
68011,-400,4,2,29,100,0,1
68199,-50,4,2,29,100,0,1
68386,-33.3333333333333,4,2,29,100,0,1
68761,-400,4,2,29,100,0,1
68949,-50,4,2,29,100,0,1
69136,-33.3333333333333,4,2,29,100,0,1
69511,-400,4,2,29,100,0,1
69699,-50,4,2,29,100,0,1
69886,-33.3333333333333,4,2,29,100,0,1
70261,-66.6666666666667,4,2,29,100,0,1
71199,-33.3333333333333,4,2,29,100,0,1
71574,-133.333333333333,4,2,29,100,0,0
71949,-133.333333333333,4,2,29,80,0,0
77574,-80,4,2,29,80,0,0
77949,-133.333333333333,4,2,29,80,0,0
83199,-66.6666666666667,4,2,29,80,0,0
83574,-80,4,2,29,80,0,0
83949,-133.333333333333,4,2,29,80,0,0
89574,-66.6666666666667,4,2,29,90,0,0
89949,-100,4,2,29,90,0,0
92199,-200,4,2,29,90,0,0
92574,-66.6666666666667,4,2,29,90,0,0
92949,-100,4,2,29,90,0,0
95199,-200,4,2,29,90,0,0
95574,-80,4,2,29,90,0,0
100824,-33.3333333333333,4,2,29,80,0,0
101199,-50,4,2,29,80,0,0
101574,-79.9999999999999,4,2,29,80,0,0
101949,-133.333333333333,4,2,29,60,0,0
107199,-80,4,2,29,60,0,0
107574,-79.9999999999999,4,2,29,80,0,0
107949,-133.333333333333,4,2,29,60,0,0
110574,-79.9999999999999,4,2,29,80,0,0
112074,-50,4,2,29,80,0,0
112261,-200,4,2,29,80,0,0
112824,-50,4,2,29,80,0,0
113011,-133.333333333333,4,2,29,80,0,0
113199,-66.6666666666667,4,2,29,80,0,0
113574,-66.6666666666667,4,2,29,100,0,1
122574,-50,4,2,29,100,0,1
122761,-133.333333333333,4,2,29,100,0,1
122949,-50,4,2,29,100,0,1
123511,-133.333333333333,4,2,29,100,0,1
123699,-50,4,2,29,100,0,1
123886,-33.3333333333333,4,2,29,100,0,1
125011,-33.3333333333333,4,2,29,80,0,1
125199,-50,4,2,29,100,0,1
125386,-200,4,2,29,100,0,1
125761,-400,4,2,29,100,0,1
125949,-50,4,2,29,100,0,1
126136,-200,4,2,29,100,0,1
126511,-400,4,2,29,100,0,1
126699,-50,4,2,29,100,0,1
126886,-200,4,2,29,100,0,1
127449,-50,4,2,29,100,0,1
127636,-200,4,2,29,100,0,1
128011,-400,4,2,29,100,0,1
128199,-50,4,2,29,100,0,1
128386,-33.3333333333333,4,2,29,100,0,1
128761,-400,4,2,29,100,0,1
128949,-50,4,2,29,100,0,1
129136,-33.3333333333333,4,2,29,100,0,1
129511,-400,4,2,29,100,0,1
129699,-50,4,2,29,100,0,1
129886,-33.3333333333333,4,2,29,100,0,1
130261,-66.6666666666667,4,2,29,100,0,1
131199,-50,4,2,29,100,0,1
131574,-133.333333333333,4,2,29,100,0,0
131949,-133.333333333333,4,2,29,80,0,0
133449,-79.9999999999999,4,2,29,80,0,0
134199,-50,4,2,29,100,0,0
134574,-50,4,2,29,100,0,1
135324,-79.9999999999999,4,2,29,100,0,1
135886,-133.333333333333,4,2,29,100,0,1
136449,-79.9999999999999,4,2,29,100,0,1
137199,-133.333333333333,4,2,29,100,0,1
137574,-50,4,2,29,100,0,1
138136,-80,4,2,29,100,0,1
138324,-50,4,2,29,100,0,1
138886,-80,4,2,29,100,0,1
139261,-66.6666666666667,4,2,29,100,0,1
139449,-57.1428571428571,4,2,29,100,0,1
139636,-50,4,2,29,100,0,1
139824,-33.3333333333333,4,2,29,100,0,1
140574,-50,4,2,29,100,0,1
141324,-79.9999999999999,4,2,29,100,0,1
141886,-133.333333333333,4,2,29,100,0,1
142449,-79.9999999999999,4,2,29,100,0,1
143011,-66.6666666666667,4,2,29,100,0,1
143199,-57.1428571428571,4,2,29,100,0,1
143386,-133.333333333333,4,2,29,100,0,1
143574,-50,4,2,29,100,0,1
143949,-80,4,2,29,100,0,1
145074,-50,4,2,29,100,0,1
145261,-80,4,2,29,60,0,1
145449,-80,4,2,29,100,0,1
145636,-80,4,2,29,60,0,1
145824,-80,4,2,29,100,0,1
146574,-200,4,2,29,80,0,0
147324,-200,4,2,29,60,0,0
158574,-66.6666666666667,4,2,29,60,0,0
158949,-133.333333333333,4,2,29,60,0,0
164574,-66.6666666666667,4,2,29,60,0,0
164949,-133.333333333333,4,2,29,60,0,0
167574,-66.6666666666667,4,2,29,80,0,0
167949,-133.333333333333,4,2,29,80,0,0
169261,-100,4,2,29,80,0,0
170199,-66.6666666666667,4,2,29,80,0,0
170574,-50,4,2,29,100,0,1
176199,-33.3333333333333,4,2,29,100,0,1
176574,-50,4,2,29,100,0,1
181261,-200,4,2,29,100,0,0
181355,-200,4,2,29,80,0,0
183511,-66.6666666666667,4,2,29,80,0,0
184074,-200,4,2,29,80,0,0
186699,-100,4,2,29,80,0,0
187074,-200,4,2,29,80,0,0
189324,-100,4,2,29,80,0,0
190074,-200,4,2,29,80,0,0
191574,-200,4,2,29,100,0,0
192699,-30.5416576316895,4,2,29,100,0,0
193074,-200,4,2,29,100,0,0
194199,-30.5416576316895,4,2,29,100,0,0
194574,-66.6666666666667,4,2,29,100,0,1
200574,-50,4,2,29,100,0,1
200761,-133.333333333333,4,2,29,100,0,1
200949,-50,4,2,29,100,0,1
201511,-133.333333333333,4,2,29,100,0,1
201699,-50,4,2,29,100,0,1
201886,-33.3333333333333,4,2,29,100,0,1
203199,-66.6666666666667,4,2,29,100,0,1
203574,-33.3333333333333,4,2,29,100,0,1
203949,-133.333333333333,4,2,29,100,0,1
204324,-33.3333333333333,4,2,29,100,0,1
204699,-133.333333333333,4,2,29,100,0,1
205074,-33.3333333333333,4,2,29,100,0,1
205449,-133.333333333333,4,2,29,100,0,1
205824,-33.3333333333333,4,2,29,100,0,1
206199,-133.333333333333,4,2,29,100,0,1
206574,-33.3333333333333,4,2,29,100,0,1
206949,-133.333333333333,4,2,29,100,0,1
207324,-33.3333333333333,4,2,29,100,0,1
207699,-109.747936952945,4,2,29,100,0,1
208074,-66.6666666666667,4,2,29,100,0,1
208449,-33.3333333333333,4,2,29,100,0,1
208824,-66.6666666666667,4,2,29,100,0,1
209199,-50,4,2,29,100,0,1
209386,-66.6666666666667,4,2,29,100,0,0
209574,-66.6666666666667,4,2,29,90,0,1
215574,-200,4,2,29,100,0,0
215855,-200,4,2,29,5,0,0
215949,-90.6040268456376,4,2,29,100,0,0
216324,-66.6666666666667,4,2,29,100,0,0
217074,-200,4,2,29,100,0,0
217449,-66.6666666666667,4,2,29,100,0,0
218199,-200,4,2,29,100,0,0
218574,-66.6666666666667,4,2,29,100,0,0
218949,-200,4,2,29,100,0,0
219324,-66.6666666666667,4,2,29,100,0,0
221574,-200,4,2,29,100,0,0
221761,-50,4,2,29,100,0,0
221949,-200,4,2,29,100,0,0
222136,-50,4,2,29,100,0,0
222324,-200,4,2,29,100,0,0
222511,-50,4,2,29,100,0,0
222699,-200,4,2,29,100,0,0
222886,-50,4,2,29,100,0,0
223074,-200,4,2,29,100,0,0
223261,-50,4,2,29,100,0,0
223449,-200,4,2,29,100,0,0
223636,-50,4,2,29,100,0,0
223824,-200,4,2,29,100,0,0
224011,-50,4,2,29,100,0,0
224199,-200,4,2,29,100,0,0
224386,-50,4,2,29,100,0,0
224574,-80,4,2,29,100,0,0
227199,-25,4,2,29,100,0,0
227574,-200,4,2,29,100,0,0
227667,-200,4,2,29,60,0,0
230199,-33.3333333333333,4,2,29,100,0,0

[Colours]
Combo1 : 26,240,149
Combo2 : 255,244,38
Combo3 : 17,249,255
Combo4 : 255,21,243
SliderBorder : 17,249,255

[HitObjects]
256,192,1074,5,0,3:2:0:0:
256,192,1449,12,0,3699,0:2:0:0:
256,192,4074,5,0,3:2:0:0:
256,192,4449,12,0,6886,0:2:0:0:
256,192,7074,6,0,L|265:56,1,135.000005149842,6|0,3:2|0:2,0:2:0:0:
286,310,7355,1,2,0:2:0:0:
286,310,7449,2,0,L|289:265,1,45,2|0,3:2|0:2,0:2:0:0:
337,200,7636,2,0,L|340:155,1,45,2|0,0:2|0:2,0:2:0:0:
367,318,7824,2,0,L|370:273,1,45,2|0,3:2|0:2,0:2:0:0:
418,208,8011,2,0,L|421:163,1,45,2|0,0:2|0:2,0:2:0:0:
392,6,8199,6,0,P|453:76|439:-13,1,202.500007724762,14|0,1:2|0:2,0:2:0:0:
326,110,8574,6,0,L|236:104,1,90,2|0,3:2|0:2,0:2:0:0:
301,230,8855,1,2,0:2:0:0:
301,230,8949,2,0,L|256:227,1,45,2|0,3:2|0:2,0:2:0:0:
188,181,9136,2,0,L|143:184,1,45,2|0,0:2|0:2,0:2:0:0:
75,230,9324,2,0,L|30:227,1,45,2|0,3:2|0:2,0:2:0:0:
214,367,9511,6,0,L|220:277,1,67.5000025749208,2|0,0:2|0:2,0:2:0:0:
256,227,9699,2,0,L|250:137,1,67.5000025749208,10|0,1:2|0:2,0:2:0:0:
279,82,9886,2,0,L|269:37,2,45.0000017166138,2|0|0,0:2|0:2|0:2,0:2:0:0:
130,86,10074,6,0,L|220:80,1,67.5000025749208,2|0,3:2|0:2,0:2:0:0:
359,71,10261,2,0,L|449:65,1,67.5000025749208,2|0,0:2|0:2,0:2:0:0:
121,110,10449,6,0,L|211:104,1,67.5000025749208,2|0,3:2|0:2,0:2:0:0:
350,95,10636,2,0,L|440:89,1,67.5000025749208,2|0,0:2|0:2,0:2:0:0:
112,134,10824,6,0,L|248:125,1,135.000005149842,2|0,3:2|0:2,0:2:0:0:
407,344,11199,6,0,P|428:295|430:221,1,90,2|0,3:2|0:2,0:2:0:0:
433,125,11386,2,0,P|425:80|406:39,1,90,2|0,0:2|0:2,0:2:0:0:
246,125,11574,6,0,L|243:170,2,33.7500012874604,2|0|0,3:2|0:2|0:2,0:2:0:0:
325,84,11761,2,0,L|328:129,2,33.7500012874604,2|0|0,0:2|0:2|0:2,0:2:0:0:
175,52,11949,2,0,L|172:97,2,33.7500012874604,2|0|0,3:2|0:2|0:2,0:2:0:0:
254,11,12136,2,0,L|257:56,2,33.7500012874604,2|0|0,0:2|0:2|0:2,0:2:0:0:
325,84,12324,6,0,P|367:85|396:75,1,67.5,2|0,0:2|0:2,0:2:0:0:
471,83,12699,6,0,P|410:13|424:102,1,202.500007724762,2|0,0:2|0:2,0:2:0:0:
267,160,13074,6,0,L|235:160,1,22.5,2|0,3:2|0:2,0:2:0:0:
312,85,13261,2,0,B|256:15|256:15|200:85,1,180,2|0,0:1|0:2,0:2:0:0:
224,181,13449,6,0,L|224:213,1,22.5,2|0,3:2|0:2,0:2:0:0:
149,136,13636,2,0,B|79:192|79:192|149:248,1,180,2|0,0:1|0:2,0:2:0:0:
245,224,13824,6,0,L|277:224,1,22.5,2|0,3:2|0:2,0:2:0:0:
200,299,14011,2,0,B|256:369|256:369|312:299,1,180,2|0,0:1|0:2,0:2:0:0:
288,203,14199,6,0,L|288:171,1,22.5,2|0,3:2|0:2,0:2:0:0:
363,248,14386,2,0,B|433:192|433:192|363:136,1,180,2|0,0:1|0:2,0:2:0:0:
200,85,14574,5,2,3:2:0:0:
363,136,14761,1,2,0:2:0:0:
312,299,14949,1,2,3:2:0:0:
149,248,15136,1,2,0:2:0:0:
200,85,15324,1,2,3:2:0:0:
363,136,15511,1,2,0:2:0:0:
149,248,15699,2,0,P|123:200|140:85,1,135.000005149842,2|0,3:2|0:2,0:2:0:0:
245,160,16074,6,0,L|277:160,1,22.5,2|0,3:2|0:2,0:2:0:0:
200,85,16261,2,0,B|256:15|256:15|312:85,1,180,2|0,0:1|0:2,0:2:0:0:
288,181,16449,6,0,L|288:213,1,22.5,2|0,3:2|0:2,0:2:0:0:
363,136,16636,2,0,B|433:192|433:192|363:248,1,180,2|0,0:1|0:2,0:2:0:0:
267,224,16824,6,0,L|235:224,1,22.5,2|0,3:2|0:2,0:2:0:0:
312,299,17011,2,0,B|256:369|256:369|200:299,1,180,2|0,0:1|0:2,0:2:0:0:
224,203,17199,6,0,L|224:171,1,22.5,2|0,3:2|0:2,0:2:0:0:
149,248,17386,2,0,B|79:192|79:192|149:136,1,180,2|0,0:1|0:2,0:2:0:0:
312,85,17574,5,2,3:2:0:0:
149,136,17761,1,2,0:2:0:0:
200,299,17949,1,2,3:2:0:0:
363,248,18136,1,2,0:2:0:0:
312,85,18324,1,2,3:2:0:0:
149,136,18511,1,2,0:2:0:0:
363,248,18699,2,0,P|389:200|372:85,1,135.000005149842,2|0,3:2|0:2,0:2:0:0:
256,369,19074,5,2,3:2:0:0:
231,169,19261,1,2,0:2:0:0:
201,254,19449,1,2,3:2:0:0:
286,284,19636,1,2,0:2:0:0:
116,224,19824,1,2,3:2:0:0:
116,224,20011,1,2,0:2:0:0:
171,339,20199,1,2,3:2:0:0:
171,339,20386,1,2,0:2:0:0:
286,284,20574,5,2,3:2:0:0:
316,199,20761,1,2,0:2:0:0:
231,169,20949,1,2,3:2:0:0:
201,254,21136,1,2,0:2:0:0:
316,199,21324,2,0,L|310:109,1,90,2|0,3:2|0:2,0:2:0:0:
214,0,21699,2,0,L|217:45,1,45,2|0,3:2|0:2,0:2:0:0:
302,33,21886,1,2,0:2:0:0:
302,33,21980,1,2,0:2:0:0:
302,33,22074,6,0,P|360:35|415:61,1,90,2|0,3:2|0:2,0:2:0:0:
457,90,22355,2,0,L|454:135,1,45,2|0,0:2|3:2,0:2:0:0:
302,271,22636,1,2,0:2:0:0:
446,225,22824,2,0,P|403:211|358:212,1,90,2|0,3:2|0:2,0:2:0:0:
302,271,23105,2,0,L|257:268,1,45,2|0,0:2|3:2,0:2:0:0:
94,257,23386,1,2,0:2:0:0:
191,30,23574,6,0,L|185:120,1,90,2|0,3:2|0:2,0:2:0:0:
180,201,23855,2,0,L|177:246,1,45,2|0,0:2|3:2,0:2:0:0:
107,69,24136,1,2,0:2:0:0:
270,80,24324,1,2,3:2:0:0:
298,102,24417,1,0,3:2:0:0:
331,89,24511,1,0,3:2:0:0:
359,111,24605,1,0,3:2:0:0:
395,185,24699,6,0,P|305:285|176:299,1,270,8|0,1:2|0:2,0:2:0:0:
121,184,25074,5,2,3:2:0:0:
146,384,25261,1,2,0:2:0:0:
176,299,25449,1,2,3:2:0:0:
91,269,25636,1,2,0:2:0:0:
261,329,25824,2,0,L|351:323,1,90,2|0,3:2|0:2,0:2:0:0:
91,269,26199,2,0,L|1:275,1,90,2|0,3:2|0:2,0:2:0:0:
151,99,26574,5,2,3:2:0:0:
121,184,26761,1,2,0:2:0:0:
206,214,26949,1,2,3:2:0:0:
176,299,27136,2,0,L|86:305,1,90,2|0,0:2|3:2,0:2:0:0:
391,184,27511,2,0,L|388:139,1,45,2|0,0:1|0:2,0:2:0:0:
382,57,27699,1,2,3:2:0:0:
121,184,27886,2,0,L|124:139,1,45,2|0,0:1|0:2,0:2:0:0:
130,57,28074,5,2,3:2:0:0:
256,215,28261,2,0,L|256:298,1,45,2|0,0:2|0:2,0:2:0:0:
211,346,28449,2,0,P|264:340|332:357,1,90,2|0,3:2|0:2,0:2:0:0:
381,372,28730,1,2,0:2:0:0:
381,372,28824,1,2,3:2:0:0:
256,215,29011,1,2,0:2:0:0:
131,372,29199,2,0,P|78:378|10:361,1,90,2|0,3:2|0:2,0:2:0:0:
93,146,29574,6,0,L|87:236,1,90,2|0,3:2|0:2,0:2:0:0:
254,350,29949,2,0,L|248:260,1,90,2|0,3:2|0:2,0:2:0:0:
401,152,30324,2,0,L|398:197,1,45,2|0,3:2|0:2,0:2:0:0:
329,319,30511,2,0,L|323:229,2,90,2|0|0,0:2|3:2|0:2,0:2:0:0:
236,163,31074,5,2,3:2:0:0:
401,152,31261,1,2,0:2:0:0:
236,163,31449,2,0,P|173:155|130:136,1,90,2|0,3:2|0:2,0:2:0:0:
401,152,31824,2,0,L|398:197,1,45,2|0,3:2|0:2,0:2:0:0:
392,279,32011,1,2,0:2:0:0:
264,87,32199,6,0,P|312:31|400:89,1,180,2|0,3:2|0:2,0:2:0:0:
405,156,32480,1,2,0:2:0:0:
405,156,32574,5,2,3:2:0:0:
446,0,32761,1,2,0:2:0:0:
405,156,32949,2,0,P|362:169|317:173,1,90,2|0,3:2|0:2,0:2:0:0:
116,55,33324,2,0,L|161:58,1,45,2|0,3:2|0:2,0:2:0:0:
243,64,33511,1,2,0:2:0:0:
255,293,33699,6,0,P|211:235|202:103,1,180,2|0,3:1|0:2,0:2:0:0:
445,30,34074,5,2,3:2:0:0:
355,164,34261,1,2,0:2:0:0:
283,18,34449,1,2,3:2:0:0:
323,174,34636,1,2,0:2:0:0:
363,330,34824,2,0,L|453:324,1,90,2|0,3:2|0:2,0:2:0:0:
291,184,35199,1,2,3:2:0:0:
135,224,35386,1,2,0:2:0:0:
93,380,35574,5,2,3:2:0:0:
249,340,35761,1,2,0:2:0:0:
229,262,35949,1,2,3:2:0:0:
225,344,36136,1,2,0:2:0:0:
205,266,36324,1,2,3:2:0:0:
225,188,36511,1,2,0:2:0:0:
457,153,36699,6,0,P|421:274|272:354,1,270,8|0,1:1|0:2,0:2:0:0:
225,344,37074,6,0,L|213:164,1,168.75,6|0,3:2|0:2,0:2:0:0:
209,95,37449,5,2,0:2:0:0:
94,216,37636,2,0,L|100:306,1,67.5000025749208,2|0,3:2|0:2,0:2:0:0:
218,243,38011,2,0,L|212:153,1,67.5000025749208,2|0,3:2|0:2,0:2:0:0:
337,203,38386,1,2,3:2:0:0:
94,216,38574,6,0,P|52:208|12:180,1,67.5000025749208,2|0,3:2|3:2,0:2:0:0:
217,54,38949,2,0,P|259:62|299:90,2,67.5000025749208,2|0|0,0:2|3:2|0:2,0:2:0:0:
218,243,39511,2,0,L|212:153,1,67.5000025749208,2|0,3:2|0:2,0:2:0:0:
110,112,39886,1,2,3:2:0:0:
99,283,40074,5,2,3:2:0:0:
218,243,40261,1,2,0:2:0:0:
342,270,40449,1,2,0:2:0:0:
99,283,40636,2,0,L|93:193,1,67.5000025749208,2|0,3:2|0:2,0:2:0:0:
342,270,41011,1,2,3:2:0:0:
218,243,41199,1,2,0:2:0:0:
94,216,41386,2,0,L|88:126,1,67.5000025749208,2|0,3:2|3:2,0:2:0:0:
333,132,41761,6,0,L|339:222,1,56.25,2|0,3:1|0:2,0:2:0:0:
342,270,41949,1,2,0:2:0:0:
94,216,42136,2,0,L|88:126,1,56.25,2|0,3:1|0:2,0:2:0:0:
140,67,42324,2,0,P|82:78|12:70,1,112.5,2|0,0:1|3:2,0:2:0:0:
298,28,42699,6,0,B|308:67|298:106|298:106|288:145|298:184,1,157.500001502037,2|0,0:2|0:2,0:2:0:0:
512,298,43074,6,0,P|499:209|456:145,1,168.75,6|0,3:2|0:2,0:2:0:0:
377,126,43449,6,0,L|383:36,2,67.5000025749208,2|0|0,0:2|3:2|0:2,0:2:0:0:
364,336,44011,1,2,3:2:0:0:
310,227,44199,1,2,0:2:0:0:
189,219,44386,1,2,3:2:0:0:
135,110,44574,6,0,L|141:20,1,67.5000025749208,2|0,3:2|3:2,0:2:0:0:
310,227,44949,2,0,L|304:317,2,67.5000025749208,2|0|0,0:2|3:2|0:2,0:2:0:0:
124,249,45511,2,0,P|151:255|191:253,1,67.5000025749208,2|0,3:2|0:2,0:2:0:0:
165,134,45886,1,2,3:2:0:0:
284,108,46074,6,0,P|324:106|351:112,1,67.5000025749208,2|0,3:2|0:2,0:2:0:0:
425,268,46449,1,2,0:2:0:0:
310,227,46636,1,2,3:2:0:0:
169,67,46824,2,0,P|209:65|236:71,1,67.5000025749208,2|0,0:2|3:2,0:2:0:0:
310,227,47199,1,2,0:2:0:0:
195,186,47386,1,2,3:2:0:0:
351,112,47574,5,2,3:2:0:0:
425,268,47761,1,2,3:2:0:0:
269,342,47949,1,2,0:2:0:0:
195,186,48136,2,0,L|201:96,1,67.5000025749208,2|0,3:2|0:2,0:2:0:0:
425,268,48511,2,0,L|419:358,1,67.5000025749208,2|0,3:2|0:2,0:2:0:0:
351,112,48886,1,2,0:2:0:0:
122,263,49074,6,0,P|77:179|80:85,1,180,14|0,1:2|0:2,0:2:0:0:
256,50,49449,6,0,L|256:114,1,33.7500012874604,2|0,0:2|0:2,0:2:0:0:
256,165,49636,1,0,3:2:0:0:
390,263,49824,6,0,P|435:179|432:85,1,180,14|0,1:2|0:2,0:2:0:0:
256,50,50199,6,0,L|256:114,1,33.7500012874604,2|0,0:2|0:2,0:2:0:0:
256,165,50386,1,0,3:2:0:0:
122,263,50574,6,0,P|77:179|80:85,1,180,14|0,1:2|0:2,0:2:0:0:
390,263,50949,6,0,P|435:179|432:85,1,180,14|0,1:2|0:2,0:2:0:0:
122,263,51324,6,0,B|106:213|130:167|130:167|145:178|163:180,1,135.000005149842,14|0,1:2|0:2,0:2:0:0:
175,100,51511,1,2,3:2:0:0:
390,263,51699,6,0,B|406:213|382:167|382:167|367:178|349:180,1,135.000005149842,14|0,1:2|0:2,0:2:0:0:
337,100,51886,1,2,3:2:0:0:
256,254,52074,6,0,L|256:318,2,45,2|0|0,3:2|0:2|0:2,0:2:0:0:
256,254,52824,6,0,L|256:146,1,90,2|0,0:2|0:2,0:2:0:0:
256,83,53105,1,2,0:2:0:0:
256,83,53199,6,0,B|256:126|243:170|243:170|269:167|269:167|256:211|256:254,1,202.500007724762,2|0,0:2|0:2,0:2:0:0:
417,268,53574,6,0,P|396:186|339:247,1,202.500007724762,6|0,3:2|0:2,0:2:0:0:
173,244,53949,2,0,P|113:186|95:268,1,202.500007724762,2|0,1:2|0:2,0:2:0:0:
256,312,54324,1,2,3:2:0:0:
256,110,54511,1,2,0:2:0:0:
256,110,54605,1,2,0:2:0:0:
256,110,54699,1,2,3:2:0:0:
54,126,54886,2,0,P|17:164|1:210,1,67.5000025749208,2|0,0:2|0:2,0:2:0:0:
150,250,55074,6,0,B|15:259|15:259|32:291|72:281,1,202.500007724762,2|0,3:2|0:2,0:2:0:0:
270,324,55449,2,0,B|135:333|135:333|152:365|192:355,1,202.500007724762,2|0,1:2|0:2,0:2:0:0:
350,319,55824,1,2,3:2:0:0:
192,355,56011,2,0,P|157:365|127:387,1,67.5000025749208,2|0,0:2|0:2,0:2:0:0:
408,238,56199,1,2,3:2:0:0:
250,202,56386,2,0,P|215:192|185:170,1,67.5000025749208,2|0,0:2|0:2,0:2:0:0:
302,53,56574,6,0,B|277:103|311:148|311:148|345:193|320:243,1,202.500007724762,2|0,3:2|0:2,0:2:0:0:
279,313,56949,1,2,1:2:0:0:
372,94,57136,1,2,0:2:0:0:
124,197,57324,2,0,L|34:191,1,67.5000025749208,2|0,3:2|0:2,0:2:0:0:
73,60,57511,2,0,L|-17:66,1,67.5000025749208,2|0,0:2|0:2,0:2:0:0:
205,94,57699,1,2,3:2:0:0:
135,324,57886,6,0,L|-1:315,1,135.000005149842,2|0,0:2|3:2,0:2:0:0:
278,235,58261,2,0,P|297:280|303:338,1,67.5000025749208,2|0,0:2|0:2,0:2:0:0:
342,118,58449,2,0,P|361:73|367:15,1,67.5000025749208,2|0,1:2|0:2,0:2:0:0:
412,159,58636,2,0,P|431:204|437:262,1,67.5000025749208,2|0,0:2|0:2,0:2:0:0:
299,380,58824,1,2,3:2:0:0:
189,232,59011,1,2,0:2:0:0:
181,192,59105,1,2,0:2:0:0:
189,152,59199,1,2,3:2:0:0:
299,4,59386,2,0,L|389:10,1,67.5000025749208,2|0,0:2|0:2,0:2:0:0:
355,219,59574,6,0,B|287:215|287:215|257:156|257:156|189:152,1,202.500007724762,2|0,3:2|0:2,0:2:0:0:
40,168,59949,2,0,B|108:172|108:172|138:231|138:231|206:235,1,202.500007724762,2|0,1:2|0:2,0:2:0:0:
57,251,60324,1,2,3:2:0:0:
122,92,60511,1,2,0:2:0:0:
122,92,60605,1,2,0:2:0:0:
122,92,60699,1,2,3:2:0:0:
216,316,60886,2,0,P|210:351|194:387,1,67.5000025749208,2|0,0:2|0:2,0:2:0:0:
206,235,61074,6,0,P|273:184|281:266,1,202.500007724762,2|0,3:2|0:2,0:2:0:0:
126,241,61449,2,0,P|161:138|247:99,1,202.500007724762,2|0,1:2|0:2,0:2:0:0:
320,117,61824,1,2,3:2:0:0:
160,39,62011,2,0,L|70:33,1,67.5000025749208,2|0,0:2|0:2,0:2:0:0:
253,227,62199,1,2,3:2:0:0:
413,149,62386,2,0,L|503:143,1,67.5000025749208,2|0,0:2|0:2,0:2:0:0:
266,30,62574,6,0,L|260:120,1,90,2|0,3:2|0:2,0:2:0:0:
332,249,62761,2,0,L|335:204,1,33.7500012874604,2|0,0:2|0:2,0:2:0:0:
176,24,62949,2,2,P|227:124|266:30,1,270,10|0,1:2|0:2,0:1:0:0:
86,30,63324,6,0,L|92:120,1,90,2|0,3:2|0:2,0:2:0:0:
20,249,63511,2,0,L|17:204,1,33.7500012874604,2|0,0:2|0:2,0:2:0:0:
176,24,63699,2,2,L|182:114,1,90,10|0,1:2|0:2,0:1:0:0:
106,371,63886,6,2,P|57:251|92:120,1,270.000010299683,2|2,0:2|3:2,0:1:0:0:
266,30,64261,1,2,0:2:0:0:
315,199,64449,2,2,P|257:296|217:199,1,270.000010299683,2|0,0:2|3:2,0:1:0:0:
440,120,64824,2,2,P|475:251|426:371,1,270.000010299683,2|0,3:2|1:2,0:1:0:0:
266,236,65105,1,2,1:2:0:0:
192,180,65199,6,0,L|102:186,1,90,2|0,1:2|0:2,0:2:0:0:
81,275,65386,2,0,P|84:306|100:333,2,45,2|0|0,3:2|3:2|0:2,0:2:0:0:
320,180,65949,6,0,L|410:186,1,90,2|0,3:2|0:2,0:2:0:0:
431,275,66136,2,0,P|428:306|412:333,2,45,2|0|0,0:2|3:2|0:2,0:2:0:0:
192,180,66699,6,0,L|102:186,1,90,2|0,3:2|0:2,0:2:0:0:
81,275,66886,2,0,P|84:306|100:333,2,45,2|0|0,0:2|3:2|0:2,0:2:0:0:
320,180,67449,6,0,L|410:186,1,90,2|0,3:2|0:2,0:2:0:0:
431,275,67636,2,0,P|428:306|412:333,1,45,2|0,0:2|3:2,0:2:0:0:
239,192,68011,6,0,L|228:192,1,11.25,2|0,0:2|0:2,0:2:0:0:
118,137,68199,2,0,L|124:47,1,90,2|0,3:2|0:2,0:2:0:0:
234,0,68386,2,0,P|403:21|540:130,1,270.000010299683,2|0,0:1|3:2,0:2:0:0:
239,192,68761,6,0,L|228:192,1,11.25,2|0,0:2|0:2,0:2:0:0:
118,247,68949,2,0,L|124:337,1,90,2|0,3:2|0:2,0:2:0:0:
234,384,69136,2,0,P|403:363|540:254,1,270.000010299683,2|0,0:1|3:2,0:2:0:0:
239,192,69511,6,0,L|228:192,1,11.25,2|0,0:2|0:2,0:2:0:0:
118,137,69699,2,0,L|124:47,1,90,2|0,3:2|0:2,0:2:0:0:
234,0,69886,2,0,P|403:21|540:130,1,270.000010299683,2|0,0:1|3:2,0:2:0:0:
239,192,70261,6,0,L|194:189,2,33.7500012874604,2|0|0,0:2|0:2|0:2,0:2:0:0:
365,129,70449,2,0,L|390:91,2,33.7500012874604,2|0|0,3:2|0:2|0:2,0:2:0:0:
356,270,70636,2,0,L|375:310,2,33.7500012874604,2|0|0,0:2|0:2|0:2,0:2:0:0:
284,124,70824,6,0,L|265:84,2,45.0000017166138,2|0|0,3:2|0:2|0:2,0:2:0:0:
275,265,71011,2,0,L|250:303,2,45.0000017166138,2|0|0,0:2|0:2|0:2,0:2:0:0:
401,202,71199,6,0,B|488:208|488:208|454:316|454:316|250:303,1,405.000015449525,8|0,1:1|0:2,0:2:0:0:
169,298,71574,5,2,3:2:0:0:
146,211,71949,1,0,3:2:0:0:
169,124,72324,1,0,3:2:0:0:
233,60,72699,1,0,3:2:0:0:
320,37,73074,5,0,3:2:0:0:
233,60,73261,1,2,0:2:0:0:
169,124,73449,1,2,3:2:0:0:
146,211,73636,1,2,0:2:0:0:
169,298,73824,2,0,L|305:289,1,101.250003862381,2|0,3:2|0:2,0:2:0:0:
310,259,74199,2,0,P|327:217|329:172,1,67.5000025749208,2|0,3:2|0:2,0:2:0:0:
215,31,74574,6,0,P|221:111|279:182,1,135.000005149842,2|0,3:2|3:2,0:2:0:0:
330,195,75136,1,2,0:2:0:0:
411,155,75324,2,0,L|501:161,1,67.5000025749208,2|0,3:2|0:2,0:2:0:0:
473,249,75699,2,0,L|383:243,1,67.5000025749208,2|0,3:2|0:2,0:2:0:0:
256,145,76074,5,2,3:2:0:0:
330,195,76261,1,2,0:2:0:0:
177,202,76449,2,0,L|215:224,1,33.7500012874604,2|2,3:2|0:2,0:2:0:0:
307,290,76636,2,0,L|271:262,1,33.7500012874604,2|2,0:2|0:2,0:2:0:0:
117,304,76824,2,0,L|174:275,1,33.7500012874604,2|2,3:2|0:2,0:2:0:0:
235,384,77011,2,0,L|239:319,1,33.7500012874604,2|2,0:2|0:2,0:2:0:0:
286,180,77199,2,0,L|386:32,1,101.250003862381,2|0,0:2|0:2,0:2:0:0:
481,108,77574,6,0,P|423:92|483:97,1,168.75,6|0,3:2|0:2,0:2:0:0:
481,108,77949,6,0,P|480:161|453:223,1,101.250003862381,2|0,0:2|0:2,0:2:0:0:
414,256,78324,2,0,L|278:247,2,101.250003862381,2|0|0,0:1|0:2|0:2,0:2:0:0:
271,354,79074,6,0,P|254:308|259:275,1,67.5000025749208,2|0,3:2|0:2,0:2:0:0:
257,127,79449,2,0,P|273:173|268:206,1,67.5000025749208,2|0,3:2|0:2,0:2:0:0:
158,105,79824,2,0,L|167:-31,2,101.250003862381,2|0|0,0:1|0:2|0:2,0:2:0:0:
143,258,80574,6,0,P|116:215|124:166,1,101.250003862381,2|0,3:2|0:2,0:2:0:0:
123,167,80949,2,0,P|199:163|227:122,1,101.250003862381,2|0,0:2|0:2,0:2:0:0:
233,80,81324,2,0,L|369:89,2,101.250003862381,2|0|0,0:1|0:2|0:2,0:2:0:0:
410,154,82074,6,0,P|443:152|473:137,1,67.5000025749208,2|0,3:2|0:2,0:2:0:0:
334,87,82449,2,0,P|301:89|271:104,1,67.5000025749208,2|0,3:2|0:2,0:2:0:0:
315,268,82824,2,0,L|324:132,1,101.250003862381,2|0,0:1|0:2,0:2:0:0:
334,87,83199,6,0,B|323:277|323:277|315:268,1,202.500007724762,2|0,0:2|0:2,0:2:0:0:
172,256,83574,6,0,P|230:272|170:267,1,168.75,6|0,3:2|0:2,0:2:0:0:
172,256,83949,6,0,P|173:203|200:141,1,101.250003862381,2|0,0:2|0:2,0:2:0:0:
255,131,84324,2,0,L|246:-5,2,101.250003862381,2|0|0,0:1|0:2|0:2,0:2:0:0:
415,90,85074,6,0,P|369:73|336:78,1,67.5000025749208,2|0,3:2|0:2,0:2:0:0:
205,195,85449,2,0,P|251:212|284:207,1,67.5000025749208,2|0,3:2|0:2,0:2:0:0:
415,90,85824,2,0,L|406:226,2,101.250003862381,2|0|0,0:1|0:2|0:2,0:2:0:0:
354,270,86574,6,0,P|353:330|394:376,1,101.250003862381,2|0,3:2|0:2,0:2:0:0:
375,363,86949,2,0,P|331:338|282:342,1,101.250003862381,2|0,0:2|0:2,0:2:0:0:
220,377,87324,2,0,L|84:368,2,101.250003862381,2|0|0,0:1|0:2|0:2,0:2:0:0:
55,321,88074,6,0,P|38:367|43:400,1,67.5000025749208,2|0,3:2|0:2,0:2:0:0:
176,273,88449,2,0,P|193:227|188:194,1,67.5000025749208,2|0,3:2|0:2,0:2:0:0:
148,104,88824,2,0,L|284:113,1,101.250003862381,0|0,0:1|0:2,0:2:0:0:
294,166,89199,2,0,L|384:160,1,67.5000025749208,2|0,0:2|0:2,0:2:0:0:
383,13,89574,6,0,P|322:13|393:45,1,202.500007724762,6|0,3:2|0:2,0:2:0:0:
353,40,89949,5,2,0:2:0:0:
361,161,90136,1,2,0:2:0:0:
353,40,90324,1,2,0:2:0:0:
361,161,90511,1,2,3:2:0:0:
353,40,90699,1,2,0:2:0:0:
361,161,90886,1,2,0:2:0:0:
353,40,91074,1,2,3:2:0:0:
361,161,91261,1,2,0:2:0:0:
353,40,91449,1,2,0:2:0:0:
345,241,91636,6,0,P|384:239|411:225,1,45,2|0,0:2|0:2,0:2:0:0:
300,107,91824,2,0,P|281:145|284:188,1,45,2|0,0:2|0:2,0:2:0:0:
438,135,92011,2,0,P|408:95|376:81,1,45,2|0,3:2|0:2,0:2:0:0:
361,161,92199,6,0,L|364:206,1,45,2|0,0:2|0:2,0:2:0:0:
151,161,92574,6,0,P|77:178|148:210,1,202.500007724762,6|0,3:2|0:2,0:2:0:0:
117,183,92949,6,0,L|27:177,1,90,2|0,0:2|0:2,0:2:0:0:
109,304,93324,2,0,L|199:310,1,90,2|0,0:2|3:2,0:2:0:0:
117,183,93699,1,2,0:2:0:0:
109,304,93886,1,2,0:2:0:0:
117,183,94074,1,2,3:2:0:0:
109,304,94261,1,2,0:2:0:0:
117,183,94449,1,2,0:2:0:0:
125,384,94636,6,0,P|86:382|59:368,1,45,2|0,0:2|0:2,0:2:0:0:
170,250,94824,2,0,P|189:288|186:331,1,45,2|0,0:2|0:2,0:2:0:0:
32,278,95011,2,0,P|62:238|94:224,1,45,2|0,3:2|0:2,0:2:0:0:
109,304,95199,6,0,L|106:349,1,45,2|0,0:2|0:2,0:2:0:0:
406,349,95574,6,0,L|397:213,1,112.5,6|0,3:2|0:2,0:2:0:0:
498,66,95855,1,2,0:2:0:0:
498,66,95949,2,0,L|408:72,1,56.25,2|0,3:2|0:2,0:2:0:0:
377,119,96136,2,0,L|287:125,1,56.25,2|0,0:2|0:2,0:2:0:0:
498,172,96324,2,0,L|408:166,1,56.25,2|0,3:2|0:2,0:2:0:0:
377,119,96511,2,0,L|287:113,1,56.25,2|0,0:2|0:2,0:2:0:0:
256,66,96699,2,0,L|120:57,1,112.5,2|0,3:2|0:2,0:2:0:0:
82,151,96980,1,2,0:2:0:0:
82,151,97074,6,0,L|218:142,1,112.5,2|0,3:2|0:2,0:2:0:0:
441,101,97449,1,2,3:2:0:0:
309,72,97636,1,2,0:2:0:0:
148,233,97824,1,2,3:2:0:0:
280,204,98011,1,2,0:2:0:0:
119,101,98199,2,0,L|29:107,1,56.25,2|0,3:2|0:2,0:2:0:0:
251,72,98386,2,0,L|296:75,2,28.125,2|0|0,0:2|0:2|0:2,0:2:0:0:
75,229,98574,5,2,3:2:0:0:
176,43,98761,1,2,0:2:0:0:
71,285,98949,2,0,L|77:195,1,56.25,2|0,3:1|0:2,0:2:0:0:
180,99,99136,2,0,L|174:9,1,56.25,2|0,0:1|0:2,0:2:0:0:
176,229,99324,1,2,3:2:0:0:
75,43,99511,1,2,0:2:0:0:
180,285,99699,2,0,L|174:195,1,56.25,2|0,3:1|0:2,0:2:0:0:
71,99,99886,2,0,L|77:9,1,56.25,2|0,0:1|0:2,0:2:0:0:
256,164,100074,5,2,3:2:0:0:
411,165,100261,1,2,0:2:0:0:
426,132,100355,1,2,0:2:0:0:
441,99,100449,2,0,L|435:9,1,56.25,2|0,0:2|0:2,0:2:0:0:
256,164,100636,2,0,L|250:254,1,56.25,2|0,0:2|0:2,0:2:0:0:
310,79,100824,6,0,B|265:29|265:29|207:77,1,135.000005149842,2|0,0:2|0:2,0:2:0:0:
198,305,101011,2,0,B|243:355|243:355|301:307,1,135.000005149842,2|0,0:2|0:2,0:2:0:0:
292,106,101199,6,0,B|262:72|262:72|223:104,1,90,2|0,0:2|0:2,0:2:0:0:
216,278,101386,2,0,B|246:312|246:312|285:280,1,90,2|0,0:2|0:2,0:2:0:0:
338,198,101574,6,0,L|158:186,1,168.75,6|0,3:2|0:2,0:2:0:0:
89,182,101949,5,2,0:2:0:0:
57,64,102136,2,0,P|60:26|84:-11,1,67.5000025749208,2|0,3:2|0:2,0:2:0:0:
191,31,102511,2,0,P|188:69|164:106,1,67.5000025749208,2|0,3:2|0:2,0:2:0:0:
89,182,102886,1,2,3:2:0:0:
292,125,103074,6,0,L|298:215,1,67.5000025749208,2|0,3:2|3:2,0:2:0:0:
214,353,103449,2,0,L|220:263,2,67.5000025749208,2|0|0,0:2|3:2|0:2,0:2:0:0:
390,270,104011,1,2,3:2:0:0:
296,192,104199,1,2,0:2:0:0:
176,172,104386,1,2,3:2:0:0:
62,214,104574,6,0,L|56:304,1,67.5000025749208,2|0,3:2|0:2,0:2:0:0:
296,192,104949,1,2,0:2:0:0:
254,78,105136,1,2,3:2:0:0:
134,58,105324,1,2,0:2:0:0:
176,172,105511,1,2,3:2:0:0:
374,98,105699,2,0,P|417:100|460:118,1,67.5000025749208,2|0,0:2|3:2,0:2:0:0:
440,107,105980,1,2,0:2:0:0:
440,107,106074,5,2,3:2:0:0:
296,192,106261,1,2,3:2:0:0:
324,22,106449,2,0,P|356:12|390:12,1,67.5000025749208,2|0,0:2|3:2,0:2:0:0:
225,93,106824,2,0,P|182:91|139:73,1,67.5000025749208,2|0,0:2|3:2,0:2:0:0:
296,192,107199,6,0,P|298:254|234:317,1,112.5,2|0,0:2|0:2,0:2:0:0:
212,351,107480,1,2,0:2:0:0:
240,374,107574,6,0,L|376:383,1,112.5,6|0,3:2|0:2,0:2:0:0:
510,251,107949,5,2,0:2:0:0:
391,273,108136,1,2,3:2:0:0:
272,295,108324,1,2,0:2:0:0:
250,176,108511,2,0,L|256:86,1,67.5000025749208,2|0,3:2|0:2,0:2:0:0:
369,150,108886,1,2,3:2:0:0:
136,135,109074,5,2,3:2:0:0:
369,150,109261,2,0,P|409:145|441:129,1,67.5000025749208,2|0,3:2|0:2,0:2:0:0:
373,28,109636,1,2,3:2:0:0:
266,86,109824,1,2,0:2:0:0:
159,28,110011,2,0,L|162:73,1,33.7500012874604,2|0,3:2|0:2,0:2:0:0:
166,144,110199,1,2,0:2:0:0:
56,93,110386,1,2,3:2:0:0:
87,311,110574,6,0,P|159:303|223:268,1,112.5,2|0,3:2|0:2,0:2:0:0:
425,311,110949,2,0,P|353:303|289:268,1,112.5,2|0,3:2|0:2,0:2:0:0:
157,171,111324,1,2,3:2:0:0:
355,171,111511,1,2,3:2:0:0:
256,0,111699,1,2,3:2:0:0:
238,31,111792,1,0,3:2:0:0:
256,62,111886,1,0,3:2:0:0:
238,93,111980,1,0,3:2:0:0:
256,172,112074,6,0,P|232:230|237:285,1,90,10|0,1:2|0:2,0:2:0:0:
268,329,112261,6,0,L|313:326,2,45,0|0|0,0:2|0:2|0:2,0:2:0:0:
43,270,112824,6,0,P|19:212|24:157,1,90,10|0,1:2|0:2,0:2:0:0:
70,123,113011,2,0,L|115:126,1,33.7500012874604,2|0,0:2|0:2,0:2:0:0:
256,177,113199,6,0,P|189:151|262:97,1,202.500007724762,2|0,3:2|0:2,0:2:0:0:
265,260,113574,6,0,P|157:239|109:166,1,202.500007724762,6|0,3:2|0:2,0:2:0:0:
115,86,113949,2,0,P|177:19|312:34,1,202.500007724762,2|0,1:2|0:2,0:2:0:0:
234,135,114324,1,2,3:2:0:0:
42,120,114511,1,2,0:2:0:0:
42,120,114605,1,2,0:2:0:0:
42,120,114699,1,2,3:2:0:0:
126,294,114886,2,0,P|167:292|210:272,1,67.5000025749208,2|0,0:2|0:2,0:2:0:0:
301,173,115074,6,0,P|268:238|349:319,1,202.500007724762,2|0,3:2|0:2,0:2:0:0:
301,384,115449,2,0,P|268:319|349:238,1,202.500007724762,2|0,1:2|0:2,0:2:0:0:
419,279,115824,1,2,3:2:0:0:
192,279,116011,2,0,P|163:275|110:251,1,67.5000025749208,2|0,0:2|0:2,0:2:0:0:
45,159,116199,1,2,3:2:0:0:
272,159,116386,2,0,P|301:155|354:131,1,67.5000025749208,2|0,0:2|0:2,0:2:0:0:
220,10,116574,6,0,B|245:60|211:105|211:105|177:150|202:200,1,202.500007724762,2|0,3:2|0:2,0:2:0:0:
243,270,116949,1,2,1:2:0:0:
150,51,117136,1,2,0:2:0:0:
7,242,117324,2,0,L|97:236,1,67.5000025749208,2|0,3:2|0:2,0:2:0:0:
272,159,117511,2,0,L|362:165,1,67.5000025749208,2|0,0:2|0:2,0:2:0:0:
211,293,117699,1,2,3:2:0:0:
150,51,117886,6,0,P|214:21|302:27,1,135.000005149842,2|0,0:2|3:2,0:2:0:0:
492,176,118261,2,0,L|402:170,1,67.5000025749208,2|0,0:2|0:2,0:2:0:0:
445,14,118449,2,0,P|461:43|465:77,1,67.5000025749208,2|0,1:2|0:2,0:2:0:0:
424,172,118636,2,0,P|427:205|444:234,1,67.5000025749208,2|0,0:2|0:2,0:2:0:0:
511,312,118824,1,2,3:2:0:0:
345,211,119011,1,2,0:2:0:0:
305,203,119105,1,2,0:2:0:0:
265,211,119199,1,2,3:2:0:0:
99,312,119386,2,0,L|9:306,1,67.5000025749208,2|0,0:2|0:2,0:2:0:0:
162,261,119574,6,0,B|197:253|197:253|189:383|189:383|155:371,1,202.500007724762,2|0,3:2|0:2,0:2:0:0:
169,151,119949,2,0,B|135:139|135:139|127:269|127:269|162:261,1,202.500007724762,2|0,1:2|0:2,0:2:0:0:
267,212,120324,1,2,3:2:0:0:
50,199,120511,1,2,0:2:0:0:
50,199,120605,1,2,0:2:0:0:
50,199,120699,1,2,3:2:0:0:
274,323,120886,2,0,P|309:315|357:279,1,67.5000025749208,2|0,0:2|0:2,0:2:0:0:
337,116,121074,6,0,B|279:156|304:222|304:222|271:252|229:238,1,202.500007724762,2|0,3:2|0:2,0:2:0:0:
378,186,121449,2,0,B|328:211|283:177|283:177|238:143|188:168,1,202.500007724762,2|0,1:2|0:2,0:2:0:0:
118,209,121824,1,2,3:2:0:0:
337,116,122011,2,0,L|343:26,1,67.5000025749208,2|0,0:2|0:2,0:2:0:0:
447,163,122199,1,2,3:2:0:0:
228,70,122386,2,0,L|222:-20,1,67.5000025749208,2|0,0:2|0:2,0:2:0:0:
24,241,122574,6,0,P|69:238|112:224,1,90,2|0,3:2|0:2,0:2:0:0:
256,146,122761,2,0,L|256:198,1,33.7500012874604,2|0,0:2|0:2,0:2:0:0:
42,331,122949,2,2,B|104:332|172:296|172:296|176:352,1,180,10|0,1:2|0:2,0:1:0:0:
488,241,123324,6,0,P|443:238|400:224,1,90,2|0,3:2|0:2,0:2:0:0:
256,146,123511,2,0,L|256:198,1,33.7500012874604,2|0,0:2|0:2,0:2:0:0:
470,331,123699,2,2,P|426:327|382:314,1,90,10|0,1:2|0:2,0:1:0:0:
130,314,123886,6,2,P|241:355|382:314,1,270.000010299683,2|2,0:2|3:2,0:1:0:0:
462,146,124261,1,2,0:2:0:0:
293,195,124449,2,2,P|196:137|293:97,1,270.000010299683,2|0,0:2|3:2,0:1:0:0:
372,320,124824,2,2,P|241:355|121:306,1,270.000010299683,2|0,3:2|1:2,0:1:0:0:
256,146,125105,1,2,1:2:0:0:
348,137,125199,6,0,L|438:143,1,90,2|0,1:2|0:2,0:2:0:0:
353,229,125386,2,0,P|322:226|295:210,2,45,2|0|0,3:2|3:2|0:2,0:2:0:0:
164,137,125949,6,0,L|74:143,1,90,2|0,3:2|0:2,0:2:0:0:
159,229,126136,2,0,P|190:226|217:210,1,45,2|0,0:2|3:2,0:2:0:0:
256,42,126511,6,0,L|256:54,1,11.25,2|0,0:2|0:2,0:2:0:0:
348,137,126699,2,0,L|438:143,1,90,2|0,3:2|0:2,0:2:0:0:
353,229,126886,2,0,P|322:226|295:210,2,45,2|0|0,0:2|3:2|0:2,0:2:0:0:
164,137,127449,6,0,L|74:143,1,90,2|0,3:2|0:2,0:2:0:0:
159,229,127636,2,0,P|190:226|217:210,1,45,2|0,0:2|3:2,0:2:0:0:
256,42,128011,6,0,L|256:54,1,11.25,2|0,0:2|0:2,0:2:0:0:
382,120,128199,2,0,L|376:210,1,90,2|0,3:2|0:2,0:2:0:0:
256,289,128386,2,0,B|154:311|60:270|60:270|50:139,1,270.000010299683,2|0,0:1|3:2,0:2:0:0:
256,42,128761,6,0,L|256:54,1,11.25,2|0,0:2|0:2,0:2:0:0:
130,120,128949,2,0,L|136:210,1,90,2|0,3:2|0:2,0:2:0:0:
256,289,129136,2,0,B|358:311|452:270|452:270|462:139,1,270.000010299683,2|0,0:1|3:2,0:2:0:0:
256,42,129511,6,0,L|256:54,1,11.25,2|0,0:2|0:2,0:2:0:0:
382,120,129699,2,0,L|376:210,1,90,2|0,3:2|0:2,0:2:0:0:
256,289,129886,2,0,B|154:311|60:270|60:270|50:139,1,270.000010299683,2|0,0:1|3:2,0:2:0:0:
256,42,130261,6,0,L|256:93,2,33.7500012874604,2|0|0,0:2|0:2|0:2,0:2:0:0:
172,94,130449,2,0,L|169:139,2,33.7500012874604,2|0|0,3:2|0:2|0:2,0:2:0:0:
340,94,130636,2,0,L|343:139,2,33.7500012874604,2|0|0,0:2|0:2|0:2,0:2:0:0:
175,213,130824,6,0,L|130:210,2,45.0000017166138,2|0|0,3:2|0:2|0:2,0:2:0:0:
337,213,131011,2,0,L|382:210,2,45.0000017166138,2|0|0,0:2|0:2|0:2,0:2:0:0:
256,42,131199,6,0,L|256:138,1,90,10|0,1:2|0:2,0:2:0:0:
256,294,131386,2,0,L|256:390,1,90,8|0,0:2|0:2,0:2:0:0:
256,213,131574,5,2,3:2:0:0:
256,213,131949,2,0,L|346:207,1,67.5000025749208,2|0,0:2|0:2,0:2:0:0:
424,108,132324,1,2,0:2:0:0:
424,208,132511,1,2,0:2:0:0:
424,308,132699,2,0,L|514:302,1,67.5000025749208,2|0,0:2|0:2,0:2:0:0:
424,108,133074,6,0,L|379:105,1,33.7500012874604,2|0,0:2|0:2,0:2:0:0:
320,147,133261,2,0,L|275:144,1,33.7500012874604,2|0,0:2|0:2,0:2:0:0:
207,128,133449,5,0,0:2:0:0:
198,163,133542,1,2,0:2:0:0:
203,180,133636,1,0,0:2:0:0:
230,204,133730,1,2,0:2:0:0:
235,221,133824,1,0,0:2:0:0:
226,256,133917,1,2,0:2:0:0:
231,273,134011,2,0,L|321:279,1,56.25,2|0,0:2|0:2,0:2:0:0:
311,355,134199,6,0,P|415:305|354:196,1,270,6|0,1:2|0:2,0:2:0:0:
201,33,134574,2,0,P|97:83|158:192,1,270,6|0,3:2|0:2,0:2:0:0:
274,69,134949,6,0,B|274:183|274:183|238:205|238:205|238:319,1,270,2|0,0:2|0:2,0:2:0:0:
319,251,135324,5,2,0:2:0:0:
178,84,135511,2,0,P|180:111|193:137,1,56.25,2|0,0:2|0:2,0:2:0:0:
370,84,135699,2,0,P|368:111|355:137,1,56.25,2|0,0:2|0:2,0:2:0:0:
274,149,135886,2,0,L|274:213,1,33.7500012874604,2|0,3:2|0:2,0:2:0:0:
269,331,136074,6,0,P|312:291|319:251,1,101.250003862381,2|0,0:2|0:2,0:2:0:0:
239,257,136449,2,0,L|419:269,1,168.75,2|0,3:2|0:2,0:2:0:0:
445,340,136824,2,0,L|535:334,2,56.25,2|0|0,0:2|0:2|0:2,0:2:0:0:
452,167,137199,2,0,P|416:171|452:178,1,101.250003862381,2|0,0:2|0:2,0:2:0:0:
419,73,137574,6,0,P|335:169|462:269,1,270,2|0,3:2|0:2,0:2:0:0:
254,161,137949,6,0,L|260:71,1,90,2|0,0:1|0:2,0:2:0:0:
204,225,138136,2,0,L|210:315,1,56.25,2|0,0:2|0:2,0:2:0:0:
154,161,138324,6,0,L|160:71,1,90,2|0,0:1|0:2,0:2:0:0:
104,225,138511,1,2,0:2:0:0:
107,261,138605,1,2,0:2:0:0:
54,161,138699,6,0,L|60:71,1,90,2|0,0:1|0:2,0:2:0:0:
4,225,138886,2,0,L|7:270,2,28.125,2|0|0,3:2|0:2|0:2,0:2:0:0:
154,161,139074,6,0,P|180:163|212:178,1,56.25,2|0,0:1|0:2,0:2:0:0:
369,109,139261,2,0,P|338:111|300:129,1,67.5000025749208,2|0,0:1|0:2,0:2:0:0:
132,56,139449,2,0,P|168:58|213:79,1,78.7500007510185,2|0,3:1|0:2,0:2:0:0:
390,3,139636,2,0,P|349:6|298:30,1,90,2|0,0:1|0:2,0:2:0:0:
77,4,139824,6,0,P|113:58|90:119,1,135.000005149842,2|0,1:2|0:2,0:2:0:0:
35,179,140011,2,0,P|12:240|48:294,1,135.000005149842,2|0,1:2|0:2,0:2:0:0:
121,331,140199,2,0,L|257:322,1,135.000005149842,2|0,3:2|0:2,0:2:0:0:
326,282,140386,2,0,L|190:273,1,135.000005149842,2|0,3:2|0:2,0:2:0:0:
371,214,140574,6,0,P|480:251|371:360,1,270,6|0,3:2|0:2,0:2:0:0:
407,287,140949,6,0,B|419:107|419:107|381:78|384:30,1,270,2|0,0:2|0:2,0:2:0:0:
465,40,141324,5,2,0:2:0:0:
309,194,141511,2,0,P|282:192|256:179,1,56.25,2|0,0:2|0:2,0:2:0:0:
309,2,141699,2,0,P|282:4|256:17,1,56.25,2|0,0:2|0:2,0:2:0:0:
244,98,141886,2,0,L|180:98,1,33.7500012874604,2|0,3:2|0:2,0:2:0:0:
152,242,142074,6,0,P|156:278|163:242,1,101.250003862381,2|0,0:2|0:2,0:2:0:0:
256,179,142449,2,0,L|256:371,1,168.75,2|0,3:2|0:2,0:2:0:0:
337,256,142824,6,0,P|379:243|426:246,1,56.25,2|0,0:1|0:2,0:2:0:0:
175,162,143011,2,0,P|133:149|86:152,1,67.5000025749208,2|0,0:1|0:2,0:2:0:0:
337,68,143199,2,0,P|379:55|426:58,1,78.7500007510185,2|0,0:1|0:2,0:2:0:0:
256,179,143386,2,0,L|256:115,1,33.7500012874604,2|0,0:1|0:2,0:2:0:0:
256,46,143574,6,0,B|256:102|240:164|240:164|272:160|272:160|256:222|256:278,1,270,2|0,3:2|0:2,0:2:0:0:
110,329,143949,6,0,L|116:239,1,56.25,2|0,0:2|0:2,0:2:0:0:
74,198,144136,2,0,L|80:108,1,56.25,2|0,0:2|0:2,0:2:0:0:
34,3,144324,2,0,L|28:93,1,56.25,2|0,0:2|0:2,0:2:0:0:
70,134,144511,2,0,L|64:224,1,56.25,2|0,0:2|0:2,0:2:0:0:
110,329,144699,2,0,L|116:239,1,56.25,2|0,0:2|0:2,0:2:0:0:
74,198,144886,1,2,3:2:0:0:
345,187,145074,6,0,P|340:255|321:294,1,90,2|0,0:1|0:2,0:2:0:0:
311,107,145261,5,2,1:2:0:0:
311,107,145355,1,0,1:2:0:0:
311,107,145449,2,0,L|401:101,1,56.25,2|0,3:2|0:2,0:2:0:0:
486,50,145636,1,2,1:2:0:0:
486,50,145730,1,0,1:2:0:0:
486,50,145824,2,0,L|396:44,1,56.25,2|0,1:2|0:2,0:2:0:0:
267,35,146011,1,2,3:2:0:0:
345,187,146199,2,0,P|343:258|264:347,1,168.75,2|0,0:2|0:2,0:2:0:0:
210,361,146574,5,2,0:2:0:0:
210,361,147324,5,2,0:2:0:0:
210,361,147511,1,2,0:2:0:0:
343,384,147886,5,2,0:2:0:0:
343,384,148261,5,2,0:2:0:0:
343,384,148449,1,2,0:2:0:0:
343,384,148824,5,2,0:2:0:0:
296,257,149199,5,2,0:2:0:0:
249,130,149574,5,2,0:2:0:0:
249,130,150324,5,2,0:2:0:0:
249,130,150511,1,2,0:2:0:0:
163,234,150886,5,2,0:2:0:0:
163,234,151261,5,2,0:2:0:0:
163,234,151449,1,2,0:2:0:0:
163,234,151824,5,2,0:2:0:0:
296,257,152199,5,2,0:2:0:0:
429,280,152574,5,2,0:2:0:0:
429,280,153324,5,2,0:2:0:0:
429,280,153511,1,2,0:2:0:0:
343,384,153886,5,2,0:2:0:0:
343,384,154261,5,2,0:2:0:0:
343,384,154449,1,2,0:2:0:0:
343,384,154824,5,2,0:2:0:0:
296,257,155199,5,2,0:2:0:0:
249,130,155574,5,2,0:2:0:0:
249,130,156324,5,2,0:2:0:0:
249,130,156511,1,2,0:2:0:0:
376,83,156886,5,2,0:2:0:0:
376,83,157261,5,2,0:2:0:0:
503,36,157824,5,2,0:2:0:0:
249,130,158199,5,2,0:2:0:0:
249,130,158386,1,2,0:2:0:0:
412,126,158574,6,2,P|411:75|279:74,1,202.500007724762,2|0,3:2|0:2,0:1:0:0:
249,130,158949,6,0,L|255:220,1,67.5000025749208,2|0,0:2|0:2,0:2:0:0:
260,298,159324,1,2,0:2:0:0:
260,298,159511,1,2,0:2:0:0:
344,241,159699,1,2,0:2:0:0:
169,254,159886,1,2,0:2:0:0:
169,254,160261,5,2,0:2:0:0:
249,130,160449,2,0,L|255:220,1,67.5000025749208,2|0,3:2|0:2,0:2:0:0:
169,254,160824,1,2,0:2:0:0:
347,157,161199,1,2,0:2:0:0:
158,86,161574,5,2,3:2:0:0:
347,157,161949,2,0,P|416:138|445:105,1,67.5000025749208,2|0,0:2|0:2,0:2:0:0:
356,56,162324,1,2,0:2:0:0:
356,56,162511,1,2,0:2:0:0:
264,98,162699,1,2,0:2:0:0:
448,14,162886,1,2,0:2:0:0:
448,14,163261,5,2,0:2:0:0:
264,98,163449,2,0,L|270:188,1,67.5000025749208,2|0,3:2|0:2,0:2:0:0:
448,14,163824,1,2,0:2:0:0:
264,98,164199,1,2,0:2:0:0:
80,182,164574,6,2,P|96:92|211:67,1,202.500007724762,2|0,3:2|0:2,0:1:0:0:
264,98,164949,6,0,L|270:188,1,67.5000025749208,2|0,0:2|0:2,0:2:0:0:
275,266,165324,1,2,0:2:0:0:
275,266,165511,1,2,0:2:0:0:
184,222,165699,1,2,0:2:0:0:
359,209,165886,1,2,0:2:0:0:
359,209,166261,5,2,0:2:0:0:
279,333,166449,2,0,L|273:243,1,67.5000025749208,2|0,3:2|0:2,0:2:0:0:
359,209,166824,1,2,0:2:0:0:
169,137,167199,1,2,0:2:0:0:
446,120,167574,6,0,B|437:255|437:255|380:295,1,202.500007724762,2|0,3:2|0:2,0:2:0:0:
359,209,167949,2,0,P|317:192|244:208,1,67.5000025749208,2|0,0:2|0:2,0:2:0:0:
211,246,168324,1,2,0:2:0:0:
211,246,168511,1,2,0:2:0:0:
301,292,168699,1,2,0:2:0:0:
205,145,168886,1,2,0:2:0:0:
205,145,169261,5,2,0:2:0:0:
301,292,169449,2,0,L|391:286,1,90,2|0,3:2|0:2,0:2:0:0:
289,90,169824,1,2,1:2:0:0:
211,246,170011,1,2,3:2:0:0:
55,168,170199,6,0,P|109:95|135:162,1,202.500007724762,2|0,3:2|0:2,0:2:0:0:
4,47,170574,6,2,P|113:12|193:58,1,180,2|0,1:2|0:2,0:1:0:0:
216,102,170855,2,0,L|306:96,1,90,2|0,0:2|0:2,0:2:0:0:
403,296,171136,6,2,P|294:331|214:285,1,180,2|0,1:2|0:2,0:1:0:0:
191,241,171417,2,0,L|101:247,1,90,2|0,0:2|0:2,0:2:0:0:
4,47,171699,6,2,P|113:12|193:58,1,180,2|0,1:2|0:2,0:1:0:0:
216,102,171980,2,0,L|306:96,1,90,2|0,0:2|0:2,0:2:0:0:
256,352,172261,6,0,L|256:256,1,90,2|0,1:1|0:2,0:2:0:0:
365,269,172449,2,0,P|341:193|286:157,1,90,2|0,0:1|0:2,0:2:0:0:
147,269,172636,2,0,P|171:193|226:157,1,90,2|0,0:1|0:2,0:2:0:0:
431,134,172824,2,0,P|335:77|284:90,1,90,2|0,0:1|0:2,0:2:0:0:
81,134,173011,2,0,P|177:77|228:90,1,90,2|0,0:1|0:2,0:2:0:0:
256,158,173199,6,2,B|232:115|232:115|256:72|256:72|280:115|280:115|256:158,1,180,2|0,0:2|0:2,0:1:0:0:
31,273,173574,6,2,P|64:213|111:279,1,180,2|0,1:2|0:2,0:1:0:0:
81,134,173855,2,0,L|87:44,1,90,2|0,0:2|0:2,0:2:0:0:
362,81,174136,6,2,P|329:141|282:75,1,180,2|0,1:2|0:2,0:1:0:0:
312,220,174417,2,0,L|306:310,1,90,2|0,0:2|0:2,0:2:0:0:
31,273,174699,6,2,P|64:213|111:279,1,180,2|0,1:2|0:2,0:1:0:0:
81,134,174980,2,0,L|87:44,1,90,2|0,0:2|0:2,0:2:0:0:
312,220,175261,6,0,L|306:310,1,90,2|0,0:1|0:2,0:2:0:0:
183,168,175449,2,0,L|189:258,1,90,2|0,0:1|0:2,0:2:0:0:
346,116,175636,2,0,L|340:206,1,90,2|0,0:1|0:2,0:2:0:0:
149,64,175824,2,0,L|155:154,1,90,2|0,0:1|0:2,0:2:0:0:
380,12,176011,2,0,L|374:102,1,90,2|0,0:1|0:2,0:2:0:0:
256,255,176199,6,0,B|231:192|231:192|256:130,1,135.000005149842,2|0,3:2|0:2,0:2:0:0:
256,130,176386,2,0,B|281:193|281:193|256:255,1,135.000005149842,2|0,3:2|0:2,0:2:0:0:
55,361,176574,6,2,B|34:317|59:275|59:275|84:233|63:189,1,180,2|0,1:2|0:2,0:1:0:0:
126,321,176855,2,0,L|216:327,1,90,2|0,0:2|0:2,0:2:0:0:
457,361,177136,6,2,B|478:317|453:275|453:275|428:233|449:189,1,180,2|0,1:2|0:2,0:1:0:0:
386,321,177417,2,0,L|296:327,1,90,2|0,0:2|0:2,0:2:0:0:
55,361,177699,6,2,B|34:317|59:275|59:275|84:233|63:189,1,180,2|0,1:2|0:2,0:1:0:0:
126,321,177980,2,0,L|216:327,1,90,2|0,0:2|0:2,0:2:0:0:
256,90,178261,6,0,L|256:0,1,90,2|0,0:1|0:2,0:2:0:0:
177,165,178449,2,0,P|154:127|147:83,1,90,2|0,0:1|0:2,0:2:0:0:
335,165,178636,2,0,P|358:127|365:83,1,90,2|0,0:1|0:2,0:2:0:0:
150,271,178824,2,0,P|109:252|81:218,1,90,2|0,0:1|0:2,0:2:0:0:
362,271,179011,2,0,P|403:252|431:218,1,90,2|0,0:1|0:2,0:2:0:0:
256,194,179199,6,2,B|232:237|232:237|256:280|256:280|280:237|280:237|256:194,1,180,2|0,0:2|0:2,0:1:0:0:
127,107,179574,6,2,B|79:183|79:183|31:107,1,180,2|0,1:2|0:2,0:1:0:0:
79,41,179855,1,2,0:2:0:0:
79,41,179949,2,0,P|114:14|193:10,1,90,2|0,0:2|0:2,0:2:0:0:
304,107,180136,6,2,B|256:183|256:183|208:107,1,180,2|0,1:2|0:2,0:1:0:0:
256,41,180417,1,2,0:2:0:0:
256,41,180511,2,0,P|297:19|374:17,1,90,2|0,0:2|0:2,0:2:0:0:
481,107,180699,6,2,B|433:183|433:183|385:107,1,180,2|0,1:2|0:2,0:1:0:0:
433,41,180980,1,2,0:2:0:0:
433,41,181074,2,0,P|468:14|547:10,1,90,2|0,0:2|0:2,0:2:0:0:
433,183,181261,6,0,P|382:295|256:273,1,270,2|0,1:2|0:2,0:2:0:0:
212,205,182480,1,2,0:2:0:0:
212,205,182574,6,0,L|215:160,1,45,2|0,0:2|0:2,0:2:0:0:
300,127,182949,2,0,L|297:82,1,45,2|0,0:2|0:2,0:2:0:0:
256,0,183324,1,2,0:2:0:0:
377,99,183511,6,0,L|467:93,1,67.5000025749208,2|0,0:2|0:2,0:2:0:0:
306,208,183699,2,0,L|396:214,1,67.5000025749208,2|0,0:2|0:2,0:2:0:0:
235,99,183886,2,0,L|280:96,2,33.7500012874604,2|0|0,0:2|0:2|0:2,0:2:0:0:
164,208,184074,5,2,3:2:0:0:
164,208,184449,2,0,L|167:163,1,22.5,2|0,0:2|0:2,0:2:0:0:
164,208,184636,2,0,L|167:253,1,22.5,2|0,0:2|0:2,0:2:0:0:
348,208,184824,5,10,0:2:0:0:
348,208,185199,2,0,L|345:163,1,22.5,2|0,0:2|0:2,0:2:0:0:
348,208,185386,2,0,L|345:253,1,22.5,2|0,0:2|0:2,0:2:0:0:
164,208,185574,5,2,3:2:0:0:
218,125,185761,2,0,L|221:170,1,22.5,2|0,0:2|0:2,0:2:0:0:
164,208,185949,1,2,3:2:0:0:
218,291,186136,2,0,L|221:246,1,22.5,2|0,0:2|0:2,0:2:0:0:
348,208,186324,5,10,0:2:0:0:
348,208,186699,2,0,L|412:208,2,45,2|0|0,0:2|0:2|0:2,0:2:0:0:
164,208,187074,5,2,3:2:0:0:
164,208,187449,2,0,L|167:163,1,22.5,2|0,0:2|0:2,0:2:0:0:
164,208,187636,2,0,L|167:253,1,22.5,2|0,0:2|0:2,0:2:0:0:
348,208,187824,5,10,0:2:0:0:
348,208,188199,2,0,L|345:163,1,22.5,2|0,0:2|0:2,0:2:0:0:
348,208,188386,2,0,L|345:253,1,22.5,2|0,0:2|0:2,0:2:0:0:
164,208,188574,5,2,3:2:0:0:
218,125,188761,2,0,L|221:170,1,22.5,2|0,0:2|0:2,0:2:0:0:
164,208,188949,1,2,3:2:0:0:
218,291,189136,2,0,L|221:246,1,22.5,2|0,0:2|0:2,0:2:0:0:
348,208,189324,6,0,P|401:213|446:239,1,90,10|0,0:2|0:2,0:2:0:0:
360,343,189699,2,0,L|315:340,2,45,2|0|0,0:2|0:2|0:2,0:2:0:0:
166,359,190074,6,0,P|170:270|193:182,1,180,6|0,0:2|0:2,0:2:0:0:
286,187,191011,6,0,L|283:142,1,22.5,2|0,0:2|0:2,0:2:0:0:
226,107,191199,2,0,L|229:62,1,22.5,2|0,0:2|0:2,0:2:0:0:
286,27,191386,2,0,L|283:-18,1,22.5,2|0,0:2|0:2,0:2:0:0:
440,101,191574,6,0,L|350:95,1,67.5,2|0,3:2|0:2,0:2:0:0:
293,111,191949,2,0,L|203:105,1,67.5,2|0,3:2|0:2,0:2:0:0:
146,121,192324,2,0,L|101:118,1,45,2|0,3:2|0:2,0:2:0:0:
440,101,192699,6,0,L|146:121,1,294.679486900598,8|0,1:1|0:2,0:2:0:0:
440,283,193074,6,0,L|350:289,1,67.5,2|0,3:2|0:2,0:2:0:0:
293,273,193449,2,0,L|203:279,1,67.5,2|0,3:2|0:2,0:2:0:0:
146,263,193824,2,0,L|101:266,1,45,2|0,3:2|0:2,0:2:0:0:
440,283,194199,6,0,L|146:263,1,294.679486900598,8|0,1:1|0:2,0:2:0:0:
320,75,194574,6,0,P|422:125|372:227,1,202.500007724762,2|0,3:2|0:2,0:2:0:0:
346,151,194949,1,2,1:2:0:0:
476,55,195136,1,2,0:2:0:0:
440,283,195324,2,0,L|350:277,1,67.5,2|0,3:2|0:2,0:2:0:0:
346,151,195511,2,0,L|256:157,1,67.5,2|0,0:2|0:2,0:2:0:0:
163,218,195699,1,2,3:2:0:0:
309,384,195886,6,0,P|306:317|276:258,1,135.000005149842,2|0,0:2|3:2,0:2:0:0:
56,166,196261,2,0,L|62:76,1,67.5,2|0,0:2|0:2,0:2:0:0:
261,70,196449,2,0,P|232:94|178:112,1,67.5000025749208,2|0,1:2|0:2,0:2:0:0:
124,118,196636,2,0,P|86:111|38:81,1,67.5000025749208,2|0,0:2|0:2,0:2:0:0:
305,2,196824,1,2,3:2:0:0:
288,179,197011,1,2,0:2:0:0:
266,213,197105,1,2,0:2:0:0:
233,236,197199,1,2,3:2:0:0:
56,252,197386,2,0,L|50:162,1,67.5000025749208,2|0,0:2|0:2,0:2:0:0:
205,304,197574,6,0,B|155:279|110:313|110:313|65:347|15:322,1,202.500007724762,2|0,3:2|0:2,0:2:0:0:
164,374,197949,2,0,B|214:399|259:365|259:365|304:331|354:356,1,202.500007724762,2|0,1:2|0:2,0:2:0:0:
430,384,198324,1,2,3:2:0:0:
312,232,198511,1,2,0:2:0:0:
312,232,198605,1,2,0:2:0:0:
312,232,198699,1,2,3:2:0:0:
504,72,198886,2,0,P|503:106|492:138,1,67.5000025749208,2|0,0:2|0:2,0:2:0:0:
291,84,199074,6,0,B|426:93|426:93|409:125|369:115,1,202.500007724762,2|0,3:2|0:2,0:2:0:0:
203,174,199449,2,0,B|212:39|212:39|269:-1,1,202.500007724762,2|0,1:2|0:2,0:2:0:0:
291,84,199824,1,2,3:2:0:0:
103,158,200011,2,0,P|65:153|12:130,1,67.5000025749208,2|0,0:2|0:2,0:2:0:0:
212,39,200199,1,2,3:2:0:0:
400,113,200386,2,0,P|437:108|491:85,1,67.5000025749208,2|0,0:2|0:2,0:2:0:0:
212,39,200574,6,0,L|218:129,1,90,2|0,3:2|0:2,0:2:0:0:
304,249,200761,2,0,L|301:204,1,33.7500012874604,2|0,0:2|0:2,0:2:0:0:
122,45,200949,2,2,B|133:202|133:202|218:129,1,270,10|0,1:2|0:2,0:1:0:0:
391,39,201324,6,0,L|385:129,1,90,2|0,3:2|0:2,0:2:0:0:
299,249,201511,2,0,L|302:204,1,33.7500012874604,2|0,0:2|0:2,0:2:0:0:
481,45,201699,2,2,L|475:135,1,90,10|0,1:2|0:2,0:1:0:0:
434,383,201886,6,2,P|498:251|475:135,1,270.000010299683,2|0,0:2|3:2,0:1:0:0:
289,26,202261,1,2,0:2:0:0:
240,195,202449,2,2,P|298:292|338:195,1,270.000010299683,2|0,0:2|3:2,0:1:0:0:
103,135,202824,2,2,P|80:251|144:383,1,270.000010299683,2|0,0:2|0:2,0:1:0:0:
335,90,203199,6,0,L|341:0,1,67.5000025749208,2|0,0:2|0:2,0:2:0:0:
265,133,203386,1,2,0:2:0:0:
268,174,203480,1,2,0:2:0:0:
256,51,203574,6,0,P|70:63|41:285,1,405.000015449525,8|0,1:1|0:2,0:2:0:0:
21,249,203949,2,0,L|111:243,1,67.5000025749208,2|0,3:2|0:2,0:2:0:0:
256,51,204324,6,0,P|442:63|471:285,1,405.000015449525,8|0,1:1|0:2,0:2:0:0:
491,249,204699,2,0,L|401:243,1,67.5000025749208,2|0,3:2|0:2,0:2:0:0:
256,377,205074,6,0,B|217:235|100:281|100:185|100:185|100:125|160:97|216:117,1,405.000015449525,8|0,1:1|0:2,0:2:0:0:
202,113,205449,2,0,L|256:154,1,67.5000025749208,2|0,3:2|0:2,0:2:0:0:
256,377,205824,6,0,B|295:235|412:281|412:185|412:185|412:125|352:97|296:117,1,405.000015449525,8|0,1:1|0:2,0:2:0:0:
310,113,206199,2,0,L|256:154,1,67.5000025749208,2|0,3:2|0:2,0:2:0:0:
65,236,206574,6,0,B|31:154|65:72|65:72|191:104|191:104|159:154|191:204,1,405.000015449525,8|0,1:1|0:2,0:2:0:0:
257,276,206949,1,2,0:2:0:0:
293,280,207042,1,2,0:2:0:0:
329,284,207136,1,2,0:2:0:0:
365,288,207230,1,2,0:2:0:0:
447,236,207324,6,0,B|481:154|447:72|447:72|321:104|321:104|353:154|321:204,1,405.000015449525,8|0,1:1|0:2,0:2:0:0:
321,204,207699,2,0,L|256:154,1,82.0060950100251,2|0,3:2|0:2,0:2:0:0:
333,326,208074,6,0,L|378:329,2,33.7500012874604,2|0|0,0:2|0:2|0:2,0:2:0:0:
179,326,208261,2,0,L|134:329,2,33.7500012874604,2|0|0,0:2|0:2|0:2,0:2:0:0:
256,154,208449,6,0,B|256:210|240:272|240:272|272:268|272:268|256:330|256:386,1,270,10|0,0:2|0:2,0:2:0:0:
459,177,208824,6,0,L|450:41,1,135.000005149842,2|0,0:2|0:2,0:2:0:0:
369,34,209105,1,2,3:2:0:0:
374,115,209199,6,0,P|298:165|138:115,1,270,10|0,1:2|0:2,0:2:0:0:
62,42,209574,6,0,L|53:178,1,135.000005149842,2|0,3:1|0:2,0:2:0:0:
143,42,209855,1,2,0:2:0:0:
143,42,209949,2,0,L|134:178,1,135.000005149842,2|0,3:1|0:2,0:2:0:0:
224,42,210230,1,2,0:2:0:0:
224,42,210324,2,0,L|218:132,1,67.5000025749208,2|0,3:1|0:2,0:2:0:0:
275,174,210511,1,2,0:2:0:0:
275,174,210605,2,0,L|269:264,1,67.5000025749208,2|0,0:1|3:2,0:2:0:0:
462,336,210886,2,0,L|456:246,1,67.5000025749208,2|0,0:1|0:2,0:2:0:0:
511,156,211074,6,0,P|422:182|377:146,1,135.000005149842,2|0,3:1|0:2,0:2:0:0:
342,97,211355,1,2,0:2:0:0:
342,97,211449,2,0,P|280:74|221:104,1,135.000005149842,2|0,3:1|0:2,0:2:0:0:
191,178,211730,1,2,0:2:0:0:
191,178,211824,2,0,L|101:172,1,67.5000025749208,2|0,3:1|0:2,0:2:0:0:
73,110,212011,2,0,L|-17:104,1,67.5000025749208,2|0,0:2|0:2,0:2:0:0:
221,103,212199,2,0,L|131:97,1,67.5000025749208,2|0,3:1|0:2,0:2:0:0:
103,35,212386,2,0,L|13:29,1,67.5000025749208,2|0,0:2|0:2,0:2:0:0:
272,166,212574,6,0,P|284:52|170:40,1,135.000005149842,2|0,3:1|0:2,0:2:0:0:
191,178,212855,1,2,0:2:0:0:
191,178,212949,2,0,P|179:292|293:304,1,135.000005149842,2|0,3:1|0:2,0:2:0:0:
310,245,213230,1,2,0:2:0:0:
310,245,213324,2,0,L|220:239,1,67.5000025749208,2|0,3:1|0:2,0:2:0:0:
191,178,213511,1,2,0:2:0:0:
191,178,213605,2,0,L|101:172,1,67.5000025749208,2|0,0:1|3:2,0:2:0:0:
326,18,213886,2,0,L|416:24,1,67.5000025749208,2|0,0:1|0:2,0:2:0:0:
445,85,214074,6,0,L|535:91,1,67.5000025749208,2|0,3:2|0:2,0:2:0:0:
372,277,214261,2,0,P|369:215|408:124,1,135.000005149842,2|0,0:1|3:2,0:2:0:0:
152,177,214636,2,0,L|62:171,1,67.5000025749208,2|0,0:1|0:2,0:2:0:0:
308,62,214824,6,0,L|353:59,4,45.0000017166138,2|0|0|0|0,3:2|0:2|0:2|0:2|0:2,0:2:0:0:
204,62,215199,2,0,L|159:59,4,45.0000017166138,2|0|0|0|0,1:2|0:2|0:2|0:2|0:2,0:2:0:0:
256,151,215574,6,0,L|256:223,1,67.5,2|0,0:2|0:2,0:2:0:0:
256,300,215949,6,0,L|256:148,1,149.000000084206,2|0,0:2|0:2,0:2:0:0:
331,120,216324,6,2,P|440:169|435:277,1,202.500007724762,10|0,0:2|0:2,0:1:0:0:
431,320,216699,2,0,P|457:248|471:320,1,202.500007724762,2|0,3:2|0:2,0:2:0:0:
431,320,217074,6,0,P|397:318|365:308,1,67.5,2|0,0:2|0:2,0:2:0:0:
285,320,217449,2,0,P|311:248|325:320,1,202.500007724762,2|0,3:2|0:2,0:2:0:0:
196,337,217824,6,2,P|117:300|89:161,1,202.500007724762,10|0,0:2|0:2,0:1:0:0:
80,196,218199,2,0,L|86:106,1,67.5,2|0,0:2|0:2,0:2:0:0:
104,50,218574,6,0,P|78:122|64:50,1,202.500007724762,2|0,3:2|0:2,0:2:0:0:
104,50,218949,2,0,L|194:56,1,67.5,2|0,0:2|0:2,0:2:0:0:
242,15,219324,6,2,P|361:48|406:155,1,202.500007724762,10|0,0:2|0:2,0:1:0:0:
419,189,219699,2,0,P|347:163|419:149,1,202.500007724762,2|0,3:2|0:2,0:2:0:0:
419,189,220074,6,0,L|413:279,1,67.5,2|0,0:2|0:2,0:2:0:0:
343,295,220261,1,2,3:2:0:0:
306,278,220355,1,2,3:2:0:0:
234,317,220449,2,0,L|228:407,1,67.5,2|0,0:2|0:2,0:2:0:0:
119,256,220636,2,0,L|125:166,1,67.5,2|0,0:2|0:2,0:2:0:0:
66,110,220824,6,2,B|154:104|154:104|172:123|172:123|260:117,1,202.500007724762,10|0,0:2|0:2,0:1:0:0:
400,70,221199,2,0,P|374:142|360:70,1,202.500007724762,2|0,0:2|0:2,0:2:0:0:
256,9,221574,6,0,L|256:41,1,22.5,2|0,3:2|0:2,0:2:0:0:
186,72,221761,2,0,P|144:72|91:53,1,90,2|0,0:1|0:2,0:2:0:0:
256,113,221949,6,0,L|256:145,1,22.5,2|0,3:2|0:2,0:2:0:0:
326,176,222136,2,0,P|368:176|421:157,1,90,2|0,0:1|0:2,0:2:0:0:
256,217,222324,6,0,L|256:249,1,22.5,2|0,3:2|0:2,0:2:0:0:
186,280,222511,2,0,P|144:280|91:261,1,90,2|0,0:1|0:2,0:2:0:0:
256,321,222699,6,0,L|256:353,1,22.5,2|0,3:2|0:2,0:2:0:0:
326,384,222886,2,0,P|368:384|421:365,1,90,2|0,0:1|0:2,0:2:0:0:
432,289,223074,6,0,L|432:257,1,22.5,2|0,3:2|0:2,0:2:0:0:
362,226,223261,2,0,P|320:226|267:245,1,90,2|0,0:1|0:2,0:2:0:0:
80,216,223449,6,0,L|80:184,1,22.5,2|0,3:2|0:2,0:2:0:0:
150,153,223636,2,0,P|192:153|245:172,1,90,2|0,0:1|0:2,0:2:0:0:
432,143,223824,6,0,L|432:111,1,22.5,2|0,3:2|0:2,0:2:0:0:
362,80,224011,2,0,P|320:80|267:99,1,90,2|0,0:1|0:2,0:2:0:0:
80,70,224199,6,0,L|80:38,1,22.5,2|0,3:2|0:2,0:2:0:0:
150,7,224386,2,0,P|192:7|245:26,1,90,2|0,0:1|0:2,0:2:0:0:
362,80,224574,5,2,3:2:0:0:
145,153,224761,1,2,3:2:0:0:
372,226,224949,1,2,3:2:0:0:
135,299,225136,1,2,3:2:0:0:
382,372,225324,5,2,3:2:0:0:
125,299,225511,1,2,3:2:0:0:
392,226,225699,1,2,3:2:0:0:
115,153,225886,1,2,3:2:0:0:
402,80,226074,5,2,3:2:0:0:
105,153,226261,1,2,3:2:0:0:
412,226,226449,1,2,3:2:0:0:
95,299,226636,1,2,3:2:0:0:
422,372,226824,6,0,L|416:282,1,56.25,2|0,3:2|0:2,0:2:0:0:
412,226,227011,1,2,3:2:0:0:
85,299,227199,6,0,P|92:126|165:0,1,180,2|0,3:1|0:2,0:2:0:0:
138,43,227386,1,2,3:2:0:0:
256,192,227574,6,0,L|256:224,2,22.5,2|0|0,0:2|0:2|0:2,0:2:0:0:
256,124,230199,6,0,B|197:226|197:226|315:226|315:226|256:124,1,270.000010299683,6|0,1:2|0:2,0:2:0:0:
