osu file format v14

[General]
AudioFilename: audio.mp3
AudioLeadIn: 0
PreviewTime: 51855
Countdown: 0
SampleSet: Soft
StackLeniency: 0.7
Mode: 0
LetterboxInBreaks: 0
WidescreenStoryboard: 1

[Editor]
Bookmarks: 84105
DistanceSpacing: 1.9
BeatDivisor: 4
GridSize: 32
TimelineZoom: 3.4

[Metadata]
Title:BRING IT ON
TitleUnicode:劣等上等
Artist:Giga feat. Reol
ArtistUnicode:Giga feat. Reol
Creator:Yugu
Version:Hard
Source:
Tags:Intensity Callionet Hollow Wings Hollow_Wings Ryuusei Aika Ryuusei_Aika 事実上 Jijitsujou jpop japanese pop Giga れをる ギガ okiku お菊 鏡音リン 鏡音レン kagamine rin len ren rettou joutou Pata-mon
BeatmapID:2170151
BeatmapSetID:974362

[Difficulty]
HPDrainRate:4
CircleSize:4
OverallDifficulty:6
ApproachRate:8
SliderMultiplier:1.4
SliderTickRate:1

[Events]
//Background and Video events
0,0,"72365882_p0.jpg",0,0
//Break Periods
2,146774,157824
//Storyboard Layer 0 (Background)
//Storyboard Layer 1 (Fail)
//Storyboard Layer 2 (Pass)
//Storyboard Layer 3 (Foreground)
//Storyboard Layer 4 (Overlay)
//Storyboard Sound Samples

[TimingPoints]
1074,375,4,2,1,70,1,0
1074,-100,4,2,1,70,0,0
3136,-100,4,2,1,50,0,0
4074,-100,4,2,1,70,0,0
4449,-100,4,2,1,50,0,0
4824,-100,4,2,1,50,0,0
5386,-100,4,2,1,50,0,0
5949,-100,4,2,1,50,0,0
6886,-100,4,2,1,50,0,0
7074,-100,4,2,1,70,0,0
10074,-100,4,2,1,75,0,0
10824,-100,4,2,1,80,0,0
11574,-100,4,2,1,85,0,0
12324,-100,4,2,1,60,0,0
13074,-100,4,2,1,80,0,0
15699,-100,4,2,1,80,0,0
16074,-100,4,2,1,80,0,0
18699,-100,4,2,1,80,0,0
19074,-100,4,2,1,80,0,0
24699,-100,4,2,1,80,0,0
25074,-100,4,2,1,80,0,0
27511,-100,4,2,1,80,0,0
28074,-100,4,2,1,80,0,0
35761,-100,4,2,22,80,0,0
35949,-100,4,2,22,80,0,0
36089,-100,4,2,1,5,0,0
36136,-100,4,2,22,80,0,0
36277,-100,4,2,1,5,0,0
36324,-100,4,2,22,80,0,0
36464,-100,4,2,1,5,0,0
36511,-100,4,2,22,80,0,0
36604,-100,4,2,1,5,0,0
36699,-100,4,2,1,80,0,0
37074,-100,4,2,1,80,0,0
37449,-100,4,2,1,50,0,0
43074,-100,4,2,1,80,0,0
43449,-100,4,2,1,50,0,0
49074,-100,4,2,1,80,0,0
49449,-100,4,2,1,50,0,0
49824,-100,4,2,1,80,0,0
50199,-100,4,2,1,50,0,0
50574,-100,4,2,1,80,0,0
52824,-100,4,2,1,70,0,0
53199,-100,4,2,1,70,0,0
53574,-100,4,2,1,90,0,0
59386,-100,4,2,1,90,0,0
59574,-100,4,2,1,90,0,0
65199,-100,4,2,1,90,0,0
65574,-100,4,2,1,90,0,0
71574,-125,4,2,1,70,0,0
74574,-125,4,2,1,70,0,0
74949,-125,4,2,1,70,0,0
77574,-100,4,2,1,85,0,0
77949,-125,4,2,1,60,0,0
79074,-125,4,2,1,60,0,0
79261,-125,4,2,1,60,0,0
79449,-125,4,2,1,60,0,0
79636,-125,4,2,1,60,0,0
79824,-125,4,2,1,60,0,0
82449,-125,4,2,1,60,0,0
82824,-125,4,2,1,60,0,0
83199,-125,4,2,1,70,0,0
83574,-100,4,2,1,80,0,0
83949,-125,4,2,1,60,0,0
84324,-125,4,2,1,60,0,0
84699,-125,4,2,1,60,0,0
85074,-125,4,2,1,60,0,0
85261,-125,4,2,1,60,0,0
85449,-125,4,2,1,60,0,0
85636,-125,4,2,1,60,0,0
85824,-125,4,2,1,60,0,0
89574,-100,4,2,1,80,0,0
89949,-100,4,2,1,70,0,0
92574,-100,4,2,1,70,0,0
94636,-100,4,2,1,70,0,0
95199,-100,4,2,1,70,0,0
95574,-100,4,2,1,80,0,0
95949,-100,4,2,1,70,0,0
98949,-100,4,2,1,70,0,0
99324,-100,4,2,1,70,0,0
99699,-100,4,2,1,70,0,0
100824,-100,4,2,1,70,0,0
101011,-100,4,2,1,70,0,0
101199,-100,4,2,1,70,0,0
101386,-100,4,2,1,70,0,0
101574,-100,4,2,1,70,0,0
101949,-100,4,2,1,50,0,0
107199,-100,4,2,1,50,0,0
107574,-100,4,2,1,70,0,0
107949,-100,4,2,1,50,0,0
113199,-100,4,2,1,70,0,0
113574,-100,4,2,1,90,0,0
113949,-100,4,2,1,90,0,0
114324,-100,4,2,1,90,0,0
115449,-100,4,2,1,90,0,0
115824,-100,4,2,1,90,0,0
119386,-100,4,2,1,90,0,0
119574,-100,4,2,1,90,0,0
125199,-100,4,2,1,90,0,0
125574,-100,4,2,1,90,0,0
131199,-100,4,2,1,90,0,0
131386,-100,4,2,1,90,0,0
131949,-100,4,2,1,60,0,0
132324,-100,4,2,1,60,0,0
132511,-100,4,2,1,60,0,0
132699,-100,4,2,1,60,0,0
133074,-100,4,2,1,60,0,0
133542,-100,4,2,1,63,0,0
133636,-100,4,2,1,66,0,0
133730,-100,4,2,1,69,0,0
133824,-100,4,2,1,72,0,0
133917,-100,4,2,1,75,0,0
134011,-100,4,2,1,80,0,0
134199,-100,4,2,1,80,0,0
134949,-100,4,2,1,40,0,0
135324,-100,4,2,1,60,0,0
135511,-100,4,2,1,60,0,0
135699,-100,4,2,1,60,0,0
135886,-100,4,2,1,60,0,0
136449,-100,4,2,1,60,0,0
136824,-100,4,2,1,60,0,0
137199,-100,4,2,1,60,0,0
137574,-100,4,2,1,60,0,0
137949,-100,4,2,1,60,0,0
139074,-100,4,2,1,60,0,0
139261,-100,4,2,1,60,0,0
139449,-100,4,2,1,60,0,0
139636,-100,4,2,1,60,0,0
139824,-100,4,2,1,80,0,0
140011,-100,4,2,1,75,0,0
140199,-100,4,2,1,70,0,0
140386,-100,4,2,1,60,0,0
140574,-100,4,2,1,60,0,0
140949,-100,4,2,1,40,0,0
141324,-100,4,2,1,60,0,0
141511,-100,4,2,1,60,0,0
141699,-100,4,2,1,60,0,0
141886,-100,4,2,1,60,0,0
142449,-100,4,2,1,60,0,0
142824,-100,4,2,1,60,0,0
143199,-100,4,2,1,60,0,0
143386,-100,4,2,1,60,0,0
143574,-100,4,2,1,60,0,0
143949,-100,4,2,1,60,0,0
144324,-100,4,2,1,60,0,0
145074,-100,4,2,1,60,0,0
146199,-100,4,2,1,60,0,0
146574,-100,4,2,1,40,0,0
158574,-100,4,2,1,60,0,0
158949,-100,4,2,1,40,0,0
159324,-125,4,2,1,40,0,0
164574,-100,4,2,1,60,0,0
164949,-100,4,2,1,40,0,0
165324,-125,4,2,1,40,0,0
167574,-100,4,2,1,60,0,0
167949,-100,4,2,1,40,0,0
168324,-100,4,2,1,60,0,0
168699,-100,4,2,1,40,0,0
168886,-100,4,2,1,60,0,0
169074,-100,4,2,1,40,0,0
169261,-100,4,2,1,60,0,0
170199,-100,4,2,1,60,0,0
170574,-100,4,2,1,80,0,0
173199,-100,4,2,1,60,0,0
173574,-100,4,2,1,80,0,0
179199,-100,4,2,1,60,0,0
179574,-100,4,2,1,80,0,0
181261,-100,4,2,1,80,0,0
181824,-100,4,2,1,50,0,0
183511,-100,4,2,1,70,0,0
184074,-100,4,2,1,70,0,0
190824,-100,4,2,1,50,0,0
191574,-100,4,2,1,90,0,0
194199,-100,4,2,1,90,0,0
194574,-100,4,2,1,90,0,0
197386,-100,4,2,1,90,0,0
197574,-100,4,2,1,90,0,0
203574,-100,4,2,1,90,0,0
203949,-100,4,2,1,90,0,0
204324,-100,4,2,1,90,0,0
204699,-100,4,2,1,90,0,0
205074,-100,4,2,1,90,0,0
205449,-100,4,2,1,90,0,0
205824,-100,4,2,1,90,0,0
206574,-100,4,2,1,90,0,0
207699,-100,4,2,1,90,0,0
208074,-100,4,2,1,90,0,0
209011,-100,4,2,1,80,0,0
209574,-100,4,2,1,90,0,0
214636,-100,4,2,1,50,0,0
214730,-100,4,2,1,55,0,0
214824,-100,4,2,1,60,0,0
214917,-100,4,2,1,65,0,0
215011,-100,4,2,1,70,0,0
215105,-100,4,2,1,75,0,0
215199,-100,4,2,1,80,0,0
215292,-100,4,2,1,85,0,0
215386,-100,4,2,1,90,0,0
215480,-100,4,2,1,95,0,0
215574,-100,4,2,1,100,0,0
215949,-100,4,2,1,70,0,0
216699,-100,4,2,1,70,0,0
217449,-100,4,2,1,70,0,0
217824,-100,4,2,1,70,0,0
218574,-100,4,2,1,70,0,0
218949,-100,4,2,1,70,0,0
219324,-100,4,2,1,70,0,0
220074,-100,4,2,1,70,0,0
220449,-100,4,2,1,70,0,0
221199,-100,4,2,1,50,0,0
221574,-100,4,2,1,80,0,0
224574,-100,4,2,1,90,0,0
227949,-100,4,2,1,30,0,0
229074,-100,4,2,1,35,0,0
229824,-100,4,2,1,40,0,0
230199,-100,4,2,1,80,0,0

[Colours]
Combo1 : 26,240,149
Combo2 : 255,244,38
Combo3 : 17,249,255
Combo4 : 255,21,243
SliderBorder : 17,249,255

[HitObjects]
62,133,1074,6,0,L|226:113,1,140,4|0,1:2|0:0,0:0:0:0:
325,54,3136,6,0,L|417:45,2,70,0|2|0,0:0|0:0|0:0,0:0:0:0:
232,19,3699,2,0,B|221:49|221:49|235:145,1,105,2|0,0:0|0:0,0:0:0:0:
266,155,4074,6,0,L|257:312,1,140,4|2,1:2|0:0,0:0:0:0:
81,380,4824,1,0,3:0:0:0:
2,200,5199,2,0,L|71:206,1,70,0|0,0:0|3:0,0:0:0:0:
143,273,5574,2,0,L|291:262,1,140,0|2,0:0|3:2,0:0:0:0:
449,365,6324,1,8,0:0:0:0:
449,365,6511,2,0,B|459:324|459:324|451:285,1,70,0|8,3:0|0:0,0:0:0:0:
375,236,6886,1,8,3:2:0:0:
375,236,7074,6,0,B|365:195|365:195|373:156,1,70,4|0,1:2|0:0,0:0:0:0:
448,108,7449,2,0,B|458:67|458:67|450:28,1,70,0|0,1:0|3:0,0:0:0:0:
359,7,7824,2,0,L|265:24,1,70,0|0,1:0|3:0,0:0:0:0:
206,71,8199,2,0,L|112:54,1,70,12|0,1:0|3:0,0:0:0:0:
263,149,8574,6,0,B|269:174|269:174|262:233,1,70,0|0,1:0|3:0,0:0:0:0:
182,272,8949,2,0,B|176:297|176:297|183:356,1,70,0|0,1:0|3:0,0:0:0:0:
273,375,9324,1,0,1:0:0:0:
273,375,9511,2,0,B|303:358|303:358|348:352,2,70,0|12|0,3:0|1:0|0:0,0:0:0:0:
181,341,10074,6,0,B|151:324|151:324|106:318,1,70,0|0,1:0|3:0,0:0:0:0:
54,242,10449,2,0,L|145:233,1,70,0|0,1:0|3:0,0:0:0:0:
198,171,10824,2,0,B|209:128|209:128|198:42,1,105,0|0,1:0|3:0,0:0:0:0:
178,24,11199,2,0,L|56:50,1,105,12|0,1:0|3:0,0:0:0:0:
29,29,11574,5,0,1:0:0:0:
29,29,11761,1,2,0:0:0:0:
55,123,11949,1,2,0:0:0:0:
55,123,12136,1,2,0:0:0:0:
19,214,12324,6,0,P|22:271|160:285,1,210,4|0,0:1|0:0,0:0:0:0:
220,230,13074,6,0,B|227:184|227:184|254:161,1,70,4|2,1:0|0:1,0:0:0:0:
309,242,13449,2,0,B|316:288|316:288|343:311,1,70,0|2,1:0|0:1,0:0:0:0:
407,368,13824,2,0,L|488:358,1,70,0|2,1:0|0:1,0:0:0:0:
512,272,14199,2,0,L|503:202,1,70,0|2,1:0|0:1,0:0:0:0:
427,139,14574,5,0,1:0:0:0:
427,139,14761,1,2,0:0:0:0:
493,66,14949,1,0,1:0:0:0:
493,66,15136,1,2,0:0:0:0:
409,13,15324,2,0,B|372:12|372:12|328:27,1,70,0|2,1:1|0:0,0:0:0:0:
254,70,15699,2,0,P|248:120|298:172,1,105,4|0,1:2|0:0,0:0:0:0:
326,173,16074,6,0,B|338:210|338:210|335:253,1,70,0|2,1:0|0:1,0:0:0:0:
251,290,16449,2,0,B|224:318|224:318|186:337,1,70,0|2,1:0|0:1,0:0:0:0:
112,283,16824,2,0,B|73:274|73:274|38:250,1,70,0|2,1:0|0:1,0:0:0:0:
48,159,17199,2,0,B|35:121|35:121|38:78,1,70,0|2,1:0|0:1,0:0:0:0:
114,28,17574,5,0,1:0:0:0:
114,28,17761,1,2,0:0:0:0:
192,87,17949,1,0,1:0:0:0:
192,87,18136,1,2,0:0:0:0:
283,51,18324,2,0,L|359:45,1,70,0|8,1:0|0:0,0:0:0:0:
381,139,18699,2,0,P|351:187|283:202,1,105,4|0,1:2|0:0,0:0:0:0:
261,186,19074,5,0,1:0:0:0:
261,186,19261,2,0,L|181:173,2,70,2|2|2,0:0|1:2|0:0,0:0:0:0:
285,281,19824,2,0,L|365:268,1,70,0|2,1:0|0:2,0:0:0:0:
261,376,20199,2,0,L|181:363,1,70,2|2,1:2|0:0,0:0:0:0:
129,288,20574,5,0,1:0:0:0:
49,345,20761,1,2,0:2:0:0:
8,255,20949,2,0,B|16:218|16:218|57:194,1,70,0|2,1:0|0:2,0:0:0:0:
119,139,21324,2,0,B|129:158|129:158|261:177,1,140,2|8,1:2|1:2,0:0:0:0:
317,241,21886,1,8,0:0:0:0:
405,198,22074,6,0,L|529:188,2,105,0|2|2,1:0|0:0|0:0,0:0:0:0:
336,127,22824,2,0,B|325:88|325:88|344:10,2,105,0|2|2,1:0|0:0|0:0,0:0:0:0:
405,198,23574,1,0,1:0:0:0:
343,331,23855,1,2,0:0:0:0:
258,210,24136,1,2,0:0:0:0:
258,210,24324,6,0,L|201:203,1,35,0|0,1:0|1:0,0:0:0:0:
178,226,24511,2,0,L|121:219,1,35,0|0,1:0|1:0,0:0:0:0:
98,242,24699,2,0,L|-7:229,1,105,12|0,1:0|0:0,0:0:0:0:
28,194,25074,5,4,1:2:0:0:
8,98,25261,2,0,L|16:22,2,70,2|0|2,0:0|1:0|0:0,0:0:0:0:
105,88,25824,2,0,L|113:12,1,70,2|2,1:2|0:0,0:0:0:0:
202,78,26199,2,0,L|210:2,1,70,0|2,1:0|0:0,0:0:0:0:
299,68,26574,5,2,1:2:0:0:
299,68,26761,1,2,0:0:0:0:
359,145,26949,1,0,1:2:0:0:
359,145,27136,1,2,0:0:0:0:
443,94,27324,6,0,L|524:87,1,70,0|8,1:0|0:2,0:0:0:0:
443,191,27699,2,0,L|362:184,1,70,0|8,1:0|0:0,0:0:0:0:
308,258,28074,5,0,1:0:0:0:
363,338,28261,2,0,L|444:331,2,70,2|0|2,0:0|1:0|0:0,0:0:0:0:
308,258,28824,2,0,L|227:251,1,70,0|2,1:0|0:0,0:0:0:0:
179,173,29199,2,0,L|98:180,1,70,0|2,1:0|0:0,0:0:0:0:
32,117,29574,6,0,P|11:182|35:246,1,140,0|2,1:0|1:2,0:0:0:0:
110,309,30136,1,2,0:0:0:0:
110,309,30230,1,0,0:0:0:0:
110,309,30324,2,0,B|121:337|121:337|119:388,1,70,0|8,1:0|0:0,0:0:0:0:
212,344,30699,1,8,1:2:0:0:
212,344,30886,1,8,0:0:0:0:
212,344,31074,6,0,L|296:335,1,70,0|2,1:0|0:0,0:0:0:0:
370,379,31449,2,0,B|379:332|379:332|466:272,1,140,2|2,1:2|1:2,0:0:0:0:
503,195,32011,2,0,L|544:191,2,35,0|0|0,0:0|0:0|1:0,0:0:0:0:
425,135,32386,1,2,0:0:0:0:
425,135,32480,1,2,0:0:0:0:
425,135,32574,6,0,L|341:126,1,70,0|2,1:0|0:0,0:0:0:0:
282,61,32949,2,0,B|262:104|262:104|277:220,1,140,2|0,1:2|1:0,0:0:0:0:
205,266,33511,2,0,L|201:309,2,35,0|0|0,0:0|0:0|1:0,0:0:0:0:
150,184,33886,1,2,0:0:0:0:
150,184,33980,1,0,0:0:0:0:
150,184,34074,6,0,L|51:190,1,70,0|2,1:0|0:0,0:0:0:0:
10,257,34449,2,0,L|16:356,1,70,0|2,1:0|0:0,0:0:0:0:
102,370,34824,2,0,B|140:372|140:372|180:343,1,70,0|2,1:0|0:0,0:0:0:0:
253,308,35199,2,0,B|291:306|291:306|331:335,1,70,0|2,1:0|0:0,0:0:0:0:
395,383,35574,5,0,1:0:0:0:
395,383,35761,2,2,B|404:331|404:331|392:278|392:278|402:214|402:214|386:164|386:164|397:90|397:90|380:28,1,350,0|12,0:1|1:0,2:1:0:0:
187,26,37074,6,0,P|140:41|92:125,1,140,4|8,0:0|0:0,0:0:0:0:
112,210,37636,1,0,1:0:0:0:
235,362,38011,1,0,1:0:0:0:
235,362,38199,2,0,P|239:317|220:275,1,70,8|0,0:0|1:0,0:0:0:0:
304,228,38574,5,0,1:0:0:0:
304,228,38761,1,0,1:0:0:0:
391,271,38949,2,0,L|476:258,1,70,10|0,0:0|1:0,0:0:0:0:
497,68,39511,1,0,1:0:0:0:
497,68,39699,2,0,L|412:55,1,70,8|0,0:0|1:0,0:0:0:0:
345,111,40074,6,0,P|300:117|220:41,1,140,0|8,1:0|0:0,0:0:0:0:
136,27,40636,1,0,1:0:0:0:
23,187,41011,1,0,1:0:0:0:
23,187,41199,2,0,L|34:277,1,70,8|0,0:0|1:0,0:0:0:0:
18,353,41574,5,0,3:0:0:0:
18,353,41761,1,2,1:0:0:0:
115,339,41949,2,0,L|212:347,1,70,2|2,3:0|1:0,0:0:0:0:
288,178,42511,1,2,1:1:0:0:
288,178,42699,2,0,L|191:186,1,70,2|0,1:0|3:0,0:0:0:0:
143,119,43074,6,0,P|141:67|232:34,1,140,4|8,0:2|0:0,0:0:0:0:
306,47,43636,1,0,1:0:0:0:
437,192,44011,1,0,1:0:0:0:
437,192,44199,2,0,P|445:234|439:267,1,70,8|0,0:0|1:0,0:0:0:0:
360,317,44574,5,0,1:0:0:0:
360,317,44761,1,0,3:0:0:0:
278,261,44949,2,0,P|274:226|282:192,1,70,8|0,0:0|1:0,0:0:0:0:
111,95,45511,1,0,1:0:0:0:
111,95,45699,2,0,P|118:128|115:163,1,70,8|0,0:0|1:0,0:0:0:0:
36,223,46074,6,0,L|175:205,1,140,0|8,1:0|0:0,0:0:0:0:
272,192,46636,1,0,1:0:0:0:
384,31,47011,1,0,1:0:0:0:
384,31,47199,2,0,L|373:117,1,70,8|0,0:0|1:0,0:0:0:0:
431,180,47574,5,0,3:0:0:0:
431,180,47761,1,0,1:0:0:0:
448,276,47949,1,8,0:0:0:0:
448,276,48137,2,0,L|459:362,1,70,0|0,1:0|0:0,0:0:0:0:
348,244,48511,2,0,L|366:383,1,140,4|4,3:0|3:0,0:0:0:0:
270,359,49074,5,4,1:2:0:0:
270,359,49261,1,0,0:0:0:0:
174,335,49449,1,2,3:0:0:0:
174,335,49636,2,0,L|74:310,1,70,0|4,1:0|1:2,0:0:0:0:
20,365,50011,2,0,P|10:297|48:240,1,140,0|0,0:0|1:0,0:0:0:0:
41,142,50574,5,4,1:2:0:0:
227,81,50949,1,4,1:2:0:0:
372,211,51324,1,4,1:2:0:0:
465,180,51511,1,0,1:0:0:0:
484,83,51699,1,4,1:2:0:0:
409,19,51886,1,0,1:0:0:0:
316,51,52074,5,4,1:0:0:0:
316,51,52824,5,2,3:0:0:0:
227,92,53011,1,0,3:0:0:0:
227,92,53105,1,0,3:0:0:0:
227,92,53199,2,0,P|215:131|230:206,1,105,0|0,1:0|0:0,0:0:0:0:
270,207,53574,6,0,L|114:224,2,140,4|4|4,1:2|1:2|1:2,0:0:0:0:
341,272,54511,1,2,1:2:0:0:
250,301,54699,1,0,1:0:0:0:
321,366,54886,1,2,1:2:0:0:
341,272,55074,6,0,L|480:256,2,140,4|4|4,1:2|1:2|1:2,0:0:0:0:
270,207,56011,1,2,1:2:0:0:
199,142,56199,1,0,1:0:0:0:
219,48,56386,1,2,1:2:0:0:
290,113,56574,6,0,P|354:118|408:49,1,140,0|2,1:0|1:0,0:0:0:0:
493,25,57136,1,2,1:0:0:0:
487,123,57324,1,2,1:2:0:0:
481,221,57511,1,2,0:1:0:0:
481,221,57605,1,2,1:2:0:0:
481,221,57699,1,2,1:2:0:0:
475,319,57886,6,0,B|407:335|407:335|339:319,1,140,0|2,1:1|1:0,0:0:0:0:
274,245,58449,2,0,B|240:236|240:236|206:245,1,70,2|2,1:2|1:0,0:0:0:0:
136,314,58824,1,2,1:2:0:0:
48,271,59011,1,2,1:0:0:0:
48,271,59105,1,0,1:0:0:0:
48,271,59199,1,2,1:0:0:0:
91,183,59386,1,0,1:0:0:0:
39,99,59574,6,0,B|194:57,2,140,4|4|4,1:2|1:2|1:2,0:0:0:0:
91,183,60511,1,2,1:2:0:0:
185,157,60699,1,0,1:0:0:0:
211,251,60886,1,2,1:2:0:0:
305,225,61074,6,0,B|341:89,2,140,4|4|0,1:2|1:2|1:2,0:0:0:0:
211,251,62011,1,2,1:0:0:0:
280,319,62199,1,0,1:0:0:0:
374,294,62386,1,2,1:0:0:0:
399,200,62574,6,0,B|417:132,2,70,2|0|4,1:0|1:0|1:2,0:0:0:0:
211,251,63324,2,0,B|229:318,2,70,2|0|4,1:0|1:0|1:2,0:0:0:0:
136,187,63886,2,0,B|95:168|95:168|2:187,1,140,2|2,1:0|3:1,0:0:0:0:
1,222,64355,1,0,3:0:0:0:
5,256,64449,2,0,B|73:271,1,70,0|2,3:0|1:0,0:0:0:0:
135,347,64824,1,2,1:0:0:0:
222,304,65011,5,4,3:0:0:0:
222,304,65105,1,4,0:0:0:0:
222,304,65199,2,0,B|290:318,1,70,8|4,3:0|3:0,0:0:0:0:
366,255,65574,1,4,1:2:0:0:
311,174,65761,1,0,0:0:0:0:
311,174,65949,2,0,B|242:188,1,70,2|2,1:0|0:1,0:0:0:0:
178,114,66324,1,0,1:0:0:0:
229,30,66511,5,2,0:0:0:0:
229,30,66699,2,0,B|297:44,1,70,2|2,1:0|1:0,0:0:0:0:
393,65,67074,1,0,1:0:0:0:
486,36,67261,1,0,0:0:0:0:
486,36,67449,2,0,B|492:76|492:76|475:124,1,70,2|2,1:1|0:1,0:0:0:0:
413,173,67824,1,0,1:0:0:0:
482,242,68011,5,2,0:1:0:0:
482,242,68199,2,0,B|492:270|492:270|486:310,1,70,2|2,1:0|1:0,0:0:0:0:
405,365,68574,1,0,1:0:0:0:
339,292,68761,1,0,0:0:0:0:
339,292,68949,2,0,L|254:272,1,70,2|2,1:0|0:1,0:0:0:0:
179,312,69324,1,0,1:0:0:0:
102,251,69511,6,0,L|17:231,2,70,0|2|2,0:0|1:0|1:0,0:0:0:0:
168,178,70074,1,0,1:0:0:0:
168,178,70261,2,0,L|83:158,2,70,2|2|0,3:2|1:1|3:1,0:0:0:0:
233,105,70824,2,0,L|276:97,1,35,8|8,3:0|3:0,0:0:0:0:
301,104,71011,2,0,L|344:96,1,35,4|4,3:0|3:0,0:0:0:0:
370,100,71199,2,0,P|385:145|380:220,1,105,12|0,1:0|0:0,0:0:0:0:
407,233,71574,6,0,P|383:271|377:340,2,112,4|2|2,3:1|3:0|3:0,0:0:0:0:
295,201,72605,1,0,3:0:0:0:
295,201,72699,2,0,L|227:208,1,56,2|2,3:0|3:0,0:0:0:0:
181,259,73074,1,0,3:0:0:0:
181,259,73261,2,0,L|113:252,2,56,2|2|2,3:0|3:0|3:0,0:0:0:0:
239,206,73824,6,0,P|234:154|210:119,1,84,2|0,3:0|0:0,0:0:0:0:
197,93,74199,2,0,P|202:41|226:6,1,84,2|0,3:0|0:0,0:0:0:0:
256,9,74574,6,0,L|377:0,2,112,0|2|2,3:0|3:0|3:0,0:0:0:0:
152,65,75605,1,0,3:0:0:0:
152,65,75699,2,0,L|91:60,1,56,2|2,3:0|3:0,0:0:0:0:
40,116,76074,2,0,B|24:186|89:209|89:209|197:245|197:245|259:267|242:345,1,336,2|2,0:0|1:3,0:0:0:0:
386,275,77574,6,0,P|435:263|458:218,1,105,4|0,1:0|0:0,0:0:0:0:
453,179,77949,6,0,L|443:89,1,84,2|0,0:3|0:0,0:0:0:0:
438,56,78324,2,0,P|453:18|490:0,2,84,4|2|2,3:1|0:3|0:3,0:0:0:0:
361,72,79074,6,0,L|297:65,1,56,0|2,1:0|0:3,0:0:0:0:
227,57,79449,2,0,L|163:50,1,56,0|2,1:0|0:3,0:0:0:0:
93,43,79824,2,0,B|44:37|44:37|62:85,1,84,8|2,0:1|0:3,0:0:0:0:
68,107,80199,2,0,B|80:140|80:140|31:134,1,84
5,163,80574,6,0,L|136:178,1,112,0|2,1:0|0:3,0:0:0:0:
267,119,81324,1,8,0:1:0:0:
370,175,81605,1,2,0:3:0:0:
465,106,81886,1,2,0:3:0:0:
510,170,82074,6,0,L|501:228,1,56,0|2,1:0|0:3,0:0:0:0:
424,242,82449,2,0,L|433:300,1,56,0|2,1:0|0:3,0:0:0:0:
510,314,82824,2,0,L|501:372,1,56,8|0,0:1|0:0,0:0:0:0:
501,369,83199,1,2,3:0:0:0:
319,295,83574,6,0,P|272:302|217:347,1,105,4|0,1:0|0:0,0:0:0:0:
209,370,83949,6,0,L|197:296,1,56,2|0,0:3|0:0,0:0:0:0:
146,257,84324,2,0,L|162:153,1,84,8|2,0:1|0:3,0:0:0:0:
167,135,84699,2,0,L|93:123,1,56,0|2,0:0|0:3,0:0:0:0:
44,84,85074,6,0,P|33:109|33:137,1,56,0|2,1:0|0:3,0:0:0:0:
53,213,85449,2,0,P|63:238|63:266,1,56,0|0,1:0|0:0,0:0:0:0:
18,330,85824,2,0,P|57:344|97:335,1,84,8|2,0:1|0:3,0:0:0:0:
131,315,86199,2,0,P|170:300|210:309,1,84,0|0,0:0|0:0,0:0:0:0:
243,330,86574,6,0,P|293:352|348:344,1,112,0|2,1:0|0:3,0:0:0:0:
443,219,87324,1,8,0:1:0:0:
332,179,87605,1,2,0:3:0:0:
372,68,87886,1,2,0:3:0:0:
294,83,88074,6,0,B|256:86|256:86|98:49|98:49|58:53,1,224,0|8,1:0|0:1,0:0:0:0:
24,111,89011,1,2,0:0:0:0:
24,111,89199,1,2,0:0:0:0:
24,111,89386,1,2,0:0:0:0:
24,111,89574,6,0,P|19:149|57:229,1,105,4|0,1:0|0:0,0:0:0:0:
87,222,89949,2,0,P|94:257|88:291,1,70,2|0,3:2|3:0,0:0:0:0:
178,252,90324,2,0,P|175:286|160:318,1,70,2|4,3:2|1:3,0:0:0:0:
257,303,90699,2,0,P|245:335|222:362,1,70,2|0,3:2|3:0,0:0:0:0:
321,373,91074,5,4,1:3:0:0:
401,316,91261,1,2,3:2:0:0:
497,334,91449,1,2,3:2:0:0:
497,334,91636,2,0,L|489:252,2,70,0|0|4,0:0|1:0|1:3,0:0:0:0:
401,316,92199,2,0,L|412:203,1,105,2|0,0:1|3:0,0:0:0:0:
432,167,92574,6,0,P|394:182|324:176,1,105,4|0,1:3|0:0,0:0:0:0:
313,132,92949,2,0,P|278:132|246:146,1,70,2|0,3:2|0:0,0:0:0:0:
232,49,93324,2,0,P|201:66|181:94,1,70,2|4,3:2|1:3,0:0:0:0:
120,17,93699,2,0,P|102:47|99:81,1,70,2|2,3:2|0:0,0:0:0:0:
34,155,94074,5,4,1:3:0:0:
76,242,94261,1,2,0:0:0:0:
173,234,94449,1,2,3:2:0:0:
173,234,94636,2,0,P|184:274|188:316,2,70,0|0|4,0:0|1:0|1:3,0:0:0:0:
75,241,95199,2,0,P|78:189|95:140,1,105,0|0,0:0|0:0,0:0:0:0:
135,111,95574,6,0,L|257:134,1,105,4|0,1:2|0:0,0:0:0:0:
282,109,95949,2,0,L|379:97,1,70,4|2,1:3|3:2,0:0:0:0:
443,64,96324,1,4,1:3:0:0:
443,64,96417,1,2,3:2:0:0:
443,64,96511,1,0,3:2:0:0:
443,64,96605,1,2,3:2:0:0:
443,64,96699,2,0,L|433:163,1,70,4|2,1:3|3:2,0:0:0:0:
389,220,97074,6,0,L|399:319,1,70,4|0,1:3|3:0,0:0:0:0:
491,314,97449,2,0,P|476:345|450:368,1,70,4|2,1:3|3:2,0:0:0:0:
403,382,97730,1,2,3:2:0:0:
403,382,97824,2,0,L|311:363,1,70,4|0,1:3|3:0,0:0:0:0:
254,310,98199,2,0,L|162:329,1,70,4|2,1:3|3:2,0:0:0:0:
116,254,98574,5,4,1:3:0:0:
116,254,98761,1,2,0:1:0:0:
180,179,98949,2,0,L|272:198,1,70,4|2,1:3|0:1,0:0:0:0:
316,122,99324,5,4,1:3:0:0:
316,122,99511,1,2,0:1:0:0:
252,47,99699,2,0,L|160:66,1,70,4|2,1:3|0:1,0:0:0:0:
98,11,100074,5,4,3:0:0:0:
34,85,100261,1,2,0:0:0:0:
34,85,100355,1,2,0:0:0:0:
34,85,100449,2,0,P|45:130|43:182,1,70,2|2,3:2|3:2,0:0:0:0:
5,243,100824,5,2,0:3:0:0:
102,234,101011,1,2,0:3:0:0:
199,225,101199,1,2,0:3:0:0:
199,225,101292,1,2,0:3:0:0:
199,225,101386,1,2,0:3:0:0:
267,295,101574,6,0,P|315:305|398:256,1,140,4|8,0:2|0:0,0:0:0:0:
424,173,102136,1,0,1:0:0:0:
424,173,102230,1,0,0:0:0:0:
424,173,102324,1,0,0:0:0:0:
365,95,102511,1,0,1:0:0:0:
365,95,102699,2,0,P|319:98|281:124,1,70,8|0,0:0|1:0,0:0:0:0:
274,205,103074,5,0,1:0:0:0:
274,205,103261,1,0,1:0:0:0:
187,248,103449,2,0,L|102:235,1,70,8|0,0:0|1:0,0:0:0:0:
31,61,104011,1,0,1:0:0:0:
31,61,104199,2,0,L|116:48,1,70,8|0,0:0|1:0,0:0:0:0:
174,114,104574,6,0,P|219:120|299:44,1,140,0|8,1:0|0:0,0:0:0:0:
383,30,105136,1,0,1:0:0:0:
383,30,105230,1,0,0:0:0:0:
383,30,105324,1,0,0:0:0:0:
368,126,105511,1,0,3:0:0:0:
368,126,105699,2,0,L|357:216,1,70,8|0,0:0|1:0,0:0:0:0:
343,292,106074,5,0,3:0:0:0:
343,292,106261,1,0,1:0:0:0:
437,322,106449,2,0,P|463:299|472:266,1,70,10|0,0:0|0:0,0:0:0:0:
510,73,107011,1,0,1:0:0:0:
510,73,107199,2,0,L|413:81,1,70,8|0,0:0|1:0,0:0:0:0:
360,21,107574,6,0,B|316:24|298:64|298:64|280:105|231:110,1,140,4|8,0:2|0:0,0:0:0:0:
164,69,108136,1,0,1:0:0:0:
5,184,108511,1,0,1:0:0:0:
5,184,108699,2,0,P|-3:226|3:259,1,70,8|0,0:0|1:0,0:0:0:0:
82,309,109074,5,0,1:0:0:0:
82,309,109261,1,0,1:0:0:0:
163,254,109449,2,0,L|263:270,1,70,8|0,0:0|1:0,0:0:0:0:
398,369,110011,1,0,1:0:0:0:
398,369,110199,2,0,P|404:326|393:288,1,70,8|0,0:0|1:0,0:0:0:0:
460,224,110574,5,0,1:0:0:0:
274,285,110949,1,0,1:0:0:0:
129,155,111324,1,0,1:0:0:0:
36,186,111511,1,0,1:0:0:0:
24,283,111699,2,0,L|31:333,3,35,0|0|0|0,1:0|1:0|1:0|1:0,0:0:0:0:
36,366,112074,5,4,1:0:0:0:
412,257,112824,1,12,0:1:0:0:
462,173,113011,1,4,3:0:0:0:
408,90,113199,2,0,P|365:97|302:120,1,105,4|0,1:3|0:0,0:0:0:0:
278,157,113574,6,0,P|267:107|219:20,2,140,4|4|4,1:2|1:2|1:2,0:0:0:0:
349,223,114511,1,2,1:2:0:0:
309,311,114699,1,0,1:0:0:0:
213,301,114886,1,2,1:2:0:0:
193,207,115074,6,0,P|120:203|45:224,2,140,4|4|4,1:2|1:2|1:2,0:0:0:0:
278,157,116011,1,2,1:2:0:0:
210,85,116199,1,0,1:0:0:0:
282,17,116386,1,2,1:2:0:0:
350,89,116574,6,0,P|392:94|486:54,1,140,2|2,1:0|1:0,0:0:0:0:
502,154,117136,1,2,1:0:0:0:
476,248,117324,1,2,1:2:0:0:
407,179,117511,1,2,0:1:0:0:
407,179,117605,1,0,1:0:0:0:
407,179,117699,1,2,1:2:0:0:
476,248,117886,6,0,P|417:274|352:333,1,140,0|2,1:0|1:0,0:0:0:0:
280,265,118449,2,0,P|264:295|260:335,1,70,0|2,1:0|1:0,0:0:0:0:
169,370,118824,1,2,1:2:0:0:
93,308,119011,1,2,1:0:0:0:
93,308,119105,1,2,0:0:0:0:
93,308,119199,1,2,1:0:0:0:
139,221,119386,1,0,1:0:0:0:
72,149,119574,6,0,P|58:107|-8:30,2,140,4|4|4,1:2|1:2|1:2,0:0:0:0:
139,221,120511,1,2,1:2:0:0:
167,127,120699,1,0,1:0:0:0:
233,198,120886,1,2,1:2:0:0:
260,104,121074,6,0,P|298:45|363:7,2,140,4|4|4,1:2|1:2|1:2,0:0:0:0:
233,198,122011,1,2,1:0:0:0:
299,270,122199,1,0,1:0:0:0:
272,364,122387,1,2,1:0:0:0:
182,325,122574,6,0,P|129:309|86:309,2,70,0|2|4,1:0|1:0|1:2,0:0:0:0:
319,184,123324,2,0,P|372:168|415:168,2,70,0|2|4,1:0|1:0|1:2,0:0:0:0:
253,111,123886,2,0,P|191:96|122:29,1,140,2|2,1:0|3:1,0:0:0:0:
98,41,124355,1,0,3:0:0:0:
64,31,124449,2,0,L|80:105,1,70,0|0,3:0|1:0,0:0:0:0:
24,181,124824,1,2,1:0:0:0:
79,262,125011,5,4,3:0:0:0:
79,262,125105,1,4,3:0:0:0:
79,262,125199,2,0,P|113:270|142:290,1,70,8|4,3:0|3:0,0:0:0:0:
206,363,125574,1,4,1:2:0:0:
271,289,125761,1,0,0:0:0:0:
271,289,125949,2,0,P|300:269|334:262,1,70,2|2,1:0|0:1,0:0:0:0:
429,286,126324,1,0,1:0:0:0:
402,191,126511,5,0,1:0:0:0:
402,191,126699,2,0,P|396:143|398:111,1,70,2|2,1:0|1:0,0:0:0:0:
416,25,127074,1,0,1:0:0:0:
490,88,127261,1,0,0:0:0:0:
490,88,127449,2,0,P|496:136|494:168,1,70,2|2,1:0|0:1,0:0:0:0:
402,191,127824,1,0,1:0:0:0:
313,149,128011,5,0,1:0:0:0:
313,149,128199,2,0,L|221:139,1,70,2|2,1:0|1:0,0:0:0:0:
173,71,128574,1,0,1:0:0:0:
76,84,128761,1,0,0:0:0:0:
76,84,128949,2,0,L|-16:94,1,70,2|2,1:0|0:1,0:0:0:0:
32,186,129324,1,0,1:0:0:0:
6,280,129511,6,0,L|76:288,2,70,0|2|2,0:0|1:0|1:0,0:0:0:0:
32,186,130074,1,0,1:0:0:0:
32,186,130261,2,0,L|103:186,2,70,2|0|0,3:1|1:0|3:0,0:0:0:0:
6,280,130824,2,0,L|37:328,1,35,8|8,3:0|3:0,0:0:0:0:
33,343,131011,2,0,L|90:340,1,35,4|4,3:0|3:0,0:0:0:0:
100,355,131199,2,0,P|149:339|201:338,1,105,8|0,1:2|0:0,0:0:0:0:
248,354,131574,6,0,P|309:192|407:332,1,420,4|2,1:0|3:0,0:0:0:0:
455,140,133074,6,0,P|426:98|412:47,1,105,8|0,0:0|1:0,0:0:0:0:
380,10,133449,1,0,1:0:0:0:
375,12,133542,1,8,1:3:0:0:
370,14,133636,1,8,1:3:0:0:
365,16,133730,1,4,1:3:0:0:
360,18,133824,2,0,L|296:9,2,35,4|4|8,1:3|1:3|1:2,0:0:0:0:
288,85,134199,6,0,L|192:71,1,70,12|0,1:0|0:0,0:0:0:0:
135,23,134574,2,0,L|152:152,1,105,4|0,1:0|0:0,0:0:0:0:
114,162,134949,2,0,P|70:194|97:234,1,105,0|0,1:0|3:2,0:0:0:0:
103,277,135324,1,12,1:0:0:0:
199,291,135511,1,2,3:0:0:0:
296,305,135699,1,2,3:0:0:0:
359,379,135886,1,0,1:0:0:0:
359,379,135980,1,0,1:0:0:0:
359,379,136074,6,0,P|417:355|422:300,1,105,0|0,1:0|0:0,0:0:0:0:
414,270,136449,2,0,P|389:239|432:181,1,105,4|0,1:0|0:0,0:0:0:0:
459,167,136824,2,0,L|371:136,2,70,12|0|0,1:0|3:0|1:0,0:0:0:0:
324,24,137574,6,0,L|202:37,1,105,4|0,1:0|0:0,0:0:0:0:
176,11,137949,2,0,B|177:52|177:52|194:84,1,70,2|0,1:0|3:0,0:0:0:0:
253,153,138324,2,0,B|252:194|252:194|235:226,1,70,14|2,1:0|3:1,0:0:0:0:
205,255,138605,1,2,3:1:0:0:
205,255,138699,1,0,0:0:0:0:
124,199,138886,2,0,L|85:192,1,35,2|2,1:0|1:0,0:0:0:0:
40,186,139074,6,0,L|46:285,1,70,2|2,1:0|1:0,0:0:0:0:
122,314,139449,2,0,L|116:413,1,70,2|2,1:0|1:0,0:0:0:0:
211,354,139824,1,4,1:2:0:0:
306,357,140011,1,4,1:2:0:0:
380,296,140199,1,2,1:0:0:0:
394,201,140386,1,2,1:0:0:0:
340,122,140574,6,0,L|453:94,1,105,4|0,1:0|0:0,0:0:0:0:
475,60,140949,2,0,P|435:60|379:0,1,105,2|2,1:2|3:2,0:0:0:0:
339,7,141324,1,12,1:0:0:0:
241,15,141511,1,2,3:0:0:0:
143,23,141699,1,2,3:0:0:0:
78,96,141886,1,0,1:0:0:0:
78,96,141980,1,0,1:0:0:0:
78,96,142074,6,0,P|88:140|162:144,1,105,0|0,1:0|0:0,0:0:0:0:
181,128,142449,2,0,P|234:125|276:180,1,105,0|0,1:0|0:0,0:0:0:0:
285,205,142824,2,0,L|367:195,3,70,12|0|0|0,1:0|3:0|3:0|1:0,0:0:0:0:
444,157,143574,6,0,L|432:271,1,105,4|0,1:0|0:0,0:0:0:0:
452,306,143949,1,2,0:1:0:0:
355,288,144136,1,2,0:1:0:0:
284,356,144324,2,0,B|247:359|247:359|202:346,1,70,14|2,1:0|0:1,0:0:0:0:
148,278,144699,2,0,B|115:270|115:270|26:294,1,105,0|0,0:0|0:0,0:0:0:0:
6,317,145074,5,0,0:0:0:0:
14,219,145261,1,2,0:1:0:0:
92,159,145449,1,4,1:0:0:0:
84,61,145636,1,2,1:1:0:0:
103,31,145730,1,0,1:0:0:0:
136,20,145824,2,0,P|193:49|239:139,1,140,8|12,1:0|1:0,0:0:0:0:
256,306,146574,5,0,1:0:0:0:
121,140,158574,6,0,L|261:123,1,140,4|2,1:2|0:0,0:0:0:0:
383,26,159324,1,8,0:0:0:0:
406,182,159699,1,2,0:0:0:0:
282,279,160074,1,0,0:0:0:0:
282,279,160261,2,0,L|221:270,2,56,0|2|0,0:0|1:2|0:0,0:0:0:0:
330,341,160824,2,0,L|449:325,1,112,8|2,0:0|0:0,0:0:0:0:
475,172,161574,5,0,1:0:0:0:
324,129,161949,1,2,0:0:0:0:
182,197,162324,1,8,0:0:0:0:
31,154,162699,1,2,0:0:0:0:
31,154,162886,2,0,P|18:114|16:93,1,56,0|0,0:0|0:0,0:0:0:0:
91,76,163261,2,0,P|104:36|106:15,2,56,0|2|0,0:0|1:2|0:0,0:0:0:0:
160,113,163824,2,0,P|219:115|288:97,1,112,8|0,0:0|0:0,0:0:0:0:
450,26,164574,6,0,L|441:193,1,140,0|2,1:0|0:0,0:0:0:0:
479,318,165324,1,8,0:0:0:0:
347,232,165699,1,2,0:0:0:0:
213,313,166074,1,0,0:0:0:0:
213,313,166261,2,0,P|177:309|141:286,1,56,0|2,0:0|1:2,0:0:0:0:
19,228,166824,2,0,P|67:219|123:179,1,112,8|2,0:0|0:0,0:0:0:0:
255,43,167574,6,0,P|256:113|244:194,1,140,0|2,1:0|0:0,0:0:0:0:
339,353,168324,1,8,0:0:0:0:
435,340,168511,2,0,P|424:308|420:262,1,70,2|0,0:0|0:0,0:0:0:0:
460,182,168886,2,0,P|435:191|385:197,1,70,2|0,0:0|0:0,0:0:0:0:
339,105,169261,2,0,P|372:116|406:120,1,70,2|0,0:0|1:0,0:0:0:0:
406,120,169636,1,8,3:0:0:0:
474,49,169824,2,0,P|453:9|428:-12,2,70,0|4|4,1:0|3:0|3:0,0:0:0:0:
277,34,170574,6,0,L|291:181,1,140,4|0,1:2|1:3,0:0:0:0:
208,120,171136,2,0,L|222:267,1,140,4|0,1:2|0:0,0:0:0:0:
139,206,171699,2,0,L|153:353,1,140,4|0,1:2|1:0,0:0:0:0:
59,377,172261,5,4,1:2:0:0:
59,377,172449,1,0,1:0:0:0:
59,377,172636,1,0,1:0:0:0:
59,377,172824,1,0,1:0:0:0:
59,377,173011,1,0,1:0:0:0:
18,287,173199,2,0,P|28:234|57:178,1,105,0|0,0:0|0:0,0:0:0:0:
28,144,173574,6,0,P|88:121|163:55,1,140,4|0,1:2|0:0,0:0:0:0:
184,164,174136,2,0,P|244:141|319:75,1,140,4|0,1:2|1:0,0:0:0:0:
340,184,174699,2,0,P|400:161|475:95,1,140,4|0,1:2|0:0,0:0:0:0:
456,16,175261,5,0,1:0:0:0:
456,16,175449,1,0,1:0:0:0:
456,16,175636,1,0,1:0:0:0:
456,16,175824,1,0,1:0:0:0:
456,16,176011,1,0,1:0:0:0:
357,8,176199,2,0,L|366:82,1,70,4|4,3:0|3:0,0:0:0:0:
432,149,176574,6,0,B|419:210|419:210|423:242|423:242|411:299,1,140,4|0,1:2|0:0,0:0:0:0:
322,251,177136,2,0,B|261:238|261:238|229:242|229:242|172:230,1,140,4|0,1:2|1:0,0:0:0:0:
220,141,177699,2,0,B|233:80|233:80|229:48|229:48|241:-9,1,140,4|0,1:2|0:0,0:0:0:0:
143,25,178261,5,0,1:0:0:0:
143,25,178449,1,0,1:0:0:0:
143,25,178636,1,0,1:0:0:0:
143,25,178824,1,0,1:0:0:0:
143,25,179011,1,0,1:0:0:0:
61,79,179199,2,0,P|68:126|105:182,1,105,0|0,0:0|0:0,0:0:0:0:
142,194,179574,6,0,B|209:212|209:212|191:279,1,140,4|0,1:0|1:0,0:0:0:0:
93,276,180136,2,0,B|25:294|25:294|43:361,1,140,4|0,1:0|1:0,0:0:0:0:
142,365,180699,2,0,B|209:346|209:346|191:279,1,140,4|0,1:0|1:0,0:0:0:0:
112,220,181261,6,0,B|416:301|416:301|498:-3,1,630,4|8,1:0|0:0,0:0:0:0:
354,66,183324,1,0,0:0:0:0:
256,66,183511,1,0,1:0:0:0:
256,165,183699,1,0,1:0:0:0:
158,165,183886,1,0,1:0:0:0:
158,165,183980,1,0,1:0:0:0:
158,165,184074,5,4,3:0:0:0:
256,352,184824,1,8,0:1:0:0:
354,66,185574,1,4,3:0:0:0:
328,259,185949,1,4,3:0:0:0:
509,185,186324,1,8,0:1:0:0:
256,352,187074,5,4,3:0:0:0:
158,66,187824,1,8,0:1:0:0:
60,352,188574,1,4,3:0:0:0:
2,164,188949,1,4,3:0:0:0:
193,207,189324,1,8,0:1:0:0:
416,23,190074,5,4,0:1:0:0:
380,289,190824,1,2,0:0:0:0:
380,289,191011,2,0,P|372:255|348:193,2,70,0|0|0,1:0|1:0|1:0,0:0:0:0:
439,162,191574,6,0,P|384:147|325:114,1,105,0|0,1:0|0:0,0:0:0:0:
293,136,191949,2,0,P|238:121|179:88,1,105,0|0,1:0|0:0,0:0:0:0:
147,110,192324,2,0,P|92:95|33:62,1,105,0|0,1:0|0:0,0:0:0:0:
2,85,192699,1,4,1:2:0:0:
23,279,193074,6,0,P|78:264|137:231,1,105,0|0,1:0|0:0,0:0:0:0:
169,253,193449,2,0,P|224:238|283:205,1,105,0|0,1:0|0:0,0:0:0:0:
315,227,193824,2,0,P|370:212|429:179,1,105,0|0,1:0|0:0,0:0:0:0:
460,202,194199,1,4,1:2:0:0:
372,377,194574,6,0,P|315:363|241:301,1,140,0|2,1:2|1:2,0:0:0:0:
236,217,195136,1,2,1:0:0:0:
141,242,195324,1,0,1:0:0:0:
64,181,195511,1,2,0:1:0:0:
64,181,195605,1,2,1:2:0:0:
64,181,195699,1,2,1:0:0:0:
106,92,195886,6,0,P|180:81|255:40,1,140,0|2,1:0|1:0,0:0:0:0:
315,114,196449,2,0,P|340:85|356:51,1,70,2|2,1:2|1:0,0:0:0:0:
450,37,196824,1,2,1:2:0:0:
464,133,197011,1,2,1:0:0:0:
464,133,197105,1,0,1:0:0:0:
464,133,197199,1,2,1:0:0:0:
382,187,197386,1,0,1:0:0:0:
457,250,197574,6,0,P|479:287|508:390,2,140,4|4|4,1:2|1:2|1:2,0:0:0:0:
380,311,198511,1,2,1:2:0:0:
295,260,198699,1,0,1:0:0:0:
224,327,198886,1,2,1:2:0:0:
160,251,199074,6,0,P|106:233|11:226,2,140,4|4|2,1:2|1:2|1:2,0:0:0:0:
231,184,200011,1,0,1:0:0:0:
163,112,200199,1,2,1:2:0:0:
226,37,200386,1,2,1:2:0:0:
318,71,200574,6,0,L|397:61,2,70,0|2|4,1:0|1:0|1:2,0:0:0:0:
420,237,201324,2,0,L|499:227,2,70,0|2|4,1:0|1:0|1:2,0:0:0:0:
359,313,201886,2,0,P|310:341|202:328,1,140,2|2,1:0|0:1,0:0:0:0:
198,320,202355,1,0,3:0:0:0:
168,301,202449,2,0,P|134:292|99:292,1,70,0|0,3:0|3:0,0:0:0:0:
8,330,202824,1,0,1:0:0:0:
4,236,203011,5,0,0:0:0:0:
4,236,203199,2,0,B|18:168,1,70,0|2,1:0|3:0,0:0:0:0:
108,127,203574,1,0,1:0:0:0:
99,29,203761,1,0,0:0:0:0:
99,29,203949,2,0,B|167:43,1,70,4|0,1:2|0:0,0:0:0:0:
263,64,204324,1,0,1:0:0:0:
244,159,204511,5,0,0:0:0:0:
244,159,204699,2,0,B|258:227,1,70,4|0,1:2|0:0,0:0:0:0:
218,317,205074,1,0,1:0:0:0:
294,377,205261,1,0,0:0:0:0:
294,377,205449,2,0,B|362:363,1,70,4|0,1:2|0:0,0:0:0:0:
404,273,205824,1,0,1:0:0:0:
493,311,206011,5,0,0:0:0:0:
493,311,206199,2,0,B|503:283|503:283|497:243,1,70,4|0,1:2|1:0,0:0:0:0:
433,168,206574,1,0,1:0:0:0:
497,93,206761,1,0,0:0:0:0:
497,93,206949,2,0,B|503:53|503:53|493:25,1,70,0|0,1:0|1:0,0:0:0:0:
396,7,207324,1,4,1:2:0:0:
299,25,207511,2,0,B|289:53|289:53|295:93,2,70,0|0|0,0:0|1:0|3:0,0:0:0:0:
200,13,208074,5,0,1:0:0:0:
200,13,208167,1,0,1:0:0:0:
200,13,208261,1,0,1:0:0:0:
200,13,208355,1,0,1:0:0:0:
200,13,208449,2,0,P|151:39|42:51,1,140,0|0,1:0|0:0,0:0:0:0:
68,53,209011,1,0,1:0:0:0:
91,148,209199,2,0,P|43:148|7:133,1,70,2|4,1:3|1:3,0:0:0:0:
3,237,209574,6,0,P|47:276|99:338,1,140,4|0,1:2|1:0,0:0:0:0:
186,293,210136,1,2,3:2:0:0:
186,293,210230,1,0,3:0:0:0:
186,293,210324,2,0,L|352:293,1,140,0|0,1:0|1:0,0:0:0:0:
412,338,210886,1,2,1:2:0:0:
412,338,210980,1,0,1:0:0:0:
412,338,211074,6,0,P|457:284|509:237,1,140,2|0,1:0|1:0,0:0:0:0:
509,147,211636,1,2,3:2:0:0:
509,147,211730,1,0,3:0:0:0:
509,147,211824,2,0,P|457:99|412:45,1,140,0|0,1:0|1:0,0:0:0:0:
326,91,212386,1,2,1:2:0:0:
326,91,212480,1,0,1:0:0:0:
326,91,212574,6,0,L|160:91,1,140,2|0,1:0|1:0,0:0:0:0:
99,45,213136,1,2,3:2:0:0:
99,45,213230,1,0,3:0:0:0:
99,45,213324,2,0,P|54:99|2:147,1,140,0|0,1:0|1:0,0:0:0:0:
114,309,214074,1,2,1:0:0:0:
130,212,214261,6,0,P|188:247|211:315,1,140,0|0,0:0|1:0,0:0:0:0:
305,342,214824,2,0,B|320:195|497:260|378:381,1,280,0|2,1:0|1:2,0:0:0:0:
491,219,215949,2,0,P|470:162|473:93,1,105,4|0,1:0|0:0,0:0:0:0:
492,75,216324,2,0,L|372:97,1,105,12|0,0:2|0:0,0:0:0:0:
355,129,216699,2,0,L|235:107,1,105,4|0,1:3|0:0,0:0:0:0:
203,102,217074,5,0,3:0:0:0:
26,186,217449,1,4,1:3:0:0:
188,297,217824,2,0,P|242:298|308:328,1,105,2|0,3:0|0:0,0:0:0:0:
314,357,218199,2,0,P|351:326|415:308,1,105,0|0,3:0|0:0,0:0:0:0:
452,320,218574,5,4,1:3:0:0:
490,127,218949,1,0,3:0:0:0:
298,168,219324,2,0,B|280:130|280:130|288:50,1,105,2|0,3:0|0:0,0:0:0:0:
315,27,219699,2,0,L|185:51,1,105,4|0,1:3|0:0,0:0:0:0:
166,27,220074,5,0,3:0:0:0:
93,92,220261,1,0,1:0:0:0:
93,92,220355,1,0,1:0:0:0:
93,92,220449,2,0,L|108:178,1,70,8|0,1:2|1:0,0:0:0:0:
61,249,220824,2,0,B|115:260|115:260|155:319,1,105,8|0,1:2|0:0,0:0:0:0:
168,343,221199,1,2,3:0:0:0:
362,368,221574,6,0,L|451:354,1,70,4|2,1:2|0:1,0:0:0:0:
355,294,221949,2,0,L|444:280,1,70,0|2,1:0|0:1,0:0:0:0:
348,220,222324,2,0,L|437:206,1,70,0|2,1:0|0:1,0:0:0:0:
341,146,222699,2,0,L|430:132,1,70,0|2,1:0|0:1,0:0:0:0:
334,72,223074,6,0,L|245:86,1,70,0|2,1:0|0:1,0:0:0:0:
341,146,223449,2,0,L|252:160,1,70,0|2,1:0|0:1,0:0:0:0:
348,220,223824,2,0,L|259:234,1,70,0|2,1:0|0:1,0:0:0:0:
355,294,224199,2,0,L|266:308,1,70,0|2,1:0|0:1,0:0:0:0:
207,364,224574,5,0,1:0:0:0:
118,323,224761,1,0,1:0:0:0:
29,364,224949,2,0,P|24:328|33:264,1,70,0|0,1:0|1:0,0:0:0:0:
100,230,225324,1,0,1:0:0:0:
189,189,225511,1,0,1:0:0:0:
278,230,225699,2,0,P|283:194|274:130,1,70,0|0,1:0|1:0,0:0:0:0:
207,96,226074,5,0,1:0:0:0:
118,55,226261,1,0,1:0:0:0:
29,96,226449,2,0,P|24:60|33:-4,1,70,0|0,1:0|1:0,0:0:0:0:
118,55,226824,6,0,P|119:89|114:124,1,70,0|0,1:0|1:0,0:0:0:0:
59,205,227199,2,0,P|57:239|62:274,1,70,0|0,1:0|1:0,0:0:0:0:
135,340,227574,5,4,1:0:0:0:
256,192,230199,2,0,L|256:288,1,70,4|0,1:2|0:0,0:0:0:0:
