osu file format v14

[General]
AudioFilename: audio.mp3
AudioLeadIn: 0
PreviewTime: 51855
Countdown: 0
SampleSet: Soft
StackLeniency: 0.2
Mode: 0
LetterboxInBreaks: 0
WidescreenStoryboard: 1

[Editor]
DistanceSpacing: 1.9
BeatDivisor: 4
GridSize: 32
TimelineZoom: 2.9

[Metadata]
Title:BRING IT ON
TitleUnicode:劣等上等
Artist:Giga feat. Reol
ArtistUnicode:Giga feat. Reol
Creator:Yugu
Version:HW's AnOther
Source:
Tags:Intensity Callionet Hollow Wings Hollow_Wings Ryuusei Aika Ryuusei_Aika 事実上 Jijitsujou jpop japanese pop Giga れをる ギガ okiku お菊 鏡音リン 鏡音レン kagamine rin len ren rettou joutou Pata-mon
BeatmapID:2167873
BeatmapSetID:974362

[Difficulty]
HPDrainRate:5
CircleSize:5
OverallDifficulty:8.2
ApproachRate:9.4
SliderMultiplier:1.6
SliderTickRate:1

[Events]
//Background and Video events
0,0,"72365882_p0.jpg",0,0
//Break Periods
//Storyboard Layer 0 (Background)
//Storyboard Layer 1 (Fail)
//Storyboard Layer 2 (Pass)
//Storyboard Layer 3 (Foreground)
//Storyboard Layer 4 (Overlay)
//Storyboard Sound Samples

[TimingPoints]
1074,375,4,2,1,90,1,0
1074,-133.333333333333,4,2,1,90,0,0
7074,-80,4,2,1,100,0,1
13074,-100,4,2,1,90,0,0
19074,-133.333333333333,4,2,1,90,0,0
24699,-200,4,2,1,80,0,0
25074,-133.333333333333,4,2,1,90,0,0
33699,-33.6666666666667,4,2,1,90,0,0
34074,-133.333333333333,4,2,1,90,0,0
35761,-100,4,2,22,90,0,0
35949,-100,4,2,22,90,0,0
36089,-83.3333333333333,4,2,1,5,0,0
36136,-100,4,2,22,90,0,0
36277,-83.3333333333333,4,2,1,5,0,0
36324,-100,4,2,22,90,0,0
36464,-83.3333333333333,4,2,1,5,0,0
36511,-100,4,2,22,90,0,0
36605,-83.3333333333333,4,2,1,5,0,0
36699,-100,4,2,22,90,0,0
37074,-200,4,2,1,70,0,0
49074,-133.333333333333,4,2,1,80,0,0
53574,-66.6666666666667,4,2,1,100,0,1
65199,-100,4,2,1,100,0,0
65574,-66.6666666666667,4,2,1,100,0,1
71574,-100,4,2,1,70,0,0
77574,-133.333333333333,4,2,1,80,0,0
89574,-100,4,2,1,90,0,0
101574,-133.333333333333,4,2,1,70,0,0
106449,-133.333333333333,4,2,23,70,0,0
106480,-133.333333333333,4,2,2,5,0,0
106511,-133.333333333333,4,2,23,70,0,0
106542,-133.333333333333,4,2,2,5,0,0
106573,-133.333333333333,4,2,23,70,0,0
106605,-133.333333333333,4,2,2,5,0,0
106636,-133.333333333333,4,2,23,70,0,0
106667,-133.333333333333,4,2,2,5,0,0
106698,-133.333333333333,4,2,23,70,0,0
106730,-133.333333333333,4,2,2,5,0,0
106761,-133.333333333333,4,2,23,70,0,0
106792,-133.333333333333,4,2,2,5,0,0
106823,-133.333333333333,4,2,23,70,0,0
113574,-66.6666666666667,4,2,1,100,0,1
125199,-100,4,2,1,100,0,0
125574,-66.6666666666667,4,2,1,100,0,1
131574,-133.333333333333,4,2,1,80,0,0
134574,-66.6666666666667,4,2,1,100,0,1
146574,-200,4,2,1,60,0,0
158574,-133.333333333333,4,2,1,70,0,0
170574,-400,4,2,1,100,0,1
173199,-66.6666666666667,4,2,1,100,0,1
173574,-400,4,2,1,100,0,1
176199,-33.6666666666667,4,2,1,100,0,1
176574,-400.666666666667,4,2,1,100,0,1
179199,-66.6666666666667,4,2,1,100,0,1
179574,-1600.66666666667,4,2,1,100,0,1
184074,-200,4,2,1,80,0,0
191574,-66.6666666666667,4,2,1,100,0,1
203199,-100,4,2,1,100,0,0
203574,-66.6666666666667,4,2,1,100,0,1
209199,-100,4,2,1,100,0,0
209574,-66.6666666666667,4,2,1,100,0,1
211824,-50,4,2,1,100,0,1
212574,-33.6666666666667,4,2,1,100,0,1
215574,-100,4,2,1,90,0,0
221199,-66.6666666666667,4,2,1,90,0,0
221574,-80,4,2,1,100,0,1
227574,-66.6666666666667,4,2,1,80,0,0

[Colours]
Combo1 : 26,240,149
Combo2 : 255,244,38
Combo3 : 17,249,255
Combo4 : 255,21,243
SliderBorder : 17,249,255

[HitObjects]
52,325,1074,5,4,1:2:0:0:
256,192,1449,12,0,3886,0:0:0:0:
52,325,4074,5,4,1:2:0:0:
256,192,4449,12,8,6886,3:2:0:0:
8,376,7074,6,0,L|107:364,1,100,4|0,1:2|0:0,0:0:0:0:
175,348,7355,1,0,0:0:0:0:
243,333,7449,2,0,L|392:344,1,150,0|0,1:0|3:0,0:0:0:0:
175,348,7824,2,0,L|324:359,1,150,0|0,1:0|3:0,0:0:0:0:
108,363,8199,1,12,1:0:0:0:
324,359,8386,2,0,L|316:335,1,25,0|0,3:0|3:0,0:0:0:0:
388,353,8480,2,0,L|388:324,1,25,0|0,3:0|0:0,0:0:0:0:
452,374,8574,6,0,B|519:352|519:352|501:328,1,100,0|0,1:0|3:0,0:0:0:0:
435,352,8855,1,0,3:0:0:0:
365,341,8949,2,0,L|316:335,1,50,0|0,1:0|0:0,0:0:0:0:
245,345,9136,2,0,L|190:340,1,50,0|0,3:0|3:0,0:0:0:0:
126,356,9324,2,0,L|27:359,1,100,0|0,1:0|3:0,0:0:0:0:
315,334,9699,2,0,L|414:331,1,100,12|0,1:0|0:0,0:0:0:0:
26,359,10074,5,0,1:0:0:0:
315,334,10261,1,0,3:0:0:0:
26,359,10449,1,0,1:0:0:0:
315,334,10636,1,0,3:0:0:0:
26,359,10824,2,0,L|8:377,1,25,0|0,1:0|3:0,0:0:0:0:
98,345,10917,2,0,L|89:371,1,25,0|0,3:0|0:0,0:0:0:0:
167,323,11011,1,0,3:0:0:0:
393,354,11199,6,0,B|339:347|339:347|115:374|115:374|280:307|280:307|261:220|261:220|251:272,1,600,12|4,1:0|0:1,0:0:0:0:
204,363,13074,1,4,1:0:0:0:
67,318,13261,5,2,0:1:0:0:
337,365,13449,1,0,1:0:0:0:
137,323,13636,1,2,0:1:0:0:
407,370,13824,1,0,1:0:0:0:
205,328,14011,1,2,0:1:0:0:
475,375,14199,1,0,1:0:0:0:
274,333,14386,1,2,0:1:0:0:
80,367,14574,6,0,L|1:374,1,80,0|2,1:0|0:0,0:0:0:0:
137,323,14949,2,0,L|58:330,1,80,0|2,1:0|0:0,0:0:0:0:
190,357,15324,2,0,L|150:359,1,40,0|0,1:1|0:0,0:0:0:0:
274,333,15511,2,0,L|234:335,1,40,2|0,0:0|0:0,0:0:0:0:
440,335,15699,2,0,L|320:344,1,120,4|0,1:2|0:0,0:0:0:0:
190,357,16074,1,0,1:0:0:0:
440,335,16261,5,2,0:1:0:0:
274,333,16449,1,0,1:0:0:0:
440,335,16636,1,2,0:1:0:0:
190,357,16824,1,0,1:0:0:0:
440,335,17011,1,2,0:1:0:0:
107,321,17199,1,0,1:0:0:0:
440,335,17386,1,2,0:1:0:0:
274,333,17574,6,0,L|354:343,1,80,0|2,1:0|0:0,0:0:0:0:
274,333,17949,2,0,L|195:340,1,80,0|2,1:0|0:0,0:0:0:0:
354,343,18324,2,0,L|393:338,1,40,0|0,1:0|0:0,0:0:0:0:
433,343,18511,2,0,L|393:339,1,40,8|0,0:0|0:0,0:0:0:0:
195,340,18699,2,0,L|75:331,1,120,4|0,1:2|0:0,0:0:0:0:
195,340,19074,1,0,1:0:0:0:
393,339,19261,5,2,0:0:0:0:
393,339,19449,1,2,1:2:0:0:
295,363,19636,1,2,0:0:0:0:
195,340,19824,1,0,1:0:0:0:
195,340,20011,1,2,0:2:0:0:
195,340,20199,1,2,1:2:0:0:
94,355,20386,1,2,0:0:0:0:
209,375,20574,6,0,L|247:328,1,60.0000022888184,0|2,1:0|0:2,0:0:0:0:
429,367,20949,2,0,L|467:320,1,60.0000022888184,0|2,1:0|0:2,0:0:0:0:
247,328,21324,2,0,L|217:332,1,30.0000011444092,2|0,1:2|0:0,0:0:0:0:
94,355,21511,2,0,L|123:362,1,30.0000011444092,8|0,0:2|0:0,0:0:0:0:
321,370,21699,2,0,L|359:323,1,60.0000022888184,8|8,1:2|0:0,0:0:0:0:
218,332,21980,1,0,0:0:0:0:
218,332,22074,6,0,L|277:324,1,60.0000022888184,0|2,1:0|0:0,0:0:0:0:
359,323,22355,2,0,L|418:327,1,60.0000022888184,2|0,0:0|0:0,0:0:0:0:
505,349,22636,1,2,0:0:0:0:
352,334,22824,2,0,L|292:337,1,60.0000022888184,0|2,1:0|0:0,0:0:0:0:
209,335,23105,2,0,L|149:326,1,60.0000022888184,2|0,0:0|0:0,0:0:0:0:
68,324,23386,1,2,0:0:0:0:
446,345,23574,6,0,L|505:349,1,60.0000022888184,0|2,1:0|0:0,0:0:0:0:
317,342,23855,2,0,L|370:368,1,60.0000022888184,2|0,0:0|0:0,0:0:0:0:
202,323,24136,1,2,0:0:0:0:
14,358,24324,1,0,1:0:0:0:
51,375,24417,1,0,1:0:0:0:
93,374,24511,1,0,1:0:0:0:
130,355,24605,1,0,1:0:0:0:
202,323,24699,6,0,L|219:381,1,60,12|0,1:0|0:0,0:0:0:0:
202,323,25074,1,4,1:2:0:0:
428,320,25261,5,2,0:0:0:0:
428,320,25449,1,0,1:0:0:0:
428,320,25636,1,2,0:0:0:0:
428,320,25824,2,0,L|338:325,1,90.0000034332277,2|2,1:2|0:0,0:0:0:0:
279,366,26199,2,0,L|189:371,1,90.0000034332277,0|0,1:0|0:0,0:0:0:0:
119,342,26574,5,2,1:2:0:0:
362,360,26761,1,2,0:0:0:0:
241,353,26949,1,0,1:2:0:0:
483,375,27136,1,2,0:0:0:0:
483,375,27511,1,8,0:2:0:0:
483,375,27886,6,0,L|373:325,1,120.000004577637,8|2,0:0|0:0,0:0:0:0:
256,371,28355,1,2,0:0:0:0:
256,371,28449,2,0,L|218:324,1,60.0000022888184,0|2,1:0|0:0,0:0:0:0:
66,353,28730,1,2,0:0:0:0:
66,353,28824,2,0,L|59:320,1,30.0000011444092,0|0,1:0|0:0,0:0:0:0:
256,371,29011,1,2,0:0:0:0:
487,379,29199,2,0,L|432:353,1,60.0000022888184,0|2,1:0|0:0,0:0:0:0:
143,338,29574,6,0,L|201:326,1,60.0000022888184,0|2,1:0|0:0,0:0:0:0:
256,371,29855,1,0,0:0:0:0:
256,371,29949,2,0,L|226:367,1,30.0000011444092,2|0,1:2|0:0,0:0:0:0:
317,340,30136,1,2,0:0:0:0:
66,353,30324,2,0,L|45:374,1,30.0000011444092,0|0,1:0|0:0,0:0:0:0:
256,371,30511,2,0,L|315:362,2,60.0000022888184,8|8|8,0:0|1:2|0:0,0:0:0:0:
124,369,31074,2,0,L|66:353,1,60.0000022888184,0|2,1:0|0:0,0:0:0:0:
280,346,31449,6,0,L|399:350,1,120.000004577637,2|2,1:2|1:2,0:0:0:0:
399,350,32199,1,0,1:0:0:0:
175,358,32386,2,0,L|161:332,1,30.0000011444092,2|2,0:0|0:0,0:0:0:0:
66,353,32574,2,0,L|6:363,1,60.0000022888184,0|2,1:0|0:0,0:0:0:0:
256,326,32949,2,0,L|333:371,1,90.0000034332277,2|0,1:2|0:0,0:0:0:0:
478,343,33324,1,0,1:0:0:0:
256,326,33511,1,0,0:0:0:0:
36,372,33699,6,0,B|149:333|149:333|266:350,1,237.62375340136,0|2,1:0|0:0,0:0:0:0:
442,362,34074,6,0,L|501:367,1,60.0000022888184,0|2,1:0|0:0,0:0:0:0:
319,326,34449,2,0,L|378:331,1,60.0000022888184,0|2,1:0|0:0,0:0:0:0:
164,359,34824,2,0,L|253:344,1,90.0000034332277,0|0,1:0|0:0,0:0:0:0:
442,362,35199,1,0,1:0:0:0:
319,326,35386,1,2,0:0:0:0:
164,359,35574,1,0,1:0:0:0:
17,328,35761,6,2,B|93:357|93:357|172:345|172:345|247:366|247:366|319:326|319:326|382:379|382:379|437:325|437:325|476:329,1,520,0|0,0:1|0:0,2:1:0:0:
391,321,37074,6,0,L|420:373,1,60,4|0,0:0|0:0,0:0:0:0:
311,333,37449,1,8,0:0:0:0:
476,329,37636,1,0,1:0:0:0:
476,329,38011,1,0,1:0:0:0:
311,333,38199,1,8,0:0:0:0:
476,329,38386,1,0,1:0:0:0:
239,364,38574,5,0,1:0:0:0:
239,364,38761,1,0,1:0:0:0:
56,362,38949,2,0,L|95:355,1,40,10|0,0:0|1:0,0:0:0:0:
239,364,39511,1,0,1:0:0:0:
56,362,39698,1,8,0:0:0:0:
239,364,39886,1,0,1:0:0:0:
311,333,40073,5,0,1:0:0:0:
311,333,40261,1,0,0:0:0:0:
311,333,40448,1,8,0:0:0:0:
13,361,40636,2,0,L|57:348,2,40,0|0|0,1:0|0:0|1:0,0:0:0:0:
13,361,41198,1,8,0:0:0:0:
13,361,41386,1,0,1:0:0:0:
123,366,41574,5,0,3:0:0:0:
311,333,41761,2,0,L|299:349,1,20,2|0,1:0|0:0,0:0:0:0:
397,326,42136,2,0,L|385:342,1,20,2|0,1:0|0:0,0:0:0:0:
165,350,42324,2,0,L|224:353,1,60,0|0,0:0|0:0,0:0:0:0:
299,349,42699,2,0,L|311:365,1,20,2|0,1:0|0:0,0:0:0:0:
385,342,42886,2,0,L|397:358,1,20,0|0,3:0|0:0,0:0:0:0:
165,350,43074,6,0,L|109:326,1,60,4|0,0:2|0:0,0:0:0:0:
5,321,43449,1,8,0:0:0:0:
165,350,43636,1,0,1:0:0:0:
165,350,44011,1,0,1:0:0:0:
5,321,44198,1,8,0:0:0:0:
165,350,44386,1,0,1:0:0:0:
330,332,44574,6,0,L|389:325,1,60,0|0,1:0|0:0,0:0:0:0:
509,375,44949,2,0,L|469:379,1,40,8|0,0:0|1:0,0:0:0:0:
509,375,45511,1,0,1:0:0:0:
330,332,45699,1,8,0:0:0:0:
509,375,45886,1,0,1:0:0:0:
252,338,46074,5,0,1:0:0:0:
183,370,46261,1,0,0:0:0:0:
113,336,46449,1,8,0:0:0:0:
38,324,46636,1,0,1:0:0:0:
330,332,46824,1,0,0:0:0:0:
377,382,47011,1,0,1:0:0:0:
440,345,47199,1,8,0:0:0:0:
509,375,47386,1,0,1:0:0:0:
252,338,47574,5,0,3:0:0:0:
224,344,47667,1,0,0:0:0:0:
197,352,47761,1,0,1:0:0:0:
170,358,47854,1,0,0:0:0:0:
143,368,47949,2,0,L|124:368,1,20,8|0,0:0|0:0,0:0:0:0:
28,375,48136,2,0,L|9:375,2,20,0|0|0,1:0|0:0|0:0,0:0:0:0:
28,375,48511,6,0,L|67:382,1,40,4|8,3:0|3:0,0:0:0:0:
28,375,48886,1,4,3:0:0:0:
370,338,49074,6,0,L|429:327,1,60.0000022888184,4|0,1:2|0:0,0:0:0:0:
370,338,49449,1,2,3:0:0:0:
370,338,49636,1,0,1:0:0:0:
124,322,49824,2,0,L|154:323,1,30.0000011444092,4|0,1:2|0:0,0:0:0:0:
17,381,50011,2,0,L|76:370,1,60.0000022888184,0|2,0:0|3:0,0:0:0:0:
205,369,50386,1,0,1:0:0:0:
489,378,50574,6,0,L|400:362,1,90.0000034332277,4|0,1:2|0:0,0:0:0:0:
205,369,50949,2,0,L|297:358,1,90.0000034332277,4|0,1:2|0:0,0:0:0:0:
481,331,51324,2,0,L|460:352,1,30.0000011444092,4|0,1:2|0:0,0:0:0:0:
335,359,51511,2,0,L|314:337,1,30.0000011444092,0|0,1:0|0:0,0:0:0:0:
197,330,51699,2,0,L|176:351,1,30.0000011444092,4|0,1:2|0:0,0:0:0:0:
51,358,51886,2,0,L|30:336,1,30.0000011444092,0|0,1:0|0:0,0:0:0:0:
114,324,52074,5,4,1:0:0:0:
397,325,52824,1,2,3:0:0:0:
257,368,53011,1,0,3:0:0:0:
257,368,53105,1,0,3:0:0:0:
114,324,53199,6,0,L|203:327,1,90.0000034332277,0|0,1:0|0:0,0:0:0:0:
321,328,53574,6,0,L|501:320,1,180.000006866455,4|0,1:2|0:0,0:0:0:0:
149,365,53949,2,0,L|328:370,1,180.000006866455,4|0,1:2|0:0,0:0:0:0:
7,328,54324,2,0,L|132:328,1,120.000004577637,4|2,1:2|1:2,0:0:0:0:
240,331,54605,1,0,0:0:0:0:
240,331,54699,1,0,1:0:0:0:
500,320,54886,1,2,1:2:0:0:
182,369,55074,6,0,L|6:328,1,180.000006866455,4|0,1:2|0:0,0:0:0:0:
374,356,55449,2,0,L|194:343,1,180.000006866455,4|0,1:2|0:0,0:0:0:0:
500,320,55824,2,0,L|382:338,1,120.000004577637,4|2,1:2|1:2,0:0:0:0:
200,323,56199,1,0,1:0:0:0:
14,376,56386,1,2,1:2:0:0:
331,383,56574,6,0,L|499:319,1,180.000006866455,0|0,1:0|0:0,0:0:0:0:
286,329,56949,1,2,1:0:0:0:
14,376,57136,1,2,1:0:0:0:
117,376,57324,1,2,1:2:0:0:
409,371,57511,2,0,L|476:385,1,60.0000022888184,2|2,0:1|1:2,0:0:0:0:
500,320,57699,1,2,1:2:0:0:
183,340,57886,6,0,L|64:326,2,120.000004577637,0|0|2,1:1|1:0|1:0,0:0:0:0:
409,371,58449,1,2,1:2:0:0:
183,340,58636,1,2,1:0:0:0:
500,320,58824,1,2,1:2:0:0:
243,332,59011,2,0,L|183:339,1,60.0000022888184,2|0,1:0|1:0,0:0:0:0:
14,376,59199,1,2,1:0:0:0:
116,319,59386,2,0,L|57:324,1,60.0000022888184,0|0,1:0|0:0,0:0:0:0:
318,348,59574,6,0,L|497:360,1,180.000006866455,4|0,1:2|0:0,0:0:0:0:
129,338,59949,2,0,L|308:337,1,180.000006866455,4|0,1:2|0:0,0:0:0:0:
14,376,60324,2,0,L|73:376,1,60.0000022888184,4|0,1:2|0:0,0:0:0:0:
191,372,60511,2,0,L|251:373,1,60.0000022888184,2|0,1:2|0:0,0:0:0:0:
497,328,60699,1,0,1:0:0:0:
307,321,60886,1,2,1:2:0:0:
1,336,61074,6,0,L|117:363,1,120.000004577637,4|0,1:2|0:0,0:0:0:0:
307,321,61355,1,0,0:0:0:0:
307,321,61449,2,0,L|486:320,1,180.000006866455,4|0,1:2|0:0,0:0:0:0:
367,364,61824,1,0,1:2:0:0:
185,338,62011,1,2,1:0:0:0:
307,321,62199,1,0,1:0:0:0:
1,336,62386,1,2,1:0:0:0:
307,321,62574,6,0,L|486:335,1,180.000006866455,2|0,1:0|0:0,0:0:0:0:
151,335,62949,2,0,L|330:334,1,180.000006866455,4|0,1:2|0:0,0:0:0:0:
7,370,63324,2,0,L|186:352,1,180.000006866455,2|0,1:0|0:0,0:0:0:0:
487,336,63699,1,4,1:2:0:0:
31,326,63886,6,0,L|151:335,3,120.000004577637,2|0|2|0,1:0|1:0|3:1|3:0,0:0:0:0:
151,335,64636,1,2,1:0:0:0:
487,336,64824,1,2,1:0:0:0:
414,332,65011,1,4,3:0:0:0:
414,332,65105,1,4,3:0:0:0:
414,332,65199,2,0,L|374:335,1,40,8|0,3:0|0:0,0:0:0:0:
264,367,65386,2,0,L|303:373,1,40,4|0,3:0|0:0,0:0:0:0:
194,328,65574,6,0,L|21:377,1,180.000006866455,4|0,1:2|0:0,0:0:0:0:
374,334,65949,2,0,L|315:322,1,60.0000022888184,2|0,1:0|0:0,0:0:0:0:
161,353,66136,2,0,L|221:355,1,60.0000022888184,2|0,0:1|0:0,0:0:0:0:
374,334,66324,2,0,L|194:328,1,180.000006866455,0|0,1:0|1:0,0:0:0:0:
23,321,66699,2,0,L|83:331,1,60.0000022888184,2|0,1:0|0:0,0:0:0:0:
253,335,66886,2,0,L|312:325,1,60.0000022888184,2|0,1:0|0:0,0:0:0:0:
195,357,67074,6,0,L|374:334,1,180.000006866455,0|0,1:0|0:0,0:0:0:0:
193,321,67449,2,0,L|133:322,1,60.0000022888184,2|0,1:1|0:0,0:0:0:0:
1,381,67636,2,0,L|63:364,1,60.0000022888184,2|0,0:1|0:0,0:0:0:0:
195,357,67824,2,0,L|72:319,1,120.000004577637,0|2,1:0|0:1,0:0:0:0:
82,322,68199,2,0,L|17:320,1,60.0000022888184,2|0,1:0|0:0,0:0:0:0:
339,360,68386,2,0,L|273:366,1,60.0000022888184,2|0,1:0|0:0,0:0:0:0:
195,357,68574,6,0,L|17:331,1,180.000006866455,0|0,1:0|0:0,0:0:0:0:
127,365,68949,2,0,L|67:371,1,60.0000022888184,2|0,1:0|0:0,0:0:0:0:
477,380,69136,2,0,L|418:368,1,60.0000022888184,2|0,0:1|0:0,0:0:0:0:
372,320,69324,2,0,L|195:357,1,180.000006866455,0|0,1:0|1:0,0:0:0:0:
262,373,69699,2,0,L|321:368,1,60.0000022888184,2|0,1:0|0:0,0:0:0:0:
8,374,69886,2,0,L|49:330,1,60.0000022888184,2|0,1:0|0:0,0:0:0:0:
153,350,70074,6,0,L|206:321,1,60.0000022888184,0|0,1:0|0:0,0:0:0:0:
321,367,70261,2,0,L|441:381,1,120.000004577637,2|2,3:2|1:1,0:0:0:0:
441,381,70636,1,0,3:1:0:0:
321,367,70824,1,8,3:0:0:0:
166,377,71011,2,0,L|290:366,1,120.000004577637,4|12,3:0|1:0,0:0:0:0:
24,379,71386,1,0,0:0:0:0:
24,379,71574,6,0,B|497:378|497:378|523:319|523:319|12:320|12:320|30:294,1,1080,4|0,3:1|0:0,0:0:0:0:
30,294,74199,1,2,3:0:0:0:
30,294,74574,6,0,L|17:373,1,80,0|0,3:0|0:0,0:0:0:0:
18,374,74949,1,2,3:0:0:0:
18,374,75324,1,2,3:0:0:0:
18,374,75699,2,0,L|97:377,1,80,2|2,3:0|3:0,0:0:0:0:
178,381,76074,6,0,L|98:377,1,80,2|2,0:0|0:0,0:0:0:0:
230,333,76449,1,0,3:0:0:0:
253,333,76542,1,2,0:0:0:0:
277,333,76636,1,0,3:0:0:0:
301,334,76730,1,2,0:0:0:0:
325,334,76824,1,0,3:0:0:0:
348,335,76917,1,2,0:0:0:0:
372,336,77011,1,0,3:0:0:0:
396,337,77105,1,2,0:0:0:0:
419,338,77199,2,0,L|300:359,1,120,2|0,1:3|0:0,0:0:0:0:
121,330,77574,6,0,L|241:325,1,120.000004577637,4|2,1:0|0:3,0:0:0:0:
6,330,78324,1,8,3:1:0:0:
6,330,78699,2,0,L|26:347,7,15.0000005722046,0|0|0|0|2|0|0|0,0:0|0:0|0:0|0:0|0:3|0:0|0:0|0:0,0:0:0:0:
74,379,79074,1,0,1:0:0:0:
74,379,79449,1,0,1:0:0:0:
312,362,79824,1,8,0:1:0:0:
312,362,80199,2,0,L|332:345,7,15.0000005722046,0|0|0|0|0|0|0|0,0:0|0:0|0:0|0:0|0:0|0:0|0:0|0:0,0:0:0:0:
393,363,80574,5,0,1:0:0:0:
74,379,81324,1,8,0:1:0:0:
393,363,82074,1,0,1:0:0:0:
393,363,82449,1,0,1:0:0:0:
74,379,82824,1,8,0:1:0:0:
326,384,83199,2,0,L|259:324,1,90.0000034332277,2|0,3:0|0:0,0:0:0:0:
165,382,83574,6,0,L|290:360,1,120.000004577637,4|2,1:0|0:3,0:0:0:0:
13,325,84324,1,8,0:1:0:0:
13,325,84699,2,0,L|33:342,7,15.0000005722046,0|0|0|0|2|0|0|0,0:0|0:0|0:0|0:0|0:3|0:0|0:0|0:0,0:0:0:0:
98,326,85074,1,0,1:0:0:0:
98,326,85449,1,0,1:0:0:0:
339,325,85824,1,8,0:1:0:0:
339,325,86199,2,0,L|314:333,7,15.0000005722046,0|0|0|0|0|0|0|0,0:0|0:0|0:0|0:0|0:0|0:0|0:0|0:0,0:0:0:0:
413,329,86574,5,0,1:0:0:0:
178,321,87324,1,8,0:1:0:0:
413,329,88074,2,0,L|472:337,1,60.0000022888184,0|2,1:0|0:0,0:0:0:0:
291,376,88449,2,0,L|350:368,1,60.0000022888184,0|2,1:0|0:0,0:0:0:0:
178,321,88824,1,8,0:1:0:0:
46,338,89011,1,2,0:0:0:0:
178,321,89199,1,2,0:0:0:0:
291,376,89386,1,2,0:0:0:0:
178,321,89574,6,0,B|134:361|134:361|75:374,1,120,4|0,1:0|0:0,0:0:0:0:
9,324,89949,1,2,3:2:0:0:
142,379,90136,1,0,3:0:0:0:
278,345,90324,1,2,3:2:0:0:
426,369,90511,2,0,L|505:363,1,80,4|2,1:3|3:2,0:0:0:0:
360,329,90886,1,0,3:0:0:0:
233,373,91074,6,0,B|171:363|171:363|124:330,1,120,4|0,1:3|0:0,0:0:0:0:
10,375,91449,1,2,3:2:0:0:
124,330,91636,2,0,L|163:327,1,40,0|0,0:0|0:0,0:0:0:0:
249,379,91824,2,0,L|288:376,1,40,0|0,1:0|0:0,0:0:0:0:
379,340,92011,2,0,L|458:334,2,80,4|2|0,1:3|0:1|3:0,0:0:0:0:
88,322,92574,6,0,B|144:340|144:340|205:336,1,120,4|0,1:3|0:0,0:0:0:0:
289,327,92949,1,2,3:2:0:0:
145,365,93136,1,0,0:0:0:0:
289,327,93324,1,2,3:2:0:0:
88,322,93511,2,0,L|8:327,1,80,4|2,1:3|3:2,0:0:0:0:
205,336,93886,1,2,0:0:0:0:
8,327,94074,6,0,L|128:334,1,120,4|0,1:3|0:0,0:0:0:0:
195,376,94449,1,2,3:2:0:0:
284,327,94636,2,0,L|244:329,1,40,0|0,0:0|0:0,0:0:0:0:
337,366,94824,2,0,L|377:364,1,40,0|0,1:0|0:0,0:0:0:0:
510,322,95011,2,0,L|431:317,2,80,4|0|0,1:3|0:0|0:0,0:0:0:0:
337,366,95574,6,0,B|376:372|376:372|414:359,1,80,4|0,1:2|0:0,0:0:0:0:
193,327,95949,2,0,B|232:320|232:320|270:333,1,80,4|2,1:3|3:2,0:0:0:0:
53,365,96324,2,0,B|92:371|92:371|130:358,1,80,4|0,1:3|3:2,0:0:0:0:
270,333,96699,2,0,B|230:339|230:339|192:326,1,80,4|2,1:3|3:2,0:0:0:0:
87,331,96980,1,2,3:2:0:0:
87,331,97074,6,0,L|4:322,1,80,4|0,1:3|3:0,0:0:0:0:
226,359,97449,2,0,L|143:368,1,80,4|2,1:3|3:2,0:0:0:0:
366,332,97824,2,0,L|283:323,1,80,4|0,1:3|3:0,0:0:0:0:
507,354,98199,2,0,L|424:363,1,80,4|2,1:3|3:2,0:0:0:0:
321,352,98480,1,2,0:2:0:0:
321,352,98574,6,0,L|397:321,1,80,4|2,1:3|0:1,0:0:0:0:
224,358,98949,2,0,L|300:327,1,80,4|2,1:3|0:1,0:0:0:0:
125,362,99324,2,0,L|201:331,1,80,4|2,1:3|0:1,0:0:0:0:
28,368,99699,2,0,L|104:337,1,80,4|2,1:3|0:1,0:0:0:0:
224,358,99980,1,0,0:0:0:0:
224,358,100074,6,0,B|191:341|191:341|148:333,1,80,4|2,3:0|0:0,0:0:0:0:
28,368,100449,1,2,3:2:0:0:
298,327,100636,1,2,3:2:0:0:
495,364,100824,2,0,B|504:344|504:344|500:326,1,40,2|0,0:3|0:0,0:0:0:0:
318,322,101011,2,0,B|308:341|308:341|312:359,1,40,2|0,0:3|0:0,0:0:0:0:
396,381,101199,2,0,B|405:361|405:361|401:343,1,40,2|2,0:3|0:3,0:0:0:0:
219,339,101386,2,0,B|209:358|209:358|213:376,1,40,2|0,0:3|0:0,0:0:0:0:
312,359,101574,6,0,L|252:365,1,60.0000022888184,4|0,0:2|0:0,0:0:0:0:
25,375,101949,1,8,0:0:0:0:
193,343,102136,2,0,L|312:359,1,120.000004577637,0|0,1:0|1:0,0:0:0:0:
25,375,102699,1,8,0:0:0:0:
193,343,102886,1,0,1:0:0:0:
348,351,103074,5,0,1:0:0:0:
348,351,103261,1,0,1:0:0:0:
120,321,103449,2,0,L|227:377,1,120.000004577637,8|0,0:0|0:0,0:0:0:0:
348,351,104011,1,0,1:0:0:0:
120,321,104199,1,8,0:0:0:0:
348,351,104386,1,0,1:0:0:0:
496,321,104574,6,0,L|437:327,1,60.0000022888184,0|0,1:0|0:0,0:0:0:0:
226,376,104948,1,8,0:0:0:0:
376,319,105136,2,0,L|496:321,1,120.000004577637,0|0,1:0|3:0,0:0:0:0:
226,376,105699,1,8,0:0:0:0:
376,319,105886,1,0,1:0:0:0:
175,324,106074,5,0,3:0:0:0:
175,324,106261,1,0,1:0:0:0:
0,321,106449,2,2,L|133:372,1,120.000004577637,10|0,0:0|0:0,0:2:0:0:
230,373,107011,1,0,3:0:0:0:
0,321,107199,1,8,0:0:0:0:
175,324,107386,1,0,1:0:0:0:
175,324,107480,1,0,0:0:0:0:
175,324,107574,6,0,L|234:320,1,60.0000022888184,4|0,0:2|0:0,0:0:0:0:
414,360,107949,1,8,0:0:0:0:
235,320,108136,2,0,L|129:377,1,120.000004577637,0|0,1:0|1:0,0:0:0:0:
414,360,108699,1,8,0:0:0:0:
235,320,108886,1,0,1:0:0:0:
59,369,109074,5,0,1:0:0:0:
59,369,109261,1,0,1:0:0:0:
201,378,109449,2,0,L|317:349,1,120.000004577637,8|0,0:0|0:0,0:0:0:0:
59,369,110011,1,0,1:0:0:0:
235,320,110198,1,8,0:0:0:0:
59,369,110386,1,0,1:0:0:0:
235,320,110574,6,0,L|324:332,1,90.0000034332277,0|0,1:0|0:0,0:0:0:0:
141,326,110949,2,0,L|201:329,1,60.0000022888184,0|0,1:0|0:0,0:0:0:0:
274,373,111230,1,0,0:0:0:0:
274,373,111324,1,0,1:0:0:0:
495,352,111511,1,0,1:0:0:0:
375,322,111699,1,0,1:0:0:0:
358,325,111792,1,0,1:0:0:0:
341,328,111886,1,0,1:0:0:0:
324,332,111980,1,0,1:0:0:0:
274,373,112074,6,0,L|64:356,1,210.000008010865,4|0,1:0|0:0,0:0:0:0:
7,323,112824,1,12,0:1:0:0:
213,348,113011,1,4,3:0:0:0:
412,337,113199,2,0,L|501:341,1,90.0000034332277,4|0,1:3|0:0,0:0:0:0:
178,384,113574,6,0,L|6:329,1,180.000006866455,4|0,1:2|0:0,0:0:0:0:
382,321,113949,2,0,L|210:375,1,180.000006866455,4|0,1:2|0:0,0:0:0:0:
508,375,114324,2,0,L|399:324,1,120.000004577637,4|2,1:2|1:2,0:0:0:0:
280,321,114605,1,0,0:0:0:0:
280,321,114699,1,0,1:0:0:0:
87,375,114886,1,2,1:2:0:0:
342,384,115074,6,0,L|512:325,1,180.000006866455,4|0,1:2|0:0,0:0:0:0:
229,383,115449,2,0,L|399:324,1,180.000006866455,4|0,1:2|0:0,0:0:0:0:
117,379,115824,2,0,L|229:337,1,120.000004577637,4|2,1:2|1:2,0:0:0:0:
512,325,116199,1,0,1:0:0:0:
229,337,116386,1,2,1:2:0:0:
482,384,116574,6,0,L|313:321,1,180.000006866455,2|0,1:0|0:0,0:0:0:0:
229,337,116949,1,2,1:0:0:0:
482,384,117136,1,2,1:0:0:0:
149,329,117324,1,2,1:2:0:0:
358,371,117511,2,0,L|416:358,1,60.0000022888184,2|0,0:1|1:0,0:0:0:0:
512,326,117699,1,2,1:2:0:0:
229,337,117886,6,0,L|348:346,2,120.000004577637,0|0|2,1:0|1:0|1:0,0:0:0:0:
9,367,118449,1,0,1:0:0:0:
229,337,118636,1,2,1:0:0:0:
126,378,118824,1,2,1:2:0:0:
345,368,119011,2,0,L|407:374,1,60.0000022888184,2|2,1:0|0:0,0:0:0:0:
509,363,119199,1,2,1:0:0:0:
324,343,119386,2,0,L|383:338,1,60.0000022888184,0|0,1:0|0:0,0:0:0:0:
179,324,119574,6,0,L|8:380,1,180.000006866455,4|0,1:2|0:0,0:0:0:0:
383,338,119949,2,0,L|201:329,1,180.000006866455,4|0,1:2|0:0,0:0:0:0:
501,368,120324,2,0,L|440:321,1,60.0000022888184,4|0,1:2|0:0,0:0:0:0:
298,337,120511,2,0,L|254:382,1,60.0000022888184,2|0,1:2|0:0,0:0:0:0:
161,336,120699,1,0,1:0:0:0:
334,368,120886,1,2,1:2:0:0:
488,329,121074,6,0,L|378:378,1,120.000004577637,4|0,1:2|0:0,0:0:0:0:
190,371,121355,1,0,0:0:0:0:
190,371,121449,2,0,L|14:331,1,180.000006866455,4|0,1:2|0:0,0:0:0:0:
194,322,121824,1,4,1:2:0:0:
23,369,122011,1,2,1:0:0:0:
262,353,122199,1,0,1:0:0:0:
483,354,122386,1,2,1:0:0:0:
194,322,122574,6,0,L|14:330,1,180.000006866455,0|0,1:0|0:0,0:0:0:0:
334,357,122949,2,0,L|155:334,1,180.000006866455,4|0,1:2|0:0,0:0:0:0:
496,319,123324,2,0,L|313:379,1,180.000006866455,0|0,1:0|0:0,0:0:0:0:
84,351,123699,1,4,1:2:0:0:
496,319,123886,6,0,L|376:322,3,120.000004577637,2|0|2|0,1:0|1:0|3:1|3:0,0:0:0:0:
501,343,124636,1,0,1:0:0:0:
299,323,124824,1,2,1:0:0:0:
84,351,125011,1,4,3:0:0:0:
84,351,125105,1,4,3:0:0:0:
84,351,125199,2,0,L|123:357,1,40,8|0,3:0|0:0,0:0:0:0:
255,319,125386,2,0,L|220:348,1,40,4|0,3:0|0:0,0:0:0:0:
321,366,125574,6,0,L|495:318,1,180.000006866455,4|0,1:2|0:0,0:0:0:0:
84,351,125949,2,0,L|138:325,1,60.0000022888184,2|0,1:0|0:0,0:0:0:0:
322,366,126136,2,0,L|271:333,1,60.0000022888184,2|0,0:1|0:0,0:0:0:0:
84,351,126324,1,0,1:0:0:0:
322,366,126511,1,0,1:0:0:0:
24,349,126699,2,0,L|84:351,1,60.0000022888184,2|0,1:0|0:0,0:0:0:0:
271,333,126886,2,0,L|339:319,1,60.0000022888184,2|0,1:0|0:0,0:0:0:0:
499,382,127074,5,0,1:0:0:0:
271,333,127261,1,0,0:0:0:0:
83,350,127449,2,0,L|143:351,1,60.0000022888184,2|0,1:0|0:0,0:0:0:0:
438,351,127636,2,0,L|373:349,1,60.0000022888184,2|0,0:1|1:0,0:0:0:0:
271,333,127824,1,0,1:0:0:0:
271,333,128011,1,0,1:0:0:0:
83,350,128199,2,0,L|23:344,1,60.0000022888184,2|0,1:0|0:0,0:0:0:0:
378,349,128386,2,0,L|314:325,1,60.0000022888184,2|0,1:0|0:0,0:0:0:0:
94,367,128574,6,0,L|271:333,1,180.000006866455,0|0,1:0|0:0,0:0:0:0:
438,355,128949,2,0,L|378:349,1,60.0000022888184,2|0,1:0|0:0,0:0:0:0:
44,323,129136,2,0,L|77:372,1,60.0000022888184,2|0,0:1|0:0,0:0:0:0:
164,335,129324,2,0,L|343:352,1,180.000006866455,0|0,1:0|1:0,0:0:0:0:
157,356,129699,2,0,L|97:362,1,60.0000022888184,2|0,1:0|0:0,0:0:0:0:
478,356,129886,2,0,L|425:326,1,60.0000022888184,2|0,1:0|0:0,0:0:0:0:
259,329,130074,6,0,L|317:349,1,60.0000022888184,0|0,1:0|0:0,0:0:0:0:
478,356,130261,1,2,3:1:0:0:
157,356,130449,1,0,1:0:0:0:
372,323,130636,1,0,3:0:0:0:
49,357,130824,1,8,3:0:0:0:
259,329,131011,1,4,3:0:0:0:
478,356,131199,2,0,L|360:333,1,120.000004577637,8|8,1:2|1:2,0:0:0:0:
471,380,131574,6,0,B|38:377|38:377|26:331,1,480.000018310548,4|8,1:0|0:0,0:0:0:0:
93,328,133355,1,0,1:0:0:0:
93,328,133449,2,0,L|122:328,1,30.0000011444092,0|8,1:0|1:3,0:0:0:0:
186,357,133636,2,0,L|229:359,1,30.0000011444092,8|4,1:3|1:3,0:0:0:0:
284,329,133824,1,4,1:3:0:0:
284,329,133917,1,4,1:3:0:0:
284,329,134011,1,8,1:2:0:0:
460,321,134199,2,0,L|475:378,1,60.0000022888184,12|0,1:0|0:0,0:0:0:0:
475,378,134574,6,0,B|496:349|496:349|351:350,1,180.000006866455,4|0,1:0|0:0,0:0:0:0:
208,338,134949,2,0,B|134:374|134:374|171:374,1,120.000004577637,0|2,1:0|3:2,0:0:0:0:
283,367,135230,1,0,3:2:0:0:
283,367,135324,1,12,1:0:0:0:
94,319,135511,2,0,L|38:340,1,60.0000022888184,2|0,3:0|0:0,0:0:0:0:
282,366,135699,2,0,L|338:345,1,60.0000022888184,2|0,3:0|0:0,0:0:0:0:
94,319,135886,1,0,1:0:0:0:
94,319,135980,1,0,1:0:0:0:
142,371,136074,6,0,L|321:368,1,180.000006866455,0|0,1:0|0:0,0:0:0:0:
411,326,136449,2,0,L|231:328,1,180.000006866455,4|0,1:0|0:0,0:0:0:0:
8,361,136824,2,0,L|63:382,1,60.0000022888184,12|0,1:0|0:0,0:0:0:0:
117,336,137011,2,0,L|172:314,1,60.0000022888184,0|0,3:0|0:0,0:0:0:0:
251,321,137199,2,0,B|372:367|372:367|321:367,1,180.000006866455,0|0,1:0|0:0,0:0:0:0:
187,355,137574,6,0,L|7:360,1,180.000006866455,4|0,1:0|0:0,0:0:0:0:
186,354,137949,2,0,L|131:376,1,60.0000022888184,2|0,1:0|0:0,0:0:0:0:
19,320,138136,2,0,L|74:341,1,60.0000022888184,0|0,3:0|0:0,0:0:0:0:
312,354,138324,2,0,L|256:375,1,60.0000022888184,14|0,1:0|0:0,0:0:0:0:
183,321,138511,1,2,3:1:0:0:
183,321,138605,1,2,3:1:0:0:
256,332,138699,2,0,L|311:353,1,60.0000022888184,0|0,0:0|0:0,0:0:0:0:
430,348,138886,2,0,L|404:364,3,30.0000011444092,2|0|2|0,1:0|0:0|1:0|0:0,0:0:0:0:
430,347,139074,6,0,L|374:326,1,60.0000022888184,2|0,1:0|0:0,0:0:0:0:
311,353,139261,2,0,L|256:375,1,60.0000022888184,2|0,1:0|0:0,0:0:0:0:
189,342,139449,2,0,L|133:321,1,60.0000022888184,2|0,1:0|0:0,0:0:0:0:
70,348,139636,2,0,L|15:370,1,60.0000022888184,2|0,1:0|0:0,0:0:0:0:
429,348,139824,6,0,L|484:326,1,60.0000022888184,4|0,1:2|0:0,0:0:0:0:
244,320,140011,2,0,L|189:343,1,60.0000022888184,4|0,1:2|0:0,0:0:0:0:
70,348,140199,2,0,L|15:370,1,60.0000022888184,2|0,1:0|0:0,0:0:0:0:
256,375,140386,2,0,L|311:353,1,60.0000022888184,2|0,1:0|0:0,0:0:0:0:
71,349,140574,6,0,B|50:320|50:320|194:321,1,180.000006866455,4|0,1:0|0:0,0:0:0:0:
483,363,140949,2,0,B|446:361|446:361|372:325,1,120.000004577637,2|2,1:2|3:2,0:0:0:0:
285,357,141230,1,2,3:2:0:0:
285,357,141324,1,12,1:0:0:0:
150,374,141511,2,0,L|210:373,1,60.0000022888184,2|0,3:0|0:0,0:0:0:0:
267,328,141699,2,0,L|327:327,1,60.0000022888184,2|0,3:0|0:0,0:0:0:0:
393,366,141886,1,0,1:0:0:0:
393,366,141980,1,0,1:0:0:0:
464,358,142074,6,0,L|285:357,1,180.000006866455,0|0,1:0|0:0,0:0:0:0:
25,324,142449,2,0,L|204:329,1,180.000006866455,0|0,1:0|0:0,0:0:0:0:
343,325,142824,2,0,L|403:324,1,60.0000022888184,12|0,1:0|0:0,0:0:0:0:
90,357,143011,2,0,L|150:356,1,60.0000022888184,0|0,3:0|0:0,0:0:0:0:
463,326,143199,2,0,L|403:324,1,60.0000022888184,0|0,3:0|0:0,0:0:0:0:
209,357,143386,2,0,L|149:355,1,60.0000022888184,0|0,1:0|0:0,0:0:0:0:
323,349,143574,6,0,L|502:354,1,180.000006866455,4|0,1:0|0:0,0:0:0:0:
347,378,143949,2,0,L|340:318,1,60.0000022888184,2|0,0:1|0:0,0:0:0:0:
143,379,144136,2,0,L|136:319,1,60.0000022888184,2|0,0:1|0:0,0:0:0:0:
20,323,144324,2,0,L|13:382,1,60.0000022888184,14|0,1:0|0:0,0:0:0:0:
150,320,144511,2,0,L|143:379,1,60.0000022888184,2|0,0:1|0:0,0:0:0:0:
275,322,144699,2,0,L|268:381,1,60.0000022888184,0|0,0:0|0:0,0:0:0:0:
389,323,144886,2,0,L|382:382,1,60.0000022888184,6|0,1:0|0:0,0:0:0:0:
480,380,145074,6,0,L|486:320,1,60.0000022888184,0|0,0:0|0:0,0:0:0:0:
375,323,145261,2,0,L|381:382,1,60.0000022888184,2|0,0:1|0:0,0:0:0:0:
479,379,145449,2,0,L|473:320,1,60.0000022888184,4|0,1:0|0:0,0:0:0:0:
308,357,145636,1,2,1:1:0:0:
308,357,145730,1,0,1:0:0:0:
308,357,145824,1,8,1:0:0:0:
177,354,146011,1,0,1:0:0:0:
39,359,146199,2,0,L|218:363,1,180.000006866455,12|0,1:0|0:0,0:0:0:0:
218,363,146574,5,0,1:0:0:0:
218,363,147324,1,0,1:0:0:0:
218,363,147511,1,2,1:2:0:0:
130,365,147886,1,2,1:2:0:0:
130,365,148261,1,0,0:0:0:0:
130,365,148449,1,0,0:0:0:0:
130,365,148824,1,0,0:0:0:0:
218,363,149199,1,0,1:0:0:0:
479,364,149574,5,2,1:2:0:0:
479,364,150324,1,0,1:0:0:0:
479,364,150511,1,2,1:2:0:0:
390,365,150886,1,2,1:2:0:0:
390,365,151261,1,0,0:0:0:0:
390,365,151449,1,0,0:0:0:0:
390,365,151824,1,0,0:0:0:0:
218,363,152199,1,0,1:0:0:0:
303,361,152574,5,0,1:0:0:0:
303,361,153324,1,0,1:0:0:0:
303,361,153511,1,2,1:2:0:0:
218,363,153886,1,2,1:2:0:0:
218,363,154261,1,0,0:0:0:0:
218,363,154449,1,0,0:0:0:0:
218,363,154824,1,0,0:0:0:0:
390,365,155199,1,0,1:0:0:0:
479,364,155574,5,2,1:2:0:0:
479,364,156324,1,0,1:0:0:0:
479,364,156511,1,0,1:0:0:0:
43,368,156886,1,0,1:0:0:0:
43,368,157261,1,2,0:0:0:0:
130,365,157824,1,2,0:0:0:0:
218,363,158199,1,2,0:0:0:0:
218,363,158386,1,0,0:0:0:0:
493,322,158574,6,0,L|385:375,1,120.000004577637,4|2,1:2|0:0,0:0:0:0:
145,327,159324,1,8,0:0:0:0:
145,327,159511,1,0,0:0:0:0:
204,370,159699,2,0,L|323:350,1,120.000004577637,2|0,0:0|0:0,0:0:0:0:
235,354,160261,5,0,0:0:0:0:
145,327,160449,2,0,L|25:319,1,120.000004577637,2|8,1:2|0:0,0:0:0:0:
322,350,161199,1,2,0:0:0:0:
26,346,161574,6,0,L|145:326,1,120.000004577637,0|2,1:0|0:0,0:0:0:0:
144,326,162324,1,8,0:0:0:0:
144,326,162511,1,0,0:0:0:0:
214,363,162699,2,0,L|276:364,1,60.0000022888184,2|0,0:0|0:0,0:0:0:0:
274,364,163261,1,0,0:0:0:0:
274,364,163449,1,2,1:2:0:0:
506,341,163824,1,8,0:0:0:0:
274,364,164199,1,0,0:0:0:0:
84,323,164574,6,0,L|203:343,1,120.000004577637,0|2,1:0|0:0,0:0:0:0:
7,374,165324,1,8,0:0:0:0:
7,374,165511,1,0,0:0:0:0:
202,342,165699,2,0,L|261:333,1,60.0000022888184,2|0,0:0|0:0,0:0:0:0:
261,333,166261,1,0,0:0:0:0:
261,333,166449,2,0,L|141:325,1,120.000004577637,2|8,1:2|0:0,0:0:0:0:
7,374,167199,1,2,0:0:0:0:
141,325,167574,6,0,L|290:321,1,150.000005722046,2|0,1:1|0:0,0:0:0:0:
214,331,168136,2,0,L|363:334,1,150.000005722046,2|0,0:1|0:0,0:0:0:0:
291,321,168699,2,0,L|438:346,1,150.000005722046,2|0,0:1|0:0,0:0:0:0:
359,350,169261,2,0,L|505:382,1,150.000005722046,2|0,0:1|0:0,0:0:0:0:
294,371,169824,2,0,L|213:330,1,90.0000034332277,0|0,1:0|0:0,0:0:0:0:
101,323,170199,2,0,L|21:364,1,90.0000034332277,4|0,3:0|0:0,0:0:0:0:
114,377,170574,6,0,L|94:331,1,50,4|0,1:2|0:0,0:0:0:0:
278,370,171136,2,0,L|274:319,1,50,4|0,1:2|0:0,0:0:0:0:
439,381,171699,2,0,L|453:332,1,50,4|0,1:2|0:0,0:0:0:0:
362,369,172261,1,4,1:2:0:0:
362,369,172449,1,0,1:0:0:0:
362,369,172636,1,0,1:0:0:0:
362,369,172824,1,0,1:0:0:0:
362,369,173012,1,0,1:0:0:0:
362,369,173199,6,0,B|214:368|214:368|195:338,1,180.000006866455,0|0,0:0|0:0,0:0:0:0:
454,382,173574,6,0,L|474:336,1,50,4|0,1:2|0:0,0:0:0:0:
283,374,174136,2,0,L|287:323,1,50,4|0,1:2|0:0,0:0:0:0:
123,374,174699,2,0,L|109:325,1,50,4|0,1:2|0:0,0:0:0:0:
201,383,175261,1,0,1:0:0:0:
201,383,175449,1,0,1:0:0:0:
201,383,175636,1,0,1:0:0:0:
201,383,175824,1,0,1:0:0:0:
201,383,176012,1,0,1:0:0:0:
201,383,176199,6,0,B|368:383|368:383|406:324|406:324|286:324,1,356.435630102039,4|0,3:0|0:0,0:0:0:0:
31,378,176574,6,0,L|22:328,1,49.916806591797,4|0,1:2|0:0,0:0:0:0:
261,374,177136,2,0,L|261:322,1,49.916806591797,4|0,1:2|0:0,0:0:0:0:
479,380,177699,2,0,L|493:331,1,50,4|0,1:2|0:0,0:0:0:0:
381,359,178261,1,0,1:0:0:0:
381,359,178449,1,0,1:0:0:0:
381,359,178636,1,0,1:0:0:0:
381,359,178824,1,0,1:0:0:0:
381,359,179012,1,0,1:0:0:0:
381,359,179199,6,0,B|352:323|352:323|334:364|334:364|245:366,1,180.000006866455,0|0,0:0|0:0,0:0:0:0:
475,381,179574,6,0,L|478:361,1,20,4|0,1:0|0:0,0:0:0:0:
477,361,180136,2,0,L|480:341,1,20,4|0,1:0|0:0,0:0:0:0:
479,341,180699,2,0,L|482:321,1,20,4|0,1:0|0:0,0:0:0:0:
400,379,181261,6,0,L|395:327,1,52,4|0,1:0|0:0,0:0:0:0:
317,326,182574,1,8,0:0:0:0:
317,326,182949,1,8,0:0:0:0:
317,326,183324,1,8,0:0:0:0:
244,357,183511,1,0,1:0:0:0:
244,357,183699,1,0,1:0:0:0:
169,339,183886,1,0,1:0:0:0:
169,339,183980,1,0,1:0:0:0:
84,350,184074,6,0,L|243:356,1,160,4|8,3:0|0:1,0:0:0:0:
472,341,185574,1,4,3:0:0:0:
472,341,185949,1,4,3:0:0:0:
244,356,186324,2,0,L|265:322,2,40,8|2|2,0:1|0:0|0:0,0:0:0:0:
403,352,187074,6,0,L|244:356,1,160,4|8,3:0|0:1,0:0:0:0:
26,325,188574,1,4,3:0:0:0:
26,325,188949,2,0,L|66:325,1,40,4|0,3:0|0:0,0:0:0:0:
174,373,189324,2,0,L|134:370,2,40,8|2|2,0:1|0:0|0:0,0:0:0:0:
326,350,191574,6,0,L|509:361,1,180.000006866455,0|0,1:0|0:0,0:0:0:0:
186,338,191949,2,0,L|7:350,1,180.000006866455,0|0,1:0|0:0,0:0:0:0:
367,343,192324,2,0,L|487:338,1,120.000004577637,0|0,1:0|0:0,0:0:0:0:
283,342,192605,1,0,0:0:0:0:
186,338,192699,1,4,1:2:0:0:
432,371,192886,1,0,0:0:0:0:
186,338,193074,6,0,L|6:324,1,180.000006866455,0|0,1:0|0:0,0:0:0:0:
313,317,193449,2,0,L|483:376,1,180.000006866455,0|0,1:0|0:0,0:0:0:0:
160,364,193824,2,0,L|42:384,1,120.000004577637,0|0,1:0|0:0,0:0:0:0:
313,317,194199,1,4,1:2:0:0:
98,358,194386,1,0,0:0:0:0:
493,323,194574,6,0,L|316:360,1,180.000006866455,0|0,1:2|0:0,0:0:0:0:
7,325,194949,1,2,1:2:0:0:
160,364,195136,1,2,1:0:0:0:
317,360,195324,1,0,1:0:0:0:
7,325,195511,2,0,L|66:329,1,60.0000022888184,2|2,0:1|1:2,0:0:0:0:
215,329,195699,1,2,1:0:0:0:
363,373,195886,6,0,L|482:375,2,120.000004577637,0|0|2,1:0|1:0|1:0,0:0:0:0:
42,384,196449,1,2,1:2:0:0:
267,334,196636,1,2,1:0:0:0:
482,375,196824,1,2,1:2:0:0:
267,334,197011,2,0,L|207:325,1,60.0000022888184,2|0,1:0|1:0,0:0:0:0:
7,325,197199,1,2,1:0:0:0:
352,337,197386,2,0,L|295:357,1,60.0000022888184,0|0,1:0|0:0,0:0:0:0:
482,375,197574,6,0,L|304:343,1,180.000006866455,4|0,1:2|0:0,0:0:0:0:
13,379,197949,2,0,L|192:369,1,180.000006866455,4|0,1:2|0:0,0:0:0:0:
442,325,198324,2,0,L|409:375,1,60.0000022888184,4|0,1:2|0:0,0:0:0:0:
190,333,198511,2,0,L|231:375,1,60.0000022888184,2|0,1:2|0:0,0:0:0:0:
510,368,198699,1,0,1:0:0:0:
267,334,198886,1,2,1:2:0:0:
13,379,199074,6,0,L|132:364,1,120.000004577637,4|0,1:2|0:0,0:0:0:0:
232,376,199355,1,0,0:0:0:0:
331,381,199449,2,0,L|511:368,1,180.000006866455,4|0,1:2|0:0,0:0:0:0:
232,376,199824,1,2,1:2:0:0:
13,379,200011,1,0,1:0:0:0:
388,342,200199,1,2,1:2:0:0:
67,333,200386,1,2,1:2:0:0:
504,336,200574,6,0,L|324:328,1,180.000006866455,0|0,1:0|0:0,0:0:0:0:
7,334,200949,2,0,L|186:325,1,180.000006866455,4|0,1:2|0:0,0:0:0:0:
411,362,201324,2,0,L|231:375,1,180.000006866455,0|0,1:0|0:0,0:0:0:0:
7,334,201699,1,4,1:2:0:0:
411,362,201886,6,0,L|291:359,1,120.000004577637,2|0,1:0|1:0,0:0:0:0:
7,334,202261,1,2,0:1:0:0:
335,346,202449,1,0,3:0:0:0:
172,340,202636,1,0,3:0:0:0:
509,353,202824,1,0,1:0:0:0:
255,346,203011,5,0,0:0:0:0:
428,334,203199,2,0,L|401:363,1,40,0|0,1:0|0:0,0:0:0:0:
87,358,203386,1,2,3:0:0:0:
172,340,203480,1,2,3:0:0:0:
63,363,203574,6,0,L|242:368,1,180.000006866455,0|0,1:0|0:0,0:0:0:0:
507,323,203949,2,0,L|448:337,1,60.0000022888184,4|0,1:2|0:0,0:0:0:0:
318,361,204136,2,0,L|373:336,1,60.0000022888184,0|0,0:0|0:0,0:0:0:0:
242,368,204324,2,0,L|64:342,1,180.000006866455,0|0,1:0|0:0,0:0:0:0:
317,360,204699,2,0,L|386:369,1,60.0000022888184,4|0,1:2|0:0,0:0:0:0:
131,327,204886,2,0,L|190:324,1,60.0000022888184,0|0,0:0|0:0,0:0:0:0:
317,360,205074,5,0,1:0:0:0:
63,363,205261,1,0,0:0:0:0:
372,336,205449,2,0,L|421:371,1,60.0000022888184,4|0,1:2|0:0,0:0:0:0:
242,368,205636,2,0,L|182:359,1,60.0000022888184,0|0,0:0|0:0,0:0:0:0:
0,378,205824,1,0,1:0:0:0:
131,327,206011,1,0,0:0:0:0:
316,367,206199,6,0,L|377:357,1,60.0000022888184,4|0,1:2|0:0,0:0:0:0:
3,351,206386,2,0,L|63:341,1,60.0000022888184,0|0,1:0|0:0,0:0:0:0:
192,374,206574,1,0,1:0:0:0:
372,336,206761,1,0,0:0:0:0:
135,331,206949,5,0,1:0:0:0:
243,324,207042,1,2,1:2:0:0:
340,341,207136,1,0,1:0:0:0:
416,384,207230,1,2,1:2:0:0:
322,380,207324,2,0,L|501:368,1,180.000006866455,4|0,1:2|0:0,0:0:0:0:
288,348,207699,2,0,L|228:352,1,60.0000022888184,0|0,1:0|3:0,0:0:0:0:
62,341,207886,2,0,L|4:360,1,60.0000022888184,0|0,3:0|3:0,0:0:0:0:
146,345,208074,6,0,L|149:374,3,30.0000011444092,0|0|0|0,1:0|1:0|1:0|1:0,0:0:0:0:
228,352,208261,2,0,L|235:310,3,30.0000011444092,0|0|0|0,1:0|1:0|1:0|1:0,0:0:0:0:
309,339,208449,2,0,L|428:345,1,120.000004577637,0|0,1:0|0:0,0:0:0:0:
428,345,208824,5,0,0:0:0:0:
62,341,209011,1,0,1:0:0:0:
146,345,209105,1,0,1:0:0:0:
228,352,209199,2,0,L|267:350,1,40,2|0,1:3|0:0,0:0:0:0:
428,345,209386,2,0,L|470:329,1,40,4|0,1:3|0:0,0:0:0:0:
488,379,209574,6,0,B|15:378|15:378|-11:319|-11:319|172:319|172:319|213:302|213:302|253:319|253:319|310:319|310:319|341:309|341:309|374:319|374:319|500:320|500:320|472:218|472:218|464:252,1,1200.00004577637,4|0,1:2|1:0,0:0:0:0:
464,252,211636,1,2,3:2:0:0:
464,252,211824,6,0,B|437:368|437:368|390:289|390:289|40:289,1,560,0|0,1:0|1:0,0:0:0:0:
41,289,212574,6,0,B|7:22|7:22|43:33|43:33|488:33|488:33|415:349|415:349|54:349|54:349|126:93|126:93|323:93,1,1900.99002721088,2|2,1:0|1:0,0:0:0:0:
105,332,214261,2,0,L|79:96,1,237.62375340136,0|0,0:0|3:0,0:0:0:0:
502,96,214636,1,0,1:0:0:0:
461,331,214824,6,0,L|104:331,1,356.435630102039,0|2,1:0|1:2,0:0:0:0:
8,23,215199,2,0,L|364:23,1,356.435630102039,0|2,1:0|1:2,0:0:0:0:
357,374,215574,6,0,L|197:374,1,160,2|4,1:2|1:0,0:0:0:0:
184,50,216324,1,12,0:2:0:0:
104,331,216699,2,0,L|264:331,1,160,4|0,1:3|3:0,0:0:0:0:
264,331,217449,1,4,1:3:0:0:
258,103,217824,1,2,3:0:0:0:
264,331,218199,1,0,3:0:0:0:
264,331,218574,6,0,B|233:209|233:209|228:242,1,160,4|0,1:3|3:0,0:0:0:0:
189,152,219324,1,2,3:0:0:0:
175,327,219699,2,0,B|184:298|184:298|55:298,1,160,4|0,1:3|3:0,0:0:0:0:
217,381,220261,1,0,1:0:0:0:
217,381,220355,1,0,1:0:0:0:
347,383,220636,1,0,1:0:0:0:
229,243,220824,1,8,1:2:0:0:
347,383,221199,6,0,B|400:360|400:360|462:359,1,120.000004577637,2|0,3:0|0:0,0:0:0:0:
462,358,221574,5,4,1:2:0:0:
336,324,221761,1,2,0:1:0:0:
390,362,221949,1,0,1:0:0:0:
246,324,222136,1,2,0:1:0:0:
315,363,222324,1,0,1:0:0:0:
164,352,222511,1,2,0:1:0:0:
239,367,222699,1,0,1:0:0:0:
93,372,222886,1,2,0:1:0:0:
11,334,223074,5,0,1:0:0:0:
137,359,223261,1,2,0:1:0:0:
81,324,223449,1,0,1:0:0:0:
224,337,223636,1,2,0:1:0:0:
154,323,223824,1,0,1:0:0:0:
318,332,224011,1,2,0:1:0:0:
235,322,224199,1,0,1:0:0:0:
418,320,224386,1,2,0:1:0:0:
197,337,224574,5,0,1:0:0:0:
267,363,224761,1,0,1:0:0:0:
493,313,224949,1,0,1:0:0:0:
440,352,225136,1,0,1:0:0:0:
126,344,225324,1,0,1:0:0:0:
197,337,225511,1,0,1:0:0:0:
440,352,225699,1,0,1:0:0:0:
372,338,225886,1,0,1:0:0:0:
55,328,226074,5,0,1:0:0:0:
258,370,226261,1,0,1:0:0:0:
303,320,226449,1,0,1:0:0:0:
1,370,226636,1,0,1:0:0:0:
126,344,226824,2,0,L|275:341,1,150,0|0,1:0|0:0,0:0:0:0:
512,374,227199,2,0,L|363:352,1,150,0|0,1:0|0:0,0:0:0:0:
327,277,227574,5,4,1:0:0:0:
314,33,230199,2,0,L|361:206,1,180.000006866455,4|0,1:2|0:0,0:0:0:0:
