osu file format v14

[General]
AudioFilename: audio.mp3
AudioLeadIn: 1500
PreviewTime: 48473
Countdown: 0
SampleSet: Soft
StackLeniency: 0.3
Mode: 0
LetterboxInBreaks: 0
EpilepsyWarning: 1
WidescreenStoryboard: 1

[Editor]
Bookmarks: 7330,21044,34759,48473,63901,79330,93044,106759,120473,134187,149616,163330
DistanceSpacing: 1.4
BeatDivisor: 4
GridSize: 4
TimelineZoom: 3.500003

[Metadata]
Title:G4L
TitleUnicode:G4L
Artist:Giga
ArtistUnicode:Giga
Creator:Beren
Version:jycool's Insane
Source:Artiswitch
Tags:アーティスウィッチ Necho cqmasai Reincarnation Jycool jyc-Binggan arronchu1207 Yumerios Bellicose Hengye q*Left giga 鏡音レン Kagamine Ren VOCALOID ギガP japanese pop
BeatmapID:3218812
BeatmapSetID:1555674

[Difficulty]
HPDrainRate:6
CircleSize:4.5
OverallDifficulty:8
ApproachRate:8.8
SliderMultiplier:2.4
SliderTickRate:1

[Events]
//Background and Video events
0,0,"91799821_p0.jpg",0,0
//Break Periods
//Storyboard Layer 0 (Background)
//Storyboard Layer 1 (Fail)
//Storyboard Layer 2 (Pass)
//Storyboard Layer 3 (Foreground)
Sprite,Foreground,Centre,"sb\id2.png",320,240 F,0,166759,169330,1 F,0,169330,169759,1,0
//Storyboard Layer 4 (Overlay)
//Storyboard Sound Samples

[TimingPoints]
-1241,428.571428571429,4,2,1,30,1,0
473,-333.333333333333,4,2,1,50,0,0
901,-333.333333333333,4,2,1,5,0,0
1116,-200,4,2,1,50,0,0
3901,-333.333333333333,4,2,1,50,0,0
4330,-333.333333333333,4,2,1,5,0,0
4544,-200,4,2,1,50,0,0
6634,-200,4,2,1,5,0,0
6687,-200,4,2,1,30,0,0
6794,-200,4,2,1,40,0,0
6901,-200,4,2,1,50,0,0
7009,-200,4,2,1,60,0,0
7116,-200,4,2,1,70,0,0
7330,-133.333333333333,4,2,1,60,0,0
20187,-133.333333333333,4,2,1,70,0,0
20616,-333.333333333333,4,2,1,70,0,0
21044,-100,4,2,2,80,0,0
24044,-133.333333333333,4,2,2,80,0,0
24473,-100,4,2,2,80,0,0
26187,-100,4,2,99,80,0,0
26401,-100,4,2,2,80,0,0
27473,-80,4,2,2,80,0,0
27794,-100,4,2,2,80,0,0
33901,-100,4,2,1,80,0,0
34116,-100,4,2,2,80,0,0
34330,-100,4,2,1,80,0,0
34759,-200,4,2,3,50,0,0
41616,-200,4,2,3,55,0,0
43330,-200,4,2,3,60,0,0
45044,-200,4,2,3,65,0,0
46973,-200,4,2,3,40,0,0
47187,-200,4,2,3,50,0,0
47401,-200,4,2,3,55,0,0
47616,-200,4,2,3,60,0,0
47830,-200,4,2,3,65,0,0
48044,-200,4,2,3,70,0,0
48259,-200,4,2,3,75,0,0
48473,-200,4,2,98,90,0,0
48794,-200,4,2,3,80,0,0
49759,-200,4,2,99,80,0,0
50187,-100,4,2,4,85,0,0
56401,-100,4,2,99,100,0,0
56616,-100,4,2,4,85,0,0
63901,-333.333333333333,4,2,4,85,0,0
64330,-100,4,2,4,85,0,0
70116,-100,4,2,99,100,0,0
70223,-100,4,2,4,85,0,0
70759,-333.333333333333,4,2,4,85,0,0
71187,-100,4,2,4,85,0,0
75901,-100,4,2,1,65,0,0
77616,-100,4,2,5,65,0,0
77830,-100,4,2,3,60,0,0
79009,-100,4,2,1,60,0,0
79330,-100,4,2,5,70,0,0
92616,-200,4,2,5,70,0,0
92937,-200,4,2,5,5,0,0
93044,-133.333333333333,4,2,6,65,0,0
106759,-200,4,2,7,50,0,0
118759,-200,4,2,7,60,0,0
119616,-200,4,2,7,70,0,0
120901,-200,4,2,3,60,0,0
127330,-200,4,2,4,60,0,0
127759,-200,4,2,3,70,0,0
129473,-200,4,2,4,70,0,0
129687,-200,4,2,3,70,0,0
130759,-200,4,2,4,70,0,0
131187,-200,4,2,3,75,0,0
134080,-200,4,2,5,5,0,0
134187,-200,4,2,98,90,0,0
134616,-200,4,2,5,80,0,0
135901,-100,4,2,4,85,0,0
142116,-100,4,2,99,100,0,0
142330,-100,4,2,4,85,0,0
149616,-333.333333333333,4,2,4,85,0,0
150044,-100,4,2,4,85,0,0
155830,-100,4,2,99,100,0,0
155937,-100,4,2,4,85,0,0
156473,-333.333333333333,4,2,4,85,0,0
156901,-100,4,2,4,85,0,0
161616,-100,4,2,1,65,0,0
162901,-100,4,2,8,65,0,0
163330,-133.333333333333,4,2,4,80,0,0
166116,-133.333333333333,4,2,5,80,0,0
166759,-133.333333333333,4,2,4,80,0,0
169544,-133.333333333333,4,2,99,100,0,0
169759,-133.333333333333,4,2,4,80,0,0
175330,-133.333333333333,4,2,4,60,0,0
176616,-133.333333333333,4,2,8,80,0,0
177044,-133.333333333333,4,2,1,80,0,0

[Colours]
Combo1 : 172,60,60
Combo2 : 81,106,121
Combo3 : 192,192,192
SliderTrackOverride : 192,192,192

[HitObjects]
96,240,473,6,0,P|86:295|83:352,1,107.999996704102,0|2,1:0|0:0,0:0:0:0:
48,160,1330,1,2,0:0:0:0:
256,200,1759,1,2,0:0:0:0:
104,72,2187,2,0,L|112:120,1,30,2|0,0:3|0:0,0:0:0:0:
472,200,3044,6,0,L|468:246,1,30,2|0,0:3|0:0,0:0:0:0:
432,320,3366,2,0,L|376:328,1,30,2|0,0:0|0:0,0:0:0:0:
348,224,3687,2,0,L|396:236,1,30,2|0,0:0|0:0,0:0:0:0:
380,150,3901,6,0,P|389:196|396:262,1,107.999996704102,0|2,1:0|0:0,0:0:0:0:
416,72,4759,1,2,0:0:0:0:
256,152,5187,1,2,0:0:0:0:
396,269,5616,1,2,0:3:0:0:
408,352,5830,1,2,0:0:0:0:
416,256,6044,1,2,0:0:0:0:
384,360,6259,2,0,L|280:352,1,90
280,328,6687,2,0,L|274:307,10,15
216,248,7330,6,0,P|176:248|128:272,1,90.0000034332277,0|0,1:0|3:0,0:0:0:0:
48,176,7759,1,0,3:0:0:0:
112,264,7973,1,0,3:0:0:0:
32,360,8187,2,0,P|24:304|24:240,1,90.0000034332277,10|0,3:2|3:0,0:0:0:0:
96,144,8616,2,0,P|104:192|104:253,1,90.0000034332277,0|0,3:0|3:0,0:0:0:0:
40,72,9044,2,0,P|88:56|152:72,1,90.0000034332277,2|0,0:3|3:0,0:0:0:0:
264,192,9473,2,0,P|235:163|179:147,1,90.0000034332277,0|0,1:0|3:0,0:0:0:0:
192,256,9901,6,0,L|181:314,1,45.0000017166138,8|0,0:0|0:0,0:0:0:0:
256,344,10116,1,0,3:0:0:0:
256,344,10223,2,0,L|264:288,1,45.0000017166138,2|0,0:3|3:0,0:0:0:0:
344,264,10437,1,0,3:0:0:0:
344,264,10544,2,0,L|335:308,2,30.0000011444092,2|0|0,3:0|0:0|0:0,0:0:0:0:
360,320,10759,6,0,P|408:336|464:336,1,90.0000034332277,0|0,1:0|3:0,0:0:0:0:
488,264,11080,1,0,3:0:0:0:
480,240,11187,2,0,P|477:183|488:136,1,90.0000034332277,0|0,3:0|3:0,0:0:0:0:
400,40,11616,2,0,P|408:88|400:136,1,90.0000034332277,10|0,3:2|3:0,0:0:0:0:
264,272,12044,2,0,P|256:224|264:168,1,90.0000034332277,0|0,3:0|3:0,0:0:0:0:
312,72,12473,2,0,L|322:124,1,45.0000017166138,2|0,0:3|0:0,0:0:0:0:
344,200,12687,1,8,0:3:0:0:
192,128,12901,1,8,0:3:0:0:
352,216,13116,1,8,0:3:0:0:
184,144,13330,6,0,L|64:160,1,90.0000034332277,14|0,0:3|3:0,0:0:0:0:
32,80,13651,2,0,L|128:68,1,90.0000034332277,10|0,0:3|3:0,0:0:0:0:
176,160,13973,2,0,L|108:166,1,45.0000017166138,10|0,3:3|3:0,0:0:0:0:
44,248,14187,1,0,1:0:0:0:
60,268,14401,6,0,P|56:318|68:368,1,90.0000034332277,0|0,3:0|3:0,0:0:0:0:
168,284,14830,1,0,3:0:0:0:
131,163,15044,1,10,0:0:0:0:
144,288,15259,1,0,3:0:0:0:
256,252,15473,2,0,L|360:264,1,90.0000034332277,0|0,3:0|3:0,0:0:0:0:
424,336,15901,5,2,0:3:0:0:
400,348,16009,2,0,L|300:332,1,90.0000034332277,2|0,0:0|0:0,0:0:0:0:
256,252,16330,2,0,P|240:192|244:112,1,135.000005149841,0|0,1:0|0:0,0:0:0:0:
288,20,16758,1,2,0:0:0:0:
308,32,16866,2,0,P|319:78|315:142,1,90.0000034332277,2|0,0:0|0:0,0:0:0:0:
384,196,17187,2,0,L|480:212,1,90.0000034332277,2|0,0:0|3:0,0:0:0:0:
424,284,17509,1,0,0:0:0:0:
424,284,17616,2,0,L|304:264,1,90.0000034332277,0|0,1:0|3:0,0:0:0:0:
256,252,17937,1,0,3:0:0:0:
264,224,18044,6,0,P|260:172|228:136,1,90.0000034332277,0|0,3:0|3:0,0:0:0:0:
144,224,18473,1,10,0:0:0:0:
172,100,18687,2,0,L|72:112,2,90.0000034332277,0|0|0,1:0|3:0|3:0,0:0:0:0:
172,228,19330,1,0,1:0:0:0:
280,164,19544,2,0,L|268:216,1,45.0000017166138,0|0,3:0|3:0,0:0:0:0:
240,304,19759,1,0,1:0:0:0:
264,140,19973,1,0,3:0:0:0:
252,324,20187,5,8,0:1:0:0:
276,340,20294,1,2,0:3:0:0:
304,344,20401,1,2,0:3:0:0:
332,336,20509,1,2,0:3:0:0:
344,308,20616,2,0,L|356:252,1,53.9999983520508,8|0,0:1|0:0,0:0:0:0:
408,140,21044,6,0,P|414:171|408:220,1,60,12|0,1:2|0:0,0:0:0:0:
320,180,21259,1,0,0:0:0:0:
288,168,21366,1,0,1:0:0:0:
256,184,21473,1,10,0:1:0:0:
92,228,21687,1,0,1:0:0:0:
204,104,21901,2,0,P|184:160|184:236,1,120,2|0,0:0|1:0,0:0:0:0:
260,368,22330,2,0,P|260:300|236:232,1,120,2|0,0:1|1:0,0:0:0:0:
32,200,22759,5,0,1:0:0:0:
44,232,22866,2,0,P|100:276|160:288,1,120,2|0,0:0|1:0,0:0:0:0:
181,220,23187,1,10,0:1:0:0:
152,56,23401,2,0,P|154:94|160:124,1,60,0|0,1:0|0:0,0:0:0:0:
244,112,23616,2,0,P|304:88|372:100,1,120,2|0,0:0|1:0,0:0:0:0:
344,256,24044,2,2,P|336:212|340:168,1,90.0000034332277,2|0,0:1|1:0,0:1:0:0:
424,72,24366,1,0,0:0:0:0:
436,96,24473,6,0,P|448:160|436:236,1,120,12|0,1:2|0:0,0:0:0:0:
408,304,24794,1,0,1:0:0:0:
388,320,24901,2,0,L|248:336,1,120,10|0,0:1|1:0,0:0:0:0:
232,168,25330,1,2,0:0:0:0:
244,336,25544,1,0,1:0:0:0:
312,184,25759,1,2,0:1:0:0:
216,336,25973,1,0,1:0:0:0:
100,192,26187,6,0,P|86:129|92:68,1,120,2|0,1:0|0:0,0:0:0:0:
252,120,26616,1,10,0:1:0:0:
104,40,26830,1,0,1:0:0:0:
240,152,27044,2,0,P|256:216|248:272,1,120,2|0,0:0|1:0,0:0:0:0:
104,40,27473,2,0,P|88:112|96:192,1,150,10|0,0:1|1:0,0:0:0:0:
56,252,27794,1,0,1:0:0:0:
64,280,27901,6,0,P|120:296|184:284,1,120,12|0,1:2|0:0,0:0:0:0:
256,344,28223,1,0,1:0:0:0:
256,344,28330,2,0,P|248:296|264:216,1,120,10|0,0:1|1:0,0:0:0:0:
412,300,28759,1,2,0:0:0:0:
276,204,28973,1,0,1:0:0:0:
440,168,29187,2,0,P|440:200|431:235,1,60,2|0,0:1|0:0,0:0:0:0:
448,92,29401,1,0,1:0:0:0:
448,92,29509,1,0,0:0:0:0:
448,92,29616,6,0,P|392:76|328:88,1,120,0|0,1:0|0:0,0:0:0:0:
256,40,29937,1,0,1:0:0:0:
256,40,30044,2,0,P|248:88|264:168,1,120,10|0,0:1|1:0,0:0:0:0:
112,76,30473,1,2,0:0:0:0:
196,220,30687,2,0,P|152:240|76:224,1,120,0|10,1:0|0:1,0:0:0:0:
80,60,31116,1,0,1:0:0:0:
112,76,31223,1,0,0:0:0:0:
144,64,31330,6,0,P|209:46|271:55,1,120,12|0,1:2|0:0,0:0:0:0:
336,92,31651,1,0,1:0:0:0:
368,88,31759,2,0,L|352:152,1,60,10|0,0:1|0:0,0:0:0:0:
392,244,31973,1,0,1:0:0:0:
276,172,32187,6,0,P|216:153|148:164,1,120,2|0,0:0|1:0,0:0:0:0:
84,200,32508,1,0,0:0:0:0:
52,196,32616,2,0,L|68:260,1,60,2|0,0:1|0:0,0:0:0:0:
28,352,32830,1,0,1:0:0:0:
150,284,33044,6,0,L|212:291,1,60,2|0,1:2|0:0,0:0:0:0:
312,180,33259,1,2,0:0:0:0:
300,200,33473,2,0,L|232:208,1,60,10|0,0:1|0:0,0:0:0:0:
160,88,33687,1,2,1:2:0:0:
172,108,33901,2,0,L|240:116,1,60,10|0,0:1|0:0,0:0:0:0:
344,40,34116,1,2,1:2:0:0:
344,40,34223,1,0,0:0:0:0:
344,40,34330,2,0,B|332:152|440:148|424:276,1,240,8|2,0:1|1:2,0:0:0:0:
424,288,35187,6,0,L|364:292,1,60,0|0,0:0|1:0,0:0:0:0:
332,276,35616,2,0,P|316:300|312:348,1,60,10|0,1:2|0:0,0:0:0:0:
424,356,36044,2,0,L|488:360,2,60,2|0|2,0:0|1:0|1:2,0:0:0:0:
232,320,36901,6,0,L|150:328,1,60,0|0,0:0|1:0,0:0:0:0:
148,348,37330,2,0,P|127:316|116:276,1,60,10|0,1:2|0:0,0:0:0:0:
184,180,37759,2,0,P|178:221|164:252,1,60,2|0,0:0|1:0,0:0:0:0:
96,220,38187,1,2,1:2:0:0:
172,100,38616,6,0,P|213:90|240:96,1,60,0|0,0:0|1:0,0:0:0:0:
260,104,39045,2,0,L|268:36,1,60,10|0,1:2|0:0,0:0:0:0:
88,88,39473,2,0,L|72:4,2,60,2|0|2,0:0|1:0|1:2,0:0:0:0:
256,200,40330,6,0,P|288:216|326:217,1,60,0|0,0:0|1:0,0:0:0:0:
340,196,40759,2,0,P|376:180|416:180,1,60,10|0,1:2|0:0,0:0:0:0:
492,272,41188,2,0,P|460:272|416:248,1,60,2|0,0:0|1:0,0:0:0:0:
472,184,41616,2,0,P|479:126|472:76,2,90,2|0|0,1:2|3:0|1:0,0:0:0:0:
344,300,42473,5,10,1:2:0:0:
264,288,42687,1,0,0:0:0:0:
204,340,42901,1,2,3:2:0:0:
128,332,43116,1,0,1:0:0:0:
72,276,43330,2,0,P|64:218|72:168,2,90,2|0|0,1:2|3:0|1:0,0:0:0:0:
256,152,44187,5,10,1:2:0:0:
72,112,44616,1,2,3:2:0:0:
160,64,44830,1,0,1:0:0:0:
64,96,45044,1,2,1:2:0:0:
256,36,45366,5,0,3:0:0:0:
264,52,45473,2,0,P|268:88|260:124,1,60,0|0,0:0|1:0,0:0:0:0:
196,192,45901,1,10,1:2:0:0:
196,192,46009,1,0,3:0:0:0:
196,192,46116,2,0,P|192:154|196:128,1,60,0|2,3:0|0:0,0:0:0:0:
264,52,46544,1,0,1:0:0:0:
336,172,46759,6,0,P|356:232|356:296,1,120,2|4,0:0|0:3,0:0:0:0:
352,308,47401,1,4,0:3:0:0:
288,352,47616,1,4,0:3:0:0:
280,268,47830,1,4,0:3:0:0:
432,292,48044,1,4,0:3:0:0:
336,172,48259,1,4,0:3:0:0:
204,300,48473,6,2,L|104:308,1,90,2|0,0:1|0:0,0:1:0:0:
92,308,48901,1,2,0:0:0:0:
108,224,49116,1,2,0:0:0:0:
28,248,49330,1,2,0:0:0:0:
128,220,49544,1,2,0:0:0:0:
48,128,49759,1,2,0:0:0:0:
148,216,49973,1,0,0:0:0:0:
188,48,50187,6,0,P|208:108|208:180,1,120,14|0,1:2|0:0,0:0:0:0:
164,20,50616,1,8,0:1:0:0:
148,216,50830,1,0,3:0:0:0:
176,240,50937,1,0,3:0:0:0:
212,248,51044,2,0,P|272:248|340:216,1,120,2|0,1:2|3:0,0:0:0:0:
468,328,51473,2,0,P|416:304|328:320,1,120,10|0,0:1|3:0,0:0:0:0:
488,344,51901,5,2,1:2:0:0:
376,160,52116,1,0,3:0:0:0:
376,160,52223,1,0,3:0:0:0:
376,160,52330,1,8,0:1:0:0:
448,72,52544,6,0,P|452:104|448:136,1,60,0|0,3:0|0:0,0:0:0:0:
360,192,52759,2,0,P|304:188|244:220,1,120,2|0,1:2|3:0,0:0:0:0:
128,300,53187,2,0,P|188:316|247:300,1,120,10|0,0:1|3:0,0:0:0:0:
256,192,53509,1,0,3:0:0:0:
264,164,53616,6,0,P|248:102|260:32,1,120,10|0,1:2|3:0,0:0:0:0:
332,348,54044,2,0,P|344:292|324:224,1,120,10|0,0:1|3:0,0:0:0:0:
344,144,54366,1,0,3:0:0:0:
348,120,54473,2,0,L|412:128,2,60,2|0|0,1:2|0:0|3:0,0:0:0:0:
144,149,54901,2,0,L|280:165,1,120,10|0,0:1|3:0,0:0:0:0:
216,296,55330,2,0,L|140:308,1,60,2|0,1:2|0:0,0:0:0:0:
56,320,55544,1,0,3:0:0:0:
132,308,55759,1,8,0:1:0:0:
76,240,55973,5,0,3:0:0:0:
60,208,56080,1,0,3:0:0:0:
44,176,56187,1,0,1:0:0:0:
120,80,56401,2,2,P|121:112|112:164,1,60,2|0,3:1|0:0,0:1:0:0:
44,176,56616,1,8,0:1:0:0:
200,84,56830,2,0,P|200:124|196:164,1,60,0|0,3:0|3:0,0:0:0:0:
44,176,57044,1,14,1:2:0:0:
192,216,57259,1,0,0:0:0:0:
196,52,57473,1,8,0:1:0:0:
196,240,57687,5,0,3:0:0:0:
224,260,57794,1,0,3:0:0:0:
260,256,57901,2,0,P|296:244|344:256,1,60,2|0,1:2|0:0,0:0:0:0:
388,336,58116,2,0,P|440:360|504:352,1,120,0|10,3:0|0:1,0:0:0:0:
364,312,58544,1,0,3:0:0:0:
468,148,58759,2,0,P|456:196|472:288,1,120,2|0,1:2|3:0,0:0:0:0:
463,265,59080,1,0,3:0:0:0:
463,265,59187,1,8,0:1:0:0:
288,188,59401,5,0,3:0:0:0:
360,40,59616,2,0,P|380:96|364:172,1,120,2|0,1:2|3:0,0:0:0:0:
288,188,59937,1,0,0:0:0:0:
276,216,60044,2,0,P|207:214|148:256,1,120,10|0,0:1|3:0,0:0:0:0:
80,180,60366,5,0,3:0:0:0:
80,180,60473,2,0,L|72:52,1,120,10|0,1:2|0:0,0:0:0:0:
81,213,60901,1,10,0:1:0:0:
164,68,61116,2,0,L|168:130,1,60,0|0,3:0|0:0,0:0:0:0:
72,32,61330,2,0,L|79:151,1,120,2|0,1:2|3:0,0:0:0:0:
256,96,61759,1,10,0:1:0:0:
80,180,61973,1,0,3:0:0:0:
256,96,62187,1,6,1:2:0:0:
81,213,62401,5,0,3:0:0:0:
112,236,62509,1,4,0:3:0:0:
148,236,62616,2,0,P|184:232|212:248,1,60,8|0,0:1|3:0,0:0:0:0:
228,268,62830,2,0,P|244:296|248:344,1,60,0|0,3:0|3:0,0:0:0:0:
280,304,63044,1,14,0:1:0:0:
312,316,63151,1,0,3:0:0:0:
340,296,63259,1,2,0:3:0:0:
376,304,63366,1,2,0:3:0:0:
404,284,63473,1,10,0:1:0:0:
404,284,63687,1,2,0:0:0:0:
400,140,63901,6,0,P|395:177|396:200,1,53.9999983520508,14|0,1:2|0:0,0:0:0:0:
468,176,64330,2,0,P|472:112|464:44,1,120,10|0,0:1|3:0,0:0:0:0:
388,28,64651,1,0,3:0:0:0:
388,28,64759,1,0,1:0:0:0:
228,112,64973,5,0,3:0:0:0:
360,52,65187,1,8,0:1:0:0:
324,56,65294,1,0,0:0:0:0:
288,44,65401,1,2,3:2:0:0:
256,24,65509,1,2,0:2:0:0:
220,20,65616,2,0,P|144:20|88:52,1,120,2|0,1:2|3:0,0:0:0:0:
124,124,65937,1,0,3:0:0:0:
100,148,66044,2,0,P|116:216|104:292,1,120,10|2,0:1|0:0,0:0:0:0:
80,112,66473,1,0,1:0:0:0:
28,248,66687,6,0,P|28:284|44:328,1,60,2|0,3:2|0:0,0:0:0:0:
152,344,66901,1,10,0:1:0:0:
204,192,67116,1,0,3:0:0:0:
204,192,67223,1,0,3:0:0:0:
204,192,67330,2,0,P|264:184|332:204,1,120,10|0,1:2|0:0,0:0:0:0:
480,260,67759,2,0,P|444:264|400:256,1,60,10|0,0:1|0:0,0:0:0:0:
312,164,67973,1,0,3:0:0:0:
312,128,68080,1,0,3:0:0:0:
328,96,68187,5,2,1:2:0:0:
444,192,68401,1,2,3:2:0:0:
468,28,68616,1,10,0:1:0:0:
468,212,68830,1,2,0:0:0:0:
300,72,69044,6,0,L|376:80,1,60,2|0,1:2|0:0,0:0:0:0:
468,28,69259,1,0,3:0:0:0:
392,84,69473,1,10,0:1:0:0:
476,120,69687,1,2,3:2:0:0:
468,156,69794,1,0,3:0:0:0:
460,192,69901,1,0,1:0:0:0:
384,296,70116,2,0,P|380:256|384:216,1,60,2|0,3:1|0:0,0:0:0:0:
460,192,70330,1,10,0:1:0:0:
304,308,70544,2,0,P|300:268|304:220,1,60,0|0,3:0|3:0,0:0:0:0:
336,126,70759,6,0,P|308:122|272:126,1,53.9999983520508,14|0,1:2|0:0,0:0:0:0:
231,189,71187,2,0,P|159:193|99:233,1,120,10|0,0:1|3:0,0:0:0:0:
68,278,71508,1,0,3:0:0:0:
68,278,71616,1,0,1:0:0:0:
202,110,71830,5,0,3:0:0:0:
47,252,72044,1,8,0:1:0:0:
41,216,72151,1,0,0:0:0:0:
46,180,72258,1,2,3:2:0:0:
39,144,72366,1,2,0:0:0:0:
14,117,72473,2,0,P|23:53|67:2,1,120,2|0,1:2|3:0,0:0:0:0:
117,78,72794,1,0,3:0:0:0:
141,104,72901,2,0,P|199:120|288:99,1,120,10|0,0:1|3:0,0:0:0:0:
117,78,73330,1,0,1:0:0:0:
192,220,73544,6,0,P|197:249|199:289,1,60,2|0,3:2|0:0,0:0:0:0:
123,343,73758,1,10,0:1:0:0:
287,342,73973,1,2,3:2:0:0:
287,342,74080,1,0,3:0:0:0:
287,342,74187,2,0,L|276:215,1,120,10|0,1:2|0:0,0:0:0:0:
404,253,74616,1,8,0:1:0:0:
275,196,74830,5,0,3:0:0:0:
275,196,74937,1,0,0:0:0:0:
275,196,75044,2,0,L|286:336,1,120,10|0,1:2|0:0,0:0:0:0:
398,160,75473,2,0,P|403:189|405:229,2,60,10|0|0,0:1|0:0|0:0,0:0:0:0:
197,150,75901,5,10,0:0:0:0:
114,134,76116,1,8,0:0:0:0:
206,168,76330,1,10,0:0:0:0:
130,230,76544,1,8,0:0:0:0:
187,314,76759,1,10,0:1:0:0:
220,300,76866,1,2,0:3:0:0:
254,308,76973,1,2,0:3:0:0:
283,328,77080,1,2,0:3:0:0:
299,359,77187,1,10,0:1:0:0:
456,104,77616,5,2,1:2:0:0:
368,120,77830,1,2,0:0:0:0:
452,140,78044,1,0,3:0:0:0:
452,140,78151,1,0,3:0:0:0:
452,140,78259,2,2,L|436:210,1,60,2|2,3:2|0:3,0:1:0:0:
356,200,78473,2,2,L|360:236,2,30,8|0|0,0:3|0:0|0:0,0:1:0:0:
276,216,78687,2,2,L|284:280,1,60,2|2,3:2|0:3,0:1:0:0:
200,180,78901,2,0,L|205:130,7,30,10|0|2|0|2|0|2|0,0:3|0:0|3:2|0:0|3:2|0:0|3:2|0:0,0:0:0:0:
188,252,79330,1,4,1:2:0:0:
44,192,79544,5,0,3:0:0:0:
44,192,79651,1,0,3:0:0:0:
44,192,79759,2,0,P|28:124|48:56,1,120,8|0,0:0|3:0,0:0:0:0:
108,100,80080,1,0,3:0:0:0:
108,100,80187,2,0,P|112:64|108:36,1,60,0|0,3:0|3:0,0:0:0:0:
56,216,80401,1,0,1:0:0:0:
136,328,80616,1,8,0:0:0:0:
84,228,80830,1,0,3:0:0:0:
84,228,80937,1,0,3:0:0:0:
84,228,81044,2,0,P|148:240|209:210,1,120,2|0,1:2|3:0,0:0:0:0:
312,164,81473,6,0,P|266:159|228:172,1,60,8|0,0:0|0:0,0:0:0:0:
272,240,81687,1,0,3:0:0:0:
272,240,81794,1,0,3:0:0:0:
272,240,81901,2,0,P|268:269|268:312,2,60,0|0|0,3:0|3:0|1:0,0:0:0:0:
412,348,82330,2,0,P|421:289|412:216,1,120,8|0,0:0|3:0,0:0:0:0:
272,332,82759,1,0,1:0:0:0:
404,200,82973,5,0,3:0:0:0:
404,200,83080,1,0,3:0:0:0:
404,200,83187,2,0,P|400:132|420:72,1,120,8|0,0:0|3:0,0:0:0:0:
316,24,83509,1,0,3:0:0:0:
316,24,83616,2,0,P|328:92|312:152,1,120,0|0,3:0|1:0,0:0:0:0:
476,152,84044,1,8,0:0:0:0:
248,208,84259,2,0,P|244:172|252:124,1,60,0|0,3:0|3:0,0:0:0:0:
316,24,84473,1,2,1:2:0:0:
396,160,84687,5,0,3:0:0:0:
400,196,84794,1,0,3:0:0:0:
392,232,84901,1,8,0:0:0:0:
284,316,85116,1,0,3:0:0:0:
284,316,85223,1,0,3:0:0:0:
284,316,85330,2,0,L|411:308,1,120,2|0,1:2|3:0,0:0:0:0:
216,368,85651,2,0,L|124:376,2,60,2|8|0,1:2|0:0|3:0,0:0:0:0:
188,232,85973,2,0,L|268:226,1,60,2|2,3:2|3:2,0:0:0:0:
284,316,86187,1,4,1:2:0:0:
256,132,86401,5,0,3:0:0:0:
100,56,86616,1,8,0:0:0:0:
228,140,86830,1,0,3:0:0:0:
228,140,86937,1,0,3:0:0:0:
228,140,87044,2,0,P|164:156|96:120,1,120,0|0,3:0|1:0,0:0:0:0:
256,56,87473,2,0,P|320:40|388:76,1,120,8|0,0:0|3:0,0:0:0:0:
360,212,87901,5,2,1:2:0:0:
360,212,88009,2,0,L|352:284,2,60,2|0|0,3:2|3:0|0:0,0:0:0:0:
444,160,88330,2,0,L|428:300,1,120,10|0,0:0|3:0,0:0:0:0:
216,276,88759,5,2,3:2:0:0:
216,276,88867,2,0,L|224:348,2,60,2|0|0,3:2|1:0|0:0,0:0:0:0:
132,224,89188,2,0,L|148:364,1,120,10|0,0:0|3:0,0:0:0:0:
120,140,89616,1,0,1:0:0:0:
56,192,89830,1,0,3:0:0:0:
56,192,89937,1,0,3:0:0:0:
56,192,90044,1,8,0:0:0:0:
210,238,90259,6,0,P|240:238|268:228,1,60,0|0,3:0|3:0,0:0:0:0:
224,156,90473,2,0,P|224:92|196:32,1,120,0|0,3:0|1:0,0:0:0:0:
202,41,90794,1,0,0:0:0:0:
202,41,90901,1,8,0:0:0:0:
56,192,91116,2,0,P|56:224|64:256,1,60,0|0,3:0|3:0,0:0:0:0:
112,312,91330,5,2,1:2:0:0:
112,312,91437,1,2,0:0:0:0:
384,276,91759,1,2,1:2:0:0:
384,276,91866,1,2,0:0:0:0:
136,212,92187,1,2,1:2:0:0:
404,176,92616,2,0,L|420:80,1,90
424,52,93044,6,0,P|380:36|320:44,1,90.0000034332277,2|0,1:0|3:0,0:0:0:0:
337,38,93473,1,2,3:2:0:0:
260,156,93687,2,0,L|268:220,1,45.0000017166138,0|0,3:0|0:0,0:0:0:0:
344,232,93901,6,0,P|350:274|340:328,1,90.0000034332277,10|2,0:0|0:0,0:0:0:0:
342,320,94330,1,2,3:2:0:0:
180,284,94544,2,0,L|192:216,1,45.0000017166138,0|0,3:0|0:0,0:0:0:0:
140,168,94759,5,2,3:2:0:0:
172,320,94973,1,0,3:0:0:0:
32,268,95187,1,2,1:2:0:0:
148,140,95401,1,0,3:0:0:0:
148,140,95509,1,0,0:0:0:0:
148,140,95616,2,0,P|156:92|148:40,1,90.0000034332277,10|2,0:0|3:2,0:0:0:0:
32,172,96044,2,2,P|76:224|160:228,1,135.000005149841,2|0,0:0|3:0,0:1:0:0:
208,192,96473,6,0,L|332:200,1,90.0000034332277,2|0,1:0|3:0,0:0:0:0:
297,197,96901,1,2,3:2:0:0:
436,280,97116,2,0,L|368:288,1,45.0000017166138,0|0,3:0|0:0,0:0:0:0:
328,200,97330,1,10,0:0:0:0:
348,64,97544,2,0,L|340:124,1,45.0000017166138,2|0,0:0|0:0,0:0:0:0:
432,40,97759,2,0,L|416:136,1,90.0000034332277,2|0,3:2|3:0,0:0:0:0:
404,208,98080,5,0,0:0:0:0:
404,208,98187,2,0,P|428:248|436:312,1,90.0000034332277,2|0,3:2|3:0,0:0:0:0:
280,312,98616,2,0,P|232:308|176:348,1,90.0000034332277,2|0,1:2|3:0,0:0:0:0:
368,344,99044,1,14,0:0:0:0:
368,344,99259,1,4,3:2:0:0:
188,296,99473,2,2,P|176:220|192:140,1,135.000005149841,2|0,0:0|3:0,0:1:0:0:
208,92,99901,5,2,1:0:0:0:
288,228,100116,1,0,3:0:0:0:
195,325,100330,1,2,3:2:0:0:
280,360,100544,1,0,3:0:0:0:
68,336,100759,2,0,P|104:324|128:328,1,45.0000017166138,10|0,0:0|3:0,0:0:0:0:
144,252,100973,2,0,L|128:152,2,90.0000034332277,2|2|0,0:0|3:2|3:0,0:0:0:0:
304,292,101616,5,2,3:2:0:0:
224,156,101831,1,0,3:0:0:0:
317,59,102045,1,2,1:2:0:0:
232,24,102259,1,0,3:0:0:0:
444,48,102474,2,0,P|408:60|384:56,1,45.0000017166138,10|0,0:0|3:0,0:0:0:0:
368,132,102688,2,0,L|364:236,2,90.0000034332277,2|2|0,3:2|0:0|3:0,0:0:0:0:
467,120,103223,5,0,3:0:0:0:
467,120,103330,2,0,L|462:237,1,90.0000034332277,2|0,1:0|3:0,0:0:0:0:
328,296,103759,2,0,P|392:328|472:312,1,135.000005149841,2|0,3:2|0:0,0:0:0:0:
448,236,104187,2,0,L|452:135,1,90.0000034332277,10|0,0:0|0:0,0:0:0:0:
312,216,104616,2,0,P|256:212|180:248,1,135.000005149841,2|0,3:2|0:0,0:0:0:0:
152,312,105044,5,10,0:3:0:0:
64,192,105259,1,2,0:0:0:0:
128,320,105473,1,2,1:2:0:0:
64,192,105687,1,2,0:0:0:0:
104,328,105901,1,10,0:0:0:0:
140,156,106116,2,0,P|144:108|136:52,2,90.0000034332277,0|0|0,3:0|0:0|0:0,0:0:0:0:
36,114,106759,5,4,0:3:0:0:
256,48,107401,1,0,0:0:0:0:
256,48,107616,1,10,0:0:0:0:
328,140,108044,1,0,0:0:0:0:
328,140,108259,1,0,0:0:0:0:
300,212,108473,2,0,P|308:240|312:272,1,60,2|0,0:0|0:0,0:0:0:0:
384,280,108901,2,0,P|380:244|372:216,1,60,6|0,0:3|0:0,0:0:0:0:
256,320,109330,5,10,0:0:0:0:
324,344,109544,1,0,0:0:0:0:
292,184,109759,1,2,0:0:0:0:
308,264,109973,1,0,0:0:0:0:
180,292,110187,5,2,0:0:0:0:
384,280,110829,1,0,0:0:0:0:
384,280,111044,1,10,0:0:0:0:
370,160,111472,1,0,0:0:0:0:
370,160,111687,2,0,L|362:112,1,30
378,104,111901,2,0,P|382:68|390:40,1,60,2|0,0:0|0:0,0:0:0:0:
450,116,112330,2,0,P|454:87|462:51,1,60,6|0,0:3|0:0,0:0:0:0:
372,187,112758,5,10,0:0:0:0:
302,166,112973,2,0,P|241:175|179:142,1,120,2|8,0:0|0:3,0:0:0:0:
131,96,113616,2,0,P|162:79|214:75,3,60,6|0|2|0,0:3|0:0|0:0|0:0,0:0:0:0:
194,176,114473,2,0,L|174:296,1,120,10|0,0:0|0:0,0:0:0:0:
106,346,115116,5,0,0:0:0:0:
106,346,115330,2,0,P|99:320|95:266,1,60,2|0,0:0|0:0,0:0:0:0:
163,235,115759,2,0,P|170:269|176:310,1,60,6|4,0:3|0:3,0:0:0:0:
72,191,116187,1,10,0:0:0:0:
72,191,116616,2,0,P|58:146|54:91,1,90,2|0,0:0|0:0,0:0:0:0:
131,96,117044,5,8,0:3:0:0:
131,96,117259,2,0,B|180:48|257:69,1,120,10|0,0:3|0:0,0:0:0:0:
255,192,117901,1,10,0:0:0:0:
255,192,118330,1,0,0:0:0:0:
282,258,118544,5,4,0:3:0:0:
282,258,118759,2,0,L|211:267,1,60,10|8,0:0|0:0,0:0:0:0:
345,138,119187,1,2,0:0:0:0:
319,256,119401,1,4,0:3:0:0:
466,98,119616,2,0,L|447:179,2,60,6|0|4,0:3|0:0|0:3,0:0:0:0:
376,131,120259,1,4,0:3:0:0:
376,131,120366,1,4,0:3:0:0:
376,131,120473,1,8,0:3:0:0:
80,217,120901,6,0,P|64:269|93:352,2,120,2|8|2,0:0|0:1|0:0,0:0:0:0:
150,233,121973,1,0,0:0:0:0:
128,157,122187,1,8,0:3:0:0:
287,304,122616,22,0,P|326:312|369:310,1,60,2|0,1:2|0:0,0:0:0:0:
436,257,123044,1,10,0:1:0:0:
423,236,123259,1,0,0:0:0:0:
419,212,123473,1,2,0:0:0:0:
421,188,123687,1,0,0:0:0:0:
432,167,123901,1,2,1:3:0:0:
432,167,124330,6,0,P|448:115|419:32,2,120,2|8|2,0:0|0:1|0:0,0:0:0:0:
362,151,125402,1,0,0:0:0:0:
384,227,125616,1,8,0:3:0:0:
225,80,126044,22,0,P|185:71|143:74,1,60,2|0,1:2|0:0,0:0:0:0:
76,127,126472,1,8,0:1:0:0:
89,148,126687,1,0,0:0:0:0:
93,172,126901,1,2,0:0:0:0:
91,196,127115,1,0,0:0:0:0:
80,217,127329,1,2,1:2:0:0:
129,330,127759,1,0,0:0:0:0:
197,352,127973,1,8,0:3:0:0:
183,281,128187,6,0,P|181:243|177:219,1,60,8|0,0:1|0:0,0:0:0:0:
162,150,128616,2,0,P|213:136|268:149,1,90,2|0,0:0|0:0,0:0:0:0:
250,105,129044,2,0,P|312:128|368:121,1,120,4|0,0:3|1:0,0:0:0:0:
464,55,129901,6,0,P|429:52|379:64,1,60,10|0,0:1|0:0,0:0:0:0:
364,122,130330,2,0,B|382:185|361:259,1,120,10|0,0:3|1:0,0:0:0:0:
195,283,131187,6,0,P|194:314|203:359,1,60,2|0,0:0|0:0,0:0:0:0:
277,294,131616,2,0,P|279:258|274:222,1,60,10|0,0:1|0:0,0:0:0:0:
127,171,132044,2,0,P|122:205|127:251,2,60,2|0|10,0:0|0:0|0:3,0:0:0:0:
256,80,132901,21,4,0:3:0:0:
256,192,132955,12,2,134187,0:1:0:0:
108,304,134616,5,2,0:0:0:0:
34,253,134831,1,2,0:0:0:0:
141,281,135045,1,10,0:3:0:0:
112,144,135259,1,6,0:3:0:0:
184,289,135474,1,10,0:3:0:0:
256,128,135688,1,2,0:3:0:0:
288,336,135901,6,0,P|356:340|424:292,1,120,14|0,1:2|0:0,0:0:0:0:
252,320,136330,1,8,0:1:0:0:
364,168,136544,1,0,3:0:0:0:
336,144,136651,1,0,3:0:0:0:
300,136,136758,2,0,P|240:136|172:168,1,120,2|0,1:2|3:0,0:0:0:0:
44,56,137187,2,0,P|96:80|184:64,1,120,10|0,0:1|3:0,0:0:0:0:
24,40,137615,5,2,1:2:0:0:
136,224,137830,1,0,3:0:0:0:
136,224,137937,1,0,3:0:0:0:
136,224,138044,1,8,0:1:0:0:
64,312,138258,6,0,P|60:280|64:248,1,60,0|0,3:0|0:0,0:0:0:0:
152,192,138473,2,0,P|208:196|268:164,1,120,2|0,1:2|3:0,0:0:0:0:
384,84,138901,2,0,P|324:68|265:84,1,120,10|0,0:1|3:0,0:0:0:0:
256,192,139223,1,0,3:0:0:0:
248,220,139330,6,0,P|264:282|252:352,1,120,10|0,1:2|3:0,0:0:0:0:
180,36,139758,2,0,P|168:92|188:160,1,120,10|0,0:1|3:0,0:0:0:0:
168,240,140080,1,0,3:0:0:0:
164,264,140187,2,0,L|100:256,2,60,2|0|0,1:2|0:0|3:0,0:0:0:0:
368,235,140615,2,0,L|232:219,1,120,10|0,0:1|3:0,0:0:0:0:
296,88,141044,2,0,L|372:80,1,60,2|0,1:2|0:0,0:0:0:0:
480,24,141259,2,0,L|404:32,1,60,0|0,3:0|0:0,0:0:0:0:
288,112,141473,2,0,L|356:108,1,60,8|0,0:1|0:0,0:0:0:0:
436,144,141687,5,0,3:0:0:0:
452,176,141794,1,0,3:0:0:0:
468,208,141901,1,0,1:0:0:0:
392,304,142115,2,2,P|391:272|400:220,1,60,2|0,3:1|0:0,0:1:0:0:
468,208,142330,1,8,0:1:0:0:
312,300,142544,2,0,P|312:260|316:220,1,60,0|0,3:0|3:0,0:0:0:0:
468,208,142759,2,0,P|471:171|472:124,3,60,14|0|0|0,1:2|0:0|0:0|0:0,0:0:0:0:
416,36,143187,2,0,P|411:62|408:96,1,60,8|0,0:1|0:0,0:0:0:0:
316,144,143401,5,0,3:0:0:0:
288,124,143508,1,0,3:0:0:0:
252,128,143615,2,0,P|216:140|168:128,1,60,2|0,1:2|0:0,0:0:0:0:
124,48,143830,2,0,P|72:24|8:32,1,120,0|10,3:0|0:1,0:0:0:0:
148,72,144258,1,0,3:0:0:0:
44,236,144473,2,0,P|32:172|56:104,1,120,2|0,1:2|3:0,0:0:0:0:
120,148,144794,1,0,3:0:0:0:
120,148,144901,2,0,P|120:181|116:216,1,60,8|0,0:1|0:0,0:0:0:0:
84,312,145115,5,0,3:0:0:0:
208,112,145330,2,0,P|220:176|196:244,1,120,2|0,1:2|3:0,0:0:0:0:
205,306,145651,1,0,0:0:0:0:
237,322,145758,2,0,P|306:324|365:282,1,120,10|0,0:1|3:0,0:0:0:0:
432,204,146080,5,0,3:0:0:0:
432,204,146187,2,0,L|440:332,1,120,10|0,1:2|0:0,0:0:0:0:
431,171,146615,1,10,0:1:0:0:
348,316,146830,2,0,L|344:254,1,60,0|0,3:0|0:0,0:0:0:0:
440,352,147044,2,0,L|433:233,1,120,2|0,1:2|3:0,0:0:0:0:
256,288,147473,1,10,0:1:0:0:
432,204,147687,1,0,3:0:0:0:
256,288,147901,2,0,L|250:214,3,60,6|0|0|4,1:2|0:0|3:0|0:3,0:0:0:0:
309,164,148330,6,0,P|310:132|299:99,1,60,8|0,0:1|3:0,0:0:0:0:
312,70,148544,2,0,P|285:53|245:50,1,60,0|0,3:0|3:0,0:0:0:0:
232,80,148758,1,14,0:1:0:0:
200,68,148865,1,0,3:0:0:0:
172,88,148973,1,2,0:3:0:0:
136,80,149080,1,2,0:3:0:0:
108,100,149187,1,10,0:1:0:0:
108,100,149401,1,2,0:0:0:0:
112,244,149616,6,0,P|117:207|116:184,1,53.9999983520508,14|0,1:2|0:0,0:0:0:0:
44,208,150044,2,0,P|40:272|48:340,1,120,10|0,0:1|3:0,0:0:0:0:
124,356,150365,1,0,3:0:0:0:
124,356,150473,1,0,1:0:0:0:
284,272,150687,5,0,3:0:0:0:
152,332,150901,1,8,0:1:0:0:
188,328,151008,1,0,0:0:0:0:
224,340,151115,1,2,3:2:0:0:
256,360,151223,1,2,0:2:0:0:
292,364,151330,2,0,P|368:364|424:332,1,120,2|0,1:2|3:0,0:0:0:0:
388,260,151651,1,0,3:0:0:0:
388,260,151758,2,0,P|380:220|384:184,1,60,10|0,0:1|0:0,0:0:0:0:
384,120,151973,1,2,0:0:0:0:
512,232,152187,2,0,P|476:232|436:208,1,60,0|0,1:0|0:0,0:0:0:0:
484,136,152401,6,0,P|484:100|468:56,1,60,2|0,3:2|0:0,0:0:0:0:
360,40,152615,1,10,0:1:0:0:
308,192,152830,1,0,3:0:0:0:
308,192,152937,1,0,3:0:0:0:
308,192,153044,2,0,P|248:200|180:180,1,120,10|0,1:2|0:0,0:0:0:0:
32,124,153473,2,0,P|68:120|112:128,1,60,10|0,0:1|0:0,0:0:0:0:
200,220,153687,1,0,3:0:0:0:
200,256,153794,1,0,3:0:0:0:
184,288,153901,5,2,1:2:0:0:
68,192,154115,1,2,3:2:0:0:
44,356,154330,1,10,0:1:0:0:
44,172,154544,1,2,0:0:0:0:
212,312,154758,6,0,L|136:304,1,60,2|0,1:2|0:0,0:0:0:0:
44,356,154973,2,0,L|116:364,1,60,0|0,3:0|0:0,0:0:0:0:
246,313,155187,1,10,0:1:0:0:
36,264,155401,1,2,3:2:0:0:
44,228,155508,1,0,3:0:0:0:
52,192,155615,1,0,1:0:0:0:
128,88,155830,2,0,P|132:128|128:168,1,60,2|0,3:1|0:0,0:0:0:0:
52,192,156044,1,10,0:1:0:0:
208,76,156258,2,0,P|212:116|208:164,1,60,0|0,3:0|3:0,0:0:0:0:
176,252,156473,6,0,P|204:262|240:258,1,53.9999983520508,14|0,1:2|0:0,0:0:0:0:
281,195,156901,2,0,P|348:167|411:173,1,120,10|0,0:1|3:0,0:0:0:0:
444,106,157222,1,0,3:0:0:0:
444,106,157330,1,0,1:0:0:0:
310,274,157544,5,0,3:0:0:0:
465,132,157758,1,8,0:1:0:0:
471,168,157865,1,0,0:0:0:0:
466,204,157972,1,2,3:2:0:0:
473,240,158080,1,2,0:0:0:0:
498,267,158187,2,0,P|489:331|445:382,1,120,2|0,1:2|3:0,0:0:0:0:
395,306,158508,1,0,3:0:0:0:
371,280,158615,2,0,P|313:264|224:285,1,120,10|0,0:1|3:0,0:0:0:0:
395,306,159044,1,0,1:0:0:0:
320,164,159258,6,0,P|315:135|313:95,1,60,2|0,3:2|0:0,0:0:0:0:
389,41,159472,1,10,0:1:0:0:
225,42,159687,1,2,3:2:0:0:
225,42,159794,1,0,3:0:0:0:
225,42,159901,2,0,L|236:169,1,120,10|0,1:2|0:0,0:0:0:0:
108,131,160330,1,8,0:1:0:0:
237,188,160544,5,0,3:0:0:0:
237,188,160651,1,0,0:0:0:0:
237,188,160758,2,0,L|226:48,1,120,10|0,1:2|0:0,0:0:0:0:
114,224,161187,2,0,P|109:195|107:155,2,60,10|0|0,0:1|0:0|0:0,0:0:0:0:
315,234,161615,5,10,0:0:0:0:
398,250,161830,1,8,0:0:0:0:
306,216,162044,1,10,0:0:0:0:
382,154,162258,1,8,0:0:0:0:
325,70,162473,1,10,0:1:0:0:
292,84,162580,1,2,0:3:0:0:
258,76,162687,1,2,0:3:0:0:
229,56,162794,1,2,0:3:0:0:
213,25,162901,1,10,0:1:0:0:
213,25,163116,1,8,0:1:0:0:
56,188,163330,6,0,B|120:240|200:200,1,135.000005149841,14|0,1:2|0:0,0:0:0:0:
248,168,163759,1,8,0:1:0:0:
168,84,163973,2,0,B|168:112|184:148,1,45.0000017166138,2|0,3:2|3:0,0:0:0:0:
264,204,164187,2,0,P|268:264|248:312,1,90.0000034332277,2|0,1:2|3:0,0:0:0:0:
300,360,164509,1,0,0:0:0:0:
300,360,164616,2,0,L|425:366,1,90.0000034332277,10|0,0:1|3:0,0:0:0:0:
184,304,165044,6,0,L|76:316,1,90.0000034332277,2|0,1:2|3:0,0:0:0:0:
44,252,165366,1,2,3:2:0:0:
44,252,165473,1,8,0:1:0:0:
144,148,165687,2,0,B|144:176|128:212,1,45.0000017166138,2|0,3:2|0:0,0:0:0:0:
140,112,165901,1,0,1:0:0:0:
264,204,166116,2,0,L|332:208,1,45.0000017166138,10|0,0:1|0:0,0:0:0:0:
280,288,166330,2,0,L|420:300,1,135.000005149841,10|0,0:1|0:0,0:0:0:0:
428,220,166759,6,0,B|400:148|432:68,1,135.000005149841,14|0,1:2|0:0,0:0:0:0:
476,28,167188,1,8,0:1:0:0:
504,152,167402,2,0,B|508:116|496:80,1,45.0000017166138,2|0,3:2|3:0,0:0:0:0:
400,84,167616,2,0,P|356:60|296:68,1,90.0000034332277,2|0,1:2|3:0,0:0:0:0:
236,28,167937,1,0,0:0:0:0:
236,28,168044,2,0,L|212:140,1,90.0000034332277,10|0,0:1|3:0,0:0:0:0:
144,152,168473,5,2,1:2:0:0:
256,204,168687,1,2,3:2:0:0:
180,136,168901,1,0,3:0:0:0:
292,196,169116,1,0,3:0:0:0:
292,196,169223,1,0,3:0:0:0:
292,196,169330,2,0,L|280:260,1,45.0000017166138,0|0,3:0|0:0,0:0:0:0:
240,332,169544,2,2,P|276:349|344:344,1,90.0000034332277,2|8,0:1|0:1,0:1:0:0:
488,250,169973,5,0,1:0:0:0:
488,250,170080,1,0,3:0:0:0:
488,250,170187,2,0,B|432:197|349:220,1,135.000005149841,14|0,1:2|0:0,0:0:0:0:
283,240,170616,1,8,0:1:0:0:
360,344,170830,2,0,B|360:316|344:280,1,45.0000017166138,2|0,3:2|3:0,0:0:0:0:
272,208,171044,2,0,P|268:148|288:100,1,90.0000034332277,2|0,1:2|3:0,0:0:0:0:
344,80,171366,1,0,0:0:0:0:
344,80,171473,2,0,L|469:74,1,90.0000034332277,10|0,0:1|3:0,0:0:0:0:
232,56,171901,6,0,L|124:68,1,90.0000034332277,2|0,1:2|3:0,0:0:0:0:
72,32,172223,1,2,3:2:0:0:
72,32,172330,1,8,0:1:0:0:
152,152,172544,2,0,B|208:144,1,45.0000017166138,2|0,3:2|0:0,0:0:0:0:
280,132,172758,1,0,1:0:0:0:
428,208,172973,2,0,L|420:264,1,45.0000017166138,2|0,3:2|0:0,0:0:0:0:
349,224,173187,2,0,L|329:356,1,90.0000034332277,10|0,0:1|3:0,0:0:0:0:
257,334,173509,5,0,3:0:0:0:
257,334,173616,2,0,B|211:346|177:307|121:329,1,135.000005149841,8|0,1:2|0:0,0:0:0:0:
48,277,174044,2,0,P|38:322|46:364,1,90.0000034332277,10|0,0:1|3:0,0:0:0:0:
216,230,174473,2,0,B|262:242|296:203|352:225,1,135.000005149841,8|0,1:2|0:0,0:0:0:0:
425,173,174901,2,0,P|435:218|426:260,1,90.0000034332277,10|0,0:1|0:0,0:0:0:0:
352,80,175330,21,0,1:0:0:0:
240,192,176616,22,0,B|221:189|197:212|234:234|267:234|267:234|288:206|295:167|261:165|246:191,1,180.000006866455,4|2,0:0|1:2,0:0:0:0:
