osu file format v14

[General]
AudioFilename: audio.mp3
AudioLeadIn: 1500
PreviewTime: 48473
Countdown: 0
SampleSet: Soft
StackLeniency: 0.7
Mode: 0
LetterboxInBreaks: 0
EpilepsyWarning: 1
WidescreenStoryboard: 1

[Editor]
Bookmarks: 7330,21044,34759,48473,63901,79330,93044,106759,120473,134187,149616,163330,174473
DistanceSpacing: 1.3
BeatDivisor: 2
GridSize: 8
TimelineZoom: 4.700002

[Metadata]
Title:G4L
TitleUnicode:G4L
Artist:Giga
ArtistUnicode:Giga
Creator:Beren
Version:Yumerios' Normal
Source:Artiswitch
Tags:アーティスウィッチ Necho cqmasai Reincarnation Jycool jyc-Binggan arronchu1207 Yumerios Bellicose Hengye q*Left giga 鏡音レン Kagamine Ren VOCALOID ギガP japanese pop
BeatmapID:3223445
BeatmapSetID:1555674

[Difficulty]
HPDrainRate:3
CircleSize:3
OverallDifficulty:4
ApproachRate:6
SliderMultiplier:1.35
SliderTickRate:1

[Events]
//Background and Video events
0,0,"91799821_p0.jpg",0,0
//Break Periods
2,106958,119423
//Storyboard Layer 0 (Background)
//Storyboard Layer 1 (Fail)
//Storyboard Layer 2 (Pass)
//Storyboard Layer 3 (Foreground)
Sprite,Foreground,Centre,"sb\id4.png",320,240 F,0,166759,169330,1 F,0,169330,169759,1,0
//Storyboard Layer 4 (Overlay)
//Storyboard Sound Samples

[TimingPoints]
-1241,428.571428571429,4,2,1,30,1,0
139,-100,4,2,1,40,0,0
187,-100,4,2,1,50,0,0
235,-100,4,2,1,60,0,0
282,-100,4,2,1,70,0,0
330,-100,4,2,1,80,0,0
378,-100,4,2,1,90,0,0
425,-100,4,2,1,100,0,0
473,-111.111111111111,4,2,1,50,0,0
2616,-111.111111111111,4,2,1,50,0,0
2830,-111.111111111111,4,2,1,50,0,0
6151,-111.111111111111,4,2,1,5,0,0
6259,-111.111111111111,4,2,1,50,0,0
6634,-111.111111111111,4,2,1,5,0,0
6687,-111.111111111111,4,2,1,30,0,0
6794,-111.111111111111,4,2,1,40,0,0
6901,-111.111111111111,4,2,1,50,0,0
7009,-111.111111111111,4,2,1,60,0,0
7116,-111.111111111111,4,2,1,70,0,0
7330,-111.111111111111,4,2,1,60,0,0
12473,-100,4,2,1,60,0,0
14187,-111.111111111111,4,2,1,60,0,0
20187,-111.111111111111,4,2,1,70,0,0
21044,-99.9999999999999,4,2,2,80,0,0
26187,-99.9999999999999,4,2,99,80,0,0
26401,-99.9999999999999,4,2,2,80,0,0
33901,-99.9999999999999,4,2,1,80,0,0
34116,-99.9999999999999,4,2,2,80,0,0
34330,-99.9999999999999,4,2,1,80,0,0
34759,-111.111111111111,4,2,3,50,0,0
41616,-111.111111111111,4,2,3,55,0,0
43330,-111.111111111111,4,2,3,60,0,0
45044,-111.111111111111,4,2,3,65,0,0
46973,-111.111111111111,4,2,3,40,0,0
47187,-111.111111111111,4,2,3,50,0,0
47401,-111.111111111111,4,2,3,55,0,0
47616,-111.111111111111,4,2,3,60,0,0
47830,-111.111111111111,4,2,3,65,0,0
48044,-111.111111111111,4,2,3,70,0,0
48259,-111.111111111111,4,2,3,75,0,0
48473,-111.111111111111,4,2,98,90,0,0
48794,-111.111111111111,4,2,3,80,0,0
48901,-100,4,2,3,80,0,0
49759,-100,4,2,99,80,0,0
50187,-90.9090909090909,4,2,4,85,0,1
56401,-90.9090909090909,4,2,99,100,0,1
56616,-90.9090909090909,4,2,4,85,0,1
70116,-90.9090909090909,4,2,99,100,0,1
70223,-90.9090909090909,4,2,4,85,0,1
75901,-90.9090909090909,4,2,1,65,0,1
77616,-90.9090909090909,4,2,5,65,0,0
77830,-90.9090909090909,4,2,3,60,0,0
79009,-90.9090909090909,4,2,1,60,0,0
79330,-100,4,2,5,70,0,0
92937,-100,4,2,5,5,0,0
93044,-111.111111111111,4,2,6,65,0,0
103330,-99.9999999999999,4,2,6,65,0,0
106759,-99.9999999999999,4,2,7,50,0,0
118759,-99.9999999999999,4,2,7,60,0,0
119616,-99.9999999999999,4,2,7,70,0,0
120473,-111.111111111111,4,2,7,70,0,0
120901,-111.111111111111,4,2,3,60,0,0
127330,-111.111111111111,4,2,4,60,0,0
127759,-111.111111111111,4,2,3,70,0,0
129473,-111.111111111111,4,2,4,70,0,0
129687,-111.111111111111,4,2,3,70,0,0
130759,-111.111111111111,4,2,4,70,0,0
131187,-111.111111111111,4,2,3,75,0,0
134080,-111.111111111111,4,2,5,5,0,0
134187,-111.111111111111,4,2,98,90,0,0
134615,-100,4,2,5,80,0,0
134616,-100,4,2,5,80,0,0
135901,-90.9090909090909,4,2,4,85,0,1
142116,-90.9090909090909,4,2,99,100,0,1
142330,-90.9090909090909,4,2,4,85,0,1
155830,-90.9090909090909,4,2,99,100,0,1
155937,-90.9090909090909,4,2,4,85,0,1
161616,-90.9090909090909,4,2,1,65,0,1
162901,-90.9090909090909,4,2,8,65,0,1
163330,-100,4,2,4,80,0,0
166116,-100,4,2,5,80,0,0
166759,-100,4,2,4,80,0,0
169544,-100,4,2,99,100,0,0
169759,-100,4,2,4,80,0,0
175330,-111.111111111111,4,2,4,60,0,0
176616,-111.111111111111,4,2,8,80,0,0
177044,-111.111111111111,4,2,1,80,0,0

[Colours]
Combo1 : 172,60,60
Combo2 : 81,106,121
Combo3 : 192,192,192
SliderTrackOverride : 192,192,192

[HitObjects]
345,207,473,6,0,P|398:177|461:201,1,121.499996292114,0|0,1:0|0:0,0:0:0:0:
497,259,1116,1,2,0:0:0:0:
458,327,1330,2,0,B|398:320|398:320|384:328|384:328|326:323,1,121.499996292114,2|2,0:0|0:0,0:0:0:0:
182,301,2187,2,0,B|159:275|164:240|195:223|196:231|204:230|232:206|240:171|205:123,1,182.249994438172,2|0,0:3|0:0,0:0:0:0:
156,90,3044,2,0,L|56:103,2,91.1249972190858,2|2|2,0:3|0:0|0:0,0:0:0:0:
202,25,3901,6,0,P|256:-2|328:17,1,121.499996292114,0|0,1:0|0:0,0:0:0:0:
371,62,4544,1,2,0:0:0:0:
316,119,4759,2,0,P|289:188|315:249,1,121.499996292114,2|2,0:0|0:0,0:0:0:0:
407,348,5616,1,2,0:3:0:0:
188,79,7330,6,0,P|138:56|72:81,1,121.499996292114,0|0,1:0|3:0,0:0:0:0:
32,141,7973,1,0,3:0:0:0:
80,203,8187,2,0,L|162:215,1,60.7499981460572,10|0,3:2|3:0,0:0:0:0:
193,270,8616,2,0,L|268:262,1,60.7499981460572,0|0,3:0|3:0,0:0:0:0:
330,281,9044,2,0,P|356:236|328:168,1,121.499996292114,2|0,0:3|1:0,0:0:0:0:
197,94,9901,2,0,L|200:-7,2,91.1249972190858,8|2|2,0:0|0:3|3:0,0:0:0:0:
133,142,10759,6,0,P|102:206|124:268,1,121.499996292114,0|0,1:0|3:0,0:0:0:0:
169,307,11401,1,0,3:0:0:0:
227,253,11616,2,0,P|261:243|296:251,1,60.7499981460572,10|0,3:2|3:0,0:0:0:0:
339,303,12044,2,0,P|373:313|411:304,1,60.7499981460572,0|0,3:0|3:0,0:0:0:0:
474,266,12473,5,2,0:3:0:0:
427,191,12687,2,0,L|347:198,2,67.5,8|8|8,0:3|0:3|0:3,0:0:0:0:
480,120,13330,2,0,L|499:11,2,101.25,14|10|10,0:3|0:3|3:3,0:0:0:0:
409,155,14187,6,0,L|270:136,1,121.499996292114,0|0,1:0|3:0,0:0:0:0:
210,125,14830,1,0,3:0:0:0:
137,157,15044,2,0,P|126:198|136:232,1,60.7499981460572,10|0,0:0|3:0,0:0:0:0:
192,262,15473,2,0,P|203:303|192:333,1,60.7499981460572,0|0,3:0|3:0,0:0:0:0:
145,378,15901,2,0,L|66:374,2,60.7499981460572,2|0|0,0:3|0:0|1:0,0:0:0:0:
285,305,16759,2,0,L|364:301,2,60.7499981460572,2|0|2,0:0|0:0|0:0,0:0:0:0:
142,237,17616,6,0,P|108:186|133:112,1,121.499996292114,0|0,1:0|3:0,0:0:0:0:
181,81,18259,1,0,3:0:0:0:
237,135,18473,2,0,P|274:144|310:131,1,60.7499981460572,10|0,0:0|1:0,0:0:0:0:
346,78,18901,2,0,P|383:69|419:82,1,60.7499981460572,0|0,3:0|3:0,0:0:0:0:
452,136,19330,2,0,L|517:146,2,60.7499981460572,0|0|0,1:0|3:0|1:0,0:0:0:0:
379,168,19973,1,0,3:0:0:0:
422,233,20187,2,0,B|407:286|407:286|412:301|412:301|392:369,1,121.499996292114,8|8,0:1|0:1,0:0:0:0:
224,376,21044,6,0,P|198:332|234:240,1,135,12|10,1:2|0:1,0:0:0:0:
279,191,21687,1,0,1:0:0:0:
232,116,21901,2,0,L|153:122,1,67.5,2|0,0:0|1:0,0:0:0:0:
99,179,22330,2,0,P|88:222|101:263,1,67.5,2|0,0:1|1:0,0:0:0:0:
145,313,22759,2,0,L|226:316,2,67.5,0|0|10,1:0|0:0|0:1,0:0:0:0:
73,363,23401,1,0,1:0:0:0:
4,308,23616,2,0,L|-2:150,1,135,2|2,0:0|0:1,0:0:0:0:
124,49,24473,6,0,B|161:26|191:51|181:64|221:93|267:68,1,135,12|10,1:2|0:1,0:0:0:0:
314,18,25116,1,0,1:0:0:0:
396,48,25330,2,0,L|385:136,1,67.5,2|0,0:0|1:0,0:0:0:0:
337,187,25759,2,0,L|348:275,1,67.5,2|0,0:1|1:0,0:0:0:0:
303,331,26187,1,2,1:0:0:0:
215,335,26401,1,0,0:0:0:0:
174,257,26616,2,0,P|105:228|48:260,1,135,10|2,0:1|0:0,0:0:0:0:
3,324,27259,1,0,1:0:0:0:
69,381,27473,1,10,0:1:0:0:
236,328,27901,6,0,L|242:249,1,67.5,12|0,1:2|0:0,0:0:0:0:
173,204,28330,2,0,L|167:125,1,67.5,10|0,0:1|1:0,0:0:0:0:
242,89,28759,1,2,0:0:0:0:
188,18,28973,2,0,P|135:-9|48:34,1,135,0|0,1:0|1:0,0:0:0:0:
6,76,29616,2,0,L|15:151,1,67.5,0|0,1:0|0:0,0:0:0:0:
79,201,30044,2,0,L|70:276,1,67.5,10|0,0:1|1:0,0:0:0:0:
9,330,30473,1,2,0:0:0:0:
78,383,30687,2,0,L|225:364,1,135,0|0,1:0|1:0,0:0:0:0:
278,308,31330,6,0,L|359:314,2,67.5,12|0|10,1:2|0:0|0:1,0:0:0:0:
150,187,32187,2,0,L|69:193,2,67.5,2|0|2,0:0|1:0|0:1,0:0:0:0:
275,64,33044,2,0,P|318:50|359:66,1,67.5,2|2,1:2|0:0,0:0:0:0:
406,110,33473,2,0,L|402:191,1,67.5,10|2,0:1|1:2,0:0:0:0:
401,265,33901,1,10,0:1:0:0:
337,325,34116,2,0,P|273:314|190:302,1,135,2|0,1:2|0:0,0:0:0:0:
118,325,34759,5,2,1:2:0:0:
7,212,35187,2,0,L|2:74,2,121.499996292114,0|10|2,0:0|1:2|0:0,0:0:0:0:
118,325,36473,1,2,1:2:0:0:
199,190,36901,2,0,P|231:180|264:185,1,60.7499981460572,0|0,0:0|1:0,0:0:0:0:
313,239,37330,2,0,P|345:249|378:244,1,60.7499981460572,10|0,1:2|0:0,0:0:0:0:
429,192,37759,2,0,L|512:186,2,60.7499981460572,2|0|2,0:0|1:0|1:2,0:0:0:0:
295,108,38616,6,0,P|270:57|295:1,2,121.499996292114,0|10|2,0:0|1:2|0:0,0:0:0:0:
429,192,39901,1,2,1:2:0:0:
340,322,40330,2,0,L|263:315,1,60.7499981460572,0|0,0:0|1:0,0:0:0:0:
215,270,40759,2,0,L|138:277,1,60.7499981460572,10|0,1:2|0:0,0:0:0:0:
89,319,41187,2,0,L|83:388,2,60.7499981460572,2|0|2,0:0|1:0|1:2,0:0:0:0:
21,175,42044,6,0,P|65:167|98:161,1,60.7499981460572,0|0,0:0|1:0,0:0:0:0:
138,109,42473,2,0,P|183:89|264:111,2,121.499996292114,10|2|2,1:2|3:2|1:2,0:0:0:0:
34,228,43759,2,0,L|42:305,1,60.7499981460572,0|0,0:0|1:0,0:0:0:0:
95,344,44187,2,0,L|224:354,2,121.499996292114,10|2|2,1:2|3:2|1:2,0:0:0:0:
188,216,45473,2,0,L|317:206,2,121.499996292114,0|10|2,0:0|1:2|0:0,0:0:0:0:
73,106,46759,5,2,0:0:0:0:
256,192,46973,12,2,48473,0:1:0:0:
280,254,48901,6,0,L|358:265,2,67.5,2|2|2,0:0|0:0|0:0,0:0:0:0:
214,195,49544,2,0,L|147:204,2,67.5,2|2|0,0:0|0:0|0:0,0:0:0:0:
267,114,50187,6,0,P|331:78|412:113,1,148.50000453186,14|8,1:2|0:1,0:0:0:0:
464,170,50830,1,0,3:0:0:0:
420,255,51044,2,0,L|333:264,1,74.2500022659302,2|0,1:2|3:0,0:0:0:0:
269,203,51473,2,0,L|182:194,1,74.2500022659302,10|0,0:1|3:0,0:0:0:0:
99,205,51901,2,0,P|61:261|106:337,1,148.50000453186,2|8,1:2|0:1,0:0:0:0:
171,383,52544,1,0,3:0:0:0:
247,323,52759,2,0,P|264:278|252:243,1,74.2500022659302,2|0,1:2|3:0,0:0:0:0:
189,185,53187,2,0,P|172:140|184:105,1,74.2500022659302,10|0,0:1|3:0,0:0:0:0:
236,39,53616,6,0,B|301:50|301:50|309:71|309:71|381:85,1,148.50000453186,10|10,1:2|0:1,0:0:0:0:
448,136,54259,1,0,3:0:0:0:
390,210,54473,2,0,B|331:221|331:221|323:242|323:242|258:253,1,148.50000453186,2|10,1:2|0:1,0:0:0:0:
197,329,55116,1,0,3:0:0:0:
102,308,55330,2,0,P|63:239|95:157,1,148.50000453186,2|8,1:2|0:1,0:0:0:0:
176,8,56187,2,0,P|217:-3|258:11,1,74.2500022659302,0|2,1:0|3:1,0:0:0:0:
310,77,56616,2,0,P|351:88|392:74,1,74.2500022659302,8|0,0:1|3:0,0:0:0:0:
472,50,57044,6,0,P|453:139|439:217,1,148.50000453186,14|8,1:2|0:1,0:0:0:0:
485,282,57687,1,0,3:0:0:0:
422,355,57901,2,0,P|364:346|332:343,1,74.2500022659302,2|0,1:2|3:0,0:0:0:0:
271,286,58330,2,0,P|213:295|181:298,1,74.2500022659302,10|0,0:1|3:0,0:0:0:0:
122,358,58759,6,0,P|97:317|137:224,1,148.50000453186,2|8,1:2|0:1,0:0:0:0:
205,169,59401,1,0,3:0:0:0:
152,87,59616,2,0,L|60:96,1,74.2500022659302,2|0,1:2|3:0,0:0:0:0:
4,156,60044,2,0,P|-6:196|8:240,1,74.2500022659302,10|0,0:1|3:0,0:0:0:0:
72,293,60473,6,0,L|235:270,1,148.50000453186,10|10,1:2|0:1,0:0:0:0:
293,333,61116,1,0,3:0:0:0:
378,288,61330,2,0,L|395:124,1,148.50000453186,2|10,1:2|0:1,0:0:0:0:
329,67,61973,1,0,3:0:0:0:
262,137,62187,2,0,B|219:155|181:131|194:119|160:94|105:119,1,148.50000453186,6|8,1:2|0:1,0:0:0:0:
109,305,63044,2,0,P|146:322|194:308,1,74.2500022659302,14|2,0:1|0:3,0:0:0:0:
249,251,63473,2,0,P|285:229|335:242,1,74.2500022659302,10|2,0:1|0:0,0:0:0:0:
410,247,63901,6,0,P|443:305|417:383,2,148.50000453186,14|10|0,1:2|0:1|1:0,0:0:0:0:
467,169,64973,1,0,3:0:0:0:
437,77,65187,2,0,L|352:86,1,74.2500022659302,8|2,0:1|3:2,0:0:0:0:
276,128,65616,2,0,L|115:115,2,148.50000453186,2|10|0,1:2|0:1|1:0,0:0:0:0:
337,201,66687,1,2,3:2:0:0:
281,280,66901,2,0,L|194:285,1,74.2500022659302,10|0,0:1|3:0,0:0:0:0:
110,288,67330,6,0,P|75:234|100:150,1,148.50000453186,10|10,1:2|0:1,0:0:0:0:
137,70,67973,1,0,3:0:0:0:
224,111,68187,2,0,L|303:101,1,74.2500022659302,2|2,1:2|3:2,0:0:0:0:
368,35,68616,2,0,L|447:45,1,74.2500022659302,10|2,0:1|0:0,0:0:0:0:
510,111,69044,6,0,P|503:166|493:287,1,148.50000453186,2|10,1:2|0:1,0:0:0:0:
308,310,69901,2,0,P|268:326|218:296,1,74.2500022659302,0|2,1:0|3:1,0:0:0:0:
211,225,70330,2,0,P|168:207|118:228,1,74.2500022659302,10|0,0:1|3:0,0:0:0:0:
48,236,70759,6,0,L|62:387,2,148.50000453186,14|10|0,1:2|0:1|1:0,0:0:0:0:
0,152,71830,1,0,3:0:0:0:
57,74,72044,2,0,P|98:60|147:74,1,74.2500022659302,8|2,0:1|3:2,0:0:0:0:
198,130,72473,2,0,L|361:141,2,148.50000453186,2|10|0,1:2|0:1|1:0,0:0:0:0:
147,213,73544,1,2,3:2:0:0:
207,288,73759,2,0,P|245:298|283:284,1,74.2500022659302,10|2,0:1|3:0,0:0:0:0:
360,239,74187,5,10,1:2:0:0:
305,159,74401,2,0,L|212:150,1,74.2500022659302,0|8,0:0|0:1,0:0:0:0:
159,86,74830,1,0,3:0:0:0:
214,6,75044,2,0,L|307:-3,1,74.2500022659302,10|0,1:2|0:0,0:0:0:0:
368,53,75473,2,0,P|378:95|362:133,1,74.2500022659302,10|0,0:1|0:0,0:0:0:0:
291,180,75901,1,10,0:0:0:0:
291,276,76116,1,8,0:0:0:0:
363,339,76330,2,0,L|443:328,1,74.2500022659302,10|8,0:0|0:0,0:0:0:0:
502,258,76759,2,0,P|440:217|355:240,1,148.50000453186,10|10,0:1|0:1,0:0:0:0:
234,365,77616,5,2,1:2:0:0:
69,23,79330,6,0,P|79:102|86:177,1,135,4|8,1:2|0:0,0:0:0:0:
32,228,79973,1,0,3:0:0:0:
104,277,80187,2,0,L|189:266,1,67.5,0|0,3:0|1:0,0:0:0:0:
240,321,80616,2,0,L|325:332,1,67.5,8|0,0:0|3:0,0:0:0:0:
375,275,81044,1,2,1:2:0:0:
257,144,81473,2,0,L|248:2,2,135,8|0|8,0:0|3:0|0:0,0:0:0:0:
185,304,82759,6,0,P|127:329|57:285,1,135,0|8,1:0|0:0,0:0:0:0:
21,224,83401,1,0,3:0:0:0:
79,157,83616,2,0,P|109:146|146:154,1,67.5,0|0,3:0|1:0,0:0:0:0:
202,216,84044,2,0,P|232:227|269:219,1,67.5,8|0,0:0|3:0,0:0:0:0:
347,187,84473,5,2,1:2:0:0:
300,112,84687,2,0,L|228:123,2,67.5,0|8|0,3:0|0:0|3:0,0:0:0:0:
376,67,85330,2,0,B|425:69|425:69|432:75|432:75|493:77,2,101.25,2|2|2,1:2|1:2|3:2,0:0:0:0:
298,24,86187,6,0,P|220:6|166:41,1,135,4|8,1:2|0:0,0:0:0:0:
122,101,86830,1,0,3:0:0:0:
197,146,87044,2,0,P|212:183|197:226,1,67.5,0|0,3:0|1:0,0:0:0:0:
134,258,87473,2,0,P|119:295|134:338,1,67.5,8|0,0:0|3:0,0:0:0:0:
190,377,87901,2,0,L|271:365,2,67.5,2|0|10,1:2|3:0|0:0,0:0:0:0:
97,227,88759,2,0,L|16:215,2,67.5,2|0|10,3:2|1:0|0:0,0:0:0:0:
190,78,89616,6,0,P|243:49|326:76,1,135,0|8,1:0|0:0,0:0:0:0:
363,137,90259,1,0,3:0:0:0:
309,206,90473,2,0,L|228:213,1,67.5,0|0,3:0|1:0,0:0:0:0:
160,243,90901,2,0,P|146:281|155:316,1,67.5,8|0,0:0|3:0,0:0:0:0:
210,371,91330,2,0,L|356:350,2,135,2|2|2,1:2|1:2|1:2,0:0:0:0:
59,280,92616,1,0,0:0:0:0:
140,144,93044,6,0,L|136:67,2,60.7499981460572,2|0|2,1:0|3:0|3:2,0:0:0:0:
203,288,93901,2,0,L|199:365,2,60.7499981460572,10|2|2,0:0|0:0|3:2,0:0:0:0:
246,135,94759,2,0,P|278:124|323:135,1,60.7499981460572,2|0,3:2|3:0,0:0:0:0:
341,196,95187,2,0,P|373:207|418:196,1,60.7499981460572,2|0,1:2|3:0,0:0:0:0:
453,146,95616,2,0,P|485:135|530:146,2,60.7499981460572,10|2|2,0:0|3:2|0:0,0:0:0:0:
361,275,96473,6,0,L|356:356,2,60.7499981460572,2|0|2,1:0|3:0|3:2,0:0:0:0:
254,158,97330,2,0,L|249:77,2,60.7499981460572,10|2|2,0:0|0:0|3:2,0:0:0:0:
182,299,98187,2,0,L|113:290,1,60.7499981460572,2|0,3:2|3:0,0:0:0:0:
65,235,98616,2,0,L|-24:245,2,60.7499981460572,2|0|14,1:2|3:0|0:0,0:0:0:0:
171,118,99473,1,2,0:0:0:0:
281,230,99901,6,0,L|362:219,1,60.7499981460572,2|0,1:0|3:0,0:0:0:0:
420,215,100330,1,2,3:2:0:0:
490,73,100759,2,0,L|409:62,1,60.7499981460572,10|2,0:0|0:0,0:0:0:0:
351,58,101188,1,2,3:2:0:0:
218,143,101616,2,0,P|209:183|221:224,1,60.7499981460572,2|0,3:2|3:0,0:0:0:0:
277,245,102044,2,0,P|286:285|274:326,1,60.7499981460572,2|0,1:2|3:0,0:0:0:0:
226,359,102473,2,0,L|144:366,2,60.7499981460572,10|2|2,0:0|3:2|0:0,0:0:0:0:
365,252,103330,6,0,L|448:246,2,67.5,2|0|2,1:0|3:0|3:2,0:0:0:0:
228,140,104187,2,0,L|145:134,2,67.5,10|0|2,0:0|0:0|3:2,0:0:0:0:
364,28,105044,2,0,P|402:16|446:31,1,67.5,10|2,0:3|0:0,0:0:0:0:
498,73,105473,2,0,P|510:111|495:155,1,67.5,2|2,1:2|0:0,0:0:0:0:
457,211,105901,2,0,L|265:201,2,135,10|0|4,0:0|0:0|0:3,0:0:0:0:
249,79,120473,5,8,0:3:0:0:
151,203,120901,2,0,P|83:229|22:187,2,121.499996292114,2|8|2,0:0|0:1|0:0,0:0:0:0:
249,79,122187,1,8,0:3:0:0:
353,197,122616,2,0,L|348:266,1,60.7499981460572,2|0,1:2|0:0,0:0:0:0:
307,325,123044,2,0,P|267:338|226:317,1,60.7499981460572,10|0,0:1|0:0,0:0:0:0:
187,284,123473,2,0,L|120:282,2,60.7499981460572,2|0|2,0:0|0:0|1:3,0:0:0:0:
258,143,124330,6,0,B|262:84|262:84|275:69|275:69|277:2,2,121.499996292114,2|8|2,0:0|0:1|0:0,0:0:0:0:
326,285,125615,1,8,0:3:0:0:
442,178,126044,2,0,P|453:144|437:104,1,60.7499981460572,2|0,1:2|0:0,0:0:0:0:
406,52,126473,2,0,L|311:50,1,60.7499981460572,8|0,0:1|0:0,0:0:0:0:
285,101,126901,2,0,L|193:109,2,60.7499981460572,2|0|2,0:0|0:0|1:2,0:0:0:0:
382,225,127758,6,0,P|394:264|385:298,1,60.7499981460572,0|8,0:0|0:3,0:0:0:0:
346,348,128187,2,0,P|277:368|228:341,2,121.499996292114,8|2|4,0:1|0:0|0:3,0:0:0:0:
385,195,129473,2,0,L|294:186,1,60.7499981460572,0|8,1:0|0:3,0:0:0:0:
258,231,129901,2,0,L|106:242,2,121.499996292114,10|10|0,0:1|0:3|1:0,0:0:0:0:
354,105,131187,2,0,L|506:116,2,121.499996292114,2|10|2,0:0|0:1|0:0,0:0:0:0:
196,94,132473,5,10,0:3:0:0:
256,192,132687,12,2,134187,0:1:0:0:
81,268,134615,6,0,L|75:340,2,67.5,2|2|10,0:0|0:0|0:3,0:0:0:0:
136,199,135259,2,0,L|130:127,2,67.5,6|10|2,0:3|0:3|0:3,0:0:0:0:
200,270,135901,6,0,B|268:264|268:264|278:248|278:248|344:242,1,148.50000453186,14|8,1:2|0:1,0:0:0:0:
409,309,136544,1,0,3:0:0:0:
345,382,136759,2,0,L|248:376,1,74.2500022659302,2|0,1:2|3:0,0:0:0:0:
203,308,137187,2,0,L|106:314,1,74.2500022659302,10|0,0:1|3:0,0:0:0:0:
41,353,137616,6,0,B|-4:309|-4:309|39:217,1,148.50000453186,2|8,1:2|0:1,0:0:0:0:
87,152,138259,1,0,3:0:0:0:
160,214,138473,2,0,L|258:204,1,74.2500022659302,2|0,1:2|3:0,0:0:0:0:
300,137,138901,2,0,L|398:147,1,74.2500022659302,10|0,0:1|3:0,0:0:0:0:
465,179,139330,6,0,P|497:251|455:316,1,148.50000453186,10|10,1:2|0:1,0:0:0:0:
390,367,139973,1,0,3:0:0:0:
312,309,140187,2,0,P|280:237|322:172,1,148.50000453186,2|10,1:2|0:1,0:0:0:0:
386,120,140830,1,0,3:0:0:0:
316,52,141044,2,0,B|247:56|247:56|237:73|237:73|157:81,1,148.50000453186,2|8,1:2|0:1,0:0:0:0:
6,168,141901,2,0,P|-6:216|15:261,1,74.2500022659302,0|2,1:0|3:1,0:0:0:0:
76,297,142330,2,0,L|183:281,1,74.2500022659302,8|0,0:1|3:0,0:0:0:0:
201,204,142759,6,0,P|270:172|357:217,1,148.50000453186,14|8,1:2|0:1,0:0:0:0:
412,251,143401,1,0,3:0:0:0:
489,187,143615,2,0,P|500:152|485:112,1,74.2500022659302,2|0,1:2|3:0,0:0:0:0:
422,46,144044,2,0,L|327:49,1,74.2500022659302,10|0,0:1|3:0,0:0:0:0:
263,96,144473,6,0,B|251:164|251:164|265:180|265:180|250:253,1,148.50000453186,2|8,1:2|0:1,0:0:0:0:
215,325,145115,1,0,3:0:0:0:
292,383,145330,2,0,L|379:374,1,74.2500022659302,2|0,1:2|3:0,0:0:0:0:
449,327,145758,2,0,P|459:287|443:246,1,74.2500022659302,10|0,0:1|3:0,0:0:0:0:
393,177,146187,6,0,P|314:155|253:203,1,148.50000453186,10|10,1:2|0:1,0:0:0:0:
202,265,146830,1,0,3:0:0:0:
122,211,147044,2,0,P|86:137|135:70,1,148.50000453186,2|10,1:2|0:1,0:0:0:0:
184,16,147687,1,0,3:0:0:0:
244,90,147901,2,0,B|287:108|325:84|312:72|346:47|401:72,1,148.50000453186,6|8,1:2|0:1,0:0:0:0:
506,214,148758,2,0,L|498:292,1,74.2500022659302,14|2,0:1|0:3,0:0:0:0:
416,339,149187,2,0,P|372:354|330:336,1,74.2500022659302,10|2,0:1|0:0,0:0:0:0:
262,298,149616,6,0,L|110:291,2,148.50000453186,14|10|0,1:2|0:1|1:0,0:0:0:0:
320,221,150687,1,0,3:0:0:0:
233,177,150901,2,0,P|220:144|235:99,1,74.2500022659302,8|2,0:1|3:2,0:0:0:0:
304,46,151330,2,0,L|462:43,2,148.50000453186,2|10|0,1:2|0:1|1:0,0:0:0:0:
228,107,152401,1,2,3:2:0:0:
310,157,152616,2,0,P|329:190|325:239,1,74.2500022659302,10|0,0:1|3:0,0:0:0:0:
275,305,153044,6,0,P|201:334|118:283,1,148.50000453186,10|10,1:2|0:1,0:0:0:0:
134,213,153687,1,0,3:0:0:0:
42,183,153901,2,0,P|31:145|46:103,1,74.2500022659302,2|2,1:2|3:2,0:0:0:0:
105,41,154330,2,0,L|215:31,1,74.2500022659302,10|2,0:1|0:0,0:0:0:0:
274,48,154759,6,0,L|269:217,1,148.50000453186,2|10,1:2|0:1,0:0:0:0:
386,349,155615,2,0,P|424:363|460:349,1,74.2500022659302,0|2,1:0|3:1,0:0:0:0:
495,265,156044,2,0,P|502:214|469:169,1,74.2500022659302,10|0,0:1|3:0,0:0:0:0:
402,162,156473,6,0,P|386:84|414:12,2,148.50000453186,14|10|0,1:2|0:1|1:0,0:0:0:0:
325,221,157544,1,0,3:0:0:0:
247,163,157758,2,0,P|205:155|156:173,1,74.2500022659302,8|2,0:1|0:0,0:0:0:0:
94,215,158187,2,0,L|108:365,2,148.50000453186,2|10|0,1:2|0:1|1:0,0:0:0:0:
22,151,159258,1,2,3:2:0:0:
63,63,159473,2,0,P|95:45|139:54,1,74.2500022659302,10|2,0:1|3:0,0:0:0:0:
204,111,159901,5,10,1:2:0:0:
275,45,160116,2,0,L|360:51,1,74.2500022659302,0|8,0:0|0:1,0:0:0:0:
416,119,160544,1,0,3:0:0:0:
345,185,160759,2,0,L|260:179,1,74.2500022659302,10|0,1:2|0:0,0:0:0:0:
176,198,161187,2,0,P|166:240|182:278,1,74.2500022659302,10|0,0:1|0:0,0:0:0:0:
228,348,161615,1,10,0:0:0:0:
300,284,161830,1,8,0:0:0:0:
355,363,162044,2,0,P|403:377|444:359,1,74.2500022659302,10|8,0:0|0:0,0:0:0:0:
503,313,162473,2,0,L|513:152,1,148.50000453186,10|10,0:1|0:1,0:0:0:0:
419,15,163330,6,0,P|361:1|290:41,1,135,14|8,1:2|0:1,0:0:0:0:
257,112,163973,1,2,3:2:0:0:
186,59,164187,2,0,P|128:45|61:93,1,135,2|10,1:2|0:1,0:0:0:0:
32,255,165044,2,0,L|34:338,2,67.5,2|0|8,1:2|3:0|0:1,0:0:0:0:
101,201,165687,1,2,3:2:0:0:
153,271,165901,2,0,P|218:296|286:256,1,135,0|10,1:0|0:1,0:0:0:0:
326,102,166759,6,0,P|390:72|464:105,1,135,14|8,1:2|0:1,0:0:0:0:
497,163,167402,1,2,3:2:0:0:
446,234,167616,2,0,L|304:230,1,135,2|10,1:2|0:1,0:0:0:0:
159,319,168473,2,0,L|74:323,2,67.5,2|2|0,1:2|3:2|3:0,0:0:0:0:
221,380,169116,1,0,3:0:0:0:
297,338,169330,2,0,P|306:301|295:263,1,67.5,0|2,3:0|0:1,0:0:0:0:
225,225,169759,2,0,P|216:188|227:150,1,67.5,8|0,0:1|1:0,0:0:0:0:
280,94,170187,6,0,B|345:100|345:100|351:112|351:112|427:125,1,135,14|8,1:2|0:1,0:0:0:0:
465,187,170830,1,2,3:2:0:0:
422,263,171044,2,0,B|356:269|356:269|350:281|350:281|274:294,1,135,2|10,1:2|0:1,0:0:0:0:
147,196,171901,2,0,L|150:116,2,67.5,2|0|8,1:2|3:0|0:1,0:0:0:0:
83,257,172544,1,2,3:2:0:0:
140,323,172759,2,0,P|223:344|277:304,1,135,0|10,1:0|0:1,0:0:0:0:
344,166,173616,6,0,P|425:136|476:161,1,135,8|10,1:2|0:1,0:0:0:0:
489,327,174473,2,0,P|408:357|357:332,1,135,8|10,1:2|0:1,0:0:0:0:
260,223,175330,2,0,L|173:215,1,60.7499981460572,0|0,1:0|0:0,0:0:0:0:
138,268,175759,2,0,L|51:276,2,60.7499981460572
255,374,176616,2,0,L|401:359,1,121.499996292114,4|2,0:0|1:2,0:0:0:0:
