osu file format v14

[General]
AudioFilename: audio.mp3
AudioLeadIn: 1500
PreviewTime: 48473
Countdown: 0
SampleSet: Soft
StackLeniency: 0.3
Mode: 0
LetterboxInBreaks: 0
EpilepsyWarning: 1
WidescreenStoryboard: 1

[Editor]
Bookmarks: 7330,21044,34759,50187,63901,79330,93044,106759,120473,135901,149616,163330
DistanceSpacing: 2.2
BeatDivisor: 4
GridSize: 8
TimelineZoom: 2.500004

[Metadata]
Title:G4L
TitleUnicode:G4L
Artist:Giga
ArtistUnicode:Giga
Creator:Beren
Version:My Love
Source:Artiswitch
Tags:アーティスウィッチ Necho cqmasai Reincarnation Jycool jyc-Binggan arronchu1207 Yumerios Bellicose Hengye q*Left giga 鏡音レン Kagamine Ren VOCALOID ギガP japanese pop
BeatmapID:3178082
BeatmapSetID:1555674

[Difficulty]
HPDrainRate:6
CircleSize:4
OverallDifficulty:9
ApproachRate:9.5
SliderMultiplier:3.3
SliderTickRate:1

[Events]
//Background and Video events
0,0,"91799821_p0.jpg",0,0
//Break Periods
//Storyboard Layer 0 (Background)
//Storyboard Layer 1 (Fail)
//Storyboard Layer 2 (Pass)
//Storyboard Layer 3 (Foreground)
Sprite,Foreground,Centre,"sb\id1.png",320,240 F,0,166759,169330,1 F,0,169330,169759,1,0
//Storyboard Layer 4 (Overlay)
//Storyboard Sound Samples

[TimingPoints]
-1241,428.571428571429,4,2,1,30,1,0
92,-100,4,2,1,30,0,0
139,-100,4,2,1,40,0,0
187,-100,4,2,1,50,0,0
235,-100,4,2,1,60,0,0
282,-100,4,2,1,70,0,0
330,-100,4,2,1,80,0,0
378,-100,4,2,1,90,0,0
425,-100,4,2,1,100,0,0
473,-100,4,2,1,50,0,0
5830,-200,4,2,1,50,0,0
6151,-200,4,2,1,5,0,0
6259,-100,4,2,1,50,0,0
6634,-100,4,2,1,5,0,0
6687,-200,4,2,1,30,0,0
6794,-200,4,2,1,40,0,0
6901,-200,4,2,1,50,0,0
7009,-200,4,2,1,60,0,0
7116,-200,4,2,1,70,0,0
7330,-100,4,2,1,60,0,0
7759,-200,4,2,1,60,0,0
9473,-100,4,2,1,60,0,0
9901,-200,4,2,1,60,0,0
10759,-100,4,2,1,60,0,0
11187,-200,4,2,1,60,0,0
12901,-100,4,2,1,60,0,0
13330,-200,4,2,1,60,0,0
14187,-100,4,2,1,60,0,0
14616,-200,4,2,1,60,0,0
16330,-400,4,2,1,60,0,0
16544,-400,4,2,1,60,0,0
16759,-400,4,2,1,60,0,0
17401,-400,4,2,1,60,0,0
17616,-100,4,2,1,60,0,0
18044,-200,4,2,1,60,0,0
19330,-100,4,2,1,60,0,0
20187,-100,4,2,1,70,0,0
20616,-400,4,2,1,70,0,0
20830,-400,4,2,1,70,0,0
21044,-66.6666666666667,4,2,2,80,0,0
21473,-100,4,2,2,80,0,0
24044,-200,4,2,2,80,0,0
24259,-100,4,2,2,80,0,0
24473,-66.6666666666667,4,2,2,80,0,0
24901,-100,4,2,2,80,0,0
26187,-200,4,2,99,80,0,0
26401,-100,4,2,2,80,0,0
27044,-133.333333333333,4,2,2,80,0,0
27473,-200,4,2,2,80,0,0
27901,-66.6666666666667,4,2,2,80,0,0
28330,-100,4,2,2,80,0,0
30901,-200,4,2,2,80,0,0
31116,-100,4,2,2,80,0,0
31330,-66.6666666666667,4,2,2,80,0,0
31759,-200,4,2,2,80,0,0
32187,-100,4,2,2,80,0,0
32616,-200,4,2,2,80,0,0
33044,-100,4,2,2,80,0,0
33901,-100,4,2,1,80,0,0
34116,-100,4,2,2,80,0,0
34330,-100,4,2,1,80,0,0
34759,-400,4,2,3,50,0,0
35187,-400,4,2,3,50,0,0
41616,-200,4,2,3,55,0,0
43330,-200,4,2,3,60,0,0
45044,-200,4,2,3,65,0,0
46759,-200,4,2,3,65,0,0
46973,-200,4,2,3,40,0,0
47187,-200,4,2,3,50,0,0
47401,-200,4,2,3,55,0,0
47616,-200,4,2,3,60,0,0
47830,-200,4,2,3,65,0,0
48044,-200,4,2,3,70,0,0
48259,-200,4,2,3,75,0,0
48473,-400,4,2,98,90,0,0
48794,-400,4,2,3,80,0,0
48901,-400,4,2,3,80,0,0
49759,-400,4,2,99,80,0,0
50187,-66.6666666666667,4,2,4,85,0,0
50616,-100,4,2,4,85,0,0
51901,-200,4,2,4,85,0,0
52330,-100,4,2,4,85,0,0
53616,-66.6666666666667,4,2,4,85,0,0
54044,-80,4,2,4,85,0,0
54473,-100,4,2,4,85,0,0
54901,-133.333333333333,4,2,4,85,0,0
55330,-200,4,2,4,85,0,0
55437,-200,4,2,4,85,0,0
55544,-400,4,2,4,85,0,0
55973,-100,4,2,4,85,0,0
56401,-100,4,2,99,100,0,0
56616,-100,4,2,4,85,0,0
57044,-66.6666666666667,4,2,4,85,0,0
57473,-100,4,2,4,85,0,0
58759,-200,4,2,4,85,0,0
59187,-100,4,2,4,85,0,0
60473,-66.6666666666667,4,2,4,85,0,0
60901,-200,4,2,4,85,0,0
61330,-66.6666666666667,4,2,4,85,0,0
61759,-200,4,2,4,85,0,0
62187,-66.6666666666667,4,2,4,85,0,0
62616,-100,4,2,4,85,0,0
63901,-66.6666666666667,4,2,4,85,0,0
64330,-100,4,2,4,85,0,0
67330,-66.6666666666667,4,2,4,85,0,0
67759,-100,4,2,4,85,0,0
69044,-200,4,2,4,85,0,0
69366,-100,4,2,4,85,0,0
70116,-100,4,2,99,100,0,0
70223,-100,4,2,4,85,0,0
70759,-66.6666666666667,4,2,4,85,0,0
71187,-100,4,2,4,85,0,0
74187,-66.6666666666667,4,2,4,85,0,0
74616,-200,4,2,4,85,0,0
75044,-66.6666666666667,4,2,4,85,0,0
75473,-200,4,2,4,85,0,0
75901,-100,4,2,1,65,0,0
77616,-100,4,2,5,65,0,0
77830,-200,4,2,3,60,0,0
78044,-400,4,2,3,60,0,0
78259,-200,4,2,3,60,0,0
78473,-400,4,2,3,60,0,0
78687,-200,4,2,3,60,0,0
79009,-200,4,2,1,60,0,0
79330,-100,4,2,5,70,0,0
81473,-133.333333333333,4,2,5,70,0,0
81901,-200,4,2,5,70,0,0
82330,-400,4,2,5,70,0,0
82759,-100,4,2,5,70,0,0
85330,-200,4,2,5,70,0,0
86187,-100,4,2,5,70,0,0
87901,-133.333333333333,4,2,5,70,0,0
88330,-200,4,2,5,70,0,0
88759,-133.333333333333,4,2,5,70,0,0
89187,-200,4,2,5,70,0,0
89616,-100,4,2,5,70,0,0
92616,-400,4,2,5,70,0,0
92937,-400,4,2,5,5,0,0
93044,-100,4,2,6,65,0,0
93473,-200,4,2,6,65,0,0
95187,-100,4,2,6,65,0,0
95616,-200,4,2,6,65,0,0
96044,-400,4,2,6,65,0,0
96473,-100,4,2,6,65,0,0
96901,-200,4,2,6,65,0,0
98616,-100,4,2,6,65,0,0
99044,-200,4,2,6,65,0,0
99473,-400,4,2,6,65,0,0
99901,-100,4,2,6,65,0,0
100330,-200,4,2,6,65,0,0
102044,-100,4,2,6,65,0,0
102473,-200,4,2,6,65,0,0
102901,-400,4,2,6,65,0,0
103330,-100,4,2,6,65,0,0
103759,-200,4,2,6,65,0,0
104187,-133.333333333333,4,2,6,65,0,0
104616,-200,4,2,6,65,0,0
105044,-100,4,2,6,65,0,0
105901,-200,4,2,6,65,0,0
106759,-200,4,2,7,50,0,0
118759,-200,4,2,7,60,0,0
119616,-200,4,2,7,70,0,0
120901,-400,4,2,3,60,0,0
127330,-400,4,2,4,60,0,0
127759,-400,4,2,3,70,0,0
129473,-400,4,2,4,70,0,0
129687,-400,4,2,3,70,0,0
130759,-400,4,2,4,70,0,0
131187,-400,4,2,3,75,0,0
134080,-400,4,2,5,5,0,0
134187,-400,4,2,98,90,0,0
134616,-400,4,2,5,80,0,0
135901,-66.6666666666667,4,2,4,85,0,0
136330,-100,4,2,4,85,0,0
137616,-200,4,2,4,85,0,0
138044,-100,4,2,4,85,0,0
139330,-66.6666666666667,4,2,4,85,0,0
139759,-80,4,2,4,85,0,0
140187,-100,4,2,4,85,0,0
140616,-133.333333333333,4,2,4,85,0,0
141044,-200,4,2,4,85,0,0
141259,-400,4,2,4,85,0,0
141687,-100,4,2,4,85,0,0
142116,-100,4,2,99,100,0,0
142330,-100,4,2,4,85,0,0
142759,-66.6666666666667,4,2,4,85,0,0
143187,-100,4,2,4,85,0,0
144473,-200,4,2,4,85,0,0
144901,-100,4,2,4,85,0,0
146187,-66.6666666666667,4,2,4,85,0,0
146616,-200,4,2,4,85,0,0
147044,-66.6666666666667,4,2,4,85,0,0
147473,-200,4,2,4,85,0,0
147901,-66.6666666666667,4,2,4,85,0,0
148330,-100,4,2,4,85,0,0
149616,-66.6666666666667,4,2,4,85,0,0
149937,-66.6666666666667,4,2,4,85,0,0
150044,-100,4,2,4,85,0,0
153044,-66.6666666666667,4,2,4,85,0,0
153473,-100,4,2,4,85,0,0
154759,-200,4,2,4,85,0,0
155401,-100,4,2,4,85,0,0
155830,-100,4,2,99,100,0,0
155937,-100,4,2,4,85,0,0
156473,-66.6666666666667,4,2,4,85,0,0
156794,-66.6666666666667,4,2,4,85,0,0
156901,-100,4,2,4,85,0,0
159901,-66.6666666666667,4,2,4,85,0,0
160330,-200,4,2,4,85,0,0
160759,-66.6666666666667,4,2,4,85,0,0
161187,-200,4,2,4,85,0,0
161616,-200,4,2,1,65,0,0
161830,-100,4,2,1,65,0,0
162901,-100,4,2,8,65,0,0
163330,-66.6666666666667,4,2,4,80,0,0
163759,-100,4,2,4,80,0,0
166116,-100,4,2,5,80,0,0
166330,-200,4,2,5,80,0,0
166759,-66.6666666666667,4,2,4,80,0,0
167187,-100,4,2,4,80,0,0
169544,-200,4,2,99,100,0,0
169759,-200,4,2,4,80,0,0
169973,-100,4,2,4,80,0,0
170187,-66.6666666666667,4,2,4,80,0,0
170616,-100,4,2,4,80,0,0
173187,-200,4,2,4,80,0,0
173455,-100,4,2,4,80,0,0
173616,-66.6666666666667,4,2,4,80,0,0
174044,-200,4,2,4,80,0,0
174473,-66.6666666666667,4,2,4,80,0,0
174901,-200,4,2,4,80,0,0
175330,-200,4,2,4,60,0,0
176616,-200,4,2,8,80,0,0
177044,-200,4,2,1,80,0,0

[Colours]
Combo1 : 172,60,60
Combo2 : 81,106,121
Combo3 : 192,192,192
SliderTrackOverride : 192,192,192

[HitObjects]
72,304,92,6,0,L|30:287,7,36.6666666666667,2|2|2|2|2|2|2|2,0:0|0:0|0:0|0:0|0:0|0:0|0:0|0:0,0:0:0:0:
112,288,473,5,0,1:0:0:0:
224,320,1116,1,2,0:0:0:0:
224,320,1330,1,2,0:0:0:0:
304,264,1759,1,2,0:0:0:0:
424,272,2187,21,2,0:3:0:0:
224,320,3044,1,2,0:3:0:0:
304,264,3366,1,2,0:0:0:0:
424,272,3687,1,2,0:0:0:0:
400,96,3901,5,0,1:0:0:0:
288,64,4544,1,2,0:0:0:0:
288,64,4758,1,2,0:0:0:0:
208,120,5187,1,2,0:0:0:0:
88,112,5616,21,2,0:3:0:0:
88,112,5830,1,2,0:0:0:0:
72,104,5937,1,0,0:0:0:0:
56,96,6044,2,0,L|72:160,1,41.25,2|0,0:0|0:0,0:0:0:0:
72,304,6259,6,0,B|25:307|1:266|1:266|80:304|160:272|192:200,1,288.75,0|0,0:0|0:0,0:0:0:0:
200,192,6687,2,0,L|205:171,10,20.625,0|0|0|0|0|0|0|0|0|0|0,0:0|0:0|0:0|0:0|0:0|0:0|0:0|0:0|0:0|0:0|0:0,0:0:0:0:
312,168,7330,22,0,P|379:145|374:218,1,165,0|0,1:0|3:0,0:0:0:0:
336,312,7759,2,0,P|376:308|414:325,1,82.5,0|0,3:0|3:0,0:0:0:0:
488,384,8187,1,10,3:2:0:0:
336,312,8401,1,0,3:0:0:0:
488,248,8616,1,0,3:0:0:0:
379,215,8830,1,0,3:0:0:0:
462,117,9044,6,0,B|447:78|447:78|421:110,1,82.5,2|0,0:3|3:0,0:0:0:0:
422,111,9473,2,0,B|366:106|366:106|316:125|316:125|261:121,1,165,0|0,1:0|3:0,0:0:0:0:
184,56,9901,2,0,P|192:16|216:32,1,82.5,8|0,0:0|3:0,0:0:0:0:
261,121,10223,1,2,0:3:0:0:
261,121,10330,2,0,L|266:141,1,20.625,0|0,3:0|3:0,0:0:0:0:
240,136,10437,2,0,L|237:156,1,20.625,0|0,3:0|3:0,0:0:0:0:
216,144,10544,2,0,L|206:162,1,20.625,2|0,3:0|3:0,0:0:0:0:
184,152,10651,2,0,L|169:166,1,20.625,0|0,3:0|3:0,0:0:0:0:
143,160,10759,22,0,B|111:185|111:185|122:309,1,165,0|0,1:0|3:0,0:0:0:0:
32,360,11080,1,0,3:0:0:0:
32,360,11187,2,0,B|-6:346|-6:346|24:319,1,82.5,0|0,3:0|3:0,0:0:0:0:
123,310,11616,1,10,3:2:0:0:
224,336,11830,1,0,3:0:0:0:
421,306,12044,1,0,3:0:0:0:
320,280,12258,1,0,3:0:0:0:
400,200,12473,6,0,L|482:192,1,82.5,2|8,0:3|0:3,0:0:0:0:
392,48,12794,1,0,0:0:0:0:
359,40,12901,2,0,P|336:73|337:114,1,82.5,8|0,0:3|0:0,0:0:0:0:
288,209,13116,2,0,P|292:249|319:279,1,82.5,8|0,0:3|0:0,0:0:0:0:
224,336,13330,22,0,L|141:328,1,82.5,14|0,0:3|3:0,0:0:0:0:
104,336,13651,1,10,0:3:0:0:
104,336,13759,2,0,L|99:316,1,20.625,0|0,3:0|3:0,0:0:0:0:
56,312,13866,2,0,L|59:292,1,20.625,0|0,3:0|3:0,0:0:0:0:
40,264,13973,2,0,L|50:246,1,20.625,10|0,3:3|3:0,0:0:0:0:
48,216,14080,2,0,L|63:202,1,20.625,0|0,3:0|3:0,0:0:0:0:
96,179,14187,6,0,B|135:132|119:84|119:84|128:117|159:133,1,165,0|0,1:0|3:0,0:0:0:0:
255,121,14509,1,0,3:0:0:0:
255,121,14616,2,0,L|337:113,1,82.5,0|0,3:0|3:0,0:0:0:0:
432,184,15044,1,10,0:0:0:0:
448,80,15259,1,0,3:0:0:0:
336,224,15473,1,0,3:0:0:0:
418,289,15688,1,0,3:0:0:0:
264,352,15901,21,2,0:3:0:0:
264,352,16009,1,2,0:0:0:0:
294,220,16330,2,0,L|349:224,1,41.25,0|0,1:0|0:0,0:0:0:0:
96,179,16759,5,2,0:0:0:0:
96,179,16867,1,2,0:0:0:0:
126,311,17188,2,0,L|181:306,1,41.25,2|0,0:0|3:0,0:0:0:0:
192,280,17616,22,0,L|27:294,1,165,0|0,1:0|3:0,0:0:0:0:
96,179,17937,1,0,3:0:0:0:
96,179,18044,2,0,P|118:155|109:187,1,82.5,0|0,3:0|3:0,0:0:0:0:
335,222,18473,2,0,P|354:257|349:297,1,82.5,10|0,0:0|1:0,0:0:0:0:
240,360,18794,1,0,0:0:0:0:
206,355,18901,2,0,P|186:319|191:279,1,82.5,0|0,3:0|3:0,0:0:0:0:
256,120,19330,6,0,L|421:134,1,165,0|0,1:0|3:0,0:0:0:0:
448,112,19651,1,0,3:0:0:0:
464,136,19759,1,0,1:0:0:0:
480,168,19866,1,0,3:0:0:0:
480,200,19973,1,0,3:0:0:0:
472,240,20080,1,0,3:0:0:0:
448,344,20187,22,0,L|429:306,1,41.25,8|0,0:1|0:0,0:0:0:0:
448,344,20294,2,0,L|478:314,1,41.25,2|0,0:3|0:0,0:0:0:0:
448,344,20401,2,0,L|485:363,1,41.25,2|0,0:3|0:0,0:0:0:0:
448,344,20508,2,0,L|441:385,1,41.25,2|0,0:3|0:0,0:0:0:0:
448,344,20616,2,0,L|400:350,1,41.25,8|0,0:1|0:0,0:0:0:0:
272,304,21044,22,0,B|226:348|159:338|159:338|226:377|275:337,1,247.500009441376,12|0,1:2|0:0,0:0:0:0:
192,240,21366,21,0,1:0:0:0:
192,240,21473,2,0,B|196:184|196:184|222:162|222:162|230:74,1,165,10|0,0:1|1:0,0:0:0:0:
64,72,21901,2,0,P|38:123|104:94,1,165,2|0,0:0|1:0,0:0:0:0:
228,87,22223,1,0,0:0:0:0:
228,87,22330,2,0,P|305:64|378:99,1,165,2|0,0:1|1:0,0:0:0:0:
448,344,22759,21,0,1:0:0:0:
464,368,22866,2,0,L|472:272,1,82.5,2|0,0:0|0:0,0:0:0:0:
512,168,23080,1,0,1:0:0:0:
512,168,23187,2,0,B|437:174|437:174|415:200|415:200|359:204,1,165,10|0,0:1|1:0,0:0:0:0:
228,87,23616,2,0,B|273:19|273:19|310:93,1,165,2|0,0:0|1:0,0:0:0:0:
256,192,23937,5,0,0:0:0:0:
256,192,24044,2,2,L|262:263,1,41.25,2|0,0:1|0:0,0:0:0:0:
229,257,24259,2,0,L|219:145,1,82.5,0|0,1:0|0:0,0:0:0:0:
64,72,24473,6,0,P|34:148|145:118,1,247.500009441376,12|0,1:2|0:0,0:0:0:0:
229,257,24794,5,0,1:0:0:0:
229,257,24901,2,0,B|271:238|303:263|303:263|337:290|388:270,1,165,10|0,0:1|1:0,0:0:0:0:
96,352,25330,2,0,P|70:301|136:330,1,165,2|0,0:0|1:0,0:0:0:0:
229,257,25651,1,0,0:0:0:0:
229,257,25759,2,0,B|236:182|236:182|214:155|214:155|220:100,1,165,2|0,0:1|1:0,0:0:0:0:
336,120,26080,5,0,0:0:0:0:
336,120,26187,2,0,L|407:113,1,41.25,2|0,1:0|0:0,0:0:0:0:
384,96,26401,2,0,L|479:87,1,82.5,0|0,0:0|1:0,0:0:0:0:
288,24,26616,22,0,P|210:1|137:36,1,165,10|0,0:1|1:0,0:0:0:0:
168,176,26937,1,0,0:0:0:0:
168,176,27044,2,0,P|222:149|280:166,1,123.750004720688,2|0,0:0|1:0,0:0:0:0:
272,288,27366,1,0,0:0:0:0:
272,288,27473,2,0,P|233:276|197:293,1,82.5,10|0,0:1|1:0,0:0:0:0:
357,337,27794,21,0,0:0:0:0:
357,337,27901,2,0,B|409:285|367:226|367:226|419:174|376:115,1,247.500009441376,12|0,1:2|0:0,0:0:0:0:
400,24,28223,21,0,1:0:0:0:
400,24,28330,2,0,B|361:10|323:34|323:34|352:-6|392:2,1,165,10|0,0:1|1:0,0:0:0:0:
280,166,28759,2,0,B|225:172|225:172|198:150|198:150|123:157,1,165,2|0,0:0|1:0,0:0:0:0:
31,91,29080,1,0,0:0:0:0:
31,91,29187,2,0,P|14:27|73:57,1,165,2|0,0:1|1:0,0:0:0:0:
86,266,29509,21,0,0:0:0:0:
86,266,29616,2,0,B|123:340|123:340|168:272,1,165,0|0,1:0|0:0,0:0:0:0:
272,288,29937,1,0,1:0:0:0:
272,288,30044,2,0,B|314:269|346:294|346:294|380:321|431:301,1,165,10|0,0:1|1:0,0:0:0:0:
432,168,30366,1,0,0:0:0:0:
432,168,30473,2,0,P|368:151|398:210,1,165,2|0,0:0|1:0,0:0:0:0:
504,88,30794,5,0,0:0:0:0:
504,88,30901,2,2,L|508:32,1,41.25,10|0,0:1|0:0,0:0:0:0:
480,0,31116,2,0,L|472:136,1,82.5,0|0,1:0|0:0,0:0:0:0:
319,33,31330,6,0,L|72:54,1,247.500009441376,12|0,1:2|0:0,0:0:0:0:
56,48,31651,5,0,1:0:0:0:
40,40,31759,2,0,P|24:72|32:128,1,82.5,10|0,0:1|1:0,0:0:0:0:
220,227,32187,6,0,L|451:247,1,165,2|0,0:0|1:0,0:0:0:0:
399,232,32508,1,0,0:0:0:0:
415,224,32616,2,0,P|431:256|423:312,1,82.5,2|0,0:1|1:0,0:0:0:0:
72,337,33044,22,0,L|80:255,1,82.5,2|0,1:2|0:0,0:0:0:0:
64,256,33259,2,0,L|57:339,1,82.5,2|0,0:0|1:0,0:0:0:0:
256,232,33473,6,0,L|263:149,1,82.5,10|0,0:1|0:0,0:0:0:0:
248,151,33688,2,0,L|240:233,1,82.5,2|0,1:2|0:0,0:0:0:0:
448,128,33901,22,0,L|455:45,1,82.5,10|0,0:1|0:0,0:0:0:0:
440,47,34116,2,0,L|432:129,1,82.5,2|0,1:2|0:0,0:0:0:0:
427,301,34330,5,8,0:1:0:0:
427,301,34759,21,2,1:2:0:0:
427,301,35187,6,0,L|371:305,1,41.25,0|0,0:0|1:0,0:0:0:0:
312,336,35616,1,10,1:2:0:0:
248,280,35830,1,0,0:0:0:0:
176,344,36044,1,2,0:0:0:0:
96,274,36258,1,0,1:0:0:0:
24,352,36473,1,2,1:2:0:0:
88,48,36901,22,0,L|143:52,1,41.25,0|0,0:0|1:0,0:0:0:0:
203,83,37330,1,10,1:2:0:0:
267,27,37543,1,0,0:0:0:0:
339,91,37758,1,2,0:0:0:0:
419,21,37972,1,0,1:0:0:0:
484,104,38186,1,2,1:2:0:0:
427,301,38616,6,0,L|379:269,1,41.25,0|0,0:0|1:0,0:0:0:0:
320,232,39044,1,10,1:2:0:0:
232,256,39259,1,0,0:0:0:0:
200,344,39473,1,2,0:0:0:0:
96,368,39687,1,0,1:0:0:0:
16,288,39901,1,2,1:2:0:0:
85,83,40330,22,0,L|133:115,1,41.25,0|0,0:0|1:0,0:0:0:0:
192,152,40758,1,10,1:2:0:0:
280,128,40973,1,0,0:0:0:0:
312,40,41187,1,2,0:0:0:0:
416,16,41401,1,0,1:0:0:0:
496,96,41616,6,0,P|504:156|478:211,1,123.75,2|0,1:2|3:0,0:0:0:0:
488,232,42044,1,0,0:0:0:0:
376,200,42259,1,0,1:0:0:0:
272,248,42473,2,0,P|232:242|196:259,1,82.5,10|0,1:2|0:0,0:0:0:0:
288,360,42901,2,0,P|328:365|364:347,1,82.5,2|0,3:2|1:0,0:0:0:0:
376,336,43223,1,0,3:0:0:0:
386,323,43330,22,0,L|373:179,1,123.75,2|0,1:2|3:0,0:0:0:0:
368,184,43759,1,0,0:0:0:0:
272,120,43973,1,0,1:0:0:0:
176,184,44187,2,0,L|88:176,1,82.5,10|0,1:2|0:0,0:0:0:0:
173,23,44616,2,0,L|255:30,1,82.5,2|0,3:2|1:0,0:0:0:0:
265,18,44937,1,0,3:0:0:0:
275,4,45044,6,0,P|291:62|272:120,1,123.75,2|0,1:2|3:0,0:0:0:0:
264,136,45473,2,0,L|346:143,1,82.5,0|0,0:0|1:0,0:0:0:0:
454,218,45901,1,10,1:2:0:0:
446,234,46009,1,0,3:0:0:0:
438,250,46116,2,0,L|374:255,1,41.25,0|0,3:0|0:0,0:0:0:0:
286,282,46330,2,0,P|275:320|287:359,1,82.5,2|0,0:0|1:0,0:0:0:0:
287,359,46759,21,2,0:0:0:0:
168,336,46973,1,0,1:0:0:0:
88,247,47187,5,4,0:3:0:0:
75,223,47294,1,4,0:3:0:0:
72,192,47401,1,4,0:3:0:0:
78,162,47509,1,4,0:3:0:0:
101,143,47616,1,4,0:3:0:0:
134,132,47723,1,4,0:3:0:0:
169,131,47830,1,4,0:3:0:0:
209,149,47937,1,4,0:3:0:0:
243,157,48044,22,0,L|248:137,1,20.625,4|0,0:3|0:0,0:0:0:0:
291,165,48151,2,0,L|290:144,1,20.625,4|0,0:3|0:0,0:0:0:0:
339,157,48258,2,0,L|331:138,1,20.625,4|0,0:3|0:0,0:0:0:0:
395,141,48365,2,0,L|380:126,1,20.625,4|0,0:3|0:0,0:0:0:0:
434,109,48473,6,2,P|449:82|452:51,1,61.875,2|0,0:1|0:0,0:0:0:0:
443,29,48901,21,2,0:0:0:0:
387,5,49116,1,2,0:0:0:0:
307,45,49330,1,2,0:0:0:0:
330,137,49544,1,2,0:0:0:0:
432,168,49759,6,0,P|450:184|438:163,1,61.875,2|0,0:0|0:0,0:0:0:0:
330,137,50187,6,0,B|302:198|338:245|338:245|378:295|349:370,1,247.500009441376,14|0,1:2|0:0,0:0:0:0:
208,360,50616,6,0,P|192:296|250:326,1,165,8|0,0:1|3:0,0:0:0:0:
348,371,50937,1,0,3:0:0:0:
480,264,51044,2,0,L|397:256,1,82.5,2|0,1:2|0:0,0:0:0:0:
408,280,51259,2,0,L|490:287,1,82.5,0|0,3:0|0:0,0:0:0:0:
307,45,51473,2,0,B|268:118|268:118|294:196,1,165,10|0,0:1|3:0,0:0:0:0:
294,196,51901,6,0,L|211:189,1,82.5,2|0,1:2|3:0,0:0:0:0:
200,165,52223,1,0,3:0:0:0:
160,304,52330,2,0,P|167:345|153:383,1,82.5,8|0,0:1|0:0,0:0:0:0:
24,360,52544,2,0,P|18:320|32:282,1,82.5,0|0,3:0|0:0,0:0:0:0:
211,189,52759,22,0,L|293:196,1,82.5,2|0,1:2|0:0,0:0:0:0:
283,173,52973,2,0,L|200:165,1,82.5,0|0,3:0|0:0,0:0:0:0:
80,160,53187,2,0,P|60:177|86:163,1,82.5,10|0,0:1|0:0,0:0:0:0:
24,32,53401,22,0,L|103:38,1,41.25,0|0,3:0|3:0,0:0:0:0:
8,48,53509,2,0,L|87:54,1,41.25,0|0,3:0|3:0,0:0:0:0:
0,64,53616,2,0,B|111:74|111:74|150:42|150:42|234:50,1,247.500009441376,10|0,1:2|3:0,0:0:0:0:
480,56,53937,21,0,0:0:0:0:
512,32,54044,2,0,L|288:12,1,206.25,10|0,0:1|3:0,0:0:0:0:
157,180,54366,21,0,3:0:0:0:
129,210,54473,2,0,L|302:195,1,165,2|0,1:2|3:0,0:0:0:0:
480,136,54794,5,0,0:0:0:0:
512,160,54901,2,0,L|338:176,1,123.750004720688,10|0,0:1|3:0,0:0:0:0:
360,280,55223,21,0,0:0:0:0:
329,305,55330,2,0,L|399:310,1,41.25,2|0,1:2|0:0,0:0:0:0:
504,352,55544,6,0,L|463:350,1,41.25,0|8,3:0|0:1,0:0:0:0:
240,264,55973,22,0,L|185:258,3,55,0|0|0|0,3:0|3:0|3:0|1:0,0:0:0:0:
329,305,56401,2,2,B|334:309|337:317|337:317|344:314|344:314|337:317|337:317|340:324|338:332|338:332|345:333|345:333|338:332|338:332|336:339|331:345|331:345|336:350|336:350|331:345|331:345|326:351|319:353|319:353|320:360|320:360|319:353|319:353|311:355|304:353|304:353|302:361|302:361|304:353|304:353|296:351|291:346,1,165,2|8,3:1|0:1,0:0:0:0:
216,152,56830,22,0,P|197:135|179:136,1,41.25,0|0,3:0|3:0,0:0:0:0:
200,136,56937,2,0,P|175:130|160:140,1,41.25,0|0,3:0|3:0,0:0:0:0:
147,150,57044,2,0,P|38:133|67:27,1,247.500009441376,14|0,1:2|0:0,0:0:0:0:
344,48,57473,22,0,B|303:66|272:42|272:42|238:16|188:35,1,165,8|0,0:1|3:0,0:0:0:0:
147,150,57794,1,0,3:0:0:0:
232,264,57901,2,0,P|261:235|279:198,1,82.5,2|0,1:2|0:0,0:0:0:0:
295,215,58116,2,0,P|276:251|247:280,1,82.5,0|0,3:0|0:0,0:0:0:0:
441,347,58330,2,0,P|444:306|434:266,1,82.5,10|0,0:1|0:0,0:0:0:0:
457,268,58545,2,0,P|465:307|462:348,1,82.5,0|0,3:0|0:0,0:0:0:0:
416,104,58759,22,0,P|430:65|430:24,1,82.5,2|0,1:2|3:0,0:0:0:0:
430,24,59080,1,0,3:0:0:0:
430,24,59187,2,0,P|415:62|415:103,1,82.5,8|0,0:1|0:0,0:0:0:0:
457,268,59401,2,0,L|361:259,1,82.5,0|0,3:0|0:0,0:0:0:0:
224,240,59616,6,0,P|223:281|238:319,1,82.5,2|0,1:2|0:0,0:0:0:0:
214,326,59830,2,0,P|198:287|199:246,1,82.5,0|0,3:0|0:0,0:0:0:0:
226,64,60044,2,0,L|130:73,1,82.5,10|0,0:1|0:0,0:0:0:0:
0,171,60259,6,0,P|24:178|39:169,1,41.25,0|0,3:0|3:0,0:0:0:0:
19,175,60366,2,0,P|44:171|54:156,1,41.25,0|0,3:0|3:0,0:0:0:0:
56,144,60473,2,0,B|120:88|90:2|90:2|103:51|149:75,1,247.500009441376,10|0,1:2|0:0,0:0:0:0:
143,72,60901,6,0,L|246:62,1,82.5,10|0,0:1|3:0,0:0:0:0:
463,278,61330,22,0,B|399:222|429:136|429:136|416:185|370:209,1,247.500009441376,2|0,1:2|3:0,0:0:0:0:
376,206,61759,22,0,L|272:196,1,82.5,10|0,0:1|3:0,0:0:0:0:
120,264,62187,6,0,B|96:291|47:293|47:293|93:306|111:342|111:342|107:300|126:260,1,247.500009441376,6|0,1:2|3:0,0:0:0:0:
238,319,62509,5,4,0:3:0:0:
238,319,62616,2,0,P|278:323|317:311,1,82.5,8|0,0:1|3:0,0:0:0:0:
376,206,62830,2,0,P|414:192|444:164,1,82.5,0|0,3:0|3:0,0:0:0:0:
488,296,63044,6,0,L|497:407,1,82.5,14|0,0:1|3:0,0:0:0:0:
472,376,63259,2,0,L|464:293,1,82.5,2|2,0:3|0:3,0:0:0:0:
231,243,63473,22,0,B|218:282|218:282|237:318,1,82.5,10|0,0:1|0:0,0:0:0:0:
445,164,63687,2,0,B|457:124|457:124|438:88,1,82.5,2|0,0:0|0:0,0:0:0:0:
247,48,63901,22,0,B|207:32|151:96|207:168|303:152|335:56,1,247.500009441376,14|0,1:2|0:0,0:0:0:0:
464,293,64330,22,0,P|433:265|395:251,1,82.5,10|0,0:1|0:0,0:0:0:0:
297,261,64544,1,0,3:0:0:0:
237,318,64651,1,0,3:0:0:0:
352,339,64759,2,0,L|337:171,1,165,0|0,1:0|3:0,0:0:0:0:
369,7,65080,1,0,0:0:0:0:
369,7,65187,2,0,P|341:38|327:76,1,82.5,8|0,0:1|0:0,0:0:0:0:
337,174,65401,1,2,3:2:0:0:
394,234,65509,1,2,0:2:0:0:
415,119,65616,22,0,L|247:134,1,165,2|0,1:2|3:0,0:0:0:0:
48,24,65937,1,0,3:0:0:0:
58,48,66044,2,0,L|145:55,1,82.5,10|0,0:1|0:0,0:0:0:0:
415,119,66259,2,0,L|247:134,1,165,2|0,0:0|1:0,0:0:0:0:
16,248,66687,2,0,P|1:286|7:326,1,82.5,2|0,3:2|0:0,0:0:0:0:
184,376,66901,2,0,P|197:337|190:297,1,82.5,10|0,0:1|0:0,0:0:0:0:
96,128,67116,22,0,P|90:152|100:167,1,41.25,0|0,3:0|3:0,0:0:0:0:
92,148,67223,2,0,P|97:172|113:181,1,41.25,0|0,3:0|3:0,0:0:0:0:
128,192,67330,2,0,B|183:153|235:181|235:181|291:211|360:170,1,247.500009441376,10|0,1:2|0:0,0:0:0:0:
280,24,67651,21,2,0:0:0:0:
280,24,67759,2,0,P|263:87|321:57,1,165,10|0,0:1|3:0,0:0:0:0:
456,80,68080,1,0,3:0:0:0:
456,80,68187,2,0,L|463:162,1,82.5,2|0,1:2|0:0,0:0:0:0:
472,280,68401,2,0,L|389:272,1,82.5,2|0,3:2|0:0,0:0:0:0:
205,191,68616,2,0,L|288:184,1,82.5,10|0,0:1|0:0,0:0:0:0:
279,301,68830,2,0,L|272:384,1,82.5,2|0,0:0|0:0,0:0:0:0:
112,360,69044,22,0,P|88:352|120:344,1,82.5,2|0,1:2|3:0,0:0:0:0:
150,194,69473,1,10,0:1:0:0:
150,194,69580,1,2,0:0:0:0:
150,194,69687,2,0,L|205:191,2,55,2|0|0,3:2|3:0|3:0,0:0:0:0:
104,160,69901,6,0,P|89:198|95:238,1,82.5,0|0,1:0|0:0,0:0:0:0:
381,350,70116,2,0,P|395:311|389:271,1,82.5,2|0,3:1|0:0,0:0:0:0:
284,16,70330,2,0,P|269:54|275:94,1,82.5,10|0,0:1|0:0,0:0:0:0:
392,176,70544,6,0,P|367:170|352:180,1,41.25,0|0,3:0|3:0,0:0:0:0:
371,170,70651,2,0,P|346:175|337:191,1,41.25,0|0,3:0|3:0,0:0:0:0:
326,204,70759,2,0,B|271:227|257:299|257:299|255:226|204:190,1,247.500009441376,14|0,1:2|0:0,0:0:0:0:
16,16,71187,6,0,L|24:111,1,82.5,10|0,0:1|0:0,0:0:0:0:
103,161,71402,1,0,3:0:0:0:
90,180,71509,1,0,3:0:0:0:
39,294,71616,2,0,P|21:357|80:328,1,165,0|0,1:0|3:0,0:0:0:0:
238,348,71937,1,0,0:0:0:0:
238,348,72044,2,0,L|246:253,1,82.5,8|0,0:1|0:0,0:0:0:0:
325,203,72259,1,2,3:2:0:0:
312,184,72366,1,2,0:0:0:0:
302,36,72473,6,0,P|244:6|261:68,1,165,2|0,1:2|3:0,0:0:0:0:
478,167,72794,1,0,3:0:0:0:
478,167,72901,2,0,B|422:171|422:171|400:197|400:197|312:205,1,165,10|0,0:1|3:0,0:0:0:0:
244,265,73330,2,0,L|237:352,1,82.5,0|0,1:0|0:0,0:0:0:0:
134,131,73544,2,0,B|115:95|115:95|127:55,1,82.5,2|0,3:2|0:0,0:0:0:0:
302,36,73759,2,0,B|321:72|321:72|309:112,1,82.5,10|0,0:1|0:0,0:0:0:0:
464,248,73973,6,0,L|384:241,1,41.25,2|0,3:0|3:0,0:0:0:0:
476,266,74081,2,0,L|396:259,1,41.25,0|0,3:0|3:0,0:0:0:0:
490,286,74187,2,0,L|244:265,1,247.500009441376,10|0,1:2|0:0,0:0:0:0:
243,264,74616,6,0,L|250:351,1,82.5,8|0,0:1|3:0,0:0:0:0:
55,57,75044,22,0,L|301:36,1,247.500009441376,10|0,1:2|0:0,0:0:0:0:
302,35,75473,22,0,L|295:122,1,82.5,10|0,0:1|0:0,0:0:0:0:
109,232,75901,21,10,0:0:0:0:
109,232,76116,2,0,P|147:246|187:240,1,82.5,8|0,0:0|0:0,0:0:0:0:
292,333,76330,1,10,0:0:0:0:
292,333,76545,2,0,P|332:327|371:342,1,82.5,8|0,0:0|0:0,0:0:0:0:
473,284,76759,5,10,0:1:0:0:
422,228,76866,1,2,0:3:0:0:
479,163,76973,1,2,0:3:0:0:
417,92,77080,1,2,0:3:0:0:
486,28,77187,1,10,0:1:0:0:
486,28,77616,21,2,1:2:0:0:
256,72,77830,6,2,L|289:55,1,20.625,2|0,0:0|0:0,0:0:0:0:
256,72,77937,2,2,L|237:59,1,20.625,2|0,0:3|0:0,0:0:0:0:
256,72,78044,2,2,L|253:101,1,20.625,0|0,3:0|3:0,0:0:0:0:
102,208,78259,22,2,L|68:191,1,20.625,2|0,3:2|0:0,0:0:0:0:
125,212,78366,2,2,L|143:199,1,20.625,2|0,0:3|0:0,0:0:0:0:
109,232,78473,2,2,L|111:261,1,20.625,8|0,0:3|0:0,0:0:0:0:
302,294,78687,6,2,L|284:304,1,20.625,2|0,3:2|0:0,0:0:0:0:
374,253,78794,2,2,L|392:264,1,20.625,2|0,0:3|0:0,0:0:0:0:
306,217,78901,2,0,L|309:199,8,18.3333333333333,2|2|2|2|2|2|2|2|2,0:3|3:2|3:2|3:2|3:2|3:2|3:2|3:2|3:2,0:0:0:0:
307,218,79330,22,0,B|251:214|251:214|229:188|229:188|141:180,1,165,4|0,1:2|3:0,0:0:0:0:
84,325,79651,1,0,3:0:0:0:
84,325,79759,2,0,P|142:355|126:291,1,165,8|0,0:0|3:0,0:0:0:0:
24,112,80080,5,0,3:0:0:0:
39,132,80187,2,0,B|20:168|20:168|32:208,1,82.5,0|0,3:0|3:0,0:0:0:0:
154,181,80401,2,0,L|170:-10,1,165,0|8,1:0|0:0,0:0:0:0:
408,152,80830,21,0,3:0:0:0:
408,152,80937,1,0,3:0:0:0:
408,152,81044,2,0,B|508:174|541:115|491:52|444:128|470:122,1,165,2|0,1:2|3:0,0:0:0:0:
280,88,81366,1,0,3:0:0:0:
297,105,81473,2,0,P|279:162|305:216,1,123.750004720688,8|0,0:0|3:0,0:0:0:0:
400,272,81794,5,0,3:0:0:0:
424,264,81901,2,0,L|417:336,1,41.25,0|0,3:0|3:0,0:0:0:0:
496,384,82116,1,0,1:0:0:0:
304,384,82330,2,0,L|300:342,1,41.25,8|0,0:0|3:0,0:0:0:0:
152,224,82651,21,0,3:0:0:0:
142,202,82759,2,0,L|306:216,1,165,0|0,1:0|3:0,0:0:0:0:
484,311,83080,1,0,3:0:0:0:
484,311,83187,2,0,B|445:264|461:216|461:216|452:249|421:265,1,165,8|0,0:0|3:0,0:0:0:0:
320,200,83509,5,0,3:0:0:0:
306,216,83616,2,0,L|223:208,1,82.5,0|0,3:0|3:0,0:0:0:0:
280,88,83830,2,0,L|197:81,1,82.5,0|0,1:0|3:0,0:0:0:0:
112,168,84044,2,0,L|29:176,1,82.5,8|0,0:0|3:0,0:0:0:0:
86,296,84258,2,0,L|3:303,1,82.5,0|0,3:0|3:0,0:0:0:0:
0,328,84473,21,2,1:2:0:0:
208,264,84687,2,0,P|210:232|189:256,1,82.5,0|0,3:0|3:0,0:0:0:0:
250,354,84901,2,0,P|284:333|301:296,1,82.5,8|0,0:0|0:0,0:0:0:0:
385,231,85116,2,0,P|398:193|386:154,1,82.5,0|0,3:0|3:0,0:0:0:0:
416,24,85330,6,0,L|368:19,2,41.25,2|0|0,1:2|3:0|3:0,0:0:0:0:
262,71,85651,2,0,L|214:75,2,41.25,2|8|0,1:2|0:0|3:0,0:0:0:0:
27,70,85973,2,0,L|48:72,1,20.625,2|0,3:2|3:0,0:0:0:0:
75,54,86080,2,0,L|95:55,1,20.625,2|0,3:2|3:0,0:0:0:0:
118,35,86187,22,0,B|111:109|111:109|133:135|133:135|127:191,1,165,4|0,1:2|3:0,0:0:0:0:
64,312,86509,1,0,3:0:0:0:
64,312,86616,2,0,P|5:342|21:278,1,165,8|0,0:0|3:0,0:0:0:0:
208,248,86937,5,0,3:0:0:0:
192,272,87044,2,0,P|203:310|191:349,1,82.5,0|0,3:0|3:0,0:0:0:0:
384,280,87259,2,0,P|374:241|344:213,1,82.5,0|0,1:0|3:0,0:0:0:0:
264,40,87473,2,0,B|281:76|257:119|257:119|289:82|329:87,1,165,8|0,0:0|3:0,0:0:0:0:
128,64,87901,22,0,L|32:55,2,61.875002360344,2|2|0,1:2|3:2|3:0,0:0:0:0:
128,64,88330,2,0,P|139:102|127:141,1,82.5,10|0,0:0|3:0,0:0:0:0:
282,218,88759,6,0,L|377:209,2,61.875002360344,2|2|0,3:2|3:2|1:0,0:0:0:0:
282,218,89187,2,0,P|271:256|283:295,1,82.5,10|0,0:0|3:0,0:0:0:0:
283,295,89616,22,0,P|210:329|132:307,1,165,0|0,1:0|3:0,0:0:0:0:
104,128,89937,1,0,3:0:0:0:
125,141,90044,2,0,P|198:106|276:129,1,165,8|0,0:0|3:0,0:0:0:0:
448,224,90366,5,0,3:0:0:0:
424,208,90473,2,0,L|433:96,1,82.5,0|0,3:0|3:0,0:0:0:0:
464,48,90687,2,0,L|456:130,1,82.5,0|0,1:0|0:0,0:0:0:0:
512,336,90901,2,0,B|463:317|429:344|429:344|397:369|355:350,1,165,8|0,0:0|3:0,0:0:0:0:
283,295,91223,1,0,3:0:0:0:
276,129,91330,21,2,1:2:0:0:
296,46,91437,1,2,0:0:0:0:
112,224,91759,1,2,1:2:0:0:
132,307,91866,1,2,0:0:0:0:
66,58,92187,5,2,1:2:0:0:
66,58,92616,2,0,L|129:52,1,61.875,0|0,0:0|0:0,0:0:0:0:
232,32,93044,22,0,B|269:84|224:143|224:143|212:93,1,165,2|0,1:0|3:0,0:0:0:0:
127,52,93366,1,0,3:0:0:0:
213,100,93473,2,0,L|300:107,1,82.5,2|0,3:2|3:0,0:0:0:0:
504,184,93901,6,0,L|495:143,1,41.25,10|0,0:0|3:0,0:0:0:0:
432,48,94116,2,0,L|390:51,1,41.25,2|0,0:0|0:0,0:0:0:0:
376,208,94330,2,0,P|361:246|367:286,1,82.5,2|0,3:2|3:0,0:0:0:0:
367,286,94759,22,0,L|285:279,1,82.5,2|0,3:2|3:0,0:0:0:0:
192,309,95080,1,0,3:0:0:0:
37,222,95187,2,0,P|109:187|187:209,1,165,2|0,1:2|3:0,0:0:0:0:
285,279,95509,5,0,0:0:0:0:
285,279,95616,2,0,L|290:215,1,41.25,10|0,0:0|3:0,0:0:0:0:
256,136,95830,2,0,L|222:112,1,41.25,2|0,3:2|3:0,0:0:0:0:
360,152,96044,2,2,L|397:134,1,41.25,2|0,0:0|3:0,0:0:0:0:
480,296,96366,21,0,3:0:0:0:
480,296,96473,2,0,B|503:308|495:359|439:362|409:310|441:257,1,165,2|0,1:0|3:0,0:0:0:0:
488,168,96794,1,0,3:0:0:0:
441,256,96901,2,0,L|337:265,1,82.5,2|0,3:2|3:0,0:0:0:0:
232,360,97330,6,0,L|208:326,1,41.25,10|0,0:0|3:0,0:0:0:0:
198,237,97544,2,0,L|215:199,1,41.25,2|0,0:0|0:0,0:0:0:0:
88,296,97759,2,0,P|82:328|97:311,1,82.5,2|0,3:2|3:0,0:0:0:0:
358,263,98187,22,0,L|441:256,1,82.5,2|0,3:2|3:0,0:0:0:0:
504,328,98509,1,0,3:0:0:0:
488,168,98616,2,0,B|449:121|465:73|465:73|456:106|425:122,1,165,2|0,1:2|3:0,0:0:0:0:
328,120,98937,5,0,0:0:0:0:
328,120,99044,2,0,L|264:115,1,41.25,14|0,0:0|0:0,0:0:0:0:
208,32,99259,2,0,L|144:27,1,41.25,4|0,3:2|0:0,0:0:0:0:
48,56,99473,2,2,P|48:72|56:56,1,41.25,2|0,0:0|3:0,0:0:0:0:
160,152,99794,21,0,3:0:0:0:
160,152,99901,2,0,B|169:263|169:263|179:190,1,165,2|0,1:0|3:0,0:0:0:0:
80,240,100223,1,0,3:0:0:0:
176,211,100330,2,0,P|216:204|254:219,1,82.5,2|0,3:2|3:0,0:0:0:0:
448,344,100759,6,0,L|451:302,1,41.25,10|0,0:0|3:0,0:0:0:0:
354,221,100973,2,0,L|358:263,1,41.25,2|0,0:0|0:0,0:0:0:0:
264,328,101187,2,0,P|226:342|185:336,1,82.5,2|0,3:2|3:0,0:0:0:0:
428,139,101616,22,0,L|511:146,1,82.5,2|0,3:2|3:0,0:0:0:0:
512,240,101938,1,0,3:0:0:0:
354,221,102044,2,0,P|319:149|341:71,1,165,2|0,1:2|3:0,0:0:0:0:
192,56,102366,5,0,0:0:0:0:
192,56,102473,2,0,L|128:51,1,41.25,10|0,0:0|3:0,0:0:0:0:
88,136,102687,2,0,L|115:193,1,41.25,2|0,3:2|3:0,0:0:0:0:
208,192,102901,2,2,L|244:139,1,41.25,2|0,0:0|3:0,0:0:0:0:
387,83,103223,21,0,3:0:0:0:
387,82,103330,2,0,P|455:76|427:138,1,165,2|0,1:0|3:0,0:0:0:0:
408,248,103651,1,0,3:0:0:0:
396,231,103759,2,0,L|292:221,1,82.5,2|0,3:2|3:0,0:0:0:0:
200,341,104187,6,0,P|250:345|230:299,1,123.750004720688,10|0,0:0|0:0,0:0:0:0:
220,175,104508,1,0,0:0:0:0:
208,192,104616,2,0,L|104:201,1,82.5,2|0,3:2|3:0,0:0:0:0:
56,104,105044,22,0,L|64:22,1,82.5,10|0,0:3|0:0,0:0:0:0:
79,20,105259,2,0,L|72:103,1,82.5,2|4,0:0|0:3,0:0:0:0:
264,104,105473,6,0,L|327:51,1,82.5,2|0,1:2|0:0,0:0:0:0:
339,60,105688,2,0,L|275:113,1,82.5,2|0,0:0|0:0,0:0:0:0:
396,231,105901,22,0,L|477:239,1,82.5,10|0,0:0|3:0,0:0:0:0:
478,239,106759,5,4,0:3:0:0:
416,344,107401,1,0,0:0:0:0:
416,344,107616,1,10,0:0:0:0:
352,240,108044,1,0,0:0:0:0:
352,240,108259,1,0,0:0:0:0:
294,350,108473,21,2,0:0:0:0:
244,253,108687,1,0,0:0:0:0:
171,327,108901,1,6,0:3:0:0:
352,240,109116,1,0,0:0:0:0:
157,202,109330,1,10,0:0:0:0:
294,350,109544,1,0,0:0:0:0:
268,150,109759,1,2,0:0:0:0:
171,327,109973,1,0,0:0:0:0:
34,164,110187,5,2,0:0:0:0:
96,59,110829,1,0,0:0:0:0:
96,59,111044,1,10,0:0:0:0:
160,163,111472,1,0,0:0:0:0:
160,163,111687,1,0,0:0:0:0:
218,53,111901,21,2,0:0:0:0:
355,201,112115,1,0,0:0:0:0:
160,163,112329,1,6,0:3:0:0:
341,76,112544,1,0,0:0:0:0:
244,253,112758,1,10,0:0:0:0:
340,76,112973,2,0,P|419:70|463:135,1,165,2|8,0:0|0:3,0:0:0:0:
472,240,113509,5,8,0:3:0:0:
472,240,113616,2,0,B|430:244|430:244|410:228|410:228|345:233,1,123.75,6|0,0:3|0:0,0:0:0:0:
256,240,114044,2,0,L|246:343,1,82.5,2|0,0:0|0:0,0:0:0:0:
216,360,114473,2,0,L|230:195,1,165,10|0,0:0|0:0,0:0:0:0:
112,157,115116,1,0,0:0:0:0:
112,157,115330,22,0,P|71:150|33:164,1,82.5,2|0,0:0|0:0,0:0:0:0:
80,272,115759,1,6,0:3:0:0:
80,272,115973,1,4,0:3:0:0:
354,232,116187,1,10,0:0:0:0:
354,232,116616,2,0,P|412:227|445:276,1,123.75,2|0,0:0|0:0,0:0:0:0:
243,351,117044,5,8,0:3:0:0:
243,351,117259,2,0,B|216:312|236:277|236:277|256:238|229:194,1,165,10|0,0:3|0:0,0:0:0:0:
157,67,117901,1,10,0:0:0:0:
157,67,118330,1,0,0:0:0:0:
304,72,118544,1,4,0:3:0:0:
304,72,118759,22,0,L|407:63,1,82.5,10|8,0:0|0:0,0:0:0:0:
456,136,119187,1,2,0:0:0:0:
256,192,119401,1,4,0:3:0:0:
104,72,119616,2,0,B|79:81|45:42|79:-2|138:8|157:67,1,165,6|4,0:3|0:3,0:0:0:0:
256,192,120259,1,4,0:3:0:0:
256,192,120366,1,4,0:3:0:0:
256,192,120473,1,8,0:3:0:0:
72,240,120901,6,0,P|53:276|59:317,1,82.5,2|8,0:0|0:1,0:0:0:0:
169,297,121759,2,0,L|224:292,2,41.25,2|0|8,0:0|0:0|0:3,0:0:0:0:
296,192,122616,22,0,L|351:196,1,41.25,2|0,1:2|0:0,0:0:0:0:
464,264,123044,1,10,0:1:0:0:
480,248,123259,1,0,0:0:0:0:
488,208,123473,1,2,0:0:0:0:
480,168,123687,1,0,0:0:0:0:
440,144,123901,1,2,1:3:0:0:
440,144,124330,6,0,P|459:108|453:67,1,82.5,2|8,0:0|0:1,0:0:0:0:
343,87,125188,2,0,L|288:92,2,41.25,2|0|8,0:0|0:0|0:3,0:0:0:0:
216,192,126045,22,0,L|161:188,1,41.25,2|0,1:2|0:0,0:0:0:0:
48,120,126473,1,8,0:1:0:0:
32,136,126688,1,0,0:0:0:0:
24,176,126902,1,2,0:0:0:0:
32,216,127116,1,0,0:0:0:0:
72,240,127330,1,2,1:2:0:0:
256,320,127759,6,0,L|252:361,1,41.25,0|8,0:0|0:3,0:0:0:0:
180,250,128187,2,0,L|174:188,1,61.875,8|0,0:1|0:0,0:0:0:0:
192,168,128616,2,0,P|201:154|203:170,2,41.25,2|0|4,0:0|0:0|0:3,0:0:0:0:
320,224,129473,22,0,L|368:232,1,41.25,0|8,1:0|0:3,0:0:0:0:
456,168,129901,2,0,L|452:127,1,41.25,10|0,0:1|0:0,0:0:0:0:
352,80,130330,2,0,B|313:63|313:63|318:104,1,82.5,10|0,0:3|1:0,0:0:0:0:
192,168,131187,6,0,L|144:176,1,41.25,2|0,0:0|0:0,0:0:0:0:
32,216,131616,1,10,0:1:0:0:
64,96,132044,2,0,L|56:48,2,41.25,2|0|10,0:0|0:0|0:3,0:0:0:0:
318,103,132901,21,4,0:3:0:0:
256,192,132955,12,0,134080,0:0:0:0:
169,297,134187,6,2,P|169:321|177:305,1,61.875,2|0,0:1|0:0,0:0:0:0:
272,272,134616,21,2,0:0:0:0:
328,296,134830,1,2,0:0:0:0:
392,224,135044,1,10,0:3:0:0:
464,328,135259,1,6,0:3:0:0:
512,176,135473,5,10,0:3:0:0:
496,120,135580,1,2,0:3:0:0:
440,72,135687,1,2,0:3:0:0:
360,72,135794,1,2,0:3:0:0:
280,120,135901,6,0,B|315:117|317:153|277:195|235:167|223:115|239:97|168:70|117:93,1,247.500009441376,14|0,1:2|0:0,0:0:0:0:
32,152,136223,5,0,0:0:0:0:
40,312,136330,2,0,P|98:341|81:278,1,165,8|0,0:1|3:0,0:0:0:0:
152,192,136651,1,0,3:0:0:0:
245,303,136758,6,0,L|328:295,1,82.5,2|0,1:2|0:0,0:0:0:0:
338,272,136973,2,0,L|256:279,1,82.5,0|0,3:0|0:0,0:0:0:0:
432,360,137187,2,0,B|471:287|471:287|445:209,1,165,10|0,0:1|3:0,0:0:0:0:
472,72,137509,1,0,3:0:0:0:
362,126,137616,22,0,L|279:119,1,82.5,2|0,1:2|3:0,0:0:0:0:
268,95,137937,1,0,3:0:0:0:
129,64,138044,2,0,P|88:57|50:71,1,82.5,8|0,0:1|0:0,0:0:0:0:
64,200,138258,2,0,P|104:206|142:192,1,82.5,0|0,3:0|0:0,0:0:0:0:
255,279,138473,6,0,L|248:361,1,82.5,2|0,1:2|0:0,0:0:0:0:
271,351,138687,2,0,L|279:268,1,82.5,0|0,3:0|0:0,0:0:0:0:
364,187,138901,2,0,P|391:202|376:176,1,82.5,10|0,0:1|0:0,0:0:0:0:
456,120,139116,6,0,P|471:106|474:86,1,41.25,0|0,3:0|3:0,0:0:0:0:
467,104,139223,2,0,P|475:85|469:66,1,41.25,0|0,3:0|3:0,0:0:0:0:
456,49,139330,2,0,B|466:118|466:118|383:50|302:93,1,247.500009441376,10|0,1:2|3:0,0:0:0:0:
24,152,139651,21,0,0:0:0:0:
24,152,139759,2,0,P|114:107|211:136,1,206.25,10|0,0:1|3:0,0:0:0:0:
440,224,140080,21,0,3:0:0:0:
440,224,140188,2,0,P|367:188|290:211,1,165,2|0,1:2|3:0,0:0:0:0:
80,280,140509,5,0,0:0:0:0:
80,280,140617,2,0,P|134:253|192:270,1,123.750004720688,10|0,0:1|3:0,0:0:0:0:
384,320,140937,21,0,0:0:0:0:
384,320,141045,2,0,P|363:318|344:326,1,41.25,2|0,1:2|0:0,0:0:0:0:
255,366,141259,6,0,P|236:358|216:360,1,41.25,0|8,3:0|0:1,0:0:0:0:
80,280,141687,22,0,L|85:221,3,55,0|0|0|0,3:0|3:0|3:0|1:0,0:0:0:0:
192,232,142116,2,2,B|198:226|206:224|206:224|204:216|204:216|206:224|206:224|213:222|221:224|221:224|222:217|222:217|221:224|221:224|228:226|233:232|233:232|238:227|238:227|233:232|233:232|238:238|240:245|240:245|247:244|247:244|240:245|240:245|242:253|239:260|239:260|246:263|246:263|239:260|239:260|236:268|231:272,1,165,2|8,3:1|0:1,0:0:0:0:
336,88,142544,22,0,P|330:112|340:127,1,41.25,0|0,3:0|3:0,0:0:0:0:
332,108,142651,2,0,P|337:132|353:141,1,41.25,0|0,3:0|3:0,0:0:0:0:
368,152,142759,2,0,B|441:180|441:180|447:185|447:185|481:106|481:106|492:106|492:106|384:55,1,247.500009441376,14|0,1:2|0:0,0:0:0:0:
352,16,143080,21,0,0:0:0:0:
218,115,143187,2,0,B|200:156|224:187|224:187|250:221|231:271,1,165,8|0,0:1|3:0,0:0:0:0:
128,352,143508,1,0,3:0:0:0:
32,264,143615,22,0,P|61:235|98:217,1,82.5,2|0,1:2|0:0,0:0:0:0:
81,201,143830,2,0,P|45:220|16:249,1,82.5,0|0,3:0|0:0,0:0:0:0:
217,114,144044,2,0,P|188:85|152:68,1,82.5,10|0,0:1|0:0,0:0:0:0:
168,51,144259,2,0,P|205:70|234:100,1,82.5,0|0,3:0|0:0,0:0:0:0:
388,145,144473,6,0,P|417:116|435:79,1,82.5,2|0,1:2|3:0,0:0:0:0:
440,64,144794,1,0,3:0:0:0:
440,64,144901,2,0,P|476:83|505:112,1,82.5,8|0,0:1|0:0,0:0:0:0:
499,256,145116,2,0,P|470:285|434:305,1,82.5,0|0,3:0|0:0,0:0:0:0:
230,271,145330,22,0,L|238:354,1,82.5,2|0,1:2|0:0,0:0:0:0:
261,364,145545,2,0,L|254:282,1,82.5,0|0,3:0|0:0,0:0:0:0:
192,64,145758,2,0,L|184:146,1,82.5,10|0,0:1|0:0,0:0:0:0:
16,192,145973,22,0,P|6:215|13:231,1,41.25,0|0,3:0|3:0,0:0:0:0:
8,211,146080,2,0,P|9:236|22:248,1,41.25,0|0,3:0|3:0,0:0:0:0:
31,262,146187,2,0,B|83:314|142:272|142:272|194:324|253:281,1,247.500009441376,10|0,1:2|0:0,0:0:0:0:
253,280,146616,22,0,L|260:362,1,82.5,10|0,0:1|3:0,0:0:0:0:
504,48,147044,6,0,B|452:100|393:58|393:58|341:110|282:67,1,247.500009441376,2|0,1:2|3:0,0:0:0:0:
282,66,147473,6,0,L|274:148,1,82.5,10|0,0:1|3:0,0:0:0:0:
385,240,147901,6,0,B|376:288|400:320|400:320|440:304|464:264|464:264|432:240|392:240,1,247.500009441376,6|0,1:2|3:0,0:0:0:0:
229,270,148223,21,4,0:3:0:0:
229,270,148330,2,0,P|189:274|150:262,1,82.5,8|0,0:1|3:0,0:0:0:0:
91,157,148544,2,0,P|53:143|23:115,1,82.5,0|0,3:0|3:0,0:0:0:0:
24,296,148758,6,0,L|15:407,1,82.5,14|0,0:1|3:0,0:0:0:0:
40,376,148973,2,0,L|48:293,1,82.5,2|2,0:3|0:3,0:0:0:0:
29,38,149187,22,0,B|10:74|10:74|22:114,1,82.5,10|0,0:1|0:0,0:0:0:0:
229,269,149401,2,0,B|248:233|248:233|235:194,1,82.5,2|0,0:0|0:0,0:0:0:0:
458,116,149616,22,0,B|394:148|354:92|354:92|330:124|330:124|298:60|208:40|142:117,1,371.250014162064,14|0,1:2|0:0,0:0:0:0:
150,107,150044,22,0,L|143:194,1,82.5,10|0,0:1|0:0,0:0:0:0:
229,269,150258,1,0,3:0:0:0:
160,360,150365,1,0,3:0:0:0:
56,344,150473,2,0,P|5:283|36:211,1,165,0|0,1:0|3:0,0:0:0:0:
240,160,150794,1,0,0:0:0:0:
240,160,150901,2,0,L|327:153,1,82.5,8|0,0:1|0:0,0:0:0:0:
402,239,151115,1,2,3:2:0:0:
493,170,151222,1,2,0:2:0:0:
477,66,151330,22,0,P|416:15|344:46,1,165,2|0,1:2|3:0,0:0:0:0:
291,259,151651,1,0,3:0:0:0:
291,259,151759,2,0,L|298:346,1,82.5,10|0,0:1|0:0,0:0:0:0:
160,360,151973,1,2,0:0:0:0:
160,360,152187,2,0,L|112:356,1,41.25,0|0,1:0|0:0,0:0:0:0:
25,160,152401,2,0,P|63:145|104:152,1,82.5,2|0,3:2|0:0,0:0:0:0:
212,252,152615,2,0,P|251:265|291:258,1,82.5,10|0,0:1|0:0,0:0:0:0:
496,80,152830,22,0,P|472:70|456:77,1,41.25,0|0,3:0|3:0,0:0:0:0:
476,72,152937,2,0,P|450:73|438:86,1,41.25,0|0,3:0|3:0,0:0:0:0:
430,99,153044,2,0,B|391:154|419:206|419:206|449:262|408:331,1,247.500009441376,10|0,1:2|0:0,0:0:0:0:
280,360,153365,21,2,0:0:0:0:
212,252,153473,2,0,P|195:188|252:219,1,165,10|0,0:1|3:0,0:0:0:0:
280,360,153794,1,0,3:0:0:0:
128,344,153901,2,0,P|94:320|77:283,1,82.5,2|0,1:2|0:0,0:0:0:0:
25,160,154115,2,0,L|108:152,1,82.5,2|0,3:2|0:0,0:0:0:0:
242,92,154330,2,0,P|225:55|192:32,1,82.5,10|0,0:1|0:0,0:0:0:0:
212,223,154544,2,0,L|295:215,1,82.5,2|0,0:0|0:0,0:0:0:0:
392,96,154759,22,0,P|416:88|384:80,1,82.5,2|0,1:2|3:0,0:0:0:0:
419,222,155187,1,10,0:1:0:0:
419,222,155294,1,2,0:0:0:0:
419,222,155401,2,0,L|422:276,2,55,2|0|0,3:2|3:0|0:0,0:0:0:0:
376,248,155615,6,0,P|335:254|297:239,1,82.5,0|0,1:0|0:0,0:0:0:0:
216,72,155830,2,0,P|230:34|261:9,1,82.5,2|0,3:1|0:0,0:0:0:0:
448,8,156044,2,0,P|474:40|479:81,1,82.5,10|0,0:1|0:0,0:0:0:0:
376,176,156259,6,0,P|362:197|366:214,1,41.25,0|0,3:0|3:0,0:0:0:0:
364,193,156366,2,0,P|361:218|372:232,1,41.25,0|0,3:0|3:0,0:0:0:0:
376,248,156473,2,0,B|374:312|291:317|281:255|281:255|277:178|207:168|136:194|160:286,1,371.250014162064,14|0,1:2|0:0,0:0:0:0:
157,274,156901,6,0,L|75:266,1,82.5,10|0,0:1|0:0,0:0:0:0:
16,184,157116,1,0,3:0:0:0:
8,156,157223,1,0,3:0:0:0:
80,80,157330,2,0,B|117:6|117:6|162:74,1,165,0|0,1:0|3:0,0:0:0:0:
248,176,157651,1,0,0:0:0:0:
248,176,157759,2,0,L|330:184,1,82.5,8|0,0:1|0:0,0:0:0:0:
360,280,157974,1,2,0:0:0:0:
352,308,158080,1,2,3:2:0:0:
448,240,158188,6,0,B|522:203|522:203|454:158,1,165,2|0,1:2|3:0,0:0:0:0:
342,27,158508,1,0,3:0:0:0:
342,27,158616,2,0,B|314:71|335:110|335:110|354:145|328:184,1,165,10|0,0:1|3:0,0:0:0:0:
351,307,159044,2,0,P|313:293|273:301,1,82.5,0|0,1:0|0:0,0:0:0:0:
79,347,159259,2,0,L|71:264,1,82.5,2|0,3:2|0:0,0:0:0:0:
169,156,159473,2,0,L|161:73,1,82.5,10|0,0:1|0:0,0:0:0:0:
312,64,159687,6,0,L|391:70,1,41.25,2|0,3:0|3:0,0:0:0:0:
296,80,159795,2,0,L|375:86,1,41.25,0|0,3:0|3:0,0:0:0:0:
278,95,159901,2,0,B|194:86|194:86|155:119|155:119|44:109,1,247.500009441376,10|0,1:2|0:0,0:0:0:0:
43,108,160330,6,0,L|49:190,1,82.5,8|0,0:1|3:0,0:0:0:0:
273,300,160759,22,0,B|357:309|357:309|396:276|396:276|507:286,1,247.500009441376,10|0,1:2|0:0,0:0:0:0:
508,286,161188,22,0,L|502:368,1,82.5,10|0,0:1|0:0,0:0:0:0:
496,120,161616,21,10,0:0:0:0:
496,120,161830,2,0,P|455:113|416:126,1,82.5,8|0,0:0|0:0,0:0:0:0:
382,240,162044,1,10,0:0:0:0:
383,240,162259,2,0,P|346:256|306:249,1,82.5,8|0,0:0|0:0,0:0:0:0:
234,176,162473,5,10,0:1:0:0:
186,168,162580,1,2,0:3:0:0:
138,192,162687,1,2,0:3:0:0:
114,272,162794,1,2,0:3:0:0:
178,336,162901,1,10,0:1:0:0:
178,336,163116,1,8,0:1:0:0:
328,256,163330,6,0,B|350:245|386:275|343:312|296:322|296:322|261:291|243:236|287:232|304:250,1,247.500009441376,14|0,1:2|0:0,0:0:0:0:
298,96,163759,6,0,B|347:78|381:105|381:105|413:130|455:111,1,165,8|2,0:1|3:2,0:0:0:0:
432,16,164080,1,0,3:0:0:0:
205,17,164187,2,0,P|171:89|193:167,1,165,2|0,1:2|3:0,0:0:0:0:
240,288,164509,1,0,0:0:0:0:
253,266,164616,2,0,L|50:283,1,165,10|0,0:1|3:0,0:0:0:0:
344,348,165044,6,0,P|379:275|357:197,1,165,2|0,1:2|3:0,0:0:0:0:
298,96,165366,1,2,3:2:0:0:
211,232,165473,2,0,P|195:296|253:266,1,165,8|2,0:1|3:2,0:0:0:0:
285,118,165794,1,0,0:0:0:0:
298,96,165901,2,0,L|171:107,1,82.5,0|0,1:0|0:0,0:0:0:0:
96,160,166116,1,10,0:1:0:0:
96,160,166330,2,0,L|-31:149,1,82.5,10|0,0:1|0:0,0:0:0:0:
120,304,166759,6,0,B|90:339|117:368|117:368|153:350|136:306|155:245|215:231,1,247.500009441376,14|0,1:2|0:0,0:0:0:0:
480,256,167187,6,0,B|424:252|424:252|402:226|402:226|314:218,1,165,8|2,0:1|3:2,0:0:0:0:
264,144,167509,1,0,3:0:0:0:
280,309,167616,2,0,P|261:371|320:343,1,165,2|0,1:2|3:0,0:0:0:0:
328,219,167937,1,0,0:0:0:0:
212,231,168044,2,0,B|172:212|140:237|140:237|106:264|57:246,1,165,10|0,0:1|3:0,0:0:0:0:
14,152,168473,5,2,1:2:0:0:
192,344,168687,1,2,3:2:0:0:
298,96,168901,1,0,3:0:0:0:
296,256,169116,2,0,L|291:310,2,55,0|0|0,3:0|3:0|0:0,0:0:0:0:
258,228,169330,2,0,L|269:338,1,110,0|0,3:0|0:0,0:0:0:0:
268,338,169544,2,2,P|232:355|193:343,1,82.5,2|8,0:1|0:1,0:0:0:0:
352,80,169973,6,0,P|370:63|388:64,1,41.25,0|0,1:0|3:0,0:0:0:0:
367,65,170080,2,0,P|391:57|406:66,1,41.25,0|0,3:0|3:0,0:0:0:0:
416,78,170187,2,0,B|455:133|427:185|427:185|397:241|438:310,1,247.500009441376,14|0,1:2|0:0,0:0:0:0:
296,256,170616,6,0,P|233:234|260:295,1,165,8|2,0:1|3:2,0:0:0:0:
352,344,170937,1,0,3:0:0:0:
328,136,171044,2,0,P|250:114|177:149,1,165,2|0,1:2|3:0,0:0:0:0:
80,224,171366,1,0,0:0:0:0:
88,200,171473,2,0,B|60:155|81:116|81:116|100:81|74:42,1,165,10|0,0:1|3:0,0:0:0:0:
0,304,171901,6,0,P|72:338|150:317,1,165,2|0,1:2|3:0,0:0:0:0:
232,240,172223,1,2,3:2:0:0:
268,360,172330,2,0,P|334:314|354:236,1,165,8|2,0:1|3:2,0:0:0:0:
316,112,172651,1,0,0:0:0:0:
323,135,172758,2,0,L|405:142,1,82.5,0|0,1:0|0:0,0:0:0:0:
424,32,172973,1,2,3:2:0:0:
424,32,173187,2,0,L|506:25,1,82.5,10|0,0:1|3:0,0:0:0:0:
456,120,173455,6,0,P|430:121|418:134,2,41.25,0|0|0,3:0|3:0|3:0,0:0:0:0:
405,142,173616,2,0,B|373:150|325:150|277:126|357:14|293:22|173:6|229:118,1,247.500009441376,8|0,1:2|0:0,0:0:0:0:
221,57,174044,6,0,P|208:89|240:129,1,82.5,10|0,0:1|3:0,0:0:0:0:
112,368,174473,22,0,B|144:376|192:376|240:352|160:240|224:248|344:232|288:344,1,247.500009441376,8|0,1:2|0:0,0:0:0:0:
295,283,174901,22,0,P|307:315|275:356,1,82.5,10|0,0:1|0:0,0:0:0:0:
256,192,175330,21,0,1:0:0:0:
64,290,176616,22,0,B|51:288|35:304|60:319|83:319|83:319|97:300|102:273|79:272|74:284,1,123.75,4|0,0:0|0:0,0:0:0:0:
74,283,177044,1,2,1:2:0:0:
