osu file format v14

[General]
AudioFilename: audio.mp3
AudioLeadIn: 1500
PreviewTime: 48473
Countdown: 0
SampleSet: Soft
StackLeniency: 0.4
Mode: 0
LetterboxInBreaks: 0
EpilepsyWarning: 1
WidescreenStoryboard: 1

[Editor]
Bookmarks: 7330,21044,34759,48473,63901,79330,93044,106759,120473,134187,149616,163330
DistanceSpacing: 1.2
BeatDivisor: 4
GridSize: 8
TimelineZoom: 3.500003

[Metadata]
Title:G4L
TitleUnicode:G4L
Artist:Giga
ArtistUnicode:Giga
Creator:Beren
Version:Chu's Hard
Source:Artiswitch
Tags:アーティスウィッチ Necho cqmasai Reincarnation Jycool jyc-Binggan arronchu1207 Yumerios Bellicose Hengye q*Left giga 鏡音レン Kagamine Ren VOCALOID ギガP japanese pop
BeatmapID:3237425
BeatmapSetID:1555674

[Difficulty]
HPDrainRate:4
CircleSize:4
OverallDifficulty:6
ApproachRate:7.7
SliderMultiplier:1.8
SliderTickRate:1

[Events]
//Background and Video events
0,0,"91799821_p0.jpg",0,0
//Break Periods
//Storyboard Layer 0 (Background)
//Storyboard Layer 1 (Fail)
//Storyboard Layer 2 (Pass)
//Storyboard Layer 3 (Foreground)
Sprite,Foreground,Centre,"sb\id3.png",320,240 F,0,166759,169330,1 F,0,169330,169759,1,0
//Storyboard Layer 4 (Overlay)
//Storyboard Sound Samples

[TimingPoints]
-1241,428.571428571429,4,2,1,30,1,0
473,-125,4,2,1,50,0,0
5830,-100,4,2,1,50,0,0
6259,-166.666666666667,4,2,1,50,0,0
6634,-166.666666666667,4,2,1,5,0,0
6687,-166.666666666667,4,2,1,30,0,0
6794,-166.666666666667,4,2,1,40,0,0
6901,-166.666666666667,4,2,1,50,0,0
7009,-166.666666666667,4,2,1,60,0,0
7116,-166.666666666667,4,2,1,70,0,0
7223,-166.666666666667,4,2,1,70,0,0
7330,-125,4,2,1,60,0,0
7759,-125,4,2,1,60,0,0
9473,-125,4,2,1,60,0,0
9901,-125,4,2,1,60,0,0
10759,-125,4,2,1,60,0,0
11187,-125,4,2,1,60,0,0
12901,-125,4,2,1,60,0,0
13330,-125,4,2,1,60,0,0
14187,-125,4,2,1,60,0,0
14616,-125,4,2,1,60,0,0
16330,-125,4,2,1,60,0,0
16544,-125,4,2,1,60,0,0
16759,-125,4,2,1,60,0,0
17401,-125,4,2,1,60,0,0
17616,-125,4,2,1,60,0,0
18044,-125,4,2,1,60,0,0
19330,-125,4,2,1,60,0,0
20187,-125,4,2,1,70,0,0
20616,-125,4,2,1,70,0,0
21044,-111.111111111111,4,2,2,80,0,0
21473,-111.111111111111,4,2,2,80,0,0
24044,-111.111111111111,4,2,2,80,0,0
24259,-111.111111111111,4,2,2,80,0,0
24473,-111.111111111111,4,2,2,80,0,0
24901,-111.111111111111,4,2,2,80,0,0
26187,-111.111111111111,4,2,99,80,0,0
26401,-111.111111111111,4,2,2,80,0,0
27044,-111.111111111111,4,2,2,80,0,0
27473,-111.111111111111,4,2,2,80,0,0
27901,-111.111111111111,4,2,2,80,0,0
28330,-111.111111111111,4,2,2,80,0,0
30901,-111.111111111111,4,2,2,80,0,0
31116,-111.111111111111,4,2,2,80,0,0
31330,-111.111111111111,4,2,2,80,0,0
31759,-111.111111111111,4,2,2,80,0,0
32187,-111.111111111111,4,2,2,80,0,0
32616,-111.111111111111,4,2,2,80,0,0
33044,-111.111111111111,4,2,2,80,0,0
33901,-111.111111111111,4,2,1,80,0,0
34116,-111.111111111111,4,2,2,80,0,0
34330,-111.111111111111,4,2,1,80,0,0
34759,-142.857142857143,4,2,3,50,0,0
41616,-125,4,2,3,55,0,0
43330,-125,4,2,3,60,0,0
45044,-125,4,2,3,65,0,0
46973,-125,4,2,3,40,0,0
47187,-125,4,2,3,50,0,0
47401,-125,4,2,3,55,0,0
47616,-125,4,2,3,60,0,0
47830,-125,4,2,3,65,0,0
48044,-125,4,2,3,70,0,0
48259,-125,4,2,3,75,0,0
48473,-100,4,2,98,90,0,0
48794,-100,4,2,3,80,0,0
48901,-100,4,2,3,80,0,0
49759,-100,4,2,99,80,0,0
50187,-100,4,2,4,85,0,0
50616,-100,4,2,4,85,0,0
51901,-100,4,2,4,85,0,0
52330,-100,4,2,4,85,0,0
53616,-100,4,2,4,85,0,0
54044,-100,4,2,4,85,0,0
54473,-100,4,2,4,85,0,0
54901,-100,4,2,4,85,0,0
55330,-100,4,2,4,85,0,0
55437,-100,4,2,4,85,0,0
55544,-100,4,2,4,85,0,0
55973,-100,4,2,4,85,0,0
56401,-100,4,2,99,100,0,0
56616,-100,4,2,4,85,0,0
57044,-100,4,2,4,85,0,0
57473,-100,4,2,4,85,0,0
58759,-100,4,2,4,85,0,0
59187,-100,4,2,4,85,0,0
60366,-100,4,2,4,85,0,0
60473,-100,4,2,4,85,0,0
60901,-100,4,2,4,85,0,0
61330,-100,4,2,4,85,0,0
61759,-100,4,2,4,85,0,0
62187,-100,4,2,4,85,0,0
62616,-100,4,2,4,85,0,0
63901,-100,4,2,4,85,0,0
64330,-100,4,2,4,85,0,0
67330,-100,4,2,4,85,0,0
67759,-100,4,2,4,85,0,0
69044,-100,4,2,4,85,0,0
69366,-100,4,2,4,85,0,0
70116,-100,4,2,99,100,0,0
70223,-100,4,2,4,85,0,0
70759,-100,4,2,4,85,0,0
71187,-100,4,2,4,85,0,0
74187,-100,4,2,4,85,0,0
74616,-100,4,2,4,85,0,0
75044,-100,4,2,4,85,0,0
75473,-100,4,2,4,85,0,0
75901,-100,4,2,1,65,0,0
77616,-100,4,2,5,65,0,0
77830,-100,4,2,3,60,0,0
78044,-100,4,2,3,60,0,0
78259,-100,4,2,3,60,0,0
78473,-100,4,2,3,60,0,0
78687,-100,4,2,3,60,0,0
79009,-100,4,2,1,60,0,0
79330,-125,4,2,5,70,0,0
81473,-125,4,2,5,70,0,0
81901,-125,4,2,5,70,0,0
82330,-125,4,2,5,70,0,0
82759,-125,4,2,5,70,0,0
85330,-125,4,2,5,70,0,0
86187,-125,4,2,5,70,0,0
87901,-125,4,2,5,70,0,0
88330,-125,4,2,5,70,0,0
88759,-125,4,2,5,70,0,0
89187,-125,4,2,5,70,0,0
89616,-125,4,2,5,70,0,0
92616,-125,4,2,5,70,0,0
92937,-125,4,2,5,5,0,0
93044,-125,4,2,6,65,0,0
93473,-125,4,2,6,65,0,0
95187,-125,4,2,6,65,0,0
95616,-125,4,2,6,65,0,0
96044,-125,4,2,6,65,0,0
96473,-125,4,2,6,65,0,0
96901,-125,4,2,6,65,0,0
98616,-125,4,2,6,65,0,0
99044,-125,4,2,6,65,0,0
99473,-125,4,2,6,65,0,0
99901,-125,4,2,6,65,0,0
100330,-125,4,2,6,65,0,0
102044,-125,4,2,6,65,0,0
102473,-125,4,2,6,65,0,0
102901,-125,4,2,6,65,0,0
103330,-125,4,2,6,65,0,0
103759,-125,4,2,6,65,0,0
104187,-125,4,2,6,65,0,0
104616,-125,4,2,6,65,0,0
105044,-125,4,2,6,65,0,0
105901,-125,4,2,6,65,0,0
106759,-142.857142857143,4,2,7,50,0,0
118759,-142.857142857143,4,2,7,60,0,0
119616,-142.857142857143,4,2,7,70,0,0
120901,-142.857142857143,4,2,3,60,0,0
127330,-142.857142857143,4,2,4,60,0,0
127759,-142.857142857143,4,2,3,70,0,0
129473,-142.857142857143,4,2,4,70,0,0
129687,-142.857142857143,4,2,3,70,0,0
130759,-142.857142857143,4,2,4,70,0,0
131187,-142.857142857143,4,2,3,75,0,0
134080,-125,4,2,5,5,0,0
134187,-125,4,2,98,90,0,0
134616,-125,4,2,5,80,0,0
135901,-100,4,2,4,85,0,0
136330,-100,4,2,4,85,0,0
137616,-100,4,2,4,85,0,0
138044,-100,4,2,4,85,0,0
139330,-100,4,2,4,85,0,0
139759,-100,4,2,4,85,0,0
140187,-100,4,2,4,85,0,0
140616,-100,4,2,4,85,0,0
141044,-100,4,2,4,85,0,0
141259,-100,4,2,4,85,0,0
141687,-100,4,2,4,85,0,0
142116,-100,4,2,99,100,0,0
142330,-100,4,2,4,85,0,0
142759,-100,4,2,4,85,0,0
143187,-100,4,2,4,85,0,0
144473,-100,4,2,4,85,0,0
144901,-100,4,2,4,85,0,0
146187,-100,4,2,4,85,0,0
146616,-100,4,2,4,85,0,0
147044,-100,4,2,4,85,0,0
147473,-100,4,2,4,85,0,0
147901,-100,4,2,4,85,0,0
148330,-100,4,2,4,85,0,0
149616,-100,4,2,4,85,0,0
149937,-100,4,2,4,85,0,0
150044,-100,4,2,4,85,0,0
153044,-100,4,2,4,85,0,0
153473,-100,4,2,4,85,0,0
154759,-100,4,2,4,85,0,0
155401,-100,4,2,4,85,0,0
155830,-100,4,2,99,100,0,0
155937,-100,4,2,4,85,0,0
156473,-100,4,2,4,85,0,0
156794,-100,4,2,4,85,0,0
156901,-100,4,2,4,85,0,0
159901,-100,4,2,4,85,0,0
160330,-100,4,2,4,85,0,0
160759,-100,4,2,4,85,0,0
161187,-100,4,2,4,85,0,0
161616,-100,4,2,1,65,0,0
161830,-100,4,2,1,65,0,0
162901,-100,4,2,8,65,0,0
163330,-100,4,2,4,80,0,0
163759,-100,4,2,4,80,0,0
166116,-100,4,2,5,80,0,0
166759,-100,4,2,4,80,0,0
167187,-100,4,2,4,80,0,0
169544,-100,4,2,99,100,0,0
169759,-100,4,2,4,80,0,0
170187,-100,4,2,4,80,0,0
170616,-100,4,2,4,80,0,0
173616,-100,4,2,4,80,0,0
174044,-100,4,2,4,80,0,0
174473,-100,4,2,4,80,0,0
174901,-142.857142857143,4,2,4,80,0,0
175330,-142.857142857143,4,2,4,60,0,0
176616,-100,4,2,8,80,0,0
177044,-100,4,2,1,80,0,0

[Colours]
Combo1 : 172,60,60
Combo2 : 81,106,121
Combo3 : 192,192,192
SliderTrackOverride : 192,192,192

[HitObjects]
324,292,473,5,0,1:0:0:0:
324,292,1116,1,2,0:0:0:0:
363,368,1330,2,0,P|402:325|395:244,1,144,2|2,0:0|0:0,0:0:0:0:
255,140,2187,1,2,0:3:0:0:
255,140,3044,2,0,P|246:53|239:15,2,108,2|2|2,0:3|0:0|0:0,0:0:0:0:
181,231,3901,5,0,1:0:0:0:
181,231,4544,1,2,0:0:0:0:
239,294,4759,2,0,P|201:315|105:269,1,144,2|2,0:0|0:0,0:0:0:0:
24,133,5616,1,2,0:3:0:0:
213,22,6259,6,0,B|286:37|286:37|296:30|296:30|368:44|368:44|374:53|374:53|454:71,1,242.999992584229,0|0,0:0|0:0,0:0:0:0:
444,68,7330,6,0,B|464:165|419:113|443:228,1,144,0|0,1:0|3:0,0:0:0:0:
488,281,7973,1,0,3:0:0:0:
443,355,8187,2,0,P|405:367|366:358,1,72,10|0,3:2|3:0,0:0:0:0:
303,311,8616,2,0,P|265:299|226:308,1,72,0|0,3:0|3:0,0:0:0:0:
182,373,9044,6,0,P|210:333|149:270,1,144,2|0,0:3|1:0,0:0:0:0:
133,98,9901,2,0,L|21:112,2,108,8|2|2,0:0|0:3|3:0,0:0:0:0:
219,20,10759,6,0,B|311:9|260:55|375:44,1,144,0|0,1:0|3:0,0:0:0:0:
434,6,11401,1,0,3:0:0:0:
475,83,11616,2,0,P|466:126|465:159,1,72,10|0,3:2|3:0,0:0:0:0:
411,221,12044,2,0,P|420:263|421:296,1,72,0|0,3:0|3:0,0:0:0:0:
312,362,12473,5,2,0:3:0:0:
250,301,12687,2,0,L|260:248,1,36,8|0,0:3|0:0,0:0:0:0:
285,233,12901,2,0,L|279:153,1,72,8|8,0:3|0:3,0:0:0:0:
218,100,13330,2,0,P|170:94|136:114,1,72,14|0,0:3|3:0,0:0:0:0:
106,100,13651,2,0,P|76:138|77:178,1,72,10|0,0:3|3:0,0:0:0:0:
83,203,13973,1,10,3:3:0:0:
10,329,14187,6,0,B|107:317|46:358|155:349,1,144,0|0,1:0|3:0,0:0:0:0:
218,297,14830,1,0,3:0:0:0:
265,368,15044,2,0,P|301:364|345:362,1,72,10|0,0:0|3:0,0:0:0:0:
391,294,15473,2,0,P|387:258|385:214,1,72,0|0,3:0|3:0,0:0:0:0:
407,138,15901,5,2,0:3:0:0:
400,142,16009,2,0,P|359:144|325:124,1,72,2|0,0:0|0:0,0:0:0:0:
303,97,16330,2,0,L|311:18,1,72,0|0,1:0|0:0,0:0:0:0:
203,67,16759,1,2,0:0:0:0:
204,78,16866,2,0,L|211:149,1,72,2|0,0:0|0:0,0:0:0:0:
186,184,17187,2,0,P|143:193|115:178,1,72,2|0,0:0|3:0,0:0:0:0:
17,323,17616,6,0,P|50:291|159:295,1,144,0|0,1:0|3:0,0:0:0:0:
200,352,18259,1,0,3:0:0:0:
271,303,18473,2,0,P|268:250|261:211,1,72,10|0,0:0|1:0,0:0:0:0:
219,157,18901,2,0,P|222:104|229:65,1,72,0|0,3:0|3:0,0:0:0:0:
334,18,19330,6,0,P|362:11|411:37,1,72,0|0,1:0|3:0,0:0:0:0:
426,60,19651,1,0,3:0:0:0:
435,66,19759,2,0,P|463:73|512:47,1,72,0|0,1:0|3:0,0:0:0:0:
475,158,20187,1,8,0:1:0:0:
469,175,20294,1,2,0:3:0:0:
466,192,20401,1,2,0:3:0:0:
464,210,20508,1,2,0:3:0:0:
464,228,20615,1,8,0:1:0:0:
464,228,21044,6,0,P|420:232|377:244,1,80.9999975280763,12|0,1:2|0:0,0:0:0:0:
342,215,21366,1,0,1:0:0:0:
333,221,21473,2,0,P|289:217|246:205,1,80.9999975280763,10|0,0:1|1:0,0:0:0:0:
172,154,21901,1,2,0:0:0:0:
86,107,22116,1,0,1:0:0:0:
35,189,22330,2,0,P|45:242|47:282,1,80.9999975280763,2|0,0:1|1:0,0:0:0:0:
24,380,22759,5,0,1:0:0:0:
35,371,22866,2,0,P|69:357|124:360,1,80.9999975280763,2|0,0:0|1:0,0:0:0:0:
158,373,23187,2,0,L|168:284,1,80.9999975280763,10|0,0:1|1:0,0:0:0:0:
235,222,23616,1,2,0:0:0:0:
311,281,23830,1,0,1:0:0:0:
377,210,24044,2,0,P|391:164|379:128,1,80.9999975280763,2|0,0:1|1:0,0:0:0:0:
351,95,24366,1,0,0:0:0:0:
341,89,24473,6,0,L|251:97,1,80.9999975280763,12|0,1:2|0:0,0:0:0:0:
222,126,24794,1,0,1:0:0:0:
212,133,24901,2,0,L|122:125,1,80.9999975280763,10|0,0:1|1:0,0:0:0:0:
41,87,25330,1,2,0:0:0:0:
5,177,25544,1,0,1:0:0:0:
94,215,25759,2,0,P|102:264|82:301,1,80.9999975280763,2|0,0:1|1:0,0:0:0:0:
163,355,26187,6,0,L|211:346,1,40.4999987640381,2|0,1:0|0:0,0:0:0:0:
240,316,26401,2,0,L|288:325,1,40.4999987640381,0|0,0:0|1:0,0:0:0:0:
319,352,26616,1,10,0:1:0:0:
422,343,26830,1,0,1:0:0:0:
422,343,26937,1,0,0:0:0:0:
422,343,27044,2,0,P|446:296|437:254,1,80.9999975280763,2|0,0:0|1:0,0:0:0:0:
333,203,27473,2,0,P|311:169|311:129,1,80.9999975280763,10|0,0:1|1:0,0:0:0:0:
334,86,27794,1,0,0:0:0:0:
342,76,27901,6,0,L|259:68,1,80.9999975280763,12|0,1:2|0:0,0:0:0:0:
224,36,28223,1,0,1:0:0:0:
213,37,28330,2,0,L|130:45,1,80.9999975280763,10|0,0:1|1:0,0:0:0:0:
54,104,28759,1,2,0:0:0:0:
110,182,28973,2,0,P|192:169|257:223,1,161.999995056153,0|0,1:0|1:0,0:0:0:0:
330,155,29616,5,0,1:0:0:0:
400,236,29830,1,0,0:0:0:0:
400,236,29937,1,0,1:0:0:0:
400,236,30044,2,0,P|390:296|388:322,1,80.9999975280763,10|0,0:1|1:0,0:0:0:0:
309,373,30473,1,2,0:0:0:0:
237,306,30687,2,0,B|139:295|183:343|70:331,1,161.999995056153,0|0,1:0|1:0,0:0:0:0:
21,254,31330,6,0,P|10:211|22:174,1,80.9999975280763,12|0,1:2|0:0,0:0:0:0:
131,102,31759,2,0,L|258:117,1,121.499996292114,10|0,0:1|0:0,0:0:0:0:
296,98,32187,2,0,B|309:57|309:57|293:5,1,80.9999975280763,2|0,0:0|1:0,0:0:0:0:
443,16,32616,2,0,P|418:59|429:161,1,121.499996292114,2|0,0:1|0:0,0:0:0:0:
450,163,33044,5,2,1:2:0:0:
493,250,33259,1,2,0:0:0:0:
493,250,33366,1,0,1:0:0:0:
493,250,33473,1,10,0:1:0:0:
427,321,33687,1,2,1:2:0:0:
343,271,33901,6,0,P|337:222|328:184,1,80.9999975280763,10|2,0:1|1:2,0:0:0:0:
265,355,34330,1,8,0:1:0:0:
265,355,34759,6,0,B|193:364|221:318|136:331,1,125.999996154785,2|0,1:2|0:0,0:0:0:0:
56,207,35616,1,10,1:2:0:0:
20,140,35830,1,0,0:0:0:0:
70,85,36044,1,2,0:0:0:0:
139,117,36259,1,0,1:0:0:0:
130,192,36473,5,2,1:2:0:0:
247,286,36901,6,0,P|289:291|327:276,1,62.9999980773926,0|0,0:0|1:0,0:0:0:0:
371,243,37330,1,10,1:2:0:0:
335,176,37544,1,0,0:0:0:0:
385,121,37758,1,2,0:0:0:0:
454,153,37973,1,0,1:0:0:0:
445,228,38187,5,2,1:2:0:0:
445,228,38616,2,0,L|463:298,1,62.9999980773926,0|0,0:0|1:0,0:0:0:0:
387,360,39044,2,0,L|317:340,1,62.9999980773926,10|0,1:2|0:0,0:0:0:0:
267,263,39473,2,0,L|336:243,1,62.9999980773926,2|0,0:0|1:0,0:0:0:0:
231,357,39901,5,2,1:2:0:0:
231,357,40330,2,0,L|170:373,1,62.9999980773926,0|0,0:0|1:0,0:0:0:0:
98,349,40759,1,10,1:2:0:0:
98,349,40973,1,0,0:0:0:0:
56,285,41187,1,2,0:0:0:0:
56,285,41401,1,0,1:0:0:0:
97,180,41616,6,0,P|137:169|201:202,1,108,2|0,1:2|3:0,0:0:0:0:
215,182,42044,2,0,L|210:109,1,72,0|0,0:0|1:0,0:0:0:0:
270,48,42473,2,0,L|276:6,2,36,10|0|0,1:2|0:0|0:0,0:0:0:0:
334,105,42901,1,2,3:2:0:0:
407,59,43116,1,0,1:0:0:0:
407,59,43223,1,0,3:0:0:0:
407,59,43330,6,0,P|455:57|493:127,1,108,2|0,1:2|3:0,0:0:0:0:
481,111,43759,2,0,L|486:186,1,72,0|0,0:0|1:0,0:0:0:0:
436,253,44187,2,0,L|432:293,2,36,10|0|0,1:2|0:0|0:0,0:0:0:0:
362,207,44616,2,0,P|316:202|275:217,1,72,2|0,3:2|1:0,0:0:0:0:
235,273,45044,6,0,P|190:289|128:222,1,144,2|0,1:2|0:0,0:0:0:0:
181,160,45687,1,0,1:0:0:0:
121,97,45901,2,0,P|76:81|14:148,1,144,10|2,1:2|0:0,0:0:0:0:
17,232,46544,1,0,1:0:0:0:
17,232,46759,6,0,L|32:310,1,72,2|0,0:0|1:0,0:0:0:0:
104,364,47187,1,4,0:3:0:0:
104,364,47401,1,4,0:3:0:0:
190,365,47616,1,4,0:3:0:0:
190,365,47830,1,4,0:3:0:0:
276,365,48044,1,4,0:3:0:0:
276,365,48259,1,4,0:3:0:0:
381,286,48473,6,0,B|368:269|368:269|389:256|389:256|377:242|377:242|383:227|383:227|383:105,1,180,2|2,0:1|0:0,0:0:0:0:
317,41,49116,1,2,0:0:0:0:
215,4,49330,1,2,0:0:0:0:
215,4,49544,1,2,0:0:0:0:
87,118,49759,1,2,0:0:0:0:
87,118,50187,6,0,P|53:167|72:244,1,135,14|0,1:2|0:0,0:0:0:0:
112,266,50616,1,8,0:1:0:0:
226,281,50830,1,0,3:0:0:0:
226,281,50937,1,0,3:0:0:0:
226,281,51044,2,0,P|263:269|317:264,1,90,2|0,1:2|3:0,0:0:0:0:
250,383,51473,2,0,P|205:379|162:365,1,90,10|0,0:1|3:0,0:0:0:0:
232,268,51901,6,0,P|303:253|366:280,1,135,2|0,1:2|3:0,0:0:0:0:
399,311,52330,1,8,0:1:0:0:
496,259,52544,1,0,3:0:0:0:
496,259,52651,1,0,0:0:0:0:
496,259,52759,2,0,L|486:165,1,90,2|0,1:2|3:0,0:0:0:0:
379,88,53187,2,0,L|369:177,1,90,10|0,0:1|3:0,0:0:0:0:
509,272,53616,6,0,L|491:124,1,135,10|0,1:2|0:0,0:0:0:0:
485,84,54044,1,10,0:1:0:0:
409,4,54259,1,0,3:0:0:0:
409,4,54366,1,0,3:0:0:0:
409,4,54473,2,0,P|353:2|321:20,1,90,2|0,1:2|3:0,0:0:0:0:
348,168,54901,2,0,P|377:120|378:83,1,90,10|0,0:1|3:0,0:0:0:0:
259,192,55330,6,0,L|269:290,1,90,2|0,1:2|3:0,0:0:0:0:
194,360,55759,1,8,0:1:0:0:
113,288,55973,2,0,L|117:251,3,30,0|0|0|0,3:0|0:0|0:0|1:0,0:0:0:0:
30,193,56401,1,2,3:1:0:0:
102,112,56616,2,0,P|108:61|86:18,1,90,8|0,0:1|3:0,0:0:0:0:
195,168,57044,6,0,B|303:182|267:131|372:149,1,180,14|8,1:2|0:1,0:0:0:0:
464,95,57687,1,0,3:0:0:0:
464,95,57794,1,0,3:0:0:0:
464,95,57901,2,0,P|470:62|465:41,2,45,2|0|0,1:2|0:0|3:0,0:0:0:0:
461,203,58330,2,0,P|450:258|453:298,1,90,10|0,0:1|3:0,0:0:0:0:
366,358,58759,6,0,P|301:370|237:329,1,135,2|0,1:2|3:0,0:0:0:0:
224,286,59187,1,8,0:1:0:0:
296,206,59401,1,0,3:0:0:0:
216,131,59616,2,0,P|171:138|119:142,1,90,2|0,1:2|3:0,0:0:0:0:
192,21,60044,2,0,P|236:24|281:31,1,90,10|0,0:1|3:0,0:0:0:0:
217,142,60473,6,0,P|137:150|61:155,1,135,10|0,1:2|0:0,0:0:0:0:
29,141,60901,2,0,P|51:201|31:247,1,90,10|0,0:1|3:0,0:0:0:0:
91,343,61330,2,0,B|121:315|170:316|170:316|189:340|232:348,1,135,2|0,1:2|0:0,0:0:0:0:
256,372,61759,2,0,P|263:321|276:280,1,90,10|0,0:1|3:0,0:0:0:0:
365,226,62187,5,6,1:2:0:0:
259,37,62616,2,0,L|202:46,1,45,8|0,0:1|3:0,0:0:0:0:
171,76,62830,2,0,L|114:67,1,45,0|0,3:0|3:0,0:0:0:0:
77,47,63044,2,0,P|95:102|75:153,1,90,14|2,0:1|0:3,0:0:0:0:
49,170,63366,1,2,0:3:0:0:
41,179,63473,2,0,P|23:234|43:285,1,90,10|2,0:1|0:0,0:0:0:0:
117,361,63901,6,0,B|168:354|168:354|194:339|194:339|272:329,1,135,14|0,1:2|0:0,0:0:0:0:
295,357,64330,2,0,P|299:309|310:266,1,90,10|0,0:1|3:0,0:0:0:0:
394,201,64759,1,0,1:0:0:0:
321,120,64973,1,0,3:0:0:0:
401,48,65187,2,0,P|431:43|457:54,2,45,8|0|2,0:1|0:0|3:2,0:0:0:0:
321,120,65616,6,0,B|239:128|268:88|174:106,1,135,2|0,1:2|3:0,0:0:0:0:
139,82,66044,2,0,P|156:128|134:179,1,90,10|2,0:1|0:0,0:0:0:0:
57,230,66473,1,0,1:0:0:0:
121,316,66687,1,2,3:2:0:0:
208,252,66901,2,0,L|306:243,1,90,10|0,0:1|3:0,0:0:0:0:
361,156,67330,5,10,1:2:0:0:
361,156,67544,1,0,0:0:0:0:
453,212,67759,2,0,P|465:261|453:298,1,90,10|0,0:1|3:0,0:0:0:0:
338,370,68187,1,2,1:2:0:0:
338,370,68401,1,2,3:2:0:0:
246,314,68616,2,0,P|234:265|246:228,1,90,10|2,0:1|0:0,0:0:0:0:
299,135,69044,6,0,P|301:75|201:86,1,180,2|10,1:2|0:1,0:0:0:0:
101,43,69687,2,0,L|95:6,3,30,2|0|0|0,3:2|0:0|0:0|1:0,0:0:0:0:
39,131,70116,1,2,3:1:0:0:
119,202,70330,1,10,0:1:0:0:
49,284,70544,1,0,3:0:0:0:
175,360,70759,6,0,B|260:371|221:331|312:344,1,135,14|0,1:2|0:0,0:0:0:0:
354,367,71187,2,0,P|339:322|367:276,1,90,10|0,0:1|3:0,0:0:0:0:
453,239,71616,2,0,L|441:144,1,90,0|0,1:0|3:0,0:0:0:0:
362,92,72044,1,8,0:1:0:0:
362,92,72151,1,0,0:0:0:0:
362,92,72259,2,0,L|368:38,1,45,2|2,3:2|0:0,0:0:0:0:
324,14,72473,6,0,P|279:12|247:50,1,90,2|0,1:2|3:0,0:0:0:0:
150,85,72901,2,0,P|125:122|142:169,1,90,10|0,0:1|3:0,0:0:0:0:
206,246,73330,1,0,1:0:0:0:
294,184,73544,1,2,3:2:0:0:
362,267,73759,2,0,L|463:255,1,90,10|2,0:1|3:2,0:0:0:0:
302,383,74187,6,0,P|260:349|168:360,1,135,10|0,1:2|0:0,0:0:0:0:
136,381,74616,2,0,P|128:326|116:285,1,90,8|0,0:1|3:0,0:0:0:0:
35,165,75044,2,0,P|90:182|166:149,1,135,10|0,1:2|0:0,0:0:0:0:
181,105,75473,2,0,L|284:119,1,90,10|0,0:1|0:0,0:0:0:0:
388,53,75901,5,10,0:0:0:0:
458,124,76116,1,8,0:0:0:0:
458,124,76223,1,0,0:0:0:0:
458,124,76330,1,10,0:0:0:0:
409,199,76544,1,8,0:0:0:0:
474,261,76759,2,0,P|488:311|471:351,1,90,10|2,0:1|0:3,0:0:0:0:
434,364,77080,1,2,0:3:0:0:
423,366,77187,2,0,L|331:354,1,90,10|0,0:1|0:0,0:0:0:0:
255,279,77616,6,0,L|163:291,1,90,2|2,1:2|0:0,0:0:0:0:
95,372,78044,1,0,3:0:0:0:
95,372,78151,1,0,3:0:0:0:
95,372,78259,1,2,3:2:0:0:
18,296,78473,2,0,P|8:264|9:238,2,45,8|0|2,0:3|0:0|3:2,0:0:0:0:
105,188,78901,2,0,L|111:148,5,30,10|0|0|2|0|0,0:3|0:0|0:0|3:2|0:0|0:0,0:0:0:0:
95,133,79330,6,0,P|136:153|223:113,1,144,4|8,1:2|0:0,0:0:0:0:
315,27,80080,2,0,P|356:20|428:52,1,108,0|0,3:0|1:0,0:0:0:0:
466,113,80616,2,0,P|459:153|457:193,1,72,8|0,0:0|3:0,0:0:0:0:
473,223,80937,1,0,3:0:0:0:
477,233,81044,6,0,B|392:222|424:266|332:251,1,144,2|8,1:2|0:0,0:0:0:0:
187,190,81794,2,0,L|204:319,1,108,0|0,3:0|1:0,0:0:0:0:
138,357,82330,2,0,P|101:364|63:348,1,72,8|0,0:0|3:0,0:0:0:0:
39,322,82651,1,0,3:0:0:0:
34,313,82759,6,0,B|19:222|65:268|44:164,1,144,0|8,1:0|0:0,0:0:0:0:
112,61,83509,2,0,P|147:47|212:86,1,108,0|0,3:0|1:0,0:0:0:0:
233,158,84044,2,0,L|310:146,1,72,8|0,0:0|3:0,0:0:0:0:
344,164,84366,1,0,3:0:0:0:
353,169,84473,6,0,P|359:212|347:244,1,72,2|0,1:2|3:0,0:0:0:0:
274,280,84901,1,8,0:0:0:0:
201,232,85116,1,0,3:0:0:0:
127,277,85330,2,0,P|138:340|145:387,2,108,2|2|2,1:2|1:2|3:2,0:0:0:0:
32,206,86187,6,0,P|21:162|33:133,1,72,4|0,1:2|3:0,0:0:0:0:
81,68,86616,2,0,P|125:57|154:69,1,72,8|0,0:0|3:0,0:0:0:0:
182,92,86937,1,0,3:0:0:0:
189,100,87044,2,0,L|282:90,1,72,0|0,3:0|1:0,0:0:0:0:
322,31,87473,2,0,L|415:41,1,72,8|0,0:0|3:0,0:0:0:0:
462,90,87901,5,2,1:2:0:0:
470,97,88009,2,0,P|481:140|470:171,1,72,2|0,3:2|0:0,0:0:0:0:
440,193,88330,2,0,L|363:201,1,72,10|0,0:0|3:0,0:0:0:0:
294,155,88759,1,2,3:2:0:0:
286,148,88866,2,0,P|241:140|209:154,1,72,2|0,3:2|0:0,0:0:0:0:
190,182,89187,2,0,L|201:266,1,72,10|0,0:0|3:0,0:0:0:0:
245,326,89616,6,0,P|209:288|101:311,1,144,0|8,1:0|0:0,0:0:0:0:
56,234,90259,1,0,3:0:0:0:
56,234,90366,1,0,3:0:0:0:
56,234,90473,2,0,L|66:148,1,72,0|0,3:0|1:0,0:0:0:0:
135,113,90901,2,0,L|125:27,1,72,8|0,0:0|3:0,0:0:0:0:
206,3,91330,5,2,1:2:0:0:
206,3,91437,1,2,0:0:0:0:
307,83,91759,1,2,1:2:0:0:
307,83,91866,1,2,0:0:0:0:
242,195,92187,1,2,1:2:0:0:
42,327,93044,5,2,1:0:0:0:
33,240,93259,1,0,3:0:0:0:
112,272,93473,1,2,3:2:0:0:
267,384,93901,5,10,0:0:0:0:
276,297,94116,1,2,0:0:0:0:
197,329,94330,1,2,3:2:0:0:
389,356,94759,6,0,L|471:345,1,72,2|0,3:2|3:0,0:0:0:0:
394,270,95187,2,0,L|476:259,1,72,2|0,1:2|3:0,0:0:0:0:
508,254,95509,1,0,0:0:0:0:
508,254,95616,1,10,0:0:0:0:
498,168,95830,1,2,3:2:0:0:
488,82,96044,1,2,0:0:0:0:
315,0,96473,5,2,1:0:0:0:
232,23,96687,1,0,3:0:0:0:
293,83,96901,1,2,3:2:0:0:
377,61,97116,2,0,L|427:47,2,36,0|0|10,3:0|0:0|0:0,0:0:0:0:
359,150,97544,1,2,0:0:0:0:
359,150,97651,1,0,0:0:0:0:
359,150,97759,2,0,P|352:204|360:228,1,72,2|0,3:2|3:0,0:0:0:0:
412,285,98187,5,2,3:2:0:0:
492,316,98401,1,0,3:0:0:0:
478,230,98616,1,2,1:2:0:0:
412,285,98830,1,0,3:0:0:0:
424,370,99044,1,14,0:0:0:0:
424,370,99473,2,0,P|463:372|497:379,1,72,2|0,0:0|3:0,0:0:0:0:
338,312,99901,5,2,1:0:0:0:
264,358,100116,1,0,3:0:0:0:
177,354,100330,1,2,3:2:0:0:
113,295,100544,1,0,3:0:0:0:
186,197,100759,6,0,L|197:273,1,72,10|2,0:0|0:0,0:0:0:0:
95,168,101187,2,0,P|81:121|99:58,1,108,2|0,3:2|0:0,0:0:0:0:
92,46,101616,2,0,P|132:59|173:60,1,72,2|0,3:2|3:0,0:0:0:0:
239,16,102044,2,0,P|273:5|309:2,1,72,2|0,1:2|3:0,0:0:0:0:
432,71,102473,1,10,0:0:0:0:
486,137,102687,1,2,3:2:0:0:
423,196,102901,2,0,P|375:183|344:178,1,72,2|0,0:0|3:0,0:0:0:0:
283,231,103330,5,2,1:0:0:0:
300,315,103544,1,0,3:0:0:0:
375,358,103759,1,2,3:2:0:0:
202,344,104187,5,10,0:0:0:0:
119,318,104401,1,0,0:0:0:0:
47,367,104616,1,2,3:2:0:0:
127,214,105044,6,0,P|133:165|119:132,1,72,10|2,0:3|0:0,0:0:0:0:
97,111,105366,1,4,0:3:0:0:
84,108,105473,2,0,L|8:116,1,72,2|2,1:2|0:0,0:0:0:0:
140,22,105901,1,10,0:0:0:0:
211,70,106116,2,0,B|296:82|264:30|370:54,1,144,0|0,3:0|0:0,0:0:0:0:
477,7,106759,6,0,L|452:208,1,188.999994232178,4|0,0:3|0:0,0:0:0:0:
512,254,107616,2,0,P|473:242|423:300,1,125.999996154785,10|0,0:0|0:0,0:0:0:0:
272,371,108473,5,2,0:0:0:0:
272,371,108687,1,0,0:0:0:0:
226,298,108901,2,0,L|238:228,1,62.9999980773926,6|0,0:3|0:0,0:0:0:0:
155,348,109330,2,0,L|85:356,1,62.9999980773926,10|0,0:0|0:0,0:0:0:0:
55,276,109759,2,0,L|117:268,1,62.9999980773926,2|0,0:0|0:0,0:0:0:0:
164,193,110187,6,0,P|175:140|141:76,1,125.999996154785,2|0,0:0|0:0,0:0:0:0:
88,148,110830,1,0,0:0:0:0:
172,203,111044,2,0,L|301:186,1,125.999996154785,10|0,0:0|0:0,0:0:0:0:
454,80,111901,6,0,L|445:10,1,62.9999980773926,2|0,0:0|0:0,0:0:0:0:
366,62,112330,2,0,L|296:71,1,62.9999980773926,6|0,0:3|0:0,0:0:0:0:
438,167,112759,2,0,L|508:176,1,62.9999980773926,10|2,0:0|0:0,0:0:0:0:
500,175,113401,1,8,0:3:0:0:
495,166,113509,1,8,0:3:0:0:
491,158,113616,6,0,P|425:144|375:197,1,125.999996154785,6|2,0:3|0:0,0:0:0:0:
294,150,114259,1,0,0:0:0:0:
294,150,114473,2,0,L|317:282,1,125.999996154785,10|0,0:0|0:0,0:0:0:0:
199,364,115330,6,0,L|125:354,1,62.9999980773926,2|0,0:0|0:0,0:0:0:0:
72,289,115759,2,0,L|-2:299,1,62.9999980773926,6|4,0:3|0:3,0:0:0:0:
132,217,116187,1,10,0:0:0:0:
274,46,117044,5,8,0:3:0:0:
274,46,117259,2,0,P|224:17|151:41,1,125.999996154785,10|0,0:3|0:0,0:0:0:0:
242,132,117901,2,0,L|374:110,1,125.999996154785,10|0,0:0|0:0,0:0:0:0:
500,255,118759,5,10,0:0:0:0:
500,255,118973,2,0,B|421:240|461:286|372:271,1,125.999996154785,8|4,0:0|0:3,0:0:0:0:
297,244,119616,2,0,P|339:281|325:351,1,125.999996154785,6|4,0:3|0:3,0:0:0:0:
228,321,120259,1,4,0:3:0:0:
228,321,120366,1,4,0:3:0:0:
228,321,120473,6,0,L|93:305,1,125.999996154785,8|2,0:3|0:0,0:0:0:0:
3,164,121330,2,0,P|57:178|119:125,1,125.999996154785,8|2,0:1|0:0,0:0:0:0:
265,49,122187,6,0,B|239:22|239:22|260:133,1,125.999996154785,8|2,0:3|1:2,0:0:0:0:
433,189,123044,2,0,L|442:126,2,62.9999980773926,10|0|2,0:1|0:0|0:0,0:0:0:0:
477,269,123687,1,0,0:0:0:0:
477,269,123901,6,0,P|434:239|356:245,1,125.999996154785,2|2,1:3|0:0,0:0:0:0:
258,359,124759,2,0,L|395:345,1,125.999996154785,8|2,0:1|0:0,0:0:0:0:
246,223,125616,2,0,B|171:213|204:257|107:245,1,125.999996154785,8|2,0:3|1:2,0:0:0:0:
55,200,126259,1,0,0:0:0:0:
55,200,126473,2,0,P|45:164|52:137,2,62.9999980773926,8|0|2,0:1|0:0|0:0,0:0:0:0:
132,167,127116,1,0,0:0:0:0:
132,167,127330,6,0,L|151:34,1,125.999996154785,2|0,1:2|0:0,0:0:0:0:
314,1,128187,2,0,L|323:70,1,62.9999980773926,8|0,0:1|0:0,0:0:0:0:
403,108,128616,2,0,L|411:45,1,62.9999980773926,2|0,0:0|0:0,0:0:0:0:
331,161,129044,6,0,P|371:148|443:193,1,125.999996154785,4|0,0:3|1:0,0:0:0:0:
482,358,129901,1,10,0:1:0:0:
482,358,130330,2,0,P|483:318|491:287,1,62.9999980773926,10|0,0:3|0:0,0:0:0:0:
401,321,130759,6,0,B|332:308|351:350|272:335,1,125.999996154785,0|2,1:0|0:0,0:0:0:0:
151,205,131616,2,0,P|185:193|211:280,1,125.999996154785,10|2,0:1|0:0,0:0:0:0:
68,328,132473,5,10,0:3:0:0:
256,192,132580,12,2,134187,0:1:0:0:
321,55,134616,6,0,P|309:100|306:140,1,72,2|2,0:0|0:0,0:0:0:0:
221,174,135044,2,0,P|216:138|206:103,1,72,10|6,0:3|0:3,0:0:0:0:
312,220,135473,1,10,0:3:0:0:
312,220,135687,1,2,0:3:0:0:
231,316,135901,6,0,P|295:300|350:336,1,135,14|0,1:2|0:0,0:0:0:0:
379,382,136330,1,8,0:1:0:0:
434,272,136544,1,0,3:0:0:0:
434,272,136651,1,0,3:0:0:0:
434,272,136758,2,0,P|446:235|451:181,1,90,2|0,1:2|3:0,0:0:0:0:
332,248,137187,2,0,P|336:293|350:336,1,90,10|0,0:1|3:0,0:0:0:0:
447,266,137615,6,0,P|462:195|435:132,1,135,2|0,1:2|3:0,0:0:0:0:
397,104,138044,1,8,0:1:0:0:
320,43,138258,1,0,3:0:0:0:
320,43,138365,1,0,0:0:0:0:
320,43,138473,2,0,L|226:53,1,90,2|0,1:2|3:0,0:0:0:0:
149,160,138901,2,0,L|238:170,1,90,10|0,0:1|3:0,0:0:0:0:
333,30,139330,6,0,L|185:48,1,135,10|0,1:2|0:0,0:0:0:0:
145,54,139758,1,10,0:1:0:0:
66,127,139973,1,0,3:0:0:0:
66,127,140080,1,0,3:0:0:0:
66,127,140187,2,0,P|64:183|82:215,1,90,2|0,1:2|3:0,0:0:0:0:
158,285,140615,2,0,P|187:237|188:200,1,90,10|0,0:1|0:0,0:0:0:0:
70,328,141044,6,0,P|96:363|136:382,1,90,2|0,1:2|3:0,0:0:0:0:
241,353,141473,1,8,0:1:0:0:
158,285,141687,2,0,L|162:248,3,30,0|0|0|0,3:0|0:0|0:0|1:0,0:0:0:0:
248,192,142115,1,2,3:1:0:0:
173,113,142330,2,0,P|167:62|189:19,1,90,8|0,0:1|3:0,0:0:0:0:
248,192,142758,6,0,B|356:206|320:155|425:173,1,180,14|8,1:2|0:1,0:0:0:0:
507,256,143401,1,0,3:0:0:0:
507,256,143508,1,0,3:0:0:0:
507,256,143615,2,0,P|513:289|508:310,2,45,2|0|0,1:2|0:0|3:0,0:0:0:0:
405,292,144044,2,0,P|394:347|397:387,1,90,10|0,0:1|3:0,0:0:0:0:
302,325,144473,6,0,P|237:337|173:296,1,135,2|0,1:2|3:0,0:0:0:0:
160,253,144901,1,8,0:1:0:0:
247,190,145115,1,0,3:0:0:0:
170,113,145330,2,0,L|79:121,1,90,2|0,1:2|3:0,0:0:0:0:
146,8,145759,2,0,L|237:16,1,90,10|0,0:1|3:0,0:0:0:0:
167,123,146187,6,0,L|11:138,1,135,10|0,1:2|0:0,0:0:0:0:
3,181,146615,2,0,P|2:227|33:259,1,90,10|0,0:1|3:0,0:0:0:0:
138,263,147044,2,0,B|168:235|217:236|217:236|236:260|279:268,1,135,2|0,1:2|0:0,0:0:0:0:
311,252,147473,2,0,P|298:295|292:339,1,90,10|0,0:1|3:0,0:0:0:0:
393,377,147901,5,6,1:2:0:0:
497,232,148330,2,0,L|488:175,1,45,8|0,0:1|3:0,0:0:0:0:
458,144,148544,2,0,L|467:87,1,45,0|0,3:0|3:0,0:0:0:0:
471,46,148758,2,0,P|416:28|365:48,1,90,14|2,0:1|0:3,0:0:0:0:
348,74,149080,1,2,0:3:0:0:
339,82,149187,2,0,P|284:100|233:80,1,90,10|2,0:1|0:0,0:0:0:0:
127,32,149615,6,0,B|134:83|134:83|149:109|149:109|159:187,1,135,14|0,1:2|0:0,0:0:0:0:
190,203,150044,2,0,L|178:302,1,90,10|0,0:1|3:0,0:0:0:0:
265,358,150473,1,0,1:0:0:0:
338,279,150687,1,0,3:0:0:0:
426,340,150901,2,0,P|431:370|420:396,2,45,8|0|2,0:1|0:0|3:2,0:0:0:0:
338,279,151330,6,0,B|330:197|370:226|352:132,1,135,2|0,1:2|3:0,0:0:0:0:
368,95,151758,2,0,P|322:112|271:90,1,90,10|2,0:1|0:0,0:0:0:0:
199,33,152187,1,0,1:0:0:0:
134,119,152401,1,2,3:2:0:0:
33,79,152615,2,0,P|21:122|42:174,1,90,10|0,0:1|3:0,0:0:0:0:
106,251,153044,5,10,1:2:0:0:
106,251,153258,1,0,0:0:0:0:
193,186,153473,2,0,L|291:175,1,90,10|0,0:1|3:0,0:0:0:0:
372,278,153901,1,2,1:2:0:0:
372,278,154115,1,2,3:2:0:0:
285,343,154330,2,0,L|187:354,1,90,10|2,0:1|0:0,0:0:0:0:
106,251,154758,6,0,P|104:191|204:202,1,180,2|10,1:2|0:1,0:0:0:0:
280,120,155401,2,0,L|274:83,3,30,2|0|0|0,3:2|0:0|0:0|1:0,0:0:0:0:
362,25,155830,1,2,3:1:0:0:
425,114,156044,1,10,0:1:0:0:
511,50,156258,1,0,3:0:0:0:
425,114,156473,6,0,P|403:189|410:257,1,135,14|0,1:2|0:0,0:0:0:0:
432,292,156901,2,0,P|391:275|350:290,1,90,10|0,0:1|3:0,0:0:0:0:
262,354,157330,2,0,L|170:346,1,90,0|0,1:0|3:0,0:0:0:0:
111,269,157759,1,8,0:1:0:0:
111,269,157865,1,0,0:0:0:0:
111,269,157973,2,0,L|57:275,1,45,2|2,3:2|0:0,0:0:0:0:
33,231,158187,6,0,P|31:186|69:154,1,90,2|0,1:2|3:0,0:0:0:0:
104,57,158615,2,0,P|141:32|188:49,1,90,10|0,0:1|3:0,0:0:0:0:
235,137,159044,1,0,1:0:0:0:
327,82,159258,1,2,3:2:0:0:
394,166,159473,2,0,L|381:259,1,90,10|2,0:1|3:2,0:0:0:0:
302,383,159901,6,0,P|260:349|168:360,1,135,10|0,1:2|0:0,0:0:0:0:
136,381,160330,2,0,B|139:322|139:322|116:285,1,90,8|0,0:1|3:0,0:0:0:0:
35,165,160758,2,0,B|119:174|90:137|174:153,1,135,10|0,1:2|0:0,0:0:0:0:
216,175,161187,2,0,P|205:133|226:93,1,90,10|0,0:1|0:0,0:0:0:0:
312,5,161615,5,10,0:0:0:0:
381,66,161830,1,8,0:0:0:0:
381,66,161937,1,0,0:0:0:0:
381,66,162044,1,10,0:0:0:0:
454,30,162258,1,8,0:0:0:0:
502,95,162473,2,0,P|516:145|499:185,1,90,10|2,0:1|0:3,0:0:0:0:
460,212,162794,1,2,0:3:0:0:
449,210,162901,2,0,L|357:198,1,90,10|8,0:1|0:1,0:0:0:0:
254,273,163330,6,0,P|201:249|181:317,1,135,14|0,1:2|0:0,0:0:0:0:
208,349,163759,2,0,L|104:365,1,90,8|2,0:1|3:2,0:0:0:0:
38,291,164187,2,0,P|23:250|39:197,1,90,2|0,1:2|3:0,0:0:0:0:
72,168,164509,1,0,0:0:0:0:
79,160,164616,2,0,P|94:119|78:66,1,90,10|0,0:1|3:0,0:0:0:0:
176,19,165044,6,0,B|261:11|217:56|321:48,1,135,2|2,1:2|3:2,0:0:0:0:
355,30,165473,2,0,P|337:76|362:123,1,90,8|2,0:1|3:2,0:0:0:0:
440,172,165901,1,0,1:0:0:0:
500,81,166116,1,10,0:1:0:0:
500,81,166330,1,10,0:1:0:0:
333,219,166759,6,0,P|319:253|247:218,1,135,14|0,1:2|0:0,0:0:0:0:
263,172,167187,2,0,L|166:183,1,90,8|2,0:1|3:2,0:0:0:0:
88,249,167616,2,0,P|72:302|86:347,1,90,2|0,1:2|3:0,0:0:0:0:
120,369,167937,1,0,0:0:0:0:
132,370,168044,2,0,L|221:380,1,90,10|0,0:1|3:0,0:0:0:0:
356,277,168473,6,0,P|390:268|445:297,1,90,2|2,1:2|3:2,0:0:0:0:
506,205,168901,1,0,3:0:0:0:
413,148,169116,2,0,L|372:153,3,30,0|0|0|0,3:0|0:0|0:0|3:0,0:0:0:0:
311,71,169544,1,2,0:1:0:0:
234,148,169759,2,0,P|181:154|142:127,1,90,8|0,0:1|1:0,0:0:0:0:
8,264,170187,6,0,P|28:213|83:264,1,135,14|0,1:2|0:0,0:0:0:0:
83,297,170616,2,0,L|177:282,1,90,8|2,0:1|3:2,0:0:0:0:
258,346,171044,2,0,P|295:361|343:343,1,90,2|0,1:2|3:0,0:0:0:0:
380,308,171366,1,0,0:0:0:0:
379,297,171473,2,0,L|369:197,1,90,10|0,0:1|3:0,0:0:0:0:
273,158,171901,6,0,P|221:179|137:157,1,135,2|2,1:2|3:2,0:0:0:0:
97,138,172330,2,0,P|106:190|110:241,1,90,8|2,0:1|3:2,0:0:0:0:
0,281,172759,2,0,P|4:236|12:191,1,90,0|2,1:0|3:2,0:0:0:0:
76,350,173187,1,10,0:1:0:0:
211,263,173401,1,0,3:0:0:0:
211,263,173509,1,0,3:0:0:0:
211,263,173616,6,0,P|263:245|370:301,1,180,8|10,1:2|0:1,0:0:0:0:
438,380,174259,1,0,3:0:0:0:
512,223,174473,6,0,B|493:95|493:95|472:144,1,180,8|10,1:2|0:1,0:0:0:0:
414,232,175116,1,0,0:0:0:0:
309,146,175330,6,0,P|302:101|292:61,1,62.9999980773926,0|0,1:0|0:0,0:0:0:0:
394,93,175759,2,0,P|401:48|411:8,1,62.9999980773926,0|0,0:0|0:0,0:0:0:0:
322,0,176187,1,0,0:0:0:0:
322,0,176616,2,0,P|345:51|273:84,1,135,4|0,0:0|0:0,0:0:0:0:
240,66,177044,5,2,1:2:0:0:
