osu file format v14

[General]
AudioFilename: audio.mp3
AudioLeadIn: 0
PreviewTime: 97599
Countdown: 0
SampleSet: Soft
StackLeniency: 0.4
Mode: 0
LetterboxInBreaks: 0
WidescreenStoryboard: 1

[Editor]
Bookmarks: 27164,43860,68903,77251,98120,114816
DistanceSpacing: 1
BeatDivisor: 4
GridSize: 8
TimelineZoom: 2.7

[Metadata]
Title:CH4NGE feat. KAFU
TitleUnicode:CH4NGE feat. 可不
Artist:Giga
ArtistUnicode:Giga
Creator:muya-
Version:SEOLV'S H4RD
Source:
Tags:kaf 花譜 kafu change electronic japanese vocaloid 神椿スタジオ kamitsubaki studios q*Left qleft q left ギガ ギガp gigap giga-p giga p female vocals CeVIO Ai seolv [_L_u_k_a_s_] fanboyyou
BeatmapID:3968474
BeatmapSetID:1826534

[Difficulty]
HPDrainRate:4
CircleSize:3.5
OverallDifficulty:6
ApproachRate:8
SliderMultiplier:1.9
SliderTickRate:1

[Events]
//Background and Video events
0,0,"kafu.jpg",0,0
//Break Periods
2,68903,76501
//Storyboard Layer 0 (Background)
//Storyboard Layer 1 (Fail)
//Storyboard Layer 2 (Pass)
//Storyboard Layer 3 (Foreground)
//Storyboard Layer 4 (Overlay)
//Storyboard Sound Samples

[TimingPoints]
1600,521.739130434783,4,2,1,60,1,8
2121,521.739130434783,4,2,1,60,1,0
2121,-100,4,2,1,60,0,0
18294,-100,4,2,2,60,0,0
18816,-86.9565217391304,4,2,3,75,0,0
25077,-86.9565217391304,4,2,3,70,0,0
26642,-100,4,2,3,60,0,0
27164,-76.9230769230769,4,2,18,90,0,1
27425,-76.9230769230769,4,2,8,90,0,1
27490,-76.9230769230769,4,2,4,90,0,1
27947,-76.9230769230769,4,2,8,90,0,1
28012,-76.9230769230769,4,2,4,90,0,1
28468,-76.9230769230769,4,2,8,90,0,1
28533,-76.9230769230769,4,2,4,90,0,1
28990,-76.9230769230769,4,2,8,90,0,1
29055,-76.9230769230769,4,2,4,90,0,1
29512,-66.6666666666667,4,2,8,90,0,1
29577,-66.6666666666667,4,2,4,90,0,1
30034,-66.6666666666667,4,2,8,90,0,1
30099,-66.6666666666667,4,2,4,90,0,1
30294,-76.9230769230769,4,2,4,90,0,1
30555,-76.9230769230769,4,2,8,90,0,1
30620,-76.9230769230769,4,2,4,90,0,1
31077,-76.9230769230769,4,2,8,90,0,1
31142,-76.9230769230769,4,2,4,90,0,1
31599,-76.9230769230769,4,2,8,90,0,1
31664,-76.9230769230769,4,2,4,90,0,1
32121,-76.9230769230769,4,2,8,90,0,1
32186,-76.9230769230769,4,2,4,90,0,1
32642,-76.9230769230769,4,2,8,90,0,1
32707,-76.9230769230769,4,2,4,90,0,1
33164,-76.9230769230769,4,2,8,90,0,1
33229,-76.9230769230769,4,2,4,90,0,1
33686,-76.9230769230769,4,2,8,90,0,1
33751,-76.9230769230769,4,2,4,90,0,1
34207,-76.9230769230769,4,2,8,90,0,1
34272,-76.9230769230769,4,2,4,90,0,1
34729,-76.9230769230769,4,2,8,90,0,1
34794,-76.9230769230769,4,2,4,90,0,1
35251,-76.9230769230769,4,2,4,90,0,0
35512,-76.9230769230769,4,2,4,90,0,1
35773,-76.9230769230769,4,2,8,90,0,1
35838,-76.9230769230769,4,2,4,90,0,1
36294,-76.9230769230769,4,2,8,90,0,1
36359,-76.9230769230769,4,2,4,90,0,1
36816,-76.9230769230769,4,2,8,90,0,1
36881,-76.9230769230769,4,2,4,90,0,1
37338,-76.9230769230769,4,2,8,90,0,1
37403,-76.9230769230769,4,2,4,90,0,1
37860,-76.9230769230769,4,2,8,90,0,1
37925,-76.9230769230769,4,2,4,90,0,1
38381,-76.9230769230769,4,2,8,90,0,1
38446,-76.9230769230769,4,2,4,90,0,1
38903,-76.9230769230769,4,2,8,90,0,1
38968,-76.9230769230769,4,2,4,90,0,1
39425,-76.9230769230769,4,2,8,90,0,1
39490,-76.9230769230769,4,2,4,90,0,1
39947,-76.9230769230769,4,2,8,90,0,1
40012,-76.9230769230769,4,2,4,90,0,1
40468,-76.9230769230769,4,2,8,90,0,1
40533,-76.9230769230769,4,2,4,90,0,1
40990,-76.9230769230769,4,2,8,90,0,1
41055,-76.9230769230769,4,2,4,90,0,1
41512,-76.9230769230769,4,2,8,90,0,1
41577,-76.9230769230769,4,2,4,90,0,1
42034,-76.9230769230769,4,2,8,90,0,1
42099,-76.9230769230769,4,2,4,90,0,1
42555,-76.9230769230769,4,2,8,90,0,1
42620,-76.9230769230769,4,2,4,90,0,1
43077,-76.9230769230769,4,2,8,90,0,1
43142,-76.9230769230769,4,2,4,90,0,1
43338,-76.9230769230769,4,2,14,90,0,1
43729,-76.9230769230769,4,2,14,90,0,0
43860,-86.9565217391304,4,2,3,75,0,1
44121,-86.9565217391304,4,2,3,75,0,0
52207,-95.2380952380952,4,2,1,65,0,0
58468,-90.9090909090909,4,2,1,80,0,0
60555,-86.9565217391304,4,2,3,75,0,1
60816,-86.9565217391304,4,2,3,75,0,0
64729,-86.9565217391304,4,2,3,75,0,1
64990,-86.9565217391304,4,2,3,75,0,0
68903,-86.9565217391304,4,2,6,55,0,0
69164,-86.9565217391304,4,2,6,55,0,0
77251,-111.111111111111,4,2,7,65,0,0
85599,-333.333333333332,4,2,9,40,0,0
86121,-333.333333333332,4,2,9,50,0,0
86642,-200,4,2,9,60,0,0
87164,-200,4,2,9,70,0,0
87686,-90.9090909090909,4,2,9,90,0,0
87947,-90.9090909090909,4,2,9,5,0,0
88207,-90.9090909090909,4,2,9,90,0,0
88468,-90.9090909090909,4,2,9,5,0,0
88729,-71.4285714285714,4,2,9,90,0,1
89773,-86.9565217391304,4,2,3,80,0,8
90033,-86.9565217391304,4,2,3,80,0,8
96033,-86.9565217391304,4,2,3,70,0,8
97599,-100,4,2,3,60,0,8
98121,-76.9230769230769,4,2,18,90,0,9
98381,-76.9230769230769,4,2,8,90,0,9
98446,-76.9230769230769,4,2,4,90,0,9
98903,-76.9230769230769,4,2,8,90,0,9
98968,-76.9230769230769,4,2,4,90,0,9
99424,-76.9230769230769,4,2,8,90,0,9
99489,-76.9230769230769,4,2,4,90,0,9
99946,-76.9230769230769,4,2,8,90,0,9
100011,-76.9230769230769,4,2,4,90,0,9
100468,-66.6666666666667,4,2,8,90,0,9
100533,-66.6666666666667,4,2,4,90,0,9
100990,-66.6666666666667,4,2,8,90,0,9
101055,-66.6666666666667,4,2,4,90,0,9
101251,-76.9230769230769,4,2,4,90,0,9
101511,-76.9230769230769,4,2,8,90,0,9
101576,-76.9230769230769,4,2,4,90,0,9
102033,-76.9230769230769,4,2,8,90,0,9
102098,-76.9230769230769,4,2,4,90,0,9
102555,-76.9230769230769,4,2,8,90,0,9
102620,-76.9230769230769,4,2,4,90,0,9
103077,-76.9230769230769,4,2,8,90,0,9
103142,-76.9230769230769,4,2,4,90,0,9
103598,-76.9230769230769,4,2,8,90,0,9
103663,-76.9230769230769,4,2,4,90,0,9
104120,-76.9230769230769,4,2,8,90,0,9
104185,-76.9230769230769,4,2,4,90,0,9
104642,-76.9230769230769,4,2,8,90,0,9
104707,-76.9230769230769,4,2,4,90,0,9
105163,-76.9230769230769,4,2,8,90,0,9
105228,-76.9230769230769,4,2,4,90,0,9
105685,-76.9230769230769,4,2,8,90,0,9
105750,-76.9230769230769,4,2,4,90,0,9
106207,-76.9230769230769,4,2,4,90,0,8
106468,-76.9230769230769,4,2,4,90,0,9
106729,-76.9230769230769,4,2,8,90,0,9
106794,-76.9230769230769,4,2,4,90,0,9
107250,-76.9230769230769,4,2,8,90,0,9
107315,-76.9230769230769,4,2,4,90,0,9
107772,-76.9230769230769,4,2,8,90,0,9
107837,-76.9230769230769,4,2,4,90,0,9
108294,-76.9230769230769,4,2,8,90,0,9
108359,-76.9230769230769,4,2,4,90,0,9
108816,-76.9230769230769,4,2,8,90,0,9
108881,-76.9230769230769,4,2,4,90,0,9
109337,-76.9230769230769,4,2,8,90,0,9
109402,-76.9230769230769,4,2,4,90,0,9
109859,-76.9230769230769,4,2,8,90,0,9
109924,-76.9230769230769,4,2,4,90,0,9
110381,-76.9230769230769,4,2,8,90,0,9
110446,-76.9230769230769,4,2,4,90,0,9
110903,-76.9230769230769,4,2,8,90,0,9
110968,-76.9230769230769,4,2,4,90,0,9
111424,-76.9230769230769,4,2,8,90,0,9
111489,-76.9230769230769,4,2,4,90,0,9
111946,-76.9230769230769,4,2,8,90,0,9
112011,-76.9230769230769,4,2,4,90,0,9
112468,-76.9230769230769,4,2,8,90,0,9
112533,-76.9230769230769,4,2,4,90,0,9
112990,-76.9230769230769,4,2,8,90,0,9
113055,-76.9230769230769,4,2,4,90,0,9
113511,-76.9230769230769,4,2,8,90,0,9
113576,-76.9230769230769,4,2,4,90,0,9
114033,-76.9230769230769,4,2,8,90,0,9
114098,-76.9230769230769,4,2,4,90,0,9
114294,-76.9230769230769,4,2,14,90,0,9
114686,-76.9230769230769,4,2,14,90,0,8
114816,-86.9565217391304,4,2,3,75,0,9
115077,-86.9565217391304,4,2,3,75,0,8
122642,-111.111111111111,4,2,3,75,0,0
123164,-86.9565217391304,4,2,4,80,0,9
123425,-86.9565217391304,4,2,8,80,0,8
123490,-86.9565217391304,4,2,4,80,0,8
123946,-86.9565217391304,4,2,8,80,0,8
124011,-86.9565217391304,4,2,4,80,0,8
124468,-86.9565217391304,4,2,8,80,0,8
124533,-86.9565217391304,4,2,4,80,0,8
124990,-86.9565217391304,4,2,8,80,0,8
125055,-86.9565217391304,4,2,4,80,0,8
125512,-86.9565217391304,4,2,8,80,0,8
125577,-86.9565217391304,4,2,4,80,0,8
126033,-86.9565217391304,4,2,8,80,0,8
126098,-86.9565217391304,4,2,4,80,0,8
126555,-86.9565217391304,4,2,8,80,0,8
126620,-86.9565217391304,4,2,4,80,0,8
127077,-86.9565217391304,4,2,8,80,0,8
127142,-86.9565217391304,4,2,4,80,0,8
127599,-86.9565217391304,4,2,8,80,0,8
127664,-86.9565217391304,4,2,4,80,0,8
128120,-86.9565217391304,4,2,8,80,0,8
128185,-86.9565217391304,4,2,4,80,0,8
128642,-86.9565217391304,4,2,8,80,0,8
128707,-86.9565217391304,4,2,4,80,0,8
129164,-86.9565217391304,4,2,8,80,0,8
129229,-86.9565217391304,4,2,4,80,0,8
129686,-86.9565217391304,4,2,8,80,0,8
129751,-86.9565217391304,4,2,4,80,0,8
130207,-86.9565217391304,4,2,8,80,0,8
130272,-86.9565217391304,4,2,4,80,0,8
130468,-86.9565217391304,4,2,4,60,0,0
130729,-86.9565217391304,4,2,8,60,0,0
130794,-86.9565217391304,4,2,4,60,0,0

[Colours]
Combo1 : 228,63,113
Combo2 : 142,234,214
Combo3 : 225,132,169
Combo4 : 221,225,225

[HitObjects]
35,158,1600,6,0,B|160:112|160:112|130:129|131:163,1,190,2|2,0:0|0:0,0:0:0:0:
209,180,2381,1,0,1:2:0:0:
150,274,2642,1,10,0:0:0:0:
144,280,2773,2,0,P|230:280|271:317,1,142.5,0|2,1:2|1:2,0:0:0:0:
312,380,3425,1,2,0:0:0:0:
380,338,3686,2,0,P|391:274|405:234,1,95,8|2,0:0|1:2,0:0:0:0:
449,134,4207,5,2,0:0:0:0:
416,44,4468,1,2,1:2:0:0:
318,34,4729,1,10,0:0:0:0:
314,41,4860,2,0,L|341:111,1,47.5,0|2,1:2|0:2,0:0:0:0:
405,194,5251,1,2,1:2:0:0:
405,194,5773,2,0,P|372:231|313:218,1,95,10|0,0:0|0:0,0:0:0:0:
243,143,6294,5,2,0:0:0:0:
155,148,6555,1,2,1:2:0:0:
121,231,6816,2,0,P|114:253|110:277,2,47.5,10|0|2,0:0|1:2|0:0,0:0:0:0:
31,206,7338,2,0,P|18:160|-1:116,1,95,2|2,1:2|0:0,0:0:0:0:
52,45,7860,2,0,P|97:32|141:14,1,95,8|2,0:0|1:2,0:0:0:0:
244,29,8381,5,2,0:0:0:0:
254,116,8642,1,2,1:2:0:0:
339,135,8903,2,0,P|348:158|356:181,2,47.5,10|0|2,0:0|1:2|0:0,0:0:0:0:
393,35,9425,1,2,1:2:0:0:
401,42,9555,2,0,P|478:26|509:17,1,95,2|2,0:0|0:0,0:0:0:0:
511,52,9947,2,0,L|502:99,2,47.5,10|2|2,0:0|0:0|1:2,0:0:0:0:
401,147,10468,5,2,0:0:0:0:
458,226,10729,1,2,1:2:0:0:
408,303,10990,2,0,L|426:368,2,47.5,10|0|2,0:0|1:2|0:0,0:0:0:0:
327,259,11512,2,0,P|288:233|243:244,1,95,2|2,1:2|0:0,0:0:0:0:
175,327,12034,2,0,B|132:318|132:318|126:320|126:320|81:311,2,95,10|0|2,0:0|1:2|0:0,0:0:0:0:
243,244,12816,5,2,1:2:0:0:
171,183,13077,2,0,L|163:136,1,47.5,10|0,0:0|1:2,0:0:0:0:
151,120,13338,1,2,0:0:0:0:
273,53,13599,2,0,L|257:146,1,95,2|2,1:2|0:0,0:0:0:0:
243,244,14121,1,10,0:0:0:0:
316,295,14381,1,0,1:2:0:0:
397,259,14642,6,0,P|459:238|521:229,1,95,2|0,0:0|1:2,0:0:0:0:
504,206,15034,1,2,0:0:0:0:
512,213,15164,2,0,L|501:166,2,47.5,10|2|2,0:0|1:2|0:0,0:0:0:0:
397,259,15686,2,0,P|338:211|375:89,1,190,0|8,1:2|0:0,0:0:0:0:
418,42,16468,1,2,1:2:0:0:
338,0,16729,6,0,P|295:21|249:30,1,95,2|0,0:0|1:2,0:0:0:0:
185,95,17251,2,0,P|164:83|140:79,2,47.5,10|0|2,0:0|1:2|0:0,0:0:0:0:
276,160,17773,2,0,P|206:151|148:189,1,142.5,2|0,1:2|0:0,0:0:0:0:
149,202,18294,2,0,L|142:232,3,31.6666666666667
75,368,18816,6,0,P|59:289|46:253,1,109.250002083778,6|2,3:2|0:0,0:0:0:0:
149,202,19338,1,10,1:2:0:0:
148,193,19468,2,0,P|192:159|249:177,1,109.250002083778,2|2,0:0|0:0,0:0:0:0:
245,177,19860,2,0,P|297:160|350:151,1,109.250002083778,2|2,3:2|0:0,0:0:0:0:
449,184,20382,1,10,1:2:0:0:
455,177,20512,2,0,P|465:125|431:83,1,109.250002083778,2|0,0:0|0:0,0:0:0:0:
419,77,20903,5,2,3:2:0:0:
353,7,21164,1,2,0:0:0:0:
256,4,21425,2,0,P|232:20|190:17,1,54.6250010418892,10|2,1:2|0:0,0:0:0:0:
39,130,21947,1,2,3:2:0:0:
46,132,22077,2,0,P|117:92|159:104,1,109.250002083778,2|0,0:0|0:0,0:0:0:0:
176,119,22468,1,10,1:2:0:0:
171,127,22598,2,0,P|242:167|284:155,1,109.250002083778,2|0,0:0|0:0,0:0:0:0:
292,147,22990,5,2,3:2:0:0:
374,96,23251,1,2,0:0:0:0:
443,147,23512,1,10,1:2:0:0:
447,154,23642,2,0,B|461:242|461:242|473:257,1,109.250002083778,2|2,0:0|1:2,0:0:0:0:
475,268,24034,1,2,3:2:0:0:
419,346,24295,1,2,0:0:0:0:
339,298,24556,1,10,1:2:0:0:
336,306,24686,2,0,B|270:296|284:319|221:308,1,109.250002083778,2|0,0:0|0:0,0:0:0:0:
219,303,25077,6,0,L|202:250,1,54.6250010418892,2|2,3:2|0:0,0:0:0:0:
316,139,25468,1,8,0:0:0:0:
325,138,25599,2,0,L|341:85,1,54.6250010418892,2|2,3:2|0:0,0:0:0:0:
152,0,26121,5,2,1:1:0:0:
340,85,26642,2,0,P|323:129|314:176,1,95,10|2,0:0|0:0,0:0:0:0:
218,303,27164,6,0,P|160:314|115:275,2,123.499994346619,6|2|10,3:2|3:2|0:0,0:0:0:0:
337,361,27947,1,2,3:2:0:0:
347,360,28077,1,2,1:2:0:0:
359,363,28207,2,0,P|388:279|427:205,1,123.499994346619,2|2,3:2|3:2,0:0:0:0:
411,111,28729,2,0,P|369:96|332:77,1,61.7499971733095,10|0,0:0|0:0,0:0:0:0:
315,118,28990,2,0,P|327:146|337:175,2,61.7499971733095,2|2|2,3:2|0:0|3:2,0:0:0:0:
234,35,29512,5,2,3:1:0:0:
116,25,29773,1,10,2:1:0:0:
27,120,30034,1,2,3:1:0:0:
66,238,30294,2,0,P|90:294|108:362,1,123.499994346619,2|0,3:1|3:2,0:0:0:0:
236,336,30816,6,0,P|244:306|256:277,2,61.7499971733095,10|0|2,0:0|0:0|3:2,0:0:0:0:
243,372,31207,1,0,0:0:0:0:
252,378,31338,2,0,P|322:380|361:341,1,123.499994346619,2|0,3:2|3:2,0:0:0:0:
356,216,31860,2,0,P|360:185|370:156,2,61.7499971733095,10|0|2,0:0|0:0|3:2,0:0:0:0:
364,242,32251,1,0,0:0:0:0:
372,248,32381,2,0,P|427:221|485:200,1,123.499994346619,2|2,3:2|3:2,0:0:0:0:
512,81,32903,5,10,0:0:0:0:
421,30,33164,2,0,P|393:43|364:53,1,61.7499971733095,2|0,3:2|0:0,0:0:0:0:
352,68,33425,2,0,P|316:21|257:18,1,123.499994346619,2|2,3:2|3:2,0:0:0:0:
245,28,33816,1,0,1:2:0:0:
238,38,33947,1,8,0:0:0:0:
177,126,34207,2,0,B|188:184|188:184|186:188|186:188|197:246,1,123.499994346619,2|2,3:2|3:2,0:0:0:0:
270,340,34729,1,2,3:2:0:0:
375,306,34990,1,10,0:0:0:0:
382,302,35121,2,0,B|387:272|387:272|386:270|386:270|392:241,1,61.7499971733095,0|2,0:0|1:2,0:0:0:0:
424,96,35512,6,0,P|378:124|311:110,1,123.499994346619,6|0,3:2|3:2,0:0:0:0:
287,95,35903,1,2,0:0:0:0:
288,86,36034,2,0,P|257:64|216:68,1,61.7499971733095,8|0,0:0|0:0,0:0:0:0:
196,97,36294,2,0,L|216:218,1,123.499994346619,2|0,3:2|3:2,0:0:0:0:
227,347,36816,2,0,P|196:325|155:329,1,61.7499971733095,2|0,3:2|0:0,0:0:0:0:
135,338,37077,1,10,0:0:0:0:
132,347,37207,2,0,P|73:362|20:335,1,123.499994346619,2|0,0:0|0:0,0:0:0:0:
7,312,37599,6,0,L|18:189,1,123.499994346619,2|0,3:2|3:2,0:0:0:0:
24,157,37990,1,2,0:0:0:0:
30,148,38121,2,0,P|61:126|102:130,1,61.7499971733095,8|0,0:0|0:0,0:0:0:0:
114,155,38381,2,0,P|170:131|230:116,1,123.499994346619,2|0,3:2|3:2,0:0:0:0:
323,33,38903,1,2,3:2:0:0:
435,79,39164,2,0,P|449:138|473:195,1,123.499994346619,10|2,0:0|3:2,0:0:0:0:
512,331,39686,6,0,B|477:259|385:285|385:285|418:337,1,185.249991519928,2|0,3:2|0:0,0:0:0:0:
405,330,40207,2,0,P|370:377|312:368,1,123.499994346619,10|2,0:0|3:2,0:0:0:0:
192,315,40729,1,2,3:2:0:0:
165,218,40990,1,2,3:2:0:0:
242,158,41251,2,0,P|263:132|295:122,1,61.7499971733095,10|0,0:0|0:0,0:0:0:0:
326,127,41512,1,2,3:2:0:0:
334,0,41773,6,0,L|214:30,1,123.499994346619,2|0,3:2|3:2,0:0:0:0:
185,12,42164,1,2,0:0:0:0:
181,17,42294,1,8,0:0:0:0:
179,142,42555,2,0,L|163:217,1,61.7499971733095,2|0,3:2|0:0,0:0:0:0:
186,250,42816,2,0,P|142:209|82:211,1,123.499994346619,2|2,3:2|3:2,0:0:0:0:
0,284,43338,1,10,0:0:0:0:
160,361,43860,6,0,L|276:387,1,109.250002083778,6|2,3:2|0:0,0:0:0:0:
396,384,44381,1,10,3:2:0:0:
407,384,44512,2,0,B|415:328|460:351|464:287,1,109.250002083778,0|0,0:0|1:2,0:0:0:0:
436,247,44903,2,0,P|371:223|338:276,1,109.250002083778,2|2,3:2|0:0,0:0:0:0:
269,334,45424,1,2,3:2:0:0:
275,329,45555,2,0,L|249:213,1,109.250002083778,2|0,0:0|0:0,0:0:0:0:
241,220,45947,6,0,B|211:180|157:191|157:191|160:234,1,109.250002083778,2|2,3:2|0:0,0:0:0:0:
87,307,46468,1,10,3:2:0:0:
92,301,46599,2,0,P|85:246|65:196,1,109.250002083778,0|0,0:0|1:2,0:0:0:0:
50,198,46990,2,0,P|50:170|63:146,1,54.6250010418892,2|2,3:2|0:0,0:0:0:0:
162,15,47512,2,0,P|185:2|212:0,1,54.6250010418892,10|2,3:2|0:0,0:0:0:0:
411,53,48034,6,0,B|392:101|348:67|335:137,1,109.250002083778,2|2,3:2|0:0,0:0:0:0:
404,214,48555,1,10,3:2:0:0:
409,223,48686,2,0,L|302:246,1,109.250002083778,0|0,0:0|1:2,0:0:0:0:
292,257,49077,6,0,P|241:274|195:248,1,109.250002083778,2|2,3:2|0:0,0:0:0:0:
97,294,49598,1,2,3:2:0:0:
105,287,49729,2,0,B|96:202|96:202|88:177,1,109.250002083778,2|0,0:0|0:0,0:0:0:0:
62,140,50121,2,0,P|112:157|158:131,1,109.250002083778,2|2,3:2|0:0,0:0:0:0:
225,44,50642,1,10,3:2:0:0:
235,47,50773,2,0,L|342:24,1,109.250002083778,0|0,0:0|1:2,0:0:0:0:
350,30,51164,1,0,3:2:0:0:
428,88,51425,1,2,0:0:0:0:
415,183,51686,2,0,L|426:236,3,36.4166673612595,0|0|0|0,3:2|0:0|0:0|1:2,0:0:0:0:
449,304,52207,6,0,P|399:313|357:287,1,99.7499969558717,2|2,3:2|1:2,0:0:0:0:
303,200,52729,2,0,L|312:151,2,49.8749984779358,2|2|2,3:2|1:2|0:0,0:0:0:0:
217,252,53251,2,0,L|110:266,1,99.7499969558717,2|2,3:2|0:0,0:0:0:0:
86,268,53642,2,0,P|55:231|67:184,1,99.7499969558717,2|2,0:0|0:0,0:0:0:0:
86,163,54034,1,2,1:2:0:0:
122,74,54294,5,2,3:2:0:0:
219,78,54555,2,0,L|228:126,1,49.8749984779358,2|0,1:2|1:2,0:0:0:0:
242,148,54816,1,2,3:2:0:0:
249,152,54947,2,0,P|297:161|341:140,1,99.7499969558717,2|2,1:2|1:2,0:0:0:0:
350,112,55338,2,0,P|394:90|442:100,1,99.7499969558717,2|2,3:2|0:0,0:0:0:0:
463,123,55729,2,0,L|472:171,1,49.8749984779358,2|0,0:0|3:2,0:0:0:0:
468,192,55990,1,2,0:0:0:0:
466,205,56121,1,2,1:2:0:0:
503,317,56381,6,0,P|456:298|407:295,1,99.7499969558717,2|2,3:2|1:2,0:0:0:0:
302,358,56903,1,2,3:2:0:0:
297,351,57034,2,0,P|273:360|249:362,2,49.8749984779358,0|2|2,1:2|0:0|1:2,0:0:0:0:
309,330,57425,2,0,L|293:201,1,99.7499969558717,2|2,3:2|0:0,0:0:0:0:
291,211,57816,1,2,0:0:0:0:
281,200,57947,2,0,P|235:218|180:210,1,99.7499969558717,0|2,3:2|1:2,0:0:0:0:
49,156,58468,5,10,0:0:0:0:
78,266,58729,1,2,1:2:0:0:
102,369,58990,2,0,L|28:352,2,52.2500015945435,10|2|2,0:0|1:2|0:0,0:0:0:0:
78,266,59512,2,0,L|4:249,2,52.2500015945435,10|0|2,0:0|0:0|1:2,0:0:0:0:
98,271,59903,1,2,0:0:0:0:
113,275,60034,1,10,0:0:0:0:
198,199,60294,1,2,1:2:0:0:
328,206,60555,6,0,P|307:122|264:110,1,109.250002083778,6|0,3:2|1:2,0:0:0:0:
266,93,60947,1,2,0:0:0:0:
261,99,61077,2,0,L|179:81,1,54.6250010418892,10|0,0:0|1:2,0:0:0:0:
109,55,61468,1,2,1:2:0:0:
108,62,61599,2,0,P|137:137|141:219,1,163.875003125668,2|2,3:2|1:2,0:0:0:0:
125,231,62121,2,0,P|162:268|215:261,1,109.250002083778,10|0,0:2|1:2,0:0:0:0:
217,240,62512,5,2,0:0:0:0:
231,238,62642,2,0,P|335:205|371:203,1,109.250002083778,2|0,3:2|1:2,0:0:0:0:
333,193,63034,2,0,P|358:203|384:209,1,54.6250010418892,2|10,1:2|0:0,0:0:0:0:
507,232,63555,1,2,0:0:0:0:
507,243,63686,2,0,P|400:278|343:325,1,163.875003125668,2|0,3:2|1:2,0:0:0:0:
352,325,64207,2,0,L|345:360,3,36.4166673612595,10|0|0|0,0:2|0:0|0:0|1:2,0:0:0:0:
209,299,64729,6,0,P|131:287|77:344,1,163.875003125668,2|2,3:2|0:0,0:0:0:0:
59,379,65251,1,10,0:0:0:0:
51,374,65381,2,0,P|43:319|12:269,1,109.250002083778,0|2,1:2|1:2,0:0:0:0:
19,256,65773,2,0,B|25:174|112:182|112:182|80:231,1,163.875003125668,2|2,3:2|1:2,0:0:0:0:
105,218,66294,2,0,P|160:255|226:217,1,109.250002083778,10|0,0:2|1:2,0:0:0:0:
211,235,66686,1,2,0:0:0:0:
219,220,66816,1,2,3:2:0:0:
302,154,67077,5,0,1:2:0:0:
309,149,67207,2,0,L|322:71,2,54.6250010418892,2|10|0,1:2|0:0|1:2,0:0:0:0:
404,232,67729,1,2,1:2:0:0:
405,243,67860,2,0,B|435:258|494:217|410:141|315:219|340:301,1,218.500004167557,2|8,3:2|0:2,0:0:0:0:
118,316,77251,6,0,P|183:266|268:300,1,170.999994781494,2|2,3:2|0:0,0:0:0:0:
309,354,78034,1,2,0:0:0:0:
372,311,78294,2,0,B|391:217|455:273|473:175,1,170.999994781494,10|6,0:0|0:0,0:0:0:0:
466,174,78947,2,0,L|472:131,1,42.7499986953736,4|4,0:0|0:0,0:0:0:0:
456,26,79338,6,0,P|426:56|385:64,1,85.4999973907472,2|0,1:2|0:0,0:0:0:0:
368,150,79860,2,0,P|327:139|299:107,1,85.4999973907472,2|0,3:2|1:2,0:0:0:0:
277,20,80381,2,0,P|152:56|116:93,1,170.999994781494,10|0,0:0|1:2,0:0:0:0:
38,71,81164,2,0,L|29:29,2,42.7499986953736,2|0|2,0:0|3:2|3:2,0:0:0:0:
11,152,81686,5,2,0:0:0:0:
87,183,81947,2,0,L|117:285,1,85.4999973907472,2|2,0:0|0:0,0:0:0:0:
81,348,82468,2,0,P|131:347|165:363,1,85.4999973907472,10|0,0:0|0:0,0:0:0:0:
240,384,82990,2,0,L|291:369,2,42.7499986953736,4|4|6,0:0|0:0|0:0,0:0:0:0:
223,302,83512,6,0,P|235:239|242:211,1,85.4999973907472,2|2,1:2|0:0,0:0:0:0:
194,137,84034,1,2,3:2:0:0:
250,84,84294,1,2,1:2:0:0:
236,8,84555,2,0,P|302:60|391:48,1,170.999994781494,10|2,0:0|0:0,0:0:0:0:
504,160,85599,5,10,0:0:0:0:
504,160,86121,1,10,0:0:0:0:
504,160,86642,1,10,0:0:0:0:
504,160,87164,1,10,0:0:0:0:
511,308,87686,6,0,P|382:274|367:271,1,104.500003189087,6|0,3:2|0:0,0:0:0:0:
324,182,88207,2,0,P|195:216|180:219,1,104.500003189087,6|0,3:2|0:0,0:0:0:0:
200,323,88729,2,2,P|169:176|144:94,1,199.499993911743,6|0,3:1|0:0,1:1:0:0:
179,88,89251,1,10,0:0:0:0:
179,88,89773,6,0,P|258:72|294:59,1,109.250002083778,6|2,3:2|0:0,0:0:0:0:
403,16,90295,1,10,3:2:0:0:
406,24,90425,2,0,P|389:76|380:129,1,109.250002083778,2|2,0:0|0:0,0:0:0:0:
349,149,90817,2,0,P|365:201|374:254,1,109.250002083778,2|2,3:2|0:0,0:0:0:0:
405,361,91339,1,10,1:2:0:0:
402,370,91469,2,0,P|358:336|297:344,1,109.250002083778,2|0,0:0|0:0,0:0:0:0:
296,342,91860,5,2,3:2:0:0:
220,301,92121,1,2,0:0:0:0:
138,353,92382,2,0,L|75:385,1,54.6250010418892,10|2,3:2|0:0,0:0:0:0:
26,283,92904,1,2,3:2:0:0:
20,284,93034,2,0,P|11:225|56:189,1,109.250002083778,2|0,0:0|0:0,0:0:0:0:
47,148,93425,1,10,1:2:0:0:
42,138,93555,2,0,P|88:100|142:122,1,109.250002083778,2|0,0:0|0:0,0:0:0:0:
173,134,93947,5,2,3:2:0:0:
269,171,94208,1,2,0:0:0:0:
355,221,94469,1,10,3:2:0:0:
359,215,94599,2,0,P|383:124|400:67,1,109.250002083778,2|2,0:0|1:2,0:0:0:0:
402,76,94991,5,2,3:2:0:0:
308,15,95252,1,2,0:0:0:0:
220,50,95513,1,10,1:2:0:0:
221,60,95643,2,0,P|168:45|115:31,1,109.250002083778,2|0,0:0|0:0,0:0:0:0:
97,47,96034,6,0,L|113:99,1,54.6250010418892,2|2,3:2|0:0,0:0:0:0:
240,191,96555,2,0,L|223:243,1,54.6250010418892,2|2,3:2|0:0,0:0:0:0:
150,378,97078,1,2,3:2:0:0:
150,378,97599,2,0,P|194:361|241:352,1,95,2|2,0:0|0:0,0:0:0:0:
398,321,98121,6,0,P|338:314|302:266,2,123.499994346619,6|2|10,3:2|3:2|0:0,0:0:0:0:
462,227,98904,1,2,3:2:0:0:
455,215,99034,1,2,1:2:0:0:
454,203,99164,2,0,P|370:174|296:135,1,123.499994346619,2|2,3:2|3:2,0:0:0:0:
241,99,99686,2,0,P|199:84|162:65,1,61.7499971733095,10|0,0:0|0:0,0:0:0:0:
137,93,99947,2,0,P|122:135|103:172,2,61.7499971733095,2|2|2,3:2|0:0|3:2,0:0:0:0:
241,99,100469,5,2,3:1:0:0:
362,73,100730,1,10,2:1:0:0:
393,185,100990,1,2,3:1:0:0:
276,215,101251,2,0,B|262:285|204:241|189:316,1,123.499994346619,2|0,3:1|3:2,0:0:0:0:
85,327,101773,6,0,P|97:355|108:383,2,61.7499971733095,10|0|2,0:0|0:0|3:2,0:0:0:0:
77,312,102164,1,0,0:0:0:0:
68,311,102295,2,0,P|36:253|80:207,1,123.499994346619,2|0,3:2|3:2,0:0:0:0:
163,139,102817,2,0,P|204:156|225:165,2,61.7499971733095,10|0|2,0:0|0:0|3:2,0:0:0:0:
144,102,103208,1,0,0:0:0:0:
134,102,103338,2,0,P|173:48|247:54,1,123.499994346619,2|2,3:2|3:2,0:0:0:0:
334,98,103860,5,10,0:0:0:0:
440,102,104121,2,0,P|429:130|427:161,1,61.7499971733095,2|0,3:2|0:0,0:0:0:0:
460,193,104382,2,0,P|372:218|336:232,1,123.499994346619,2|2,3:2|3:2,0:0:0:0:
332,235,104773,1,0,1:2:0:0:
321,242,104904,1,8,0:0:0:0:
274,339,105164,2,0,P|208:360|156:302,1,123.499994346619,2|2,3:2|3:2,0:0:0:0:
110,250,105686,1,2,3:2:0:0:
177,170,105947,1,10,0:0:0:0:
185,173,106078,2,0,P|185:142|191:111,1,61.7499971733095,0|2,0:0|1:2,0:0:0:0:
242,0,106469,6,0,P|187:27|126:26,1,123.499994346619,6|0,3:2|3:2,0:0:0:0:
74,24,106860,1,2,0:0:0:0:
62,35,106991,2,0,P|84:66|80:107,1,61.7499971733095,8|0,0:0|0:0,0:0:0:0:
61,125,107251,2,0,P|76:185|145:164,1,123.499994346619,2|0,3:2|3:2,0:0:0:0:
238,123,107773,2,0,P|269:101|310:105,1,61.7499971733095,2|0,3:2|0:0,0:0:0:0:
326,67,108034,1,10,0:0:0:0:
333,65,108164,2,0,P|400:90|406:155,1,123.499994346619,2|0,0:0|0:0,0:0:0:0:
401,177,108556,6,0,P|422:261|433:321,1,123.499994346619,2|0,3:2|3:2,0:0:0:0:
409,339,108947,1,2,0:0:0:0:
415,343,109078,2,0,P|384:365|343:361,1,61.7499971733095,8|0,0:0|0:0,0:0:0:0:
321,379,109338,2,0,P|213:342|177:337,1,123.499994346619,2|0,3:2|3:2,0:0:0:0:
104,384,109860,1,2,3:2:0:0:
12,330,110120,1,10,0:0:0:0:
23,323,110251,1,0,0:0:0:0:
33,317,110381,2,0,L|44:238,1,61.7499971733095,2|0,3:2|0:0,0:0:0:0:
21,222,110642,6,0,B|55:178|111:199|111:199|134:244|191:235,1,185.249991519928,2|0,3:2|0:0,0:0:0:0:
218,247,111164,2,0,P|207:194|170:123,1,123.499994346619,10|2,0:0|3:2,0:0:0:0:
182,8,111686,1,2,3:2:0:0:
285,20,111947,1,2,3:2:0:0:
394,34,112208,2,0,P|424:43|458:48,1,61.7499971733095,10|0,0:0|0:0,0:0:0:0:
492,61,112468,2,0,P|483:94|476:132,1,61.7499971733095,2|0,3:2|0:0,0:0:0:0:
498,155,112730,6,0,P|434:183|408:249,1,123.499994346619,2|0,3:2|3:2,0:0:0:0:
409,248,113121,1,2,0:0:0:0:
416,265,113251,1,8,0:0:0:0:
454,373,113512,2,0,B|389:363|389:363|386:365|386:365|305:351,1,123.499994346619,2|2,3:2|3:2,0:0:0:0:
234,378,114033,2,0,B|333:351|325:240|241:215|204:267|208:299,1,246.999988693238,2|0,3:2|0:0,0:0:0:0:
102,364,114816,6,0,P|90:287|78:248,1,109.250002083778,6|2,3:2|0:0,0:0:0:0:
77,246,115207,1,0,1:2:0:0:
82,236,115338,1,10,3:2:0:0:
171,161,115599,2,0,P|168:133|161:107,2,54.6250010418892,0|8|2,3:2|0:0|0:0,0:0:0:0:
185,169,115990,1,0,1:2:0:0:
196,175,116120,2,0,P|189:201|186:228,1,54.6250010418892,2|0,3:2|0:0,0:0:0:0:
182,253,116381,1,10,0:0:0:0:
184,268,116512,2,0,P|135:243|81:235,1,109.250002083778,2|8,0:0|0:0,0:0:0:0:
52,238,116903,6,0,P|19:196|28:144,1,109.250002083778,2|2,3:2|0:0,0:0:0:0:
37,94,117294,1,0,1:2:0:0:
41,87,117425,2,0,P|93:79|133:113,1,109.250002083778,10|0,3:2|3:2,0:0:0:0:
244,169,117946,2,0,L|297:157,1,54.6250010418892,2|2,0:0|1:2,0:0:0:0:
337,181,118207,2,0,L|390:169,1,54.6250010418892,2|2,3:2|0:0,0:0:0:0:
436,160,118468,2,0,L|451:89,2,54.6250010418892,10|2|2,0:0|0:0|1:2,0:0:0:0:
467,190,118859,1,2,0:0:0:0:
465,196,118990,6,0,P|478:248|485:302,1,109.250002083778,2|2,3:2|0:0,0:0:0:0:
486,320,119381,1,0,1:2:0:0:
482,335,119512,1,10,3:2:0:0:
375,331,119773,2,0,P|372:359|365:385,2,54.6250010418892,0|8|2,3:2|0:0|0:0,0:0:0:0:
345,291,120164,1,0,1:2:0:0:
349,282,120294,2,0,P|352:254|359:228,1,54.6250010418892,2|0,3:2|0:0,0:0:0:0:
333,189,120555,1,10,0:0:0:0:
326,183,120686,2,0,P|240:205|193:245,1,109.250002083778,2|8,0:0|0:0,0:0:0:0:
213,265,121077,6,0,P|122:235|91:232,1,109.250002083778,2|2,3:2|0:0,0:0:0:0:
76,212,121468,1,0,1:2:0:0:
82,203,121599,2,0,P|112:112|115:81,1,109.250002083778,10|0,3:2|3:2,0:0:0:0:
225,15,122120,2,0,L|236:68,1,54.6250010418892,2|2,3:2|1:2,0:0:0:0:
275,107,122381,2,0,L|263:160,1,54.6250010418892,2|2,0:0|0:0,0:0:0:0:
250,198,122642,1,10,0:0:0:0:
270,310,122903,1,2,0:0:0:0:
151,379,123164,6,0,L|44:355,1,109.250002083778,6|2,3:2|3:2,0:0:0:0:
123,276,123685,1,10,3:2:0:0:
127,284,123816,2,0,L|233:307,1,109.250002083778,0|0,0:0|1:2,0:0:0:0:
270,310,124207,2,0,P|302:260|282:198,1,109.250002083778,2|2,3:2|3:2,0:0:0:0:
244,107,124728,1,10,3:2:0:0:
242,117,124859,2,0,P|225:154|158:147,1,109.250002083778,2|0,0:0|0:0,0:0:0:0:
145,128,125251,6,0,P|135:78|119:12,1,109.250002083778,2|2,3:2|3:2,0:0:0:0:
239,0,125772,1,10,3:2:0:0:
242,6,125903,2,0,L|349:29,1,109.250002083778,0|0,0:0|1:2,0:0:0:0:
375,46,126294,2,0,L|362:99,1,54.6250010418892,2|2,3:2|0:0,0:0:0:0:
454,240,126816,2,0,L|441:293,1,54.6250010418892,10|2,3:2|0:0,0:0:0:0:
271,384,127338,6,0,P|226:360|164:360,1,109.250002083778,2|2,3:2|3:2,0:0:0:0:
35,384,127859,1,10,3:2:0:0:
43,376,127990,2,0,L|60:260,1,109.250002083778,0|0,0:0|1:2,0:0:0:0:
44,237,128381,2,0,P|90:196|145:215,1,109.250002083778,2|2,3:2|3:2,0:0:0:0:
250,249,128902,1,10,3:2:0:0:
257,247,129033,2,0,L|283:131,1,109.250002083778,2|0,0:0|0:0,0:0:0:0:
288,99,129425,6,0,P|333:68|395:76,1,109.250002083778,2|2,3:2|3:2,0:0:0:0:
406,74,129816,1,0,1:2:0:0:
421,91,129946,1,10,3:2:0:0:
482,190,130207,1,0,3:2:0:0:
394,264,130468,2,0,L|381:329,1,54.6250010418892,2|2,3:2|0:0,0:0:0:0:
284,384,130859,1,0,1:2:0:0:
288,376,130990,2,0,L|277:322,1,54.6250010418892,2|2,0:0|0:0,0:0:0:0:
