osu file format v14

[General]
AudioFilename: audio.mp3
AudioLeadIn: 0
PreviewTime:97599
Countdown: 0
SampleSet: Soft
StackLeniency: 0.4
Mode: 0
LetterboxInBreaks: 0
WidescreenStoryboard: 1

[Editor]
Bookmarks: 22468,27164,30816,34990,37077,41251,43860,52207,68903,77251,98120,114816
DistanceSpacing: 1.1
BeatDivisor: 4
GridSize: 8
TimelineZoom: 1.8

[Metadata]
Title:CH4NGE feat. KAFU
TitleUnicode:CH4NGE feat. 可不
Artist:Giga
ArtistUnicode:Giga
Creator:muya-
Version:NORM4L
Source:
Tags:kaf 花譜 kafu change electronic japanese vocaloid 神椿スタジオ kamitsubaki studios q*Left qleft q left ギガ ギガp gigap giga-p giga p female vocals CeVIO Ai seolv [_L_u_k_a_s_] fanboyyou
BeatmapID:3759808
BeatmapSetID:1826534

[Difficulty]
HPDrainRate:3.5
CircleSize:3
OverallDifficulty:4
ApproachRate:6
SliderMultiplier:1.7
SliderTickRate:1

[Events]
//Background and Video events
0,0,"kafu.jpg",0,0
//Break Periods
2,69103,76201
//Storyboard Layer 0 (Background)
//Storyboard Layer 1 (Fail)
//Storyboard Layer 2 (Pass)
//Storyboard Layer 3 (Foreground)
//Storyboard Layer 4 (Overlay)
//Storyboard Sound Samples

[TimingPoints]
1600,521.739130434783,4,2,1,60,1,8
2121,521.739130434783,4,2,1,60,1,0
2121,-100,4,2,1,60,0,0
18294,-100,4,2,2,60,0,0
18816,-100,4,2,3,75,0,0
25077,-100,4,2,3,70,0,0
26642,-100,4,2,3,60,0,0
27164,-90.9090909090909,4,2,18,90,0,1
27425,-90.9090909090909,4,2,8,90,0,1
27490,-90.9090909090909,4,2,4,90,0,1
27947,-90.9090909090909,4,2,8,90,0,1
28012,-90.9090909090909,4,2,4,90,0,1
28468,-90.9090909090909,4,2,8,90,0,1
28533,-90.9090909090909,4,2,4,90,0,1
28990,-90.9090909090909,4,2,8,90,0,1
29055,-90.9090909090909,4,2,4,90,0,1
29512,-90.9090909090909,4,2,8,90,0,1
29577,-90.9090909090909,4,2,4,90,0,1
30034,-90.9090909090909,4,2,8,90,0,1
30099,-90.9090909090909,4,2,4,90,0,1
30555,-90.9090909090909,4,2,8,90,0,1
30620,-90.9090909090909,4,2,4,90,0,1
31077,-90.9090909090909,4,2,8,90,0,1
31142,-90.9090909090909,4,2,4,90,0,1
31599,-90.9090909090909,4,2,8,90,0,1
31664,-90.9090909090909,4,2,4,90,0,1
32121,-90.9090909090909,4,2,8,90,0,1
32186,-90.9090909090909,4,2,4,90,0,1
32642,-90.9090909090909,4,2,8,90,0,1
32707,-90.9090909090909,4,2,4,90,0,1
33164,-90.9090909090909,4,2,8,90,0,1
33229,-90.9090909090909,4,2,4,90,0,1
33686,-90.9090909090909,4,2,8,90,0,1
33751,-90.9090909090909,4,2,4,90,0,1
34207,-90.9090909090909,4,2,8,90,0,1
34272,-90.9090909090909,4,2,4,90,0,1
34729,-90.9090909090909,4,2,8,90,0,1
34794,-90.9090909090909,4,2,4,90,0,1
35251,-90.9090909090909,4,2,4,90,0,0
35512,-90.9090909090909,4,2,4,90,0,1
35773,-90.9090909090909,4,2,8,90,0,1
35838,-90.9090909090909,4,2,4,90,0,1
36294,-90.9090909090909,4,2,8,90,0,1
36359,-90.9090909090909,4,2,4,90,0,1
36816,-90.9090909090909,4,2,8,90,0,1
36881,-90.9090909090909,4,2,4,90,0,1
37338,-90.9090909090909,4,2,8,90,0,1
37403,-90.9090909090909,4,2,4,90,0,1
37860,-90.9090909090909,4,2,8,90,0,1
37925,-90.9090909090909,4,2,4,90,0,1
38381,-90.9090909090909,4,2,8,90,0,1
38446,-90.9090909090909,4,2,4,90,0,1
38903,-90.9090909090909,4,2,8,90,0,1
38968,-90.9090909090909,4,2,4,90,0,1
39425,-90.9090909090909,4,2,8,90,0,1
39490,-90.9090909090909,4,2,4,90,0,1
39947,-90.9090909090909,4,2,8,90,0,1
40012,-90.9090909090909,4,2,4,90,0,1
40468,-90.9090909090909,4,2,8,90,0,1
40533,-90.9090909090909,4,2,4,90,0,1
40990,-90.9090909090909,4,2,8,90,0,1
41055,-90.9090909090909,4,2,4,90,0,1
41512,-90.9090909090909,4,2,8,90,0,1
41577,-90.9090909090909,4,2,4,90,0,1
42034,-90.9090909090909,4,2,8,90,0,1
42099,-90.9090909090909,4,2,4,90,0,1
42555,-90.9090909090909,4,2,8,90,0,1
42620,-90.9090909090909,4,2,4,90,0,1
43077,-90.9090909090909,4,2,8,90,0,1
43142,-90.9090909090909,4,2,4,90,0,1
43338,-90.9090909090909,4,2,14,90,0,1
43860,-100,4,2,3,75,0,0
52207,-100,4,2,1,65,0,0
58468,-100,4,2,1,80,0,0
60555,-100,4,2,3,75,0,0
68903,-100,4,2,6,55,0,0
77251,-111.111111111111,4,2,7,65,0,0
85599,-100,4,2,9,40,0,0
86121,-100,4,2,9,50,0,0
86642,-100,4,2,9,60,0,0
87164,-100,4,2,9,70,0,0
87686,-100,4,2,9,90,0,0
88729,-90.9090909090909,4,2,9,90,0,1
89773,-100,4,2,3,80,0,0
96033,-100,4,2,3,70,0,0
97599,-100,4,2,3,60,0,0
98121,-90.9090909090909,4,2,18,90,0,9
98381,-90.9090909090909,4,2,8,90,0,9
98446,-90.9090909090909,4,2,4,90,0,9
98903,-90.9090909090909,4,2,8,90,0,9
98968,-90.9090909090909,4,2,4,90,0,9
99424,-90.9090909090909,4,2,8,90,0,9
99489,-90.9090909090909,4,2,4,90,0,9
99946,-90.9090909090909,4,2,8,90,0,9
100011,-90.9090909090909,4,2,4,90,0,9
100468,-90.9090909090909,4,2,8,90,0,9
100533,-90.9090909090909,4,2,4,90,0,9
100990,-90.9090909090909,4,2,8,90,0,9
101055,-90.9090909090909,4,2,4,90,0,9
101511,-90.9090909090909,4,2,8,90,0,9
101576,-90.9090909090909,4,2,4,90,0,9
102033,-90.9090909090909,4,2,8,90,0,9
102098,-90.9090909090909,4,2,4,90,0,9
102555,-90.9090909090909,4,2,8,90,0,9
102620,-90.9090909090909,4,2,4,90,0,9
103077,-90.9090909090909,4,2,8,90,0,9
103142,-90.9090909090909,4,2,4,90,0,9
103598,-90.9090909090909,4,2,8,90,0,9
103663,-90.9090909090909,4,2,4,90,0,9
104120,-90.9090909090909,4,2,8,90,0,9
104185,-90.9090909090909,4,2,4,90,0,9
104642,-90.9090909090909,4,2,8,90,0,9
104707,-90.9090909090909,4,2,4,90,0,9
105163,-90.9090909090909,4,2,8,90,0,9
105228,-90.9090909090909,4,2,4,90,0,9
105685,-90.9090909090909,4,2,8,90,0,9
105750,-90.9090909090909,4,2,4,90,0,9
106207,-90.9090909090909,4,2,4,90,0,0
106468,-90.9090909090909,4,2,4,90,0,1
106729,-90.9090909090909,4,2,8,90,0,1
106794,-90.9090909090909,4,2,4,90,0,1
107250,-90.9090909090909,4,2,8,90,0,1
107315,-90.9090909090909,4,2,4,90,0,1
107772,-90.9090909090909,4,2,8,90,0,1
107837,-90.9090909090909,4,2,4,90,0,1
108294,-90.9090909090909,4,2,8,90,0,1
108359,-90.9090909090909,4,2,4,90,0,1
108816,-90.9090909090909,4,2,8,90,0,1
108881,-90.9090909090909,4,2,4,90,0,1
109337,-90.9090909090909,4,2,8,90,0,1
109402,-90.9090909090909,4,2,4,90,0,1
109859,-90.9090909090909,4,2,8,90,0,1
109924,-90.9090909090909,4,2,4,90,0,1
110381,-90.9090909090909,4,2,8,90,0,1
110446,-90.9090909090909,4,2,4,90,0,1
110903,-90.9090909090909,4,2,8,90,0,1
110968,-90.9090909090909,4,2,4,90,0,1
111424,-90.9090909090909,4,2,8,90,0,1
111489,-90.9090909090909,4,2,4,90,0,1
111946,-90.9090909090909,4,2,8,90,0,1
112011,-90.9090909090909,4,2,4,90,0,1
112468,-90.9090909090909,4,2,8,90,0,1
112533,-90.9090909090909,4,2,4,90,0,1
112990,-90.9090909090909,4,2,8,90,0,1
113055,-90.9090909090909,4,2,4,90,0,1
113511,-90.9090909090909,4,2,8,90,0,1
113576,-90.9090909090909,4,2,4,90,0,1
114033,-90.9090909090909,4,2,8,90,0,1
114098,-90.9090909090909,4,2,4,90,0,1
114294,-90.9090909090909,4,2,14,90,0,1
114816,-100,4,2,3,75,0,8
123164,-90.9090909090909,4,2,4,80,0,9
123425,-90.9090909090909,4,2,8,80,0,9
123490,-90.9090909090909,4,2,4,80,0,9
123946,-90.9090909090909,4,2,8,80,0,9
124011,-90.9090909090909,4,2,4,80,0,9
124468,-90.9090909090909,4,2,8,80,0,9
124533,-90.9090909090909,4,2,4,80,0,9
124990,-90.9090909090909,4,2,8,80,0,9
125055,-90.9090909090909,4,2,4,80,0,9
125512,-90.9090909090909,4,2,8,80,0,9
125577,-90.9090909090909,4,2,4,80,0,9
126033,-90.9090909090909,4,2,8,80,0,9
126098,-90.9090909090909,4,2,4,80,0,9
126555,-90.9090909090909,4,2,8,80,0,9
126620,-90.9090909090909,4,2,4,80,0,9
127077,-90.9090909090909,4,2,8,80,0,9
127142,-90.9090909090909,4,2,4,80,0,9
127599,-90.9090909090909,4,2,8,80,0,9
127664,-90.9090909090909,4,2,4,80,0,9
128120,-90.9090909090909,4,2,8,80,0,9
128185,-90.9090909090909,4,2,4,80,0,9
128642,-90.9090909090909,4,2,8,80,0,9
128707,-90.9090909090909,4,2,4,80,0,9
129164,-90.9090909090909,4,2,8,80,0,9
129229,-90.9090909090909,4,2,4,80,0,9
129686,-90.9090909090909,4,2,8,80,0,9
129751,-90.9090909090909,4,2,4,80,0,9
130207,-90.9090909090909,4,2,8,80,0,9
130272,-90.9090909090909,4,2,4,80,0,9
130468,-100,4,2,4,60,0,8
130729,-100,4,2,8,60,0,8
130794,-100,4,2,4,60,0,8

[Colours]
Combo1 : 228,63,113
Combo2 : 142,234,214
Combo3 : 225,132,169
Combo4 : 221,225,225

[HitObjects]
77,278,1600,6,0,B|82:189|20:202|3:113,1,170,2|2,0:0|0:0,0:0:0:0:
64,54,2381,1,0,1:2:0:0:
64,54,2642,2,0,P|104:49|140:95,1,85,10|0,0:0|0:0,0:0:0:0:
195,148,3164,1,2,1:2:0:0:
195,148,3425,1,2,0:0:0:0:
259,330,3947,5,2,1:2:0:0:
259,330,4207,2,0,P|303:359|351:344,1,85,2|2,0:0|1:2,0:0:0:0:
424,375,4729,2,0,P|453:331|438:283,1,85,10|2,0:0|0:2,0:0:0:0:
454,207,5251,1,2,1:2:0:0:
312,84,5773,2,0,P|288:40|301:-3,2,85,10|0|2,0:0|0:0|0:0,0:0:0:0:
324,181,6555,5,2,1:2:0:0:
324,181,6816,2,0,P|311:224|301:268,1,85,10|2,0:0|0:0,0:0:0:0:
293,350,7338,1,2,1:2:0:0:
293,350,7599,1,2,0:0:0:0:
474,259,8121,5,2,1:2:0:0:
474,259,8381,2,0,P|501:209|475:175,1,85,2|2,0:0|1:2,0:0:0:0:
489,93,8903,2,0,P|432:94|415:134,1,85,10|2,0:0|0:0,0:0:0:0:
328,141,9425,1,2,1:2:0:0:
242,179,9686,1,0,0:0:0:0:
159,135,9947,2,0,P|146:123|115:112,2,42.5,10|2|2,0:0|0:0|1:2,0:0:0:0:
242,179,10468,6,0,P|271:215|271:266,1,85,2|2,0:0|1:2,0:0:0:0:
240,340,10990,1,10,0:0:0:0:
53,321,11512,2,0,P|24:285|24:234,2,85,2|2|10,1:2|0:0|0:0,0:0:0:0:
141,284,12294,1,0,1:2:0:0:
141,284,12555,6,0,P|135:242|108:210,1,85,2|2,0:0|1:2,0:0:0:0:
33,153,13077,1,10,0:0:0:0:
170,26,13599,2,0,P|213:32|235:79,1,85,2|2,1:2|0:0,0:0:0:0:
327,77,14121,2,0,P|343:117|313:159,1,85,10|0,0:0|1:2,0:0:0:0:
276,231,14642,6,0,P|205:263|225:362,1,170,2|10,0:0|0:0,0:0:0:0:
301,378,15425,1,2,0:0:0:0:
301,378,15686,2,0,B|377:378|364:303|454:308,1,170,0|8,1:2|0:0,0:0:0:0:
512,131,16729,6,0,P|504:69|404:82,1,170,2|10,0:0|0:0,0:0:0:0:
341,128,17512,1,2,0:0:0:0:
341,128,17773,2,0,P|303:162|251:156,1,85,2|0,1:2|0:0,0:0:0:0:
189,117,18294,1,0,0:0:0:0:
5,80,18816,6,0,P|17:124|31:172,1,85,6|2,3:2|0:0,0:0:0:0:
13,254,19338,2,0,L|29:304,2,42.5,10|2|2,1:2|0:0|0:0,0:0:0:0:
27,161,19860,1,2,3:2:0:0:
114,127,20121,1,2,0:0:0:0:
194,173,20381,2,0,P|183:216|171:278,1,85,10|0,1:2|0:0,0:0:0:0:
212,342,20903,6,0,P|253:350|291:323,1,85,2|2,3:2|0:0,0:0:0:0:
338,327,21294,1,2,1:2:0:0:
338,327,21425,2,0,P|365:295|361:249,1,85,10|2,1:2|0:0,0:0:0:0:
309,177,21947,2,0,P|276:147|282:88,1,85,2|0,3:2|0:0,0:0:0:0:
312,24,22468,1,10,1:2:0:0:
483,82,22990,6,0,L|463:171,1,85,2|2,3:2|0:0,0:0:0:0:
434,201,23381,1,2,0:0:0:0:
434,201,23512,2,0,L|414:290,1,85,10|0,1:2|0:0,0:0:0:0:
359,359,24034,1,2,3:2:0:0:
266,351,24294,1,2,0:0:0:0:
221,268,24555,2,0,P|229:222|239:175,1,85,10|0,1:2|0:0,0:0:0:0:
152,144,25077,6,0,B|127:273,1,127.5,2|8,3:2|0:0,0:0:0:0:
118,315,25599,1,2,3:2:0:0:
1,168,26121,1,2,1:1:0:0:
1,168,26642,2,0,L|20:76,1,85,10|2,0:0|0:0,0:0:0:0:
106,14,27164,5,6,3:2:0:0:
189,74,27425,1,2,3:2:0:0:
288,46,27686,2,0,P|330:16|381:30,1,93.5000028533936,10|2,0:0|3:2,0:0:0:0:
419,48,28077,1,2,1:2:0:0:
419,48,28207,2,0,P|408:97|398:145,1,93.5000028533936,2|2,3:2|3:2,0:0:0:0:
380,241,28729,1,10,0:0:0:0:
277,243,28990,2,0,P|253:227|239:198,1,46.7500014266968,2|2,3:2|0:0,0:0:0:0:
231,162,29251,5,2,3:2:0:0:
148,98,29512,2,0,P|116:61|67:60,2,93.5000028533936,2|10|2,3:1|2:1|3:1,0:0:0:0:
132,149,30164,1,0,0:0:0:0:
132,149,30294,2,0,B|132:197|110:238|53:216|31:272|44:327,1,187.000005706787,2|10,3:1|0:0,0:0:0:0:
229,352,31338,6,0,P|234:306|195:256,1,93.5000028533936,2|0,3:2|3:2,0:0:0:0:
222,161,31860,2,0,P|259:188|322:179,1,93.5000028533936,10|2,0:0|3:2,0:0:0:0:
373,108,32381,2,0,P|435:72|460:173,1,187.000005706787,2|10,3:2|0:0,0:0:0:0:
419,243,33164,1,2,3:2:0:0:
319,268,33425,6,0,P|282:314|296:367,1,93.5000028533936,2|2,3:2|3:2,0:0:0:0:
320,381,33816,1,0,1:2:0:0:
320,381,33947,1,8,0:0:0:0:
416,346,34207,1,2,3:2:0:0:
419,243,34468,2,0,P|404:199|386:155,1,93.5000028533936,2|2,3:2|3:2,0:0:0:0:
340,62,34990,1,10,0:0:0:0:
150,0,35512,6,0,P|122:22|134:96,1,93.5000028533936,6|0,3:2|3:2,0:0:0:0:
116,132,35903,1,2,0:0:0:0:
116,132,36034,1,8,0:0:0:0:
194,197,36294,1,2,3:2:0:0:
284,150,36555,2,0,P|288:131|294:105,2,46.7500014266968,0|0|2,3:2|0:0|3:2,0:0:0:0:
363,215,37077,1,10,0:0:0:0:
252,370,37599,6,0,P|195:357|186:307,1,93.5000028533936,2|0,3:2|3:2,0:0:0:0:
163,287,37990,1,2,0:0:0:0:
163,287,38121,1,8,0:0:0:0:
208,195,38381,1,2,3:2:0:0:
145,113,38642,2,0,L|45:135,1,93.5000028533936,0|2,3:2|3:2,0:0:0:0:
34,31,39164,2,0,L|125:10,1,93.5000028533936,10|2,0:0|3:2,0:0:0:0:
181,26,39555,1,0,0:0:0:0:
181,26,39686,6,0,B|282:15|264:93|355:103,1,187.000005706787,2|10,3:2|0:0,0:0:0:0:
446,110,40468,1,2,3:2:0:0:
485,14,40729,2,0,P|443:-3|391:35,1,93.5000028533936,2|2,3:2|3:2,0:0:0:0:
344,101,41251,1,10,0:0:0:0:
242,275,41773,6,0,P|201:307|150:295,1,93.5000028533936,2|0,3:2|3:2,0:0:0:0:
126,274,42164,1,2,0:0:0:0:
126,274,42294,1,8,0:0:0:0:
166,179,42555,1,2,3:2:0:0:
104,96,42816,2,0,P|57:108|-5:123,2,93.5000028533936,2|2|10,3:2|3:2|0:0,0:0:0:0:
285,49,43860,6,0,P|324:80|321:118,1,85,6|2,3:2|0:0,0:0:0:0:
259,180,44381,2,0,P|200:205|196:277,1,127.5,10|0,3:2|1:2,0:0:0:0:
189,309,44903,1,2,3:2:0:0:
251,378,45164,1,2,0:0:0:0:
344,378,45425,1,2,3:2:0:0:
454,233,45947,6,0,P|435:186|453:149,1,85,2|2,3:2|0:0,0:0:0:0:
462,134,46338,1,0,1:2:0:0:
462,134,46468,2,0,P|499:103|494:63,1,85,10|0,3:2|0:0,0:0:0:0:
425,14,46990,1,2,3:2:0:0:
414,26,47121,2,0,B|357:20|352:65|298:72,1,127.5,2|10,0:0|3:2,0:0:0:0:
113,41,48034,6,0,P|125:82|137:128,1,85,2|2,3:2|0:0,0:0:0:0:
152,214,48555,2,0,P|109:240|60:187,1,127.5,10|0,3:2|1:2,0:0:0:0:
35,153,49077,1,2,3:2:0:0:
23,60,49338,1,2,0:0:0:0:
113,41,49599,1,2,3:2:0:0:
279,129,50121,6,0,P|316:163|309:204,1,85,2|2,3:2|0:0,0:0:0:0:
294,243,50512,1,0,1:2:0:0:
294,243,50642,2,0,P|261:270|269:326,1,85,10|0,3:2|0:0,0:0:0:0:
341,363,51164,1,0,3:2:0:0:
433,350,51425,2,0,P|443:332|445:307,2,42.5,2|8|0,0:0|0:0|3:2,0:0:0:0:
270,301,52207,6,0,B|277:213|196:233|189:148,1,170,2|2,3:2|3:2,0:0:0:0:
222,73,52990,1,2,0:0:0:0:
222,73,53251,2,0,P|244:36|302:47,1,85,2|2,3:2|0:0,0:0:0:0:
357,89,53773,1,0,3:2:0:0:
190,159,54294,6,0,P|150:152|95:144,1,85,2|2,3:2|1:2,0:0:0:0:
23,190,54816,2,0,P|13:210|9:235,2,42.5,2|2|2,3:2|1:2|0:0,0:0:0:0:
106,145,55338,2,0,P|148:151|189:159,1,85,2|2,3:2|0:0,0:0:0:0:
282,177,55860,1,0,3:2:0:0:
154,312,56381,6,0,P|126:277|138:228,1,85,2|2,3:2|1:2,0:0:0:0:
190,159,56903,2,0,P|223:122|212:75,1,85,2|2,3:2|0:0,0:0:0:0:
214,47,57294,1,2,1:2:0:0:
214,47,57425,1,2,3:2:0:0:
297,4,57686,1,2,0:0:0:0:
381,43,57947,1,0,3:2:0:0:
298,211,58468,6,0,P|310:254|322:310,1,85,10|2,0:0|1:2,0:0:0:0:
334,343,58860,1,2,1:2:0:0:
334,343,58990,1,10,0:0:0:0:
424,364,59251,1,2,0:0:0:0:
482,290,59512,2,0,P|472:242|454:187,1,85,10|2,0:0|1:2,0:0:0:0:
444,169,59903,1,2,0:0:0:0:
444,169,60034,1,10,0:0:0:0:
364,120,60294,1,2,1:2:0:0:
278,158,60555,6,0,B|204:151|217:195|132:202,1,127.5,6|2,3:2|0:0,0:0:0:0:
114,210,61077,2,0,P|94:259|124:295,1,85,10|0,0:0|0:0,0:0:0:0:
188,340,61599,2,0,P|262:330|264:240,1,170,2|10,3:2|0:2,0:0:0:0:
217,170,62381,2,0,P|205:156|196:133,1,42.5,0|2,1:2|0:0,0:0:0:0:
206,88,62642,6,0,P|287:71|367:53,1,127.5,2|2,3:2|1:2,0:0:0:0:
375,47,63164,1,10,0:0:0:0:
491,153,63686,2,0,B|498:204|465:238|430:207|406:264|415:299,1,170,2|10,3:2|0:2,0:0:0:0:
225,322,64729,6,0,P|210:267|274:230,1,127.5,2|2,3:2|0:0,0:0:0:0:
290,196,65251,2,0,P|333:164|331:122,1,85,10|0,0:0|0:0,0:0:0:0:
328,42,65773,2,0,P|265:57|145:83,1,170,2|10,3:2|0:2,0:0:0:0:
71,101,66555,2,0,P|57:122|51:150,1,42.5,0|2,1:2|0:0,0:0:0:0:
54,185,66816,6,0,B|127:177|118:228|189:233,1,127.5,2|2,3:2|1:2,0:0:0:0:
216,227,67338,1,10,0:0:0:0:
363,140,67860,2,0,P|424:123|436:211,1,170,2|8,3:2|0:2,0:0:0:0:
392,287,68642,2,0,P|369:281|338:274,1,42.5,2|2,1:2|0:0,0:0:0:0:
303,278,68903,5,2,1:2:0:0:
370,93,77251,6,0,P|299:91|298:173,1,152.999995330811,2|2,3:2|0:0,0:0:0:0:
331,233,78034,1,2,0:0:0:0:
331,233,78294,2,0,B|417:224|407:286|491:284,2,152.999995330811,10|6|2,0:0|0:0|1:2,0:0:0:0:
191,327,79860,2,0,P|152:351|104:339,1,76.4999976654053,2|0,3:2|1:2,0:0:0:0:
48,309,80381,1,10,0:0:0:0:
195,92,81164,5,2,0:0:0:0:
195,92,81425,2,0,P|226:72|269:86,1,76.4999976654053,2|2,3:2|0:0,0:0:0:0:
337,119,81947,2,0,P|338:155|305:186,1,76.4999976654053,2|2,0:0|0:0,0:0:0:0:
246,236,82468,1,10,0:0:0:0:
142,23,83251,5,6,0:0:0:0:
142,23,83512,2,0,P|108:42|94:80,1,76.4999976654053,2|2,1:2|0:0,0:0:0:0:
39,140,84034,2,0,P|38:178|64:210,1,76.4999976654053,2|2,3:2|1:2,0:0:0:0:
105,279,84555,2,0,P|171:240|256:237,1,152.999995330811,10|2,0:0|0:0,0:0:0:0:
401,131,85599,6,0,P|322:117|253:51,1,170,10|10,0:0|0:0,0:0:0:0:
75,12,86642,2,0,P|102:87|79:180,1,170,10|10,0:0|0:0,0:0:0:0:
3,342,87686,1,6,3:2:0:0:
86,383,87947,1,0,0:0:0:0:
172,347,88207,2,0,P|158:303|141:254,1,85,6|0,3:2|0:0,0:0:0:0:
220,182,88729,6,2,P|252:277|287:393,2,187.000005706787,6|10|6,3:1|0:0|3:2,0:1:0:0:
191,92,90033,1,2,0:0:0:0:
257,25,90294,2,0,P|279:8|310:4,2,42.5,10|2|2,3:2|0:0|0:0,0:0:0:0:
191,92,90816,1,2,3:2:0:0:
220,182,91077,1,2,0:0:0:0:
313,184,91337,2,0,P|323:141|338:86,1,85,10|0,1:2|0:0,0:0:0:0:
407,43,91859,6,0,P|450:47|471:97,1,85,2|2,3:2|0:0,0:0:0:0:
472,130,92250,1,2,1:2:0:0:
472,130,92381,2,0,P|461:165|445:230,1,85,10|2,3:2|0:0,0:0:0:0:
413,298,92903,2,0,P|375:285|318:271,1,85,2|0,3:2|0:0,0:0:0:0:
240,253,93424,1,10,1:2:0:0:
60,305,93946,6,0,P|64:340|121:356,1,85,2|2,3:2|0:0,0:0:0:0:
152,382,94337,1,2,0:0:0:0:
152,382,94468,2,0,P|180:352|169:292,1,85,10|0,3:2|0:0,0:0:0:0:
121,236,94990,1,2,3:2:0:0:
106,143,95250,1,2,0:0:0:0:
179,85,95511,2,0,P|224:98|280:111,1,85,10|0,1:2|0:0,0:0:0:0:
349,139,96033,6,0,P|331:236|251:212,1,170,2|2,3:2|3:2,0:0:0:0:
179,85,97077,1,2,3:2:0:0:
179,85,97599,2,0,P|158:51|103:42,1,85,2|2,0:0|0:0,0:0:0:0:
17,91,98121,5,6,3:2:0:0:
76,175,98381,1,2,3:2:0:0:
27,265,98642,2,0,P|-3:301|10:363,1,93.5000028533936,10|2,0:0|3:2,0:0:0:0:
44,381,99033,1,2,1:2:0:0:
44,381,99163,2,0,P|85:367|143:351,1,93.5000028533936,2|2,3:2|3:2,0:0:0:0:
230,318,99685,1,10,0:0:0:0:
271,224,99946,2,0,P|271:202|259:173,1,46.7500014266968,2|2,3:2|0:0,0:0:0:0:
220,148,100207,5,2,3:2:0:0:
123,113,100468,2,0,P|78:125|32:138,2,93.5000028533936,2|10|2,3:1|2:1|3:1,0:0:0:0:
158,75,101120,1,0,0:0:0:0:
158,75,101250,2,0,P|243:52|345:22,1,187.000005706787,2|10,3:1|0:0,0:0:0:0:
495,157,102294,6,0,P|504:202|473:239,1,93.5000028533936,2|0,3:2|3:2,0:0:0:0:
420,324,102816,2,0,P|375:333|338:302,1,93.5000028533936,10|2,0:0|3:2,0:0:0:0:
237,292,103338,2,0,B|227:256|248:193|312:226|332:141,1,187.000005706787,2|10,3:2|0:0,0:0:0:0:
317,41,104120,1,2,3:2:0:0:
215,23,104381,6,0,P|178:69|192:122,1,93.5000028533936,2|2,3:2|3:2,0:0:0:0:
208,150,104772,1,0,1:2:0:0:
208,150,104903,1,8,0:0:0:0:
137,224,105163,1,2,3:2:0:0:
34,211,105424,2,0,P|24:172|8:110,1,93.5000028533936,2|2,3:2|3:2,0:0:0:0:
42,22,105946,1,10,0:0:0:0:
208,150,106468,6,0,P|196:195|184:240,1,93.5000028533936,6|0,3:2|3:2,0:0:0:0:
170,292,106859,1,2,0:0:0:0:
170,292,106990,1,8,0:0:0:0:
244,362,107250,1,2,3:2:0:0:
342,332,107511,2,0,P|366:324|391:322,2,46.7500014266968,0|0|2,3:2|0:0|3:2,0:0:0:0:
244,362,108033,1,10,0:0:0:0:
133,190,108555,6,0,P|160:156|222:156,1,93.5000028533936,2|0,3:2|3:2,0:0:0:0:
262,160,108946,1,2,0:0:0:0:
262,160,109077,1,8,0:0:0:0:
348,214,109337,1,2,3:2:0:0:
443,176,109598,2,0,P|474:143|461:82,1,93.5000028533936,0|2,3:2|3:2,0:0:0:0:
402,20,110120,2,0,L|311:41,1,93.5000028533936,10|2,0:0|3:2,0:0:0:0:
263,40,110511,1,0,0:0:0:0:
263,40,110642,6,0,P|172:59|213:139,1,187.000005706787,2|10,3:2|0:0,0:0:0:0:
274,189,111424,1,2,3:2:0:0:
237,285,111685,2,0,P|189:272|132:261,1,93.5000028533936,2|2,3:2|3:2,0:0:0:0:
43,250,112207,1,10,0:0:0:0:
87,49,112729,6,0,P|132:46|166:76,1,93.5000028533936,2|0,3:2|3:2,0:0:0:0:
190,129,113120,1,2,0:0:0:0:
190,129,113250,1,8,0:0:0:0:
271,191,113511,1,2,3:2:0:0:
352,127,113772,2,0,P|340:80|325:18,2,93.5000028533936,2|2|0,3:2|3:2|0:0,0:0:0:0:
419,305,114816,5,6,3:2:0:0:
500,259,115077,2,0,P|511:235|510:206,1,42.5,2|0,0:0|1:2,0:0:0:0:
485,180,115338,2,0,B|400:156|400:235|311:236,1,170,10|2,3:2|0:0,0:0:0:0:
244,199,116120,1,2,3:2:0:0:
256,106,116381,2,0,L|300:92,2,42.5,10|2|0,0:0|0:0|0:0,0:0:0:0:
176,55,116903,6,0,P|139:31|93:42,1,85,2|2,3:2|0:0,0:0:0:0:
18,82,117425,2,0,P|33:129|44:168,1,85,10|0,3:2|3:2,0:0:0:0:
70,257,117946,1,2,0:0:0:0:
70,257,118077,2,0,B|124:250|118:192|205:194,1,127.5,2|10,1:2|0:0,0:0:0:0:
362,227,118990,5,2,3:2:0:0:
428,292,119251,2,0,P|439:310|442:339,1,42.5,2|0,0:0|1:2,0:0:0:0:
428,375,119512,2,0,P|367:357|262:334,1,170,10|2,3:2|0:0,0:0:0:0:
190,275,120294,1,2,3:2:0:0:
238,194,120555,2,0,P|248:179|255:153,2,42.5,10|2|0,0:0|0:0|0:0,0:0:0:0:
165,133,121077,6,0,P|131:95|145:43,1,85,2|2,3:2|0:0,0:0:0:0:
210,11,121599,2,0,P|258:22|302:31,1,85,10|0,3:2|3:2,0:0:0:0:
372,77,122120,2,0,P|391:70|408:56,2,42.5,2|2|2,3:2|1:2|0:0,0:0:0:0:
353,122,122512,1,2,0:0:0:0:
353,122,122642,1,10,0:0:0:0:
150,87,123164,6,0,P|123:57|59:62,1,93.5000028533936,6|2,3:2|3:2,0:0:0:0:
0,133,123685,2,0,P|24:204|46:277,1,140.25000428009,10|0,3:2|1:2,0:0:0:0:
64,313,124207,1,2,3:2:0:0:
149,370,124468,1,2,3:2:0:0:
241,325,124729,2,0,P|264:319|286:308,2,46.7500014266968,10|2|0,3:2|0:0|3:2,0:0:0:0:
175,245,125251,6,0,P|156:198|174:161,1,93.5000028533936,2|2,3:2|3:2,0:0:0:0:
165,115,125642,1,0,1:2:0:0:
165,115,125773,2,0,P|196:75|237:72,1,93.5000028533936,10|0,3:2|3:2,0:0:0:0:
330,36,126294,1,2,3:2:0:0:
340,53,126425,2,0,P|322:125|307:196,1,140.25000428009,2|10,0:0|3:2,0:0:0:0:
406,370,127338,6,0,P|445:355|452:296,1,93.5000028533936,2|2,3:2|3:2,0:0:0:0:
357,283,127859,2,0,B|286:275|286:332|204:338,1,140.25000428009,10|0,3:2|1:2,0:0:0:0:
178,327,128381,1,2,3:2:0:0:
107,251,128642,1,2,3:2:0:0:
169,168,128903,2,0,L|225:181,2,46.7500014266968,10|2|0,3:2|0:0|3:2,0:0:0:0:
77,120,129425,6,0,P|40:86|54:35,1,93.5000028533936,2|2,3:2|3:2,0:0:0:0:
89,19,129816,1,0,1:2:0:0:
89,19,129946,2,0,P|139:30|197:41,1,93.5000028533936,10|0,3:2|3:2,0:0:0:0:
271,60,130468,2,0,P|258:126|244:215,1,127.5,2|0,3:2|1:2,0:0:0:0:
242,232,130990,1,2,0:0:0:0:
