osu file format v14

[General]
AudioFilename: audio.mp3
AudioLeadIn: 0
PreviewTime:97599
Countdown: 0
SampleSet: Soft
StackLeniency: 0.4
Mode: 0
LetterboxInBreaks: 0
WidescreenStoryboard: 1

[Editor]
Bookmarks: 27164,43860,68903,77251,98120,114816
DistanceSpacing: 0.6
BeatDivisor: 4
GridSize: 8
TimelineZoom: 2.7

[Metadata]
Title:CH4NGE feat. KAFU
TitleUnicode:CH4NGE feat. 可不
Artist:Giga
ArtistUnicode:Giga
Creator:muya-
Version:INS4NE
Source:
Tags:kaf 花譜 kafu change electronic japanese vocaloid 神椿スタジオ kamitsubaki studios q*Left qleft q left ギガ ギガp gigap giga-p giga p female vocals CeVIO Ai seolv [_L_u_k_a_s_] fanboyyou
BeatmapID:3801215
BeatmapSetID:1826534

[Difficulty]
HPDrainRate:4.5
CircleSize:4
OverallDifficulty:7.8
ApproachRate:8.8
SliderMultiplier:2.2
SliderTickRate:1

[Events]
//Background and Video events
0,0,"kafu.jpg",0,0
//Break Periods
2,69103,76622
//Storyboard Layer 0 (Background)
//Storyboard Layer 1 (Fail)
//Storyboard Layer 2 (Pass)
//Storyboard Layer 3 (Foreground)
//Storyboard Layer 4 (Overlay)
//Storyboard Sound Samples

[TimingPoints]
1600,521.739130434783,4,2,1,60,1,8
2121,521.739130434783,4,2,1,60,1,0
2121,-100,4,2,1,60,0,0
18294,-100,4,2,2,60,0,0
18816,-86.9565217391304,4,2,3,75,0,0
25077,-86.9565217391304,4,2,3,70,0,0
26642,-142.857142857143,4,2,3,60,0,0
27164,-76.9230769230769,4,2,18,90,0,1
27425,-76.9230769230769,4,2,8,90,0,1
27490,-76.9230769230769,4,2,4,90,0,1
27947,-76.9230769230769,4,2,8,90,0,1
28012,-76.9230769230769,4,2,4,90,0,1
28468,-76.9230769230769,4,2,8,90,0,1
28533,-76.9230769230769,4,2,4,90,0,1
28990,-76.9230769230769,4,2,8,90,0,1
29055,-76.9230769230769,4,2,4,90,0,1
29512,-66.6666666666667,4,2,8,90,0,1
29577,-66.6666666666667,4,2,4,90,0,1
30034,-66.6666666666667,4,2,8,90,0,1
30099,-66.6666666666667,4,2,4,90,0,1
30294,-76.9230769230769,4,2,4,90,0,1
30555,-76.9230769230769,4,2,8,90,0,1
30620,-76.9230769230769,4,2,4,90,0,1
31077,-76.9230769230769,4,2,8,90,0,1
31142,-76.9230769230769,4,2,4,90,0,1
31599,-76.9230769230769,4,2,8,90,0,1
31664,-76.9230769230769,4,2,4,90,0,1
32121,-76.9230769230769,4,2,8,90,0,1
32186,-76.9230769230769,4,2,4,90,0,1
32642,-76.9230769230769,4,2,8,90,0,1
32707,-76.9230769230769,4,2,4,90,0,1
33164,-76.9230769230769,4,2,8,90,0,1
33229,-76.9230769230769,4,2,4,90,0,1
33686,-76.9230769230769,4,2,8,90,0,1
33751,-76.9230769230769,4,2,4,90,0,1
34207,-76.9230769230769,4,2,8,90,0,1
34272,-76.9230769230769,4,2,4,90,0,1
34729,-76.9230769230769,4,2,8,90,0,1
34794,-76.9230769230769,4,2,4,90,0,1
35251,-76.9230769230769,4,2,4,90,0,0
35512,-76.9230769230769,4,2,4,90,0,1
35773,-76.9230769230769,4,2,8,90,0,1
35838,-76.9230769230769,4,2,4,90,0,1
36294,-76.9230769230769,4,2,8,90,0,1
36359,-76.9230769230769,4,2,4,90,0,1
36816,-76.9230769230769,4,2,8,90,0,1
36881,-76.9230769230769,4,2,4,90,0,1
37338,-76.9230769230769,4,2,8,90,0,1
37403,-76.9230769230769,4,2,4,90,0,1
37860,-76.9230769230769,4,2,8,90,0,1
37925,-76.9230769230769,4,2,4,90,0,1
38381,-76.9230769230769,4,2,8,90,0,1
38446,-76.9230769230769,4,2,4,90,0,1
38903,-76.9230769230769,4,2,8,90,0,1
38968,-76.9230769230769,4,2,4,90,0,1
39425,-76.9230769230769,4,2,8,90,0,1
39490,-76.9230769230769,4,2,4,90,0,1
39947,-76.9230769230769,4,2,8,90,0,1
40012,-76.9230769230769,4,2,4,90,0,1
40468,-76.9230769230769,4,2,8,90,0,1
40533,-76.9230769230769,4,2,4,90,0,1
40990,-76.9230769230769,4,2,8,90,0,1
41055,-76.9230769230769,4,2,4,90,0,1
41512,-76.9230769230769,4,2,8,90,0,1
41577,-76.9230769230769,4,2,4,90,0,1
42034,-76.9230769230769,4,2,8,90,0,1
42099,-76.9230769230769,4,2,4,90,0,1
42555,-76.9230769230769,4,2,8,90,0,1
42620,-76.9230769230769,4,2,4,90,0,1
43077,-76.9230769230769,4,2,8,90,0,1
43142,-76.9230769230769,4,2,4,90,0,1
43338,-76.9230769230769,4,2,14,90,0,1
43729,-76.9230769230769,4,2,14,90,0,0
43860,-86.9565217391304,4,2,3,75,0,1
44121,-86.9565217391304,4,2,3,75,0,0
52207,-95.2380952380952,4,2,1,65,0,0
58468,-90.9090909090909,4,2,1,80,0,0
60555,-86.9565217391304,4,2,3,75,0,1
60816,-86.9565217391304,4,2,3,75,0,0
64729,-86.9565217391304,4,2,3,75,0,1
64990,-86.9565217391304,4,2,3,75,0,0
68903,-86.9565217391304,4,2,6,55,0,1
69164,-86.9565217391304,4,2,6,55,0,0
77251,-111.111111111111,4,2,7,65,0,0
85599,-333.333333333332,4,2,9,40,0,0
86121,-333.333333333332,4,2,9,50,0,0
86642,-200,4,2,9,60,0,0
87164,-200,4,2,9,70,0,0
87686,-90.9090909090909,4,2,9,90,0,0
87947,-90.9090909090909,4,2,9,5,0,0
88207,-90.9090909090909,4,2,9,90,0,0
88468,-90.9090909090909,4,2,9,5,0,0
88729,-71.4285714285714,4,2,9,90,0,1
89773,-71.4285714285714,4,2,3,90,0,1
90034,-86.9565217391304,4,2,3,80,0,8
96033,-86.9565217391304,4,2,3,70,0,8
97599,-86.9565217391304,4,2,3,60,0,8
98121,-76.9230769230769,4,2,18,90,0,9
98381,-76.9230769230769,4,2,8,90,0,9
98446,-76.9230769230769,4,2,4,90,0,9
98903,-76.9230769230769,4,2,8,90,0,9
98968,-76.9230769230769,4,2,4,90,0,9
99424,-76.9230769230769,4,2,8,90,0,9
99489,-76.9230769230769,4,2,4,90,0,9
99946,-76.9230769230769,4,2,8,90,0,9
100011,-76.9230769230769,4,2,4,90,0,9
100468,-66.6666666666667,4,2,8,90,0,9
100533,-66.6666666666667,4,2,4,90,0,9
100990,-66.6666666666667,4,2,8,90,0,9
101055,-66.6666666666667,4,2,4,90,0,9
101251,-76.9230769230769,4,2,4,90,0,9
101511,-76.9230769230769,4,2,8,90,0,9
101576,-76.9230769230769,4,2,4,90,0,9
102033,-76.9230769230769,4,2,8,90,0,9
102098,-76.9230769230769,4,2,4,90,0,9
102555,-76.9230769230769,4,2,8,90,0,9
102620,-76.9230769230769,4,2,4,90,0,9
103077,-76.9230769230769,4,2,8,90,0,9
103142,-76.9230769230769,4,2,4,90,0,9
103598,-76.9230769230769,4,2,8,90,0,9
103663,-76.9230769230769,4,2,4,90,0,9
104120,-76.9230769230769,4,2,8,90,0,9
104185,-76.9230769230769,4,2,4,90,0,9
104642,-76.9230769230769,4,2,8,90,0,9
104707,-76.9230769230769,4,2,4,90,0,9
105163,-76.9230769230769,4,2,8,90,0,9
105228,-76.9230769230769,4,2,4,90,0,9
105685,-76.9230769230769,4,2,8,90,0,9
105750,-76.9230769230769,4,2,4,90,0,9
106207,-76.9230769230769,4,2,4,90,0,8
106468,-76.9230769230769,4,2,4,90,0,9
106729,-76.9230769230769,4,2,8,90,0,9
106794,-76.9230769230769,4,2,4,90,0,9
107250,-76.9230769230769,4,2,8,90,0,9
107315,-76.9230769230769,4,2,4,90,0,9
107772,-76.9230769230769,4,2,8,90,0,9
107837,-76.9230769230769,4,2,4,90,0,9
108294,-76.9230769230769,4,2,8,90,0,9
108359,-76.9230769230769,4,2,4,90,0,9
108816,-76.9230769230769,4,2,8,90,0,9
108881,-76.9230769230769,4,2,4,90,0,9
109337,-76.9230769230769,4,2,8,90,0,9
109402,-76.9230769230769,4,2,4,90,0,9
109859,-76.9230769230769,4,2,8,90,0,9
109924,-76.9230769230769,4,2,4,90,0,9
110381,-76.9230769230769,4,2,8,90,0,9
110446,-76.9230769230769,4,2,4,90,0,9
110903,-76.9230769230769,4,2,8,90,0,9
110968,-76.9230769230769,4,2,4,90,0,9
111424,-76.9230769230769,4,2,8,90,0,9
111489,-76.9230769230769,4,2,4,90,0,9
111946,-76.9230769230769,4,2,8,90,0,9
112011,-76.9230769230769,4,2,4,90,0,9
112468,-76.9230769230769,4,2,8,90,0,9
112533,-76.9230769230769,4,2,4,90,0,9
112990,-76.9230769230769,4,2,8,90,0,9
113055,-76.9230769230769,4,2,4,90,0,9
113511,-76.9230769230769,4,2,8,90,0,9
113576,-76.9230769230769,4,2,4,90,0,9
114033,-76.9230769230769,4,2,8,90,0,9
114098,-76.9230769230769,4,2,4,90,0,9
114294,-76.9230769230769,4,2,14,90,0,9
114686,-76.9230769230769,4,2,14,90,0,8
114816,-86.9565217391304,4,2,3,75,0,9
115077,-86.9565217391304,4,2,3,75,0,8
122642,-111.111111111111,4,2,3,75,0,0
123164,-83.3333333333333,4,2,4,80,0,9
123425,-83.3333333333333,4,2,8,80,0,8
123490,-83.3333333333333,4,2,4,80,0,8
123946,-83.3333333333333,4,2,8,80,0,8
124011,-83.3333333333333,4,2,4,80,0,8
124468,-83.3333333333333,4,2,8,80,0,8
124533,-83.3333333333333,4,2,4,80,0,8
124990,-83.3333333333333,4,2,8,80,0,8
125055,-83.3333333333333,4,2,4,80,0,8
125512,-83.3333333333333,4,2,8,80,0,8
125577,-83.3333333333333,4,2,4,80,0,8
126033,-83.3333333333333,4,2,8,80,0,8
126098,-83.3333333333333,4,2,4,80,0,8
126555,-83.3333333333333,4,2,8,80,0,8
126620,-83.3333333333333,4,2,4,80,0,8
127077,-83.3333333333333,4,2,8,80,0,8
127142,-83.3333333333333,4,2,4,80,0,8
127599,-83.3333333333333,4,2,8,80,0,8
127664,-83.3333333333333,4,2,4,80,0,8
128120,-83.3333333333333,4,2,8,80,0,8
128185,-83.3333333333333,4,2,4,80,0,8
128642,-83.3333333333333,4,2,8,80,0,8
128707,-83.3333333333333,4,2,4,80,0,8
129164,-83.3333333333333,4,2,8,80,0,8
129229,-83.3333333333333,4,2,4,80,0,8
129686,-83.3333333333333,4,2,8,80,0,8
129751,-83.3333333333333,4,2,4,80,0,8
130207,-83.3333333333333,4,2,8,80,0,8
130272,-83.3333333333333,4,2,4,80,0,8
130468,-111.111111111111,4,2,4,60,0,0
130729,-111.111111111111,4,2,8,60,0,0
130794,-111.111111111111,4,2,4,60,0,0

[Colours]
Combo1 : 228,63,113
Combo2 : 142,234,214
Combo3 : 225,132,169
Combo4 : 221,225,225

[HitObjects]
166,126,2121,5,2,0:0:0:0:
247,181,2381,1,0,1:2:0:0:
401,97,2642,1,10,0:0:0:0:
401,97,2773,2,0,P|382:50|311:73,1,110,0|0,1:2|0:0,0:0:0:0:
335,169,3164,2,0,P|397:184|456:200,1,110,2|2,1:2|0:0,0:0:0:0:
261,384,3686,2,0,P|250:370|244:350,2,36.6666666666667,8|0|0,0:0|0:0|0:0,0:0:0:0:
264,308,3947,1,2,1:2:0:0:
91,201,4207,6,0,L|33:217,1,55,2|0,0:0|0:0,0:0:0:0:
42,322,4468,2,0,L|155:289,2,110,2|10|2,1:2|0:0|0:2,0:0:0:0:
3,99,5251,2,0,P|41:49|101:68,1,110,2|0,1:2|0:0,0:0:0:0:
211,148,5773,2,0,P|204:170|197:200,2,36.6666666666667,10|0|0,0:0|0:0|0:0,0:0:0:0:
185,117,6034,1,0,0:0:0:0:
394,196,6294,5,2,0:0:0:0:
465,133,6555,1,2,1:2:0:0:
352,51,6816,1,10,0:0:0:0:
352,51,6947,2,0,P|297:76|314:133,1,110,0|0,1:2|0:0,0:0:0:0:
296,231,7338,2,0,P|336:198|399:197,1,110,2|2,1:2|0:0,0:0:0:0:
466,384,7860,2,0,P|449:379|432:369,2,36.6666666666667,8|0|0,0:0|0:0|0:0,0:0:0:0:
408,331,8121,1,2,1:2:0:0:
159,240,8381,5,2,0:0:0:0:
252,307,8642,1,2,1:2:0:0:
356,193,8903,2,0,P|331:196|305:220,1,55,10|0,0:0|1:2,0:0:0:0:
296,231,9164,1,2,0:0:0:0:
29,125,9425,5,2,1:2:0:0:
29,125,9555,2,0,P|64:76|130:102,1,110,2|2,0:0|0:0,0:0:0:0:
150,188,9947,1,10,0:0:0:0:
123,185,10078,1,2,0:0:0:0:
108,164,10208,1,2,1:2:0:0:
262,5,10468,5,2,0:0:0:0:
329,75,10729,1,2,1:2:0:0:
423,52,10990,1,10,0:0:0:0:
423,52,11121,2,0,P|415:28|405:-1,1,55,0|2,1:2|0:0,0:0:0:0:
250,187,11512,2,0,P|309:197|368:210,1,110,2|2,1:2|0:0,0:0:0:0:
216,376,12034,2,0,P|205:365|196:343,2,36.6666666666667,10|0|0,0:0|0:0|0:0,0:0:0:0:
210,300,12294,1,0,1:2:0:0:
358,207,12555,5,2,0:0:0:0:
433,145,12816,1,2,1:2:0:0:
387,56,13077,1,10,0:0:0:0:
387,56,13207,2,0,P|355:64|329:70,1,55,0|2,1:2|0:0,0:0:0:0:
80,14,13599,2,0,P|142:14|159:74,1,110,2|2,1:2|0:0,0:0:0:0:
38,255,14121,2,0,P|24:208|0:140,1,110,10|0,0:0|1:2,0:0:0:0:
201,228,14642,6,0,B|258:217|257:259|315:254,1,110,2|0,0:0|1:2,0:0:0:0:
383,226,15034,1,2,0:0:0:0:
383,226,15164,1,10,0:0:0:0:
422,85,15425,2,0,P|413:59|385:40,1,55,2|0,0:0|0:0,0:0:0:0:
274,40,15686,2,0,P|218:62|221:111,1,110,0|0,1:2|0:0,0:0:0:0:
304,254,16207,2,0,P|316:235|320:210,2,36.6666666666667,8|0|0,0:0|0:0|0:0,0:0:0:0:
303,177,16468,1,2,1:2:0:0:
77,166,16729,6,0,P|95:217|111:270,1,110,2|0,0:0|1:2,0:0:0:0:
42,384,17251,2,0,P|21:374|10:333,1,55,10|0,0:0|1:2,0:0:0:0:
0,322,17512,1,2,0:0:0:0:
111,270,17773,2,0,B|174:266|160:307|234:312,1,110,2|0,1:2|0:0,0:0:0:0:
408,236,18294,6,0,L|415:209,6,18.3333333333333
184,116,18816,6,0,P|163:91|165:49,1,63.250001206398,6|0,3:2|0:0,0:0:0:0:
246,27,19077,2,0,P|267:52|265:94,1,63.250001206398,2|0,0:0|0:0,0:0:0:0:
216,214,19338,1,10,1:2:0:0:
166,198,19468,1,2,0:0:0:0:
117,187,19599,2,0,L|143:265,1,63.250001206398,2|2,0:0|0:0,0:0:0:0:
190,384,19860,6,0,P|256:357|246:298,1,126.500002412796,2|2,3:2|0:0,0:0:0:0:
117,187,20381,1,10,1:2:0:0:
166,198,20512,1,2,0:0:0:0:
216,214,20642,2,0,L|228:165,2,42.166667470932
296,237,20903,6,0,B|356:228|343:183|412:179,1,126.500002412796,2|2,3:2|0:0,0:0:0:0:
483,131,21294,1,2,1:2:0:0:
483,131,21425,2,0,P|510:106|500:59,1,63.250001206398,10|2,1:2|1:2,1:2:0:0:
432,17,21686,2,0,P|402:27|372:36,1,63.250001206398,2|0,0:0|1:2,0:0:0:0:
205,17,21947,5,2,3:2:0:0:
205,17,22077,2,0,P|266:45|270:110,1,126.500002412796,2|0,0:0|0:0,0:0:0:0:
157,182,22468,5,10,1:2:0:0:
157,182,22598,2,0,P|223:172|262:224,1,126.500002412796,2|0,0:0|0:0,0:0:0:0:
179,340,22990,6,0,B|115:328|118:383|39:377,1,126.500002412796,2|2,3:2|0:0,0:0:0:0:
0,245,23381,1,2,0:0:0:0:
49,255,23512,1,10,1:2:0:0:
99,260,23642,2,0,L|77:192,2,63.250001206398,2|0|2,0:0|0:0|1:2,0:0:0:0:
0,168,24034,6,0,P|9:137|40:118,1,63.250001206398,2|0,3:2|0:0,0:0:0:0:
40,21,24294,2,0,P|72:21|98:46,1,63.250001206398,2|0,0:0|0:0,0:0:0:0:
192,21,24555,1,10,1:2:0:0:
192,21,24686,2,0,P|199:52|182:84,1,63.250001206398,2|0,0:0|0:0,0:0:0:0:
116,127,24947,1,0,0:0:0:0:
116,127,25077,5,2,3:2:0:0:
391,186,25468,1,8,0:0:0:0:
391,186,25599,1,2,3:2:0:0:
199,307,25990,1,0,1:2:0:0:
199,307,26121,6,0,B|183:302|174:287|174:287|189:297|204:298,1,63.250001206398,2|0,1:1|0:0,0:0:0:0:
119,217,26642,5,10,0:0:0:0:
401,235,27164,6,0,P|430:263|413:319,1,71.4999967269899,6|0,3:2|0:0,0:0:0:0:
346,333,27425,2,0,P|317:305|334:249,1,71.4999967269899,2|2,3:2|0:0,0:0:0:0:
342,140,27686,2,0,P|403:191|480:172,1,142.99999345398,10|2,0:0|3:2,0:0:0:0:
497,71,28077,1,2,1:2:0:0:
497,71,28207,6,0,P|425:59|424:114,1,142.99999345398,2|2,3:2|3:2,0:0:0:0:
485,265,28729,2,0,P|512:299|503:341,1,71.4999967269899,10|0,0:0|0:0,0:0:0:0:
399,374,28990,1,2,3:2:0:0:
318,331,29121,1,2,0:0:0:0:
411,366,29251,1,2,3:2:0:0:
170,243,29512,6,0,P|123:214|156:146,1,110.000004196167,2|0,3:1|1:2,0:0:0:0:
110,127,29773,6,0,P|125:74|200:88,1,110.000004196167,10|0,2:1|0:0,0:0:0:0:
204,34,30034,6,0,P|259:35|264:111,1,110.000004196167,2|0,3:1|1:2,0:0:0:0:
314,108,30294,6,0,P|326:161|255:186,1,142.99999345398,2|0,3:1|3:2,0:0:0:0:
27,112,30816,5,10,0:0:0:0:
13,122,30903,5,0,0:0:0:0:
5,138,30990,5,0,0:0:0:0:
7,157,31077,5,2,3:2:0:0:
194,282,31338,6,0,B|278:270|261:338|360:342,1,142.99999345398,2|0,3:2|3:2,0:0:0:0:
437,305,31729,1,0,0:0:0:0:
437,305,31860,2,0,P|461:280|449:229,1,71.4999967269899,10|0,0:0|0:0,0:0:0:0:
344,166,32121,2,0,P|319:143|321:89,1,71.4999967269899,2|0,3:2|0:0,0:0:0:0:
468,6,32381,6,0,P|456:60|435:170,1,142.99999345398,2|2,3:2|3:2,0:0:0:0:
192,67,32903,2,0,P|226:42|282:66,1,71.4999967269899,10|0,0:0|0:0,0:0:0:0:
124,167,33164,2,0,P|107:157|91:123,2,47.6666644846599,2|0|0,3:2|0:0|0:0,0:0:0:0:
198,147,33425,6,0,P|265:156|278:224,1,142.99999345398,2|2,3:2|3:2,0:0:0:0:
217,316,33816,1,0,1:2:0:0:
217,316,33947,2,0,P|184:305|143:295,1,71.4999967269899,8|0,0:0|0:0,0:0:0:0:
33,384,34207,2,0,P|65:373|107:363,1,71.4999967269899,2|0,3:2|1:2,0:0:0:0:
241,306,34468,2,0,L|93:265,1,142.99999345398,2|2,3:2|3:2,0:0:0:0:
103,267,34860,1,0,1:2:0:0:
0,173,34990,6,0,P|25:129|77:142,1,95.3333289693199,10|0,0:0|1:2,0:0:0:0:
106,158,35251,6,0,P|138:194|191:187,1,95.3333289693199,2|0,1:2|0:0,0:0:0:0:
263,187,35512,6,0,P|243:120|210:16,1,142.99999345398,6|0,3:2|3:2,0:0:0:0:
321,13,35903,1,2,0:0:0:0:
321,13,36034,2,0,P|361:22|373:64,1,71.4999967269899,8|0,0:0|0:0,0:0:0:0:
402,147,36294,2,0,P|369:136|323:121,1,71.4999967269899,2|0,3:2|1:2,0:0:0:0:
254,274,36555,5,0,3:2:0:0:
296,281,36686,1,0,0:0:0:0:
326,251,36816,1,2,3:2:0:0:
453,373,37077,1,10,0:0:0:0:
501,301,37207,1,2,0:0:0:0:
440,379,37338,2,0,P|409:351|410:302,1,71.4999967269899,2|0,3:2|0:0,0:0:0:0:
494,167,37599,6,0,P|485:86|427:83,1,142.99999345398,2|0,3:2|3:2,0:0:0:0:
286,54,37990,1,2,0:0:0:0:
286,54,38121,2,0,P|297:86|313:135,1,71.4999967269899,8|0,0:0|0:0,0:0:0:0:
174,163,38381,2,0,P|162:129|151:95,1,71.4999967269899,2|0,3:2|1:2,0:0:0:0:
268,210,38642,6,0,B|344:196|335:262|425:264,1,142.99999345398,0|2,3:2|3:2,0:0:0:0:
248,360,39164,5,10,0:0:0:0:
245,344,39251,5,0,0:0:0:0:
240,330,39338,5,0,0:0:0:0:
233,317,39425,5,2,3:2:0:0:
93,146,39686,6,0,P|20:162|64:234,1,142.99999345398,2|0,3:2|3:2,0:0:0:0:
17,318,40077,1,0,0:0:0:0:
17,318,40207,2,0,P|52:305|94:294,1,71.4999967269899,10|0,0:0|0:0,0:0:0:0:
163,218,40468,2,0,P|198:205|240:194,1,71.4999967269899,2|0,3:2|1:2,0:0:0:0:
316,281,40729,2,0,P|214:309|115:345,1,142.99999345398,2|2,3:2|3:2,0:0:0:0:
385,384,41251,6,0,P|431:359|405:291,1,95.3333289693199,10|0,0:0|1:2,0:0:0:0:
468,295,41512,6,0,P|455:244|383:251,1,95.3333289693199,2|0,3:2|0:0,0:0:0:0:
376,161,41773,6,0,P|308:174|221:197,1,142.99999345398,2|0,3:2|3:2,0:0:0:0:
136,140,42164,1,2,0:0:0:0:
136,140,42294,2,0,P|110:115|117:66,1,71.4999967269899,8|0,0:0|0:0,0:0:0:0:
220,0,42555,2,0,P|211:32|200:81,1,71.4999967269899,2|0,3:2|0:0,0:0:0:0:
42,197,42816,2,0,P|24:140|-4:50,1,142.99999345398,2|2,3:2|3:2,0:0:0:0:
33,294,43338,6,2,B|60:350|86:373|173:376|182:343|207:296|179:249|137:248|117:259|117:259|166:255,1,285.99998690796,10|6,0:0|3:2,0:1:0:0:
270,260,44121,2,0,P|294:234|287:185,1,63.250001206398,2|0,0:0|0:0,0:0:0:0:
232,112,44381,1,10,3:2:0:0:
194,121,44512,1,0,0:0:0:0:
156,128,44642,2,0,L|174:60,1,63.250001206398,0|0,0:0|1:2,0:0:0:0:
316,91,44903,6,0,B|386:82|378:131|439:136,1,126.500002412796,2|2,3:2|0:0,0:0:0:0:
500,37,45294,1,8,0:2:0:0:
500,37,45425,2,0,P|463:38|441:74,1,63.250001206398,2|2,3:2|0:0,0:0:0:0:
436,226,45686,2,0,P|457:223|480:209,2,42.166667470932
383,212,45947,6,0,B|320:206|325:257|263:260,1,126.500002412796,2|2,3:2|0:0,0:0:0:0:
178,235,46338,1,0,1:2:0:0:
178,235,46468,2,0,P|186:172|249:198,1,126.500002412796,10|0,3:2|0:0,0:0:0:0:
321,372,46990,5,2,3:2:0:0:
321,372,47121,2,0,P|266:358|191:343,1,126.500002412796,2|0,0:0|0:0,0:0:0:0:
65,316,47512,5,10,3:2:0:0:
65,316,47642,2,0,B|122:299|101:255|179:241,1,126.500002412796,2|8,0:0|0:0,0:0:0:0:
37,230,48034,6,0,P|13:210|16:164,1,63.250001206398,2|0,3:2|0:0,0:0:0:0:
8,72,48294,2,0,P|40:83|80:95,1,63.250001206398,2|0,0:0|0:0,0:0:0:0:
229,46,48555,2,0,P|166:63|175:132,1,126.500002412796,10|0,3:2|0:0,0:0:0:0:
226,196,48947,1,0,1:2:0:0:
226,196,49077,6,0,P|259:184|303:169,1,63.250001206398,2|0,3:2|0:0,0:0:0:0:
428,105,49338,1,2,0:0:0:0:
391,95,49468,1,8,0:2:0:0:
353,88,49599,2,0,L|380:161,1,63.250001206398,2|2,3:2|0:0,0:0:0:0:
451,269,49860,2,0,P|468:259|481:239,2,42.166667470932
400,260,50121,6,0,P|336:251|298:312,1,126.500002412796,2|2,3:2|0:0,0:0:0:0:
274,384,50512,1,0,1:2:0:0:
274,384,50642,2,0,P|269:325|200:294,1,126.500002412796,10|0,3:2|0:0,0:0:0:0:
114,286,51034,1,0,1:2:0:0:
114,286,51164,6,0,P|169:265|181:191,1,126.500002412796,0|2,3:2|0:0,0:0:0:0:
116,121,51555,1,8,0:0:0:0:
116,121,51686,2,0,P|103:103|97:77,3,42.166667470932,0|0|0|0,3:2|0:0|0:0|1:2,0:0:0:0:
303,11,52207,5,2,3:2:0:0:
372,78,52468,1,2,1:2:0:0:
487,49,52729,2,0,P|472:24|429:10,1,57.7499982376099,2|2,3:2|1:2,3:2:0:0:
420,8,52990,1,2,0:0:0:0:
358,225,53251,2,0,P|414:208|477:192,1,115.49999647522,2|2,3:2|0:0,0:0:0:0:
512,276,53642,1,2,0:0:0:0:
512,276,53773,2,0,P|483:283|455:292,1,57.7499982376099,0|2,3:2|0:0,0:0:0:0:
375,318,54034,1,2,1:2:0:0:
208,152,54294,6,0,P|270:161|256:224,1,115.49999647522,2|2,3:2|1:2,0:0:0:0:
141,279,54816,1,2,3:2:0:0:
124,274,54947,1,2,1:2:0:0:
108,269,55077,2,0,L|134:335,1,57.7499982376099,2|2,0:0|1:2,0:0:0:0:
0,384,55338,6,0,P|12:327|27:266,1,115.49999647522,2|2,3:2|0:0,0:0:0:0:
82,187,55729,2,0,P|80:160|63:132,1,57.7499982376099,2|0,0:0|3:2,0:0:0:0:
66,39,55990,1,2,0:0:0:0:
66,39,56121,2,0,P|46:19|9:21,1,57.7499982376099,2|2,1:2|0:0,0:0:0:0:
156,88,56381,6,0,B|216:75|193:34|278:26,1,115.49999647522,2|2,3:2|1:2,0:0:0:0:
382,146,56903,2,0,P|334:130|264:112,1,115.49999647522,2|2,3:2|0:0,0:0:0:0:
246,195,57294,1,2,1:2:0:0:
246,195,57425,6,0,P|316:216|373:236,1,115.49999647522,2|2,3:2|0:0,0:0:0:0:
332,308,57816,1,2,0:0:0:0:
332,308,57947,2,0,P|303:298|254:284,1,57.7499982376099,0|0,3:2|0:0,0:0:0:0:
191,263,58207,1,2,1:2:0:0:
17,61,58468,6,0,P|79:63|75:135,1,121.000003692627,10|2,0:0|1:2,0:0:0:0:
216,96,58860,1,2,1:2:0:0:
216,96,58990,2,0,P|214:157|142:154,1,121.000003692627,10|2,0:0|0:0,0:0:0:0:
174,293,59382,1,0,1:2:0:0:
174,293,59512,6,0,P|112:288|118:217,1,121.000003692627,10|2,0:0|1:2,0:0:0:0:
43,141,59903,1,2,0:0:0:0:
43,141,60034,2,0,P|60:119|101:113,1,60.5000018463135,10|0,0:0|0:0,0:0:0:0:
11,230,60294,1,2,1:2:0:0:
304,164,60555,6,2,B|292:225|292:225|293:228|293:228|276:312,1,126.500002412796,6|0,3:2|1:2,0:1:0:0:
336,378,60947,1,2,0:0:0:0:
354,371,61077,1,10,0:0:0:0:
373,363,61207,2,0,P|391:332|373:286,1,63.250001206398,0|0,1:2|0:0,0:0:0:0:
308,168,61468,5,2,1:2:0:0:
308,168,61599,2,0,B|233:162|253:212|160:208,1,126.500002412796,2|0,3:2|0:0,0:0:0:0:
103,173,61990,1,2,1:2:0:0:
103,173,62121,1,10,0:0:0:0:
295,33,62512,5,2,0:0:0:0:
295,33,62642,2,0,P|237:27|220:102,1,126.500002412796,2|0,3:2|1:2,0:0:0:0:
186,207,63034,1,2,1:2:0:0:
186,207,63164,2,0,P|246:185|310:169,1,126.500002412796,10|0,0:0|0:0,0:0:0:0:
422,199,63555,5,2,0:0:0:0:
422,199,63686,2,0,P|432:257|328:273,1,189.750003619194,2|0,3:2|1:2,0:0:0:0:
306,169,64207,2,0,L|317:127,3,42.166667470932,10|0|0|0,0:2|0:0|0:0|1:2,0:0:0:0:
111,111,64729,6,2,P|49:138|83:210,1,126.500002412796,2|0,3:2|1:2,0:1:0:0:
145,272,65121,1,2,0:0:0:0:
168,302,65251,1,10,0:0:0:0:
161,336,65381,2,0,L|81:316,1,63.250001206398,0|0,1:2|0:0,0:0:0:0:
1,293,65642,5,2,1:2:0:0:
1,293,65773,2,0,P|19:230|42:163,1,126.500002412796,2|0,3:2|0:0,0:0:0:0:
78,96,66164,1,2,1:2:0:0:
78,96,66294,1,10,0:2:0:0:
268,240,66686,5,2,0:0:0:0:
268,240,66816,2,0,P|334:228|399:217,1,126.500002412796,2|0,3:2|1:2,0:0:0:0:
426,317,67207,1,2,1:2:0:0:
426,317,67337,2,0,P|363:327|301:338,1,126.500002412796,10|0,0:0|0:0,0:0:0:0:
192,307,67729,5,2,1:2:0:0:
192,307,67860,2,0,P|165:281|170:240,1,63.250001206398,2|0,3:2|0:0,0:0:0:0:
82,200,68121,2,0,P|101:168|142:164,1,63.250001206398,0|0,0:0|1:2,0:0:0:0:
155,55,68381,2,0,P|175:59|193:75,2,42.166667470932,8|0|0,0:2|0:0|0:0,0:0:0:0:
242,67,68642,2,0,P|253:83|254:108,2,42.166667470932,2|0|0,1:2|0:0|0:0,0:0:0:0:
269,150,68903,5,2,1:2:0:0:
242,126,77251,6,0,P|279:77|278:170,1,197.99999395752,2|2,3:2|0:0,0:0:0:0:
247,226,78034,2,0,P|222:216|181:203,1,49.4999984893799,2|0,0:0|0:0,0:0:0:0:
93,322,78294,2,0,P|143:308|204:293,1,98.9999969787599,10|0,0:0|0:0,0:0:0:0:
355,252,78816,1,6,0:0:0:0:
345,280,78947,1,4,0:0:0:0:
336,308,79077,1,4,0:0:0:0:
199,207,79338,6,0,P|158:161|181:107,1,98.9999969787599,2|0,1:2|0:0,0:0:0:0:
284,34,79860,1,2,3:2:0:0:
361,84,80121,1,0,1:2:0:0:
450,47,80381,6,0,P|453:35|455:28,8,12.374999622345,10|0|0|0|0|0|0|0|0,0:0|0:0|0:0|0:0|0:0|0:0|0:0|0:0|0:0,0:0:0:0:
362,84,80903,2,0,P|321:136|353:189,1,98.9999969787599,0|2,1:2|0:0,0:0:0:0:
417,268,81425,6,0,P|467:251|524:239,1,98.9999969787599,2|2,3:2|0:0,0:0:0:0:
330,166,81947,1,2,0:0:0:0:
253,251,82207,1,2,0:0:0:0:
147,114,82468,2,0,P|190:104|219:157,1,98.9999969787599,10|0,0:0|0:0,0:0:0:0:
82,304,82990,1,4,0:0:0:0:
54,276,83121,1,4,0:0:0:0:
65,239,83251,1,6,0:0:0:0:
220,143,83512,6,0,L|290:156,1,49.4999984893799,2|0,1:2|0:0,0:0:0:0:
357,127,83773,2,0,L|427:140,1,49.4999984893799,2|0,0:0|0:0,0:0:0:0:
335,1,84034,2,0,P|294:25|303:87,1,98.9999969787599,2|2,3:2|1:2,0:0:0:0:
405,222,84555,5,10,0:0:0:0:
126,129,85077,1,2,0:0:0:0:
307,369,85599,6,0,P|326:344|325:306,1,65.9999979858399,10|10,0:0|0:0,0:0:0:0:
113,124,86642,6,0,P|131:185|150:250,1,110,10|10,0:0|0:0,0:0:0:0:
452,121,87686,6,0,P|441:56|378:56,1,121.000003692627,6|0,3:2|0:0,0:0:0:0:
381,242,88207,2,0,P|441:250|455:192,1,121.000003692627,6|0,3:2|0:0,0:0:0:0:
246,98,88729,6,2,B|166:42|94:132|119:142|134:155|72:240|0:195,2,307.999990600586,6|10|6,3:1|0:0|3:2,0:1:0:0:
271,254,90034,2,0,P|231:236|217:186,1,63.250001206398,2|0,0:0|0:0,0:0:0:0:
339,133,90294,1,10,3:2:0:0:
380,104,90424,1,2,0:0:0:0:
427,121,90555,2,0,L|411:188,1,63.250001206398,2|2,0:0|0:0,0:0:0:0:
419,350,90816,6,0,P|485:323|475:264,1,126.500002412796,2|2,3:2|0:0,0:0:0:0:
271,254,91337,1,10,1:2:0:0:
220,262,91468,1,2,0:0:0:0:
169,268,91598,2,0,L|181:219,2,42.166667470932
103,317,91859,6,0,P|89:263|68:179,1,126.500002412796,2|2,3:2|0:0,0:0:0:0:
36,28,92381,1,10,3:2:0:0:
50,19,92511,1,2,0:0:0:0:
65,19,92642,2,0,P|95:46|93:86,1,63.250001206398,2|0,0:0|1:2,0:0:0:0:
202,142,92903,5,2,3:2:0:0:
202,142,93033,2,0,P|186:205|170:279,1,126.500002412796,2|0,0:0|0:0,0:0:0:0:
292,226,93425,5,10,1:2:0:0:
292,226,93555,2,0,P|276:289|260:363,1,126.500002412796,2|0,0:0|0:0,0:0:0:0:
131,371,93946,6,0,P|82:357|97:270,1,126.500002412796,2|2,3:2|0:0,0:0:0:0:
164,214,94337,1,2,0:0:0:0:
196,183,94468,1,10,3:2:0:0:
183,140,94598,2,0,P|150:145|112:151,2,63.250001206398,2|0|2,0:0|0:0|1:2,0:0:0:0:
244,46,94990,6,0,P|275:51|297:79,1,63.250001206398,2|0,3:2|0:0,0:0:0:0:
386,75,95251,2,0,P|389:106|367:134,1,63.250001206398,2|0,0:0|0:0,0:0:0:0:
394,219,95512,1,10,1:2:0:0:
394,219,95642,2,0,P|364:230|331:216,1,63.250001206398,2|0,0:0|0:0,0:0:0:0:
183,140,96033,5,2,3:2:0:0:
509,261,96555,1,2,3:2:0:0:
152,206,97077,1,2,3:2:0:0:
152,206,97599,5,2,0:0:0:0:
330,97,98121,6,0,P|320:131|307:185,1,71.4999967269899,6|0,3:2|0:0,0:0:0:0:
176,143,98381,2,0,P|184:108|194:73,1,71.4999967269899,2|2,3:2|0:0,0:0:0:0:
238,252,98642,2,0,B|162:234|167:299|86:295,1,142.99999345398,10|2,0:0|3:2,0:0:0:0:
12,240,99033,1,2,1:2:0:0:
12,240,99163,6,0,P|27:178|87:200,1,142.99999345398,2|2,3:2|3:2,0:0:0:0:
238,348,99685,2,0,P|271:375|311:370,1,71.4999967269899,10|0,0:0|0:0,0:0:0:0:
395,249,99946,1,2,3:2:0:0:
305,283,100077,1,2,0:0:0:0:
389,258,100207,1,2,3:2:0:0:
162,78,100468,6,0,P|107:72|92:147,1,110.000004196167,2|0,3:1|1:2,0:0:0:0:
44,134,100729,6,0,P|24:185|92:219,1,110.000004196167,10|0,2:1|0:0,0:0:0:0:
63,265,100990,6,0,P|107:297|157:239,1,110.000004196167,2|0,3:1|1:2,0:0:0:0:
195,272,101251,6,0,P|236:236|194:174,1,142.99999345398,2|0,3:1|3:2,0:0:0:0:
27,77,101773,5,10,0:0:0:0:
19,87,101860,5,0,0:0:0:0:
17,101,101947,5,0,0:0:0:0:
23,113,102033,5,2,3:2:0:0:
250,94,102294,6,0,B|333:86|308:142|392:155,1,142.99999345398,2|0,3:2|3:2,0:0:0:0:
459,53,102685,1,0,0:0:0:0:
459,53,102816,2,0,L|375:78,1,71.4999967269899,10|0,0:0|0:0,0:0:0:0:
265,173,103077,2,0,L|181:198,1,71.4999967269899,2|0,3:2|0:0,0:0:0:0:
346,291,103337,6,0,P|361:213|374:150,1,142.99999345398,2|2,3:2|3:2,0:0:0:0:
145,37,103859,2,0,P|154:67|165:105,1,71.4999967269899,10|0,0:0|0:0,0:0:0:0:
133,258,104120,2,0,P|115:243|107:219,2,47.6666644846599,2|0|0,3:2|0:0|0:0,0:0:0:0:
196,193,104381,6,0,P|260:200|258:286,1,142.99999345398,2|2,3:2|3:2,0:0:0:0:
255,365,104772,1,0,1:2:0:0:
255,365,104903,2,0,P|221:356|175:345,1,71.4999967269899,8|0,0:0|0:0,0:0:0:0:
73,324,105164,2,0,P|39:315|-7:304,1,71.4999967269899,2|0,3:2|1:2,0:0:0:0:
0,169,105425,2,0,P|76:189|147:207,1,142.99999345398,2|2,3:2|3:2,0:0:0:0:
138,204,105816,1,0,1:2:0:0:
248,173,105946,6,0,P|288:143|265:75,1,95.3333289693199,10|0,0:0|1:2,0:0:0:0:
261,81,106207,6,0,P|211:53|229:2,1,95.3333289693199,2|0,1:2|0:0,0:0:0:0:
300,13,106468,6,0,B|381:0|368:58|457:70,1,142.99999345398,6|0,3:2|3:2,0:0:0:0:
415,209,106859,1,2,0:0:0:0:
415,209,106990,2,0,P|387:184|390:139,1,71.4999967269899,8|0,0:0|0:0,0:0:0:0:
512,83,107251,2,0,P|504:117|495:154,1,71.4999967269899,2|0,3:2|1:2,0:0:0:0:
419,315,107511,5,0,3:2:0:0:
461,322,107642,1,0,0:0:0:0:
491,292,107772,1,2,3:2:0:0:
252,194,108033,1,10,0:0:0:0:
283,272,108163,1,2,0:0:0:0:
236,190,108294,2,0,P|199:199|153:210,1,71.4999967269899,2|0,3:2|0:0,0:0:0:0:
51,361,108555,6,0,P|115:359|118:294,1,142.99999345398,2|0,3:2|3:2,0:0:0:0:
34,187,108946,1,2,0:0:0:0:
34,187,109077,2,0,P|7:166|7:121,1,71.4999967269899,8|0,0:0|0:0,0:0:0:0:
130,26,109338,2,0,P|121:57|111:101,1,71.4999967269899,2|0,3:2|1:2,0:0:0:0:
240,202,109598,6,0,P|255:132|274:58,1,142.99999345398,0|2,3:2|3:2,0:0:0:0:
390,214,110121,5,10,0:0:0:0:
369,216,110207,5,0,0:0:0:0:
352,212,110294,5,0,0:0:0:0:
340,203,110381,5,2,3:2:0:0:
112,95,110642,6,0,P|39:111|83:183,1,142.99999345398,2|0,3:2|3:2,0:0:0:0:
60,277,111033,1,0,0:0:0:0:
60,277,111163,2,0,P|95:264|137:253,1,71.4999967269899,10|0,0:0|0:0,0:0:0:0:
175,348,111425,2,0,P|140:357|107:370,1,71.4999967269899,2|0,3:2|1:2,0:0:0:0:
22,278,111685,2,0,P|91:253|164:229,1,142.99999345398,2|2,3:2|3:2,0:0:0:0:
405,274,112207,6,0,P|408:324|368:344,1,95.3333289693199,10|0,0:0|1:2,0:0:0:0:
333,363,112468,6,0,P|288:344|301:278,1,95.3333289693199,2|0,3:2|0:0,0:0:0:0:
332,235,112729,6,0,B|337:170|387:181|409:117,1,142.99999345398,2|0,3:2|3:2,0:0:0:0:
377,28,113120,1,2,0:0:0:0:
377,28,113250,2,0,P|337:37|329:85,1,71.4999967269899,8|0,0:0|0:0,0:0:0:0:
230,56,113512,2,0,P|228:96|272:117,1,71.4999967269899,2|0,3:2|0:0,0:0:0:0:
332,235,113773,2,0,P|354:210|342:167,1,71.4999967269899,2|0,3:2|0:0,0:0:0:0:
143,144,114033,6,2,P|176:248|205:351,2,214.49999018097,2|2|6,3:2|0:0|3:2,1:0:0:0:
30,90,115077,2,0,P|17:117|22:154,1,63.250001206398,2|0,0:0|1:2,0:0:0:0:
143,144,115337,1,10,3:2:0:0:
177,116,115468,1,0,0:0:0:0:
220,124,115598,2,0,P|230:160|242:203,1,63.250001206398,0|8,3:2|0:0,0:0:0:0:
333,299,115859,6,0,P|388:279|383:216,1,126.500002412796,2|2,0:0|3:2,0:0:0:0:
342,118,116250,1,0,0:0:0:0:
342,118,116381,2,0,P|311:89|313:45,1,63.250001206398,10|2,0:0|0:0,0:0:0:0:
477,8,116642,2,0,P|489:30|489:62,2,42.166667470932
458,77,116903,6,0,B|396:68|390:115|333:118,1,126.500002412796,2|2,3:2|0:0,0:0:0:0:
181,107,117294,1,0,1:2:0:0:
181,107,117424,2,0,P|229:118|247:188,1,126.500002412796,10|0,3:2|3:2,0:0:0:0:
100,345,117946,5,2,0:0:0:0:
100,345,118077,2,0,P|67:336|31:329,2,63.250001206398,2|2|2,1:2|3:2|0:0,0:0:0:0:
190,298,118468,5,10,0:0:0:0:
190,298,118599,2,0,P|223:289|259:282,2,63.250001206398,2|2|2,0:0|1:2|0:0,0:0:0:0:
100,237,118990,6,0,P|77:214|82:169,1,63.250001206398,2|0,3:2|0:0,0:0:0:0:
0,116,119251,2,0,P|16:87|61:81,1,63.250001206398,2|0,0:0|1:2,0:0:0:0:
190,54,119511,2,0,P|177:116|166:183,1,126.500002412796,10|0,3:2|3:2,0:0:0:0:
252,281,119903,1,8,0:0:0:0:
252,281,120033,6,0,P|279:256|282:219,1,63.250001206398,2|0,0:0|1:2,0:0:0:0:
292,125,120294,1,2,3:2:0:0:
271,85,120424,1,0,0:0:0:0:
299,50,120555,2,0,P|337:60|374:69,1,63.250001206398,10|2,0:0|0:0,0:0:0:0:
471,151,120816,2,0,P|489:142|505:122,2,42.166667470932
446,190,121077,6,0,B|381:176|382:222|321:229,1,126.500002412796,2|2,3:2|0:0,0:0:0:0:
255,285,121468,1,0,1:2:0:0:
255,285,121599,2,0,B|190:271|191:317|130:324,1,126.500002412796,10|0,3:2|3:2,0:0:0:0:
0,159,122120,5,2,3:2:0:0:
23,165,122251,1,2,1:2:0:0:
46,170,122381,2,0,L|22:91,1,63.250001206398,2|2,0:0|0:0,0:0:0:0:
107,33,122642,2,0,P|121:80|137:134,1,98.9999969787599,10|2,0:0|0:0,0:0:0:0:
274,324,123164,6,0,P|306:303|308:261,1,65.9999979858399,6|0,3:2|0:0,0:0:0:0:
394,222,123425,2,0,P|381:185|341:172,1,65.9999979858399,2|0,3:2|0:0,0:0:0:0:
215,232,123686,2,0,B|149:217|151:271|76:281,1,131.99999597168,10|0,3:2|3:2,0:0:0:0:
12,173,124077,1,0,1:2:0:0:
12,173,124207,6,0,L|92:192,1,65.9999979858399,2|0,3:2|0:0,0:0:0:0:
109,94,124468,2,0,L|44:78,1,65.9999979858399,2|0,3:2|0:0,0:0:0:0:
191,128,124729,1,10,3:2:0:0:
227,94,124859,1,2,0:0:0:0:
276,104,124990,2,0,P|266:142|257:188,1,65.9999979858399,0|0,3:2|0:0,0:0:0:0:
351,309,125251,6,0,P|393:303|384:221,1,131.99999597168,2|2,3:2|3:2,0:0:0:0:
259,264,125642,1,0,1:2:0:0:
259,264,125773,2,0,B|184:263|202:318|128:321,1,131.99999597168,10|0,3:2|3:2,0:0:0:0:
9,79,126294,5,2,3:2:0:0:
9,79,126425,2,0,P|75:80|76:147,1,131.99999597168,2|0,0:0|0:0,0:0:0:0:
60,227,126816,5,10,3:2:0:0:
60,227,126947,2,0,P|2:233|15:164,1,131.99999597168,2|0,0:0|0:0,0:0:0:0:
172,199,127338,6,0,P|210:207|252:216,1,65.9999979858399,2|0,3:2|0:0,0:0:0:0:
271,112,127599,2,0,P|238:105|206:98,1,65.9999979858399,2|0,3:2|0:0,0:0:0:0:
140,214,127859,2,0,P|213:229|289:245,1,131.99999597168,10|0,3:2|3:2,0:0:0:0:
377,300,128251,1,0,1:2:0:0:
377,300,128381,6,0,P|401:276|400:232,1,65.9999979858399,2|0,3:2|0:0,0:0:0:0:
484,194,128642,2,0,P|472:160|431:143,1,65.9999979858399,2|0,3:2|0:0,0:0:0:0:
258,75,128903,1,10,3:2:0:0:
271,112,129033,1,2,0:0:0:0:
286,148,129164,2,0,P|315:138|348:127,1,65.9999979858399,0|0,3:2|0:0,0:0:0:0:
265,241,129425,6,0,B|203:229|220:186|139:183,1,131.99999597168,2|2,3:2|3:2,0:0:0:0:
75,295,129816,1,0,1:2:0:0:
75,295,129946,2,0,L|156:270,1,65.9999979858399,10|0,3:2|0:0,0:0:0:0:
73,126,130207,2,0,L|9:145,1,65.9999979858399,0|0,3:2|1:2,0:0:0:0:
154,188,130468,5,2,3:2:0:0:
154,188,130599,2,0,P|165:137|176:86,1,98.9999969787599,2|0,0:0|1:2,0:0:0:0:
282,86,130990,2,0,L|272:130,3,32.99999899292,2|0|0|0,0:0|0:0|0:0|0:0,0:0:0:0:
