osu file format v14

[General]
AudioFilename: audio.mp3
AudioLeadIn: 0
PreviewTime: 97599
Countdown: 0
SampleSet: Soft
StackLeniency: 0.4
Mode: 0
LetterboxInBreaks: 0
WidescreenStoryboard: 0

[Editor]
Bookmarks: 27164,43860,68903,77251,98120,114816
DistanceSpacing: 0.6
BeatDivisor: 12
GridSize: 8
TimelineZoom: 2.3

[Metadata]
Title:CH4NGE feat. KAFU
TitleUnicode:CH4NGE feat. 可不
Artist:Giga
ArtistUnicode:Giga
Creator:muya-
Version:G4MBLE
Source:
Tags:kaf 花譜 kafu change electronic japanese vocaloid 神椿スタジオ kamitsubaki studios q*Left qleft q left ギガ ギガp gigap giga-p giga p female vocals CeVIO Ai seolv [_L_u_k_a_s_] fanboyyou
BeatmapID:3748437
BeatmapSetID:1826534

[Difficulty]
HPDrainRate:6
CircleSize:4.6
OverallDifficulty:8.8
ApproachRate:9.1
SliderMultiplier:2.4
SliderTickRate:1

[Events]
//Background and Video events
0,0,"kafu.jpg",0,0
//Break Periods
//Storyboard Layer 0 (Background)
//Storyboard Layer 1 (Fail)
//Storyboard Layer 2 (Pass)
//Storyboard Layer 3 (Foreground)
//Storyboard Layer 4 (Overlay)
//Storyboard Sound Samples

[TimingPoints]
1600,521.739130434783,4,2,1,60,1,8
1600,-250,4,2,1,60,0,0
2121,521.739130434783,4,2,1,60,1,0
2121,-90.9090909090909,4,2,1,60,0,0
18294,-62.5,4,2,2,60,0,0
18816,-71.4285714285714,4,2,3,75,0,0
22990,-66.6666666666667,4,2,3,75,0,0
25077,-66.6666666666667,4,2,3,70,0,0
26121,-47.6190476190476,4,2,3,70,0,0
26186,-47.6190476190476,4,2,3,5,0,0
26251,-47.6190476190476,4,2,3,70,0,0
26642,-125,4,2,3,60,0,0
26773,-125,4,2,3,5,0,0
26903,-125,4,2,3,60,0,0
27034,-125,4,2,3,5,0,0
27164,-55.5555555555556,4,2,18,90,0,1
27425,-55.5555555555556,4,2,8,90,0,1
27490,-55.5555555555556,4,2,4,90,0,1
27947,-55.5555555555556,4,2,8,90,0,1
28012,-55.5555555555556,4,2,4,90,0,1
28468,-55.5555555555556,4,2,8,90,0,1
28533,-55.5555555555556,4,2,4,90,0,1
28990,-55.5555555555556,4,2,8,90,0,1
29055,-55.5555555555556,4,2,4,90,0,1
29251,-83.3333333333333,4,2,4,90,0,1
29512,-45.4545454545455,4,2,8,90,0,1
29577,-45.4545454545455,4,2,4,90,0,1
30034,-45.4545454545455,4,2,8,90,0,1
30099,-45.4545454545455,4,2,4,90,0,1
30294,-62.5,4,2,4,90,0,1
30555,-62.5,4,2,8,90,0,1
30620,-62.5,4,2,4,90,0,1
31077,-83.3333333333333,4,2,8,90,0,1
31142,-83.3333333333333,4,2,4,90,0,1
31338,-55.5555555555556,4,2,4,90,0,1
31599,-55.5555555555556,4,2,8,90,0,1
31664,-55.5555555555556,4,2,4,90,0,1
32121,-55.5555555555556,4,2,8,90,0,1
32186,-55.5555555555556,4,2,4,90,0,1
32642,-55.5555555555556,4,2,8,90,0,1
32707,-55.5555555555556,4,2,4,90,0,1
33164,-55.5555555555556,4,2,8,90,0,1
33229,-55.5555555555556,4,2,4,90,0,1
33425,-83.3333333333333,4,2,4,90,0,1
33686,-83.3333333333333,4,2,8,90,0,1
33751,-83.3333333333333,4,2,4,90,0,1
33947,-62.5,4,2,4,90,0,1
34207,-62.5,4,2,8,90,0,1
34272,-62.5,4,2,4,90,0,1
34729,-62.5,4,2,8,90,0,1
34794,-62.5,4,2,4,90,0,1
35251,-62.5,4,2,4,90,0,0
35512,-55.5555555555556,4,2,4,90,0,1
35773,-55.5555555555556,4,2,8,90,0,1
35838,-55.5555555555556,4,2,4,90,0,1
36294,-55.5555555555556,4,2,8,90,0,1
36359,-55.5555555555556,4,2,4,90,0,1
36816,-55.5555555555556,4,2,8,90,0,1
36881,-55.5555555555556,4,2,4,90,0,1
37338,-55.5555555555556,4,2,8,90,0,1
37403,-55.5555555555556,4,2,4,90,0,1
37860,-55.5555555555556,4,2,8,90,0,1
37925,-55.5555555555556,4,2,4,90,0,1
38381,-55.5555555555556,4,2,8,90,0,1
38446,-55.5555555555556,4,2,4,90,0,1
38642,-62.5,4,2,4,90,0,1
38903,-62.5,4,2,8,90,0,1
38968,-62.5,4,2,4,90,0,1
39425,-71.4285714285714,4,2,8,90,0,1
39490,-71.4285714285714,4,2,4,90,0,1
39686,-55.5555555555556,4,2,4,90,0,1
39947,-55.5555555555556,4,2,8,90,0,1
40012,-55.5555555555556,4,2,4,90,0,1
40468,-55.5555555555556,4,2,8,90,0,1
40533,-55.5555555555556,4,2,4,90,0,1
40729,-55.5555555555556,4,2,4,90,0,1
40990,-55.5555555555556,4,2,8,90,0,1
41055,-55.5555555555556,4,2,4,90,0,1
41512,-55.5555555555556,4,2,8,90,0,1
41577,-55.5555555555556,4,2,4,90,0,1
42034,-55.5555555555556,4,2,8,90,0,1
42099,-55.5555555555556,4,2,4,90,0,1
42555,-55.5555555555556,4,2,8,90,0,1
42620,-55.5555555555556,4,2,4,90,0,1
42816,-71.4285714285714,4,2,4,90,0,0
43077,-71.4285714285714,4,2,8,90,0,0
43142,-71.4285714285714,4,2,4,90,0,0
43338,-50,4,2,14,90,0,1
43860,-76.9230769230769,4,2,3,75,0,0
52207,-83.3333333333333,4,2,1,65,0,0
57425,-76.9230769230769,4,2,1,65,0,0
58468,-66.6666666666667,4,2,1,80,0,1
60294,-66.6666666666667,4,2,1,80,0,0
60555,-71.4285714285714,4,2,3,75,0,1
60816,-71.4285714285714,4,2,3,75,0,0
64729,-71.4285714285714,4,2,3,75,0,1
64990,-71.4285714285714,4,2,3,75,0,0
68903,-71.4285714285714,4,2,6,55,0,1
69164,-71.4285714285714,4,2,6,55,0,0
77251,-166.666666666667,4,2,7,65,0,0
80381,-250,4,2,7,65,0,0
80642,-166.666666666667,4,2,7,65,0,0
81425,-125,4,2,7,65,0,0
83512,-76.9230769230769,4,2,7,65,0,0
85599,-200,4,2,9,40,0,0
85729,-200,4,2,9,5,0,0
86121,-166.666666666667,4,2,9,50,0,0
86251,-166.666666666667,4,2,9,5,0,0
86642,-142.857142857143,4,2,9,60,0,0
86773,-142.857142857143,4,2,9,5,0,0
87164,-125,4,2,9,70,0,0
87294,-125,4,2,9,5,0,0
87425,-125,4,2,9,70,0,0
87686,-71.4285714285714,4,2,9,90,0,0
87947,-71.4285714285714,4,2,9,5,0,0
88207,-71.4285714285714,4,2,9,90,0,0
88468,-71.4285714285714,4,2,9,5,0,0
88729,-47.6190476190476,4,2,9,90,0,1
89773,-71.4285714285714,4,2,3,80,0,8
93946,-66.6666666666667,4,2,3,80,0,0
96033,-66.6666666666667,4,2,3,70,0,0
97599,-125,4,2,3,60,0,0
97729,-125,4,2,3,5,0,0
97859,-125,4,2,3,60,0,0
97990,-125,4,2,3,5,0,0
98121,-55.5555555555556,4,2,18,90,0,1
98381,-55.5555555555556,4,2,8,90,0,1
98446,-55.5555555555556,4,2,4,90,0,1
98903,-55.5555555555556,4,2,8,90,0,1
98968,-55.5555555555556,4,2,4,90,0,1
99424,-55.5555555555556,4,2,8,90,0,1
99489,-55.5555555555556,4,2,4,90,0,1
99946,-55.5555555555556,4,2,8,90,0,1
100011,-55.5555555555556,4,2,4,90,0,1
100207,-83.3333333333333,4,2,4,90,0,1
100468,-45.4545454545455,4,2,8,90,0,1
100533,-45.4545454545455,4,2,4,90,0,1
100990,-45.4545454545455,4,2,8,90,0,1
101055,-45.4545454545455,4,2,4,90,0,1
101250,-62.5,4,2,4,90,0,1
101511,-62.5,4,2,8,90,0,1
101576,-62.5,4,2,4,90,0,1
102033,-83.3333333333333,4,2,8,90,0,1
102098,-83.3333333333333,4,2,4,90,0,1
102294,-55.5555555555556,4,2,4,90,0,1
102555,-55.5555555555556,4,2,8,90,0,1
102620,-55.5555555555556,4,2,4,90,0,1
103077,-55.5555555555556,4,2,8,90,0,1
103142,-55.5555555555556,4,2,4,90,0,1
103598,-55.5555555555556,4,2,8,90,0,1
103663,-55.5555555555556,4,2,4,90,0,1
104120,-55.5555555555556,4,2,8,90,0,1
104185,-55.5555555555556,4,2,4,90,0,1
104381,-83.3333333333333,4,2,4,90,0,1
104642,-83.3333333333333,4,2,8,90,0,1
104707,-83.3333333333333,4,2,4,90,0,1
104903,-62.5,4,2,4,90,0,1
105163,-62.5,4,2,8,90,0,1
105228,-62.5,4,2,4,90,0,1
105685,-62.5,4,2,8,90,0,1
105750,-62.5,4,2,4,90,0,1
106207,-62.5,4,2,4,90,0,0
106468,-55.5555555555556,4,2,4,90,0,1
106729,-55.5555555555556,4,2,8,90,0,1
106794,-55.5555555555556,4,2,4,90,0,1
107250,-55.5555555555556,4,2,8,90,0,1
107315,-55.5555555555556,4,2,4,90,0,1
107772,-55.5555555555556,4,2,8,90,0,1
107837,-55.5555555555556,4,2,4,90,0,1
108294,-55.5555555555556,4,2,8,90,0,1
108359,-55.5555555555556,4,2,4,90,0,1
108816,-55.5555555555556,4,2,8,90,0,1
108881,-55.5555555555556,4,2,4,90,0,1
109337,-55.5555555555556,4,2,8,90,0,1
109402,-55.5555555555556,4,2,4,90,0,1
109598,-62.5,4,2,4,90,0,1
109859,-62.5,4,2,8,90,0,1
109924,-62.5,4,2,4,90,0,1
110381,-71.4285714285714,4,2,8,90,0,1
110446,-71.4285714285714,4,2,4,90,0,1
110642,-55.5555555555556,4,2,4,90,0,1
110903,-55.5555555555556,4,2,8,90,0,1
110968,-55.5555555555556,4,2,4,90,0,1
111424,-55.5555555555556,4,2,8,90,0,1
111489,-55.5555555555556,4,2,4,90,0,1
111685,-62.5,4,2,4,90,0,1
111946,-62.5,4,2,8,90,0,1
112011,-62.5,4,2,4,90,0,1
112207,-55.5555555555556,4,2,4,90,0,1
112468,-55.5555555555556,4,2,8,90,0,1
112533,-55.5555555555556,4,2,4,90,0,1
112990,-55.5555555555556,4,2,8,90,0,1
113055,-55.5555555555556,4,2,4,90,0,1
113511,-55.5555555555556,4,2,8,90,0,1
113576,-55.5555555555556,4,2,4,90,0,1
113773,-83.3333333333333,4,2,4,90,0,0
114034,-62.5,4,2,8,90,0,1
114098,-62.5,4,2,4,90,0,1
114294,-62.5,4,2,14,90,0,1
114816,-76.9230769230769,4,2,3,75,0,0
123164,-66.6666666666667,4,2,4,80,0,1
123425,-66.6666666666667,4,2,8,80,0,0
123490,-66.6666666666667,4,2,4,80,0,0
123946,-66.6666666666667,4,2,8,80,0,0
124011,-66.6666666666667,4,2,4,80,0,0
124468,-66.6666666666667,4,2,8,80,0,0
124533,-66.6666666666667,4,2,4,80,0,0
124990,-66.6666666666667,4,2,8,80,0,0
125055,-66.6666666666667,4,2,4,80,0,0
125512,-66.6666666666667,4,2,8,80,0,0
125577,-66.6666666666667,4,2,4,80,0,0
126033,-66.6666666666667,4,2,8,80,0,0
126098,-66.6666666666667,4,2,4,80,0,0
126555,-66.6666666666667,4,2,8,80,0,0
126620,-66.6666666666667,4,2,4,80,0,0
127077,-66.6666666666667,4,2,8,80,0,0
127142,-66.6666666666667,4,2,4,80,0,0
127338,-66.6666666666667,4,2,4,80,0,1
127599,-66.6666666666667,4,2,8,80,0,0
127664,-66.6666666666667,4,2,4,80,0,0
128120,-66.6666666666667,4,2,8,80,0,0
128185,-66.6666666666667,4,2,4,80,0,0
128642,-66.6666666666667,4,2,8,80,0,0
128707,-66.6666666666667,4,2,4,80,0,0
129164,-66.6666666666667,4,2,8,80,0,0
129229,-66.6666666666667,4,2,4,80,0,0
129686,-66.6666666666667,4,2,8,80,0,0
129751,-66.6666666666667,4,2,4,80,0,0
130207,-66.6666666666667,4,2,8,80,0,0
130272,-66.6666666666667,4,2,4,80,0,0
130468,-166.666666666667,4,2,4,60,0,0
130729,-166.666666666667,4,2,8,60,0,0
130794,-166.666666666667,4,2,4,60,0,0

[Colours]
Combo1 : 228,63,113
Combo2 : 142,234,214
Combo3 : 225,132,169
Combo4 : 221,225,225

[HitObjects]
27,136,1600,6,0,P|22:121|16:102,2,32,2|2|2,0:0|0:0|0:0,0:0:0:0:
27,136,2121,5,2,0:0:0:0:
177,109,2381,2,0,P|154:89|110:90,1,66.0000020141602,0|0,1:2|0:0,0:0:0:0:
75,242,2642,1,10,0:0:0:0:
75,242,2773,2,0,P|112:204|196:208,1,132.00000402832,0|0,1:2|0:0,0:0:0:0:
306,320,3164,6,0,P|368:335|399:278,2,132.00000402832,2|2|8,1:2|0:0|0:0,0:0:0:0:
300,304,3773,5,0,0:0:0:0:
302,289,3860,5,0,0:0:0:0:
311,277,3947,6,0,P|334:251|336:207,1,66.0000020141602,2|0,1:2|0:0,0:0:0:0:
210,73,4207,6,0,P|222:107|232:141,1,66.0000020141602,2|0,0:0|0:0,0:0:0:0:
338,220,4468,2,0,B|404:210|378:151|472:150,1,132.00000402832,2|10,1:2|0:0,0:0:0:0:
497,273,4860,1,0,1:2:0:0:
497,273,4990,2,0,P|467:257|460:210,1,66.0000020141602,2|0,0:2|0:0,0:0:0:0:
477,23,5251,6,0,P|462:78|444:159,1,132.00000402832,2|0,1:2|0:0,0:0:0:0:
445,151,5642,1,0,0:0:0:0:
352,64,5773,5,10,0:0:0:0:
335,42,5860,5,0,0:0:0:0:
341,18,5947,5,0,0:0:0:0:
357,12,6034,6,0,P|336:95|325:148,1,132.00000402832,0|2,0:0|0:0,0:0:0:0:
133,350,6555,6,0,P|105:333|101:294,1,66.0000020141602,2|0,1:2|0:0,0:0:0:0:
25,191,6816,1,10,0:0:0:0:
25,191,6947,2,0,P|91:210|164:231,1,132.00000402832,0|0,1:2|0:0,0:0:0:0:
321,145,7338,6,0,P|314:83|255:90,2,132.00000402832,2|2|8,1:2|0:0|0:0,0:0:0:0:
311,159,7947,5,0,0:0:0:0:
297,166,8034,5,0,0:0:0:0:
286,176,8121,6,0,P|268:213|282:248,1,66.0000020141602,2|0,1:2|0:0,0:0:0:0:
378,359,8381,6,0,P|386:327|400:280,1,66.0000020141602,2|0,0:0|0:0,0:0:0:0:
218,319,8642,2,0,P|226:350|235:382,1,66.0000020141602,2|0,1:2|0:0,0:0:0:0:
395,285,8903,1,10,0:0:0:0:
395,285,9034,2,0,P|414:218|435:154,1,132.00000402832,0|0,1:2|0:0,0:0:0:0:
270,25,9425,5,2,1:2:0:0:
249,106,9555,2,0,P|280:94|335:81,1,66.0000020141602,2|0,0:0|0:0,0:0:0:0:
227,218,9816,1,2,0:0:0:0:
170,162,9947,1,10,0:0:0:0:
91,155,10077,1,2,0:0:0:0:
21,192,10207,2,0,P|37:229|51:262,1,66.0000020141602,2|0,1:2|0:0,0:0:0:0:
192,0,10468,5,2,0:0:0:0:
192,0,10729,6,0,P|223:-1|248:38,1,66.0000020141602,2|0,1:2|0:0,0:0:0:0:
228,208,10990,2,0,P|205:184|219:140,1,66.0000020141602,10|0,0:0|1:2,0:0:0:0:
321,83,11251,2,0,P|357:93|409:106,1,66.0000020141602,2|0,0:0|0:0,0:0:0:0:
357,318,11512,2,0,P|338:257|314:184,2,132.00000402832,2|2|10,1:2|0:0|0:0,0:0:0:0:
363,337,12121,5,0,0:0:0:0:
382,347,12207,5,0,0:0:0:0:
404,349,12294,6,0,P|422:327|416:285,1,66.0000020141602,0|0,1:2|0:0,0:0:0:0:
222,145,12555,5,2,0:0:0:0:
222,145,12816,6,0,P|189:154|149:164,1,66.0000020141602,2|0,1:2|0:0,0:0:0:0:
19,80,13077,2,0,P|52:89|92:99,1,66.0000020141602,10|0,0:0|1:2,0:0:0:0:
111,232,13338,2,0,P|85:219|79:176,1,66.0000020141602,2|0,0:0|0:0,0:0:0:0:
279,90,13599,2,0,P|265:153|249:229,1,132.00000402832,2|2,1:2|0:0,0:0:0:0:
251,219,13990,1,0,0:0:0:0:
318,312,14121,2,0,P|343:297|351:254,1,66.0000020141602,10|0,0:0|0:0,0:0:0:0:
136,301,14381,5,0,1:2:0:0:
120,309,14468,5,0,0:0:0:0:
111,324,14555,5,0,0:0:0:0:
109,342,14642,6,0,B|182:326|166:381|257:386,1,132.00000402832,2|0,0:0|1:2,0:0:0:0:
343,278,15034,2,0,P|310:287|296:316,1,66.0000020141602,2|10,0:0|0:0,0:0:0:0:
416,367,15294,1,2,1:2:0:0:
416,367,15425,2,0,P|424:335|433:304,1,66.0000020141602,2|0,0:0|0:0,0:0:0:0:
505,129,15686,6,0,P|471:186|386:152,2,132.00000402832,0|0|8,1:2|0:0|0:0,0:0:0:0:
509,111,16294,5,0,0:0:0:0:
506,94,16381,5,0,0:0:0:0:
498,81,16468,6,0,P|463:91|423:101,1,66.0000020141602,2|0,1:2|0:0,0:0:0:0:
252,27,16729,6,0,P|318:45|300:127,1,132.00000402832,2|0,0:0|1:2,0:0:0:0:
162,274,17251,2,0,P|169:242|180:197,1,66.0000020141602,10|0,0:0|1:2,0:0:0:0:
268,217,17512,2,0,P|260:249|252:281,1,66.0000020141602,2|0,0:0|0:0,0:0:0:0:
136,360,17773,2,0,P|115:284|87:190,1,132.00000402832,2|0,1:2|0:0,0:0:0:0:
69,97,18294,6,0,P|63:79|51:49,1,32
77,101,18381,6,0,P|71:83|59:53,1,32
85,105,18468,6,0,P|79:87|67:57,1,32
93,109,18555,5,0,0:0:0:0:
163,106,18816,6,0,P|149:64|127:20,1,83.9999974365235,6|0,3:2|0:0,0:0:0:0:
344,71,19077,2,0,P|325:108|312:148,1,83.9999974365235,2|0,0:0|0:0,0:0:0:0:
189,251,19338,1,10,1:2:0:0:
297,283,19468,1,2,0:0:0:0:
180,243,19599,2,0,P|198:280|211:320,1,83.9999974365235,2|2,0:0|0:0,0:0:0:0:
416,380,19860,6,0,P|440:279|473:202,2,167.999994873047,2|2|10,3:2|0:0|1:2,0:0:0:0:
416,380,20512,1,2,0:0:0:0:
313,313,20642,5,0,0:0:0:0:
297,283,20729,5,0,0:0:0:0:
308,249,20816,5,0,0:0:0:0:
334,235,20903,6,0,P|365:211|365:148,1,83.9999974365235,2|0,3:2|0:0,0:0:0:0:
251,23,21164,2,0,P|264:70|276:111,1,83.9999974365235,2|2,0:0|1:2,0:0:0:0:
148,225,21425,1,10,1:2:0:0:
202,147,21555,1,2,0:0:0:0:
135,229,21686,2,0,P|105:210|102:152,1,83.9999974365235,2|0,0:0|1:2,0:0:0:0:
412,146,21947,5,2,3:2:0:0:
354,199,22077,2,0,B|377:241|419:246|462:229|462:229|425:233|399:202,1,167.999994873047,2|0,0:0|0:0,0:0:0:0:
162,264,22468,5,10,1:2:0:0:
221,315,22598,2,0,B|198:357|156:362|113:345|113:345|150:349|176:318,1,167.999994873047,2|0,0:0|0:0,0:0:0:0:
14,190,22990,6,0,P|56:207|99:221,1,90.0000034332277,2|0,3:2|0:0,0:0:0:0:
254,186,23251,1,2,0:0:0:0:
217,124,23381,1,2,0:0:0:0:
250,60,23512,1,10,1:2:0:0:
203,5,23642,1,2,0:0:0:0:
203,5,23773,2,0,P|158:18|115:31,1,90.0000034332277,0|2,0:0|1:2,0:0:0:0:
315,130,24034,6,0,P|344:110|346:58,1,90.0000034332277,2|0,3:2|0:0,0:0:0:0:
125,110,24294,2,0,P|144:159|159:200,1,90.0000034332277,2|0,0:0|0:0,0:0:0:0:
263,384,24555,1,10,1:2:0:0:
333,294,24686,1,2,0:0:0:0:
253,212,24816,5,0,0:0:0:0:
244,225,24903,5,0,0:0:0:0:
242,239,24990,5,0,0:0:0:0:
244,253,25077,5,2,3:2:0:0:
438,97,25468,1,8,0:0:0:0:
403,192,25599,5,2,3:2:0:0:
136,41,25990,1,0,1:2:0:0:
165,117,26121,6,0,B|160:132|161:148|161:148|151:130|137:120,1,62.9999980773926,2|0,1:1|0:0,0:0:0:0:
398,17,26642,6,0,P|390:41|382:72,1,48,10|0,0:0|0:0,0:0:0:0:
311,51,26903,6,0,P|317:27|324:4,1,48,2|0,0:0|0:0,0:0:0:0:
485,266,27164,6,0,B|388:242|388:242|382:244|382:244|258:212,1,215.999993408203,6|2,3:2|3:2,0:0:0:0:
276,217,27555,1,2,0:0:0:0:
191,329,27686,2,0,B|209:361|238:355|238:355|212:352|192:328,1,107.999996704102,10|0,0:0|0:0,0:0:0:0:
76,245,27947,2,0,B|39:244|29:272|29:272|45:251|76:246,1,107.999996704102,2|2,3:2|1:2,0:0:0:0:
189,192,28207,6,0,B|222:120|155:81|134:106|94:87|61:31|99:21,1,215.999993408203,2|2,3:2|3:2,0:0:0:0:
85,31,28599,1,0,0:0:0:0:
231,24,28729,2,0,P|238:78|196:92,1,107.999996704102,10|0,0:0|0:0,0:0:0:0:
0,253,28990,5,2,3:2:0:0:
24,207,29077,5,0,0:0:0:0:
74,194,29164,5,0,0:0:0:0:
122,211,29251,6,0,P|111:251|103:289,1,71.9999978027344,2|0,3:2|0:0,0:0:0:0:
333,186,29512,6,0,B|368:141|339:94|339:94|354:142|323:179,1,176.000005371094,2|0,3:1|1:2,0:0:0:0:
231,228,29773,6,0,B|196:273|225:320|225:320|210:272|241:235,1,176.000005371094,10|0,2:1|0:0,0:0:0:0:
340,186,30034,6,0,B|375:141|346:94|346:94|361:142|330:179,1,176.000005371094,2|0,3:1|1:2,0:0:0:0:
325,290,30295,6,0,B|427:251|415:347|514:345,1,192,2|0,3:1|3:2,0:0:0:0:
497,344,30686,1,0,0:0:0:0:
512,186,30816,5,10,0:0:0:0:
499,169,30903,5,0,0:0:0:0:
477,163,30990,5,0,0:0:0:0:
460,168,31077,6,0,P|471:201|482:239,1,71.9999978027344,2|0,3:2|0:0,0:0:0:0:
297,382,31338,6,0,P|266:268|209:113,1,215.999993408203,2|0,3:2|3:2,0:0:0:0:
234,175,31729,1,0,0:0:0:0:
303,48,31860,2,0,B|323:72|350:82|350:82|317:75|290:91,1,107.999996704102,10|0,0:0|0:0,0:0:0:0:
130,58,32121,2,0,B|140:28|135:0|135:0|146:32|173:47,1,107.999996704102,2|0,3:2|0:0,0:0:0:0:
234,175,32381,6,0,P|268:277|297:382,1,215.999993408203,2|2,3:2|3:2,0:0:0:0:
297,382,32773,1,0,0:0:0:0:
179,315,32903,2,0,P|145:301|150:220,1,107.999996704102,10|0,0:0|0:0,0:0:0:0:
297,149,33164,5,2,3:2:0:0:
274,158,33251,5,0,0:0:0:0:
253,167,33338,5,0,0:0:0:0:
234,175,33425,6,0,P|244:139|256:97,1,71.9999978027344,2|0,3:2|0:0,0:0:0:0:
164,51,33686,2,0,P|154:85|144:120,1,71.9999978027344,2|0,3:2|1:2,0:0:0:0:
337,211,33947,2,0,P|349:166|363:118,1,96,8|0,0:0|0:0,0:0:0:0:
123,232,34207,1,2,3:2:0:0:
234,175,34338,1,2,1:2:0:0:
110,227,34468,6,0,P|82:253|132:315,1,96,2|0,3:2|0:0,0:0:0:0:
253,382,34729,2,0,P|242:337|225:273,1,96,2|0,3:2|1:2,0:0:0:0:
372,40,34990,6,0,B|396:-1|446:14|446:14|408:39|383:5,1,128,10|0,0:0|1:2,0:0:0:0:
279,103,35251,6,0,B|230:103|219:52|219:52|260:71|242:110,1,128,2|0,1:2|0:0,0:0:0:0:
384,150,35512,6,0,B|403:166|416:234|358:278|326:224|285:305|328:372|345:327,1,215.999993408203,6|0,3:2|3:2,0:0:0:0:
326,334,35903,1,2,0:0:0:0:
451,384,36034,2,0,P|468:345|407:325,1,107.999996704102,8|0,0:0|0:0,0:0:0:0:
190,183,36294,2,0,P|207:240|221:287,1,107.999996704102,2|0,3:2|1:2,0:0:0:0:
259,382,36555,5,0,3:2:0:0:
259,382,36686,1,0,0:0:0:0:
152,335,36816,2,0,P|166:290|237:304,1,107.999996704102,2|0,3:2|0:0,0:0:0:0:
384,224,37077,1,10,0:0:0:0:
257,167,37207,1,2,0:0:0:0:
399,220,37338,5,2,3:2:0:0:
434,205,37425,5,0,0:0:0:0:
445,174,37512,5,0,0:0:0:0:
432,140,37599,6,0,P|332:117|195:69,1,215.999993408203,2|0,3:2|3:2,0:0:0:0:
224,81,37990,1,2,0:0:0:0:
330,9,38121,2,0,B|362:-4|384:27|384:27|359:8|333:10,1,107.999996704102,8|0,0:0|0:0,0:0:0:0:
117,134,38381,2,0,B|89:112|105:78|105:78|101:109|116:130,1,107.999996704102,2|0,3:2|1:2,0:0:0:0:
279,221,38642,6,0,B|234:198|201:220|185:263|188:269|177:318|91:306,1,192,0|2,3:2|3:2,0:0:0:0:
127,306,39034,1,0,0:0:0:0:
0,214,39164,5,10,0:0:0:0:
23,220,39251,5,0,0:0:0:0:
50,225,39338,5,0,0:0:0:0:
77,230,39425,6,0,P|65:192|49:143,1,83.9999974365235,2|0,3:2|0:0,0:0:0:0:
284,362,39686,6,0,P|309:253|347:103,1,215.999993408203,2|0,3:2|3:2,0:0:0:0:
334,152,40077,1,0,0:0:0:0:
437,53,40207,2,0,P|476:74|463:142,1,107.999996704102,10|0,0:0|0:0,0:0:0:0:
313,260,40468,2,0,P|326:206|341:144,1,107.999996704102,2|0,3:2|1:2,0:0:0:0:
150,62,40729,6,0,B|129:68|97:60|97:60|123:79|129:104,1,107.999996704102,2|0,3:2|0:0,0:0:0:0:
281,80,40990,2,0,B|261:70|244:42|244:42|249:74|236:96,1,107.999996704102,2|0,3:2|0:0,0:0:0:0:
101,258,41251,6,0,B|177:229|175:280|242:282,1,143.999995605469,10|0,0:0|1:2,0:0:0:0:
280,278,41512,5,2,3:2:0:0:
311,247,41599,5,0,0:0:0:0:
306,203,41686,5,0,0:0:0:0:
274,173,41773,6,0,P|319:331|334:402,1,215.999993408203,2|0,3:2|3:2,0:0:0:0:
329,381,42164,1,2,0:0:0:0:
422,296,42294,2,0,B|456:281|455:232|455:232|448:259|427:271,1,107.999996704102,8|0,0:0|0:0,0:0:0:0:
207,235,42555,2,0,B|173:220|174:171|174:171|181:198|202:210,1,107.999996704102,2|0,3:2|0:0,0:0:0:0:
439,61,42816,5,2,3:2:0:0:
435,77,42947,1,2,0:0:0:0:
294,123,43077,5,2,3:2:0:0:
299,108,43207,1,2,0:0:0:0:
417,179,43338,6,2,B|462:194|511:174|514:72|443:35|375:74|321:148|358:160|368:184|301:216|209:223|166:116|268:53|305:116,1,480,10|6,0:0|3:2,0:1:0:0:
368,246,44121,2,0,P|351:290|340:339,1,77.9999964294435,2|0,0:0|0:0,0:0:0:0:
174,316,44381,1,10,3:2:0:0:
256,352,44512,1,2,0:0:0:0:
163,323,44642,2,0,P|152:284|136:242,1,77.9999964294435,0|0,0:0|1:2,0:0:0:0:
271,88,44903,6,0,B|298:84|316:115|316:115|295:101|276:113,1,77.9999964294435,2|0,3:2|0:0,0:0:0:0:
158,72,45164,2,0,B|154:45|185:27|185:27|171:47|183:66,1,77.9999964294435,2|8,0:0|0:2,0:0:0:0:
210,156,45425,1,2,3:2:0:0:
210,156,45555,1,2,0:0:0:0:
51,212,45686,5,0,0:0:0:0:
38,193,45773,5,0,0:0:0:0:
39,169,45860,5,0,0:0:0:0:
50,154,45947,6,0,P|91:162|126:170,1,77.9999964294435,2|0,3:2|0:0,0:0:0:0:
236,271,46207,2,0,P|274:278|312:287,1,77.9999964294435,2|0,0:0|1:2,0:0:0:0:
408,375,46468,1,10,3:2:0:0:
471,285,46599,1,2,0:0:0:0:
418,368,46729,2,0,P|456:375|494:384,1,77.9999964294435,0|0,0:0|1:2,0:0:0:0:
169,346,46990,5,2,3:2:0:0:
237,359,47121,2,0,B|247:309|214:279|198:295|158:263|170:214,1,155.999992858887,2|0,0:0|0:0,0:0:0:0:
376,151,47512,5,10,3:2:0:0:
350,84,47643,2,0,B|301:100|292:143|314:149|306:200|257:214,1,155.999992858887,2|8,0:0|0:0,0:0:0:0:
57,109,48034,6,0,P|99:120|142:130,1,77.9999964294435,2|0,3:2|0:0,0:0:0:0:
59,274,48294,2,0,P|27:252|46:190,1,77.9999964294435,2|0,0:0|0:0,0:0:0:0:
206,142,48555,1,10,3:2:0:0:
128,201,48686,1,2,0:0:0:0:
217,140,48816,2,0,P|245:100|231:53,1,77.9999964294435,0|0,0:0|1:2,0:0:0:0:
121,211,49077,6,0,P|132:249|145:294,1,77.9999964294435,2|0,3:2|0:0,0:0:0:0:
252,384,49338,2,0,P|282:359|279:313,1,77.9999964294435,2|8,0:0|0:2,0:0:0:0:
228,241,49599,1,2,3:2:0:0:
228,241,49729,1,2,0:0:0:0:
324,147,49860,5,0,0:0:0:0:
366,129,49947,5,0,0:0:0:0:
406,140,50034,5,0,0:0:0:0:
432,172,50121,6,0,B|440:198|422:223|422:223|424:203|421:187,1,77.9999964294435,2|0,3:2|0:0,0:0:0:0:
361,315,50381,2,0,B|334:308|321:280|321:280|338:292|353:297,1,77.9999964294435,2|0,0:0|1:2,0:0:0:0:
234,119,50642,1,10,3:2:0:0:
324,147,50773,1,2,0:0:0:0:
224,113,50903,2,0,P|214:76|203:38,1,77.9999964294435,0|0,0:0|1:2,0:0:0:0:
4,208,51164,6,0,P|90:207|129:280,1,155.999992858887,0|2,3:2|0:0,0:0:0:0:
127,258,51555,1,8,0:0:0:0:
48,361,51686,5,0,3:2:0:0:
38,347,51773,5,0,0:0:0:0:
35,329,51860,5,0,0:0:0:0:
38,313,51947,5,0,1:2:0:0:
347,128,52207,6,0,P|331:205|314:303,2,143.999995605469,2|2|2,3:2|1:2|3:2,0:0:0:0:
347,128,52860,1,2,1:2:0:0:
423,65,52990,2,0,P|448:88|437:143,1,71.9999978027344,2|0,0:0|0:0,0:0:0:0:
293,198,53251,2,0,B|227:182|247:140|166:133,1,143.999995605469,2|2,3:2|0:0,0:0:0:0:
168,133,53642,1,2,0:0:0:0:
103,246,53773,2,0,P|136:233|170:222,1,71.9999978027344,0|2,3:2|0:0,0:0:0:0:
18,86,54034,5,2,1:2:0:0:
12,99,54121,5,0,0:0:0:0:
6,113,54207,5,0,0:0:0:0:
0,126,54294,6,0,P|32:136|76:150,1,71.9999978027344,2|0,3:2|0:0,0:0:0:0:
170,231,54555,2,0,P|135:242|102:255,1,71.9999978027344,2|0,1:2|1:2,0:0:0:0:
20,378,54816,1,2,3:2:0:0:
98,345,54947,1,2,1:2:0:0:
7,377,55077,2,0,P|-21:349|-9:302,1,71.9999978027344,2|2,0:0|1:2,0:0:0:0:
152,151,55338,6,0,B|221:165|221:165|224:168|224:168|320:186,1,143.999995605469,2|2,3:2|0:0,0:0:0:0:
292,180,55729,1,2,0:0:0:0:
434,126,55860,5,0,3:2:0:0:
454,82,55947,5,0,0:0:0:0:
429,38,56034,5,0,0:0:0:0:
386,29,56121,5,2,1:2:0:0:
357,49,56207,5,0,0:0:0:0:
350,67,56294,5,0,0:0:0:0:
352,83,56381,6,0,L|372:152,1,71.9999978027344,2|0,3:2|0:0,0:0:0:0:
462,253,56642,2,0,L|482:322,1,71.9999978027344,2|0,1:2|0:0,0:0:0:0:
323,384,56903,1,2,3:2:0:0:
396,338,57034,1,0,1:2:0:0:
313,377,57164,1,2,0:0:0:0:
405,345,57295,1,2,1:2:0:0:
270,265,57425,6,0,B|187:244|197:311|115:309,1,155.999992858887,2|2,3:2|0:0,0:0:0:0:
126,308,57816,1,2,0:0:0:0:
28,198,57947,2,0,P|69:207|112:216,1,77.9999964294435,0|0,3:2|0:0,0:0:0:0:
281,155,58207,5,2,1:2:0:0:
313,121,58294,5,0,0:0:0:0:
306,74,58381,5,0,0:0:0:0:
266,53,58468,6,0,P|179:76|62:106,1,180.000006866455,10|2,0:0|1:2,0:0:0:0:
15,116,58860,1,2,1:2:0:0:
180,264,58990,2,0,B|214:244|225:191|188:164|188:164|209:193|198:228,1,180.000006866455,10|2,0:0|0:0,0:0:0:0:
126,206,59381,1,0,1:2:0:0:
0,338,59512,5,10,0:0:0:0:
7,322,59599,5,2,0:0:0:0:
27,303,59686,5,2,0:0:0:0:
63,292,59773,5,2,1:2:0:0:
105,303,59860,5,2,0:0:0:0:
147,338,59947,5,2,0:0:0:0:
201,352,60034,5,10,0:0:0:0:
251,335,60121,5,2,0:0:0:0:
278,301,60208,5,2,0:0:0:0:
314,289,60295,5,2,1:2:0:0:
341,293,60382,5,0,0:0:0:0:
357,302,60469,5,0,0:0:0:0:
365,313,60555,6,2,P|238:275|176:258,1,167.999994873047,6|0,3:2|1:2,0:1:0:0:
124,245,60947,1,2,0:0:0:0:
353,203,61077,2,0,P|272:178|191:155,1,167.999994873047,10|0,0:0|0:0,0:0:0:0:
115,142,61468,1,2,1:2:0:0:
278,45,61599,6,0,P|358:49|307:104,1,167.999994873047,2|0,3:2|0:0,0:0:0:0:
332,102,61990,1,2,1:2:0:0:
194,158,62121,2,0,P|182:118|165:73,1,83.9999974365235,10|0,0:2|0:0,0:0:0:0:
43,196,62381,5,0,1:2:0:0:
19,219,62468,5,0,0:0:0:0:
15,253,62555,5,0,0:0:0:0:
28,282,62642,6,0,B|119:250|116:320|191:328,1,167.999994873047,2|0,3:2|1:2,0:0:0:0:
180,326,63034,1,2,1:2:0:0:
263,208,63164,2,0,P|207:172|238:253,1,167.999994873047,10|0,0:0|0:0,0:0:0:0:
191,246,63555,1,2,0:0:0:0:
316,370,63686,6,0,P|338:274|358:194,1,167.999994873047,2|0,3:2|0:0,0:0:0:0:
354,206,64077,1,0,1:2:0:0:
431,110,64207,5,10,0:2:0:0:
461,125,64294,5,0,0:0:0:0:
474,155,64381,5,0,0:0:0:0:
470,188,64468,5,0,1:2:0:0:
128,168,64729,6,2,B|85:156|72:114|89:82|89:82|86:120|112:139,1,167.999994873047,2|0,3:2|1:2,0:1:0:0:
161,88,65121,1,2,0:0:0:0:
282,37,65251,2,0,P|267:105|244:223,1,167.999994873047,10|0,0:0|0:0,0:0:0:0:
236,305,65643,1,2,1:2:0:0:
84,256,65773,6,0,B|176:231|164:304|246:306,1,167.999994873047,2|0,3:2|0:0,0:0:0:0:
236,305,66164,1,2,1:2:0:0:
329,180,66294,2,0,P|285:193|233:205,1,83.9999974365235,10|0,0:2|0:0,0:0:0:0:
419,360,66555,5,0,1:2:0:0:
442,328,66642,5,0,0:0:0:0:
433,289,66729,5,0,0:0:0:0:
402,264,66816,6,0,P|319:286|222:313,1,167.999994873047,2|0,3:2|1:2,0:0:0:0:
239,307,67207,1,2,1:2:0:0:
329,180,67338,2,0,P|246:202|149:229,1,167.999994873047,10|0,0:0|0:0,0:0:0:0:
166,223,67729,1,2,1:2:0:0:
17,191,67860,6,0,P|30:144|41:103,1,83.9999974365235
288,33,68121,2,0,P|274:79|264:121,1,83.9999974365235
39,110,68381,5,8,0:2:0:0:
32,92,68468,5,0,0:0:0:0:
25,75,68555,5,0,0:0:0:0:
18,55,68642,6,0,L|51:45,5,27.9999991455078,2|0|0|2|0|0,1:2|0:0|0:0|0:0|0:0|0:0,0:0:0:0:
121,7,68903,5,2,1:2:0:0:
202,4,69947,5,10,0:0:0:0:
254,63,70990,5,2,1:2:0:0:
277,139,71512,5,2,1:2:0:0:
324,203,71773,1,2,1:2:0:0:
401,181,72034,1,10,0:0:0:0:
410,102,72555,1,2,1:2:0:0:
333,80,73077,5,2,1:2:0:0:
277,139,74121,5,10,0:0:0:0:
195,117,75164,5,2,1:2:0:0:
254,63,75686,5,2,1:2:0:0:
333,80,75947,1,2,1:2:0:0:
356,160,76207,1,10,0:0:0:0:
298,221,76729,5,2,1:2:0:0:
216,202,76990,1,2,0:0:0:0:
195,117,77251,6,0,P|205:99|207:68,1,35.9999989013672,2|0,3:2|0:0,0:0:0:0:
142,15,77512,2,0,P|121:15|93:29,1,35.9999989013672
19,98,77773,2,0,P|31:136|43:178,1,71.9999978027344,2|2,0:0|0:0,0:0:0:0:
53,182,78099,1,0,0:0:0:0:
53,182,78164,2,0,L|64:214,1,17.9999994506836
125,92,78294,5,10,0:0:0:0:
261,204,78555,1,0,0:0:0:0:
261,204,78621,1,0,0:0:0:0:
261,204,78686,2,0,L|256:223,1,17.9999994506836
334,104,78816,5,6,0:0:0:0:
263,121,78947,1,4,0:0:0:0:
192,142,79077,1,4,0:0:0:0:
444,339,79338,6,0,P|448:322|454:301,1,35.9999989013672,2|0,1:2|0:0,0:0:0:0:
381,279,79599,2,0,P|376:296|371:313,1,35.9999989013672
258,384,79860,2,0,P|248:349|234:301,1,71.9999978027344,2|0,3:2|1:2,0:0:0:0:
207,217,80381,6,0,P|211:216|215:215,8,6,10|0|0|0|0|0|0|0|0,0:0|0:0|0:0|0:0|0:0|0:0|0:0|0:0|0:0,0:0:0:0:
28,110,80903,6,0,P|11:99|0:81,1,35.9999989013672,0|0,1:2|0:0,0:0:0:0:
75,37,81164,1,2,0:0:0:0:
75,37,81294,1,0,3:2:0:0:
143,120,81425,6,0,P|136:143|129:174,1,48,2|0,3:2|0:0,0:0:0:0:
227,111,81686,2,0,P|220:134|214:157,1,48,2|0,0:0|0:0,0:0:0:0:
139,260,81947,2,0,P|183:251|246:241,1,96,2|2,0:0|0:0,0:0:0:0:
249,250,82273,1,0,0:0:0:0:
249,250,82338,2,0,L|276:244,1,24
130,166,82468,5,10,0:0:0:0:
271,36,82729,1,0,0:0:0:0:
271,36,82795,1,0,0:0:0:0:
271,36,82860,2,0,L|261:73,1,24
327,163,82990,5,4,0:0:0:0:
387,108,83121,1,4,0:0:0:0:
354,33,83251,1,6,0:0:0:0:
126,213,83512,6,0,B|109:230|88:223|88:223|106:224|128:210,1,77.9999964294435,2|0,1:2|0:0,0:0:0:0:
125,78,83773,2,0,B|148:84|152:105|152:105|144:89|121:77,1,77.9999964294435,2|0,0:0|0:0,0:0:0:0:
8,146,84034,2,0,B|1:122|18:108|18:108|8:123|9:149,1,77.9999964294435,2|0,3:2|0:0,0:0:0:0:
87,147,84294,1,2,1:2:0:0:
87,147,84425,1,0,0:0:0:0:
0,238,84555,5,10,0:0:0:0:
370,138,85077,5,2,0:0:0:0:
107,0,85599,6,0,L|118:40,1,30,10|0,0:0|0:0,0:0:0:0:
211,94,86121,6,0,L|200:134,1,35.9999989013672,10|0,0:0|0:0,0:0:0:0:
68,215,86642,6,0,L|84:275,1,41.9999987182618,10|0,0:0|0:0,0:0:0:0:
260,338,87164,6,0,L|243:398,1,48,10|0,0:0|0:0,0:0:0:0:
343,66,87686,6,0,B|371:34|424:36|454:73|454:73|431:55|398:55,1,167.999994873047,6|0,3:2|0:0,0:0:0:0:
277,267,88207,2,0,B|316:283|362:258|373:212|373:212|360:238|331:252,1,167.999994873047,6|0,3:2|0:0,0:0:0:0:
55,117,88729,6,2,B|5:89|-16:27|53:-14|139:-13|158:87|116:190|83:173|43:138|-30:280|65:329|65:329|54:321|49:308,2,503.999984619141,6|10|6,3:1|0:0|3:2,1:1:0:0:
352,165,90033,2,0,P|362:129|383:70,1,83.9999974365235,2|0,0:0|0:0,0:0:0:0:
181,25,90294,1,10,3:2:0:0:
274,55,90425,1,2,0:0:0:0:
168,27,90555,2,0,P|181:66|193:107,1,83.9999974365235,2|2,0:0|0:0,0:0:0:0:
158,330,90816,6,0,P|123:315|133:245,1,83.9999974365235,2|0,3:2|0:0,0:0:0:0:
23,151,91077,2,0,P|67:164|134:182,1,83.9999974365235,2|0,0:0|0:0,0:0:0:0:
294,215,91338,1,10,1:2:0:0:
188,261,91468,1,2,0:0:0:0:
307,221,91599,1,2,0:0:0:0:
178,249,91729,1,2,0:0:0:0:
279,384,91859,6,0,P|309:362|301:302,1,83.9999974365235,2|0,3:2|0:0,0:0:0:0:
195,102,92120,2,0,P|211:148|227:200,1,83.9999974365235,2|2,0:0|1:2,0:0:0:0:
412,260,92381,1,10,3:2:0:0:
319,227,92512,1,2,0:0:0:0:
429,252,92642,2,0,P|456:222|447:173,1,83.9999974365235,2|0,0:0|1:2,0:0:0:0:
223,75,92903,5,2,3:2:0:0:
245,0,93033,2,0,P|269:76|300:186,1,167.999994873047,2|0,0:0|0:0,0:0:0:0:
78,171,93425,5,10,1:2:0:0:
94,95,93555,2,0,P|118:171|149:281,1,167.999994873047,2|0,0:0|0:0,0:0:0:0:
299,384,93946,6,0,P|334:360|325:307,1,90.0000034332277,2|0,3:2|0:0,0:0:0:0:
201,151,94207,1,2,0:0:0:0:
231,232,94338,1,2,0:0:0:0:
315,206,94468,1,10,3:2:0:0:
286,124,94599,2,0,L|190:154,1,90.0000034332277,2|0,0:0|0:0,0:0:0:0:
323,202,94860,1,2,1:2:0:0:
378,111,94990,6,0,B|381:77|346:59|346:59|363:74|365:88,1,90.0000034332277,2|0,3:2|0:0,0:0:0:0:
169,202,95251,2,0,B|165:168|200:150|200:150|183:165|181:179,1,90.0000034332277,2|0,0:0|0:0,0:0:0:0:
282,334,95512,5,10,1:2:0:0:
154,318,95642,1,2,0:0:0:0:
169,202,95773,1,2,0:0:0:0:
295,213,95903,1,2,0:0:0:0:
226,269,96033,5,2,3:2:0:0:
6,117,96555,5,2,3:2:0:0:
484,214,97077,5,2,3:2:0:0:
103,31,97599,6,0,P|110:54|120:84,1,48,2|0,0:0|0:0,0:0:0:0:
202,62,97859,2,0,P|194:39|187:16,1,48,2|0,0:0|0:0,0:0:0:0:
428,241,98121,6,0,B|385:212|343:250|343:250|318:242|318:242|277:290|211:262,1,215.999993408203,6|2,3:2|3:2,0:0:0:0:
231,268,98512,1,2,0:0:0:0:
121,164,98642,2,0,B|141:179|173:172|173:172|146:186|136:208,1,107.999996704102,10|0,0:0|0:0,0:0:0:0:
40,247,98903,2,0,B|19:231|-12:238|-12:238|14:224|24:202,1,107.999996704102,2|2,3:2|1:2,0:0:0:0:
231,110,99164,6,0,P|201:242|180:351,1,215.999993408203,2|2,3:2|3:2,0:0:0:0:
185,321,99555,1,0,0:0:0:0:
299,260,99685,2,0,P|342:228|344:178,1,107.999996704102,10|0,0:0|0:0,0:0:0:0:
202,30,99946,5,2,3:2:0:0:
192,63,100033,5,0,0:0:0:0:
205,94,100120,5,0,0:0:0:0:
231,110,100207,6,0,P|263:99|312:86,1,71.9999978027344,2|0,3:2|0:0,0:0:0:0:
98,271,100468,6,0,B|65:254|52:199|80:172|80:172|66:206|79:236,1,176.000005371094,2|0,3:1|1:2,0:0:0:0:
193,294,100729,6,0,B|194:331|153:369|116:359|116:359|152:354|172:327,1,176.000005371094,10|0,2:1|0:0,0:0:0:0:
172,205,100990,6,0,B|203:184|257:201|266:238|266:238|244:209|211:206,1,176.000005371094,2|0,3:1|1:2,0:0:0:0:
98,271,101251,6,0,B|106:223|68:176|42:203|0:162|12:99,1,192,2|0,3:1|3:2,0:0:0:0:
10,113,101642,1,0,0:0:0:0:
152,10,101772,5,10,0:0:0:0:
171,36,101859,5,0,0:0:0:0:
168,66,101946,5,0,0:0:0:0:
151,82,102033,6,0,P|126:89|78:50,1,71.9999978027344,2|0,3:2|0:0,0:0:0:0:
321,30,102294,6,0,P|288:134|263:261,1,215.999993408203,2|0,3:2|3:2,0:0:0:0:
266,238,102685,1,0,0:0:0:0:
344,321,102816,2,0,B|371:309|372:277|372:277|364:306|341:321,1,107.999996704102,10|0,0:0|0:0,0:0:0:0:
161,277,103077,2,0,B|157:306|184:323|184:323|163:302|161:274,1,107.999996704102,2|0,3:2|0:0,0:0:0:0:
266,238,103338,6,0,P|288:133|321:30,1,215.999993408203,2|2,3:2|3:2,0:0:0:0:
321,30,103729,1,0,0:0:0:0:
437,63,103859,2,0,P|426:120|360:110,1,107.999996704102,10|0,0:0|0:0,0:0:0:0:
209,25,104120,5,2,3:2:0:0:
169,7,104207,5,0,0:0:0:0:
126,16,104294,5,0,0:0:0:0:
101,44,104381,6,0,P|113:80|126:117,1,71.9999978027344,2|0,3:2|0:0,0:0:0:0:
34,171,104642,2,0,P|22:137|10:102,1,71.9999978027344,2|0,3:2|1:2,0:0:0:0:
253,111,104903,2,0,P|238:158|224:206,1,96,8|0,0:0|0:0,0:0:0:0:
109,285,105163,1,2,3:2:0:0:
213,317,105294,1,2,1:2:0:0:
96,286,105424,6,0,B|66:270|73:231|73:231|80:251|96:263,1,96,2|0,3:2|0:0,0:0:0:0:
281,272,105686,2,0,B|311:256|304:217|304:217|297:237|281:249,1,96,2|0,3:2|1:2,0:0:0:0:
120,76,105946,6,0,B|111:117|154:142|154:142|140:119|142:94,1,128,10|0,0:0|1:2,0:0:0:0:
218,56,106207,6,0,B|226:14|183:-10|183:-10|197:12|195:37,1,128,2|0,1:2|0:0,0:0:0:0:
255,147,106468,6,0,B|319:89|372:152|365:168|359:178|457:220|447:188,1,215.999993408203,6|0,3:2|3:2,0:0:0:0:
442,197,106859,1,2,0:0:0:0:
355,288,106990,2,0,P|312:274|304:218,1,107.999996704102,8|0,0:0|0:0,0:0:0:0:
410,40,107250,2,0,P|394:95|382:148,1,107.999996704102,2|0,3:2|1:2,0:0:0:0:
358,291,107511,5,0,3:2:0:0:
358,291,107642,1,0,0:0:0:0:
425,366,107772,2,0,P|467:351|449:290,1,107.999996704102,2|0,3:2|0:0,0:0:0:0:
304,217,108033,1,10,0:0:0:0:
211,287,108163,1,2,0:0:0:0:
108,212,108294,5,2,3:2:0:0:
126,201,108381,5,0,0:0:0:0:
151,205,108468,5,0,0:0:0:0:
165,221,108555,6,0,B|133:118|133:118|129:116|129:116|96:11,1,215.999993408203,2|0,3:2|3:2,0:0:0:0:
97,17,108946,1,2,0:0:0:0:
235,48,109077,2,0,B|255:71|280:82|280:82|250:72|217:80,1,107.999996704102,8|0,0:0|0:0,0:0:0:0:
25,130,109338,2,0,B|5:107|-20:96|-20:96|10:106|43:98,1,107.999996704102,2|0,3:2|1:2,0:0:0:0:
150,172,109598,6,0,B|195:149|234:161|253:208|241:217|259:258|322:246|306:242,1,192,0|2,3:2|3:2,0:0:0:0:
307,244,109990,1,0,0:0:0:0:
438,189,110120,5,10,0:0:0:0:
436,164,110207,5,0,0:0:0:0:
419,146,110294,5,0,0:0:0:0:
400,141,110381,6,0,P|357:156|302:169,1,83.9999974365235,2|0,3:2|0:0,0:0:0:0:
504,376,110642,6,0,P|406:353|282:328,1,215.999993408203,2|0,3:2|3:2,0:0:0:0:
292,330,111033,1,0,0:0:0:0:
189,240,111164,2,0,B|196:211|211:199|245:199|245:199|223:207|218:223,1,107.999996704102,10|0,0:0|0:0,0:0:0:0:
124,351,111425,2,0,B|95:343|83:328|83:294|83:294|91:316|107:321,1,107.999996704102,2|0,3:2|1:2,0:0:0:0:
214,147,111686,6,0,P|198:199|186:251,1,96,2|0,3:2|0:0,0:0:0:0:
47,198,111946,2,0,P|58:151|72:105,1,96,2|0,3:2|0:0,0:0:0:0:
304,142,112207,2,0,P|288:186|262:299,1,143.999995605469,10|0,0:0|1:2,0:0:0:0:
296,310,112468,5,2,3:2:0:0:
338,314,112555,5,0,0:0:0:0:
370,286,112642,5,0,0:0:0:0:
371,242,112729,6,0,B|399:178|332:133|329:151|315:172|245:126|265:64|266:83,1,215.999993408203,2|0,3:2|3:2,0:0:0:0:
264,81,113120,1,2,0:0:0:0:
381,0,113251,2,0,P|401:48|334:48,1,107.999996704102,8|0,0:0|0:0,0:0:0:0:
187,42,113512,2,0,P|203:0|276:25,1,107.999996704102,2|0,3:2|0:0,0:0:0:0:
172,233,113773,6,0,P|161:198|144:154,1,71.9999978027344,2|0,3:2|0:0,0:0:0:0:
360,72,114034,2,2,P|318:228|289:366,2,288,2|2|6,3:2|0:0|3:2,0:1:0:0:
123,36,115077,6,0,B|112:68|141:86|141:86|124:70|123:49,1,77.9999964294435,2|0,0:0|1:2,0:0:0:0:
242,141,115338,1,10,3:2:0:0:
143,176,115468,1,2,0:0:0:0:
259,148,115599,2,0,P|247:191|232:267,1,77.9999964294435,0|8,3:2|0:0,0:0:0:0:
311,381,115859,6,0,P|340:368|326:304,1,77.9999964294435,2|0,0:0|1:2,0:0:0:0:
159,276,116120,2,0,P|174:318|186:357,1,77.9999964294435,2|0,3:2|0:0,0:0:0:0:
320,222,116381,1,10,0:0:0:0:
259,148,116512,1,2,0:0:0:0:
316,85,116642,1,2,0:0:0:0:
268,18,116773,1,8,0:0:0:0:
331,89,116903,6,0,P|375:101|418:111,1,77.9999964294435,2|0,3:2|0:0,0:0:0:0:
203,69,117164,2,0,P|159:81|116:91,1,77.9999964294435,2|0,0:0|1:2,0:0:0:0:
193,247,117425,1,10,3:2:0:0:
250,175,117555,1,2,0:0:0:0:
179,251,117686,2,0,P|146:228|154:174,1,77.9999964294435,0|8,3:2|0:0,0:0:0:0:
349,247,117946,5,2,0:0:0:0:
365,264,118077,1,2,1:2:0:0:
349,281,118207,1,2,3:2:0:0:
332,264,118338,1,2,0:0:0:0:
234,158,118468,5,10,0:0:0:0:
250,141,118599,1,2,0:0:0:0:
267,158,118729,1,2,1:2:0:0:
250,175,118860,1,2,0:0:0:0:
162,264,118990,6,0,P|124:256|78:248,1,77.9999964294435,2|0,3:2|0:0,0:0:0:0:
184,384,119251,2,0,P|214:359|201:306,1,77.9999964294435,2|0,0:0|1:2,0:0:0:0:
9,278,119512,1,10,3:2:0:0:
56,354,119642,1,2,0:0:0:0:
0,263,119773,2,0,P|-5:223|39:182,1,77.9999964294435,0|8,3:2|0:0,0:0:0:0:
167,96,120033,6,0,B|195:88|215:111|215:111|202:102|187:102,1,77.9999964294435,2|0,0:0|1:2,0:0:0:0:
63,91,120294,2,0,B|42:70|51:41|51:41|50:57|58:70,1,77.9999964294435,2|0,3:2|0:0,0:0:0:0:
258,40,120555,1,10,0:0:0:0:
215,111,120686,1,2,0:0:0:0:
271,172,120816,1,2,0:0:0:0:
222,239,120946,1,8,0:0:0:0:
276,313,121077,6,0,P|306:295|296:239,1,77.9999964294435,2|0,3:2|0:0,0:0:0:0:
113,140,121338,2,0,P|126:180|143:237,1,77.9999964294435,2|0,0:0|1:2,0:0:0:0:
40,374,121599,2,0,P|9:358|10:301,1,77.9999964294435,10|0,3:2|0:0,0:0:0:0:
217,245,121859,2,0,P|203:285|187:342,1,77.9999964294435,0|0,3:2|1:2,0:0:0:0:
2,236,122120,5,2,3:2:0:0:
48,160,122251,1,2,1:2:0:0:
0,87,122381,1,2,0:0:0:0:
47,12,122512,1,2,0:0:0:0:
47,12,122642,6,0,P|66:18|82:28,4,25.9999988098145,10|0|0|0|0,0:0|0:0|0:0|0:0|0:0,0:0:0:0:
180,0,122903,6,0,P|184:19|183:38,4,25.9999988098145,2|0|0|0|0,0:0|0:0|0:0|0:0|0:0,0:0:0:0:
294,96,123164,6,0,P|260:211|241:288,1,180.000006866455,6|2,3:2|3:2,0:0:0:0:
245,269,123555,1,0,0:0:0:0:
307,360,123686,2,0,P|341:345|336:279,1,90.0000034332277,10|0,3:2|0:0,0:0:0:0:
187,136,123946,1,0,3:2:0:0:
268,185,124077,1,2,1:2:0:0:
175,138,124207,6,0,P|142:99|163:48,1,90.0000034332277,2|0,3:2|0:0,0:0:0:0:
332,4,124468,2,0,P|318:47|303:100,1,90.0000034332277,2|0,3:2|0:0,0:0:0:0:
260,274,124729,1,10,3:2:0:0:
260,274,124859,1,2,0:0:0:0:
159,201,124990,5,0,3:2:0:0:
172,174,125077,5,0,0:0:0:0:
199,162,125164,5,0,0:0:0:0:
228,163,125251,6,0,P|278:176|329:187,1,90.0000034332277,2|0,3:2|0:0,0:0:0:0:
427,333,125512,1,2,3:2:0:0:
362,269,125642,1,2,1:2:0:0:
440,336,125773,2,0,B|469:320|469:284|469:284|463:309|454:319,1,90.0000034332277,10|0,3:2|0:0,0:0:0:0:
315,188,126033,2,0,B|286:172|286:136|286:136|292:161|301:171,1,90.0000034332277,0|0,3:2|1:2,0:0:0:0:
512,88,126294,5,2,3:2:0:0:
481,20,126425,2,0,P|456:110|437:205,1,180.000006866455,2|0,0:0|0:0,0:0:0:0:
274,210,126816,5,10,3:2:0:0:
289,139,126947,2,0,P|314:229|333:324,1,180.000006866455,2|0,0:0|0:0,0:0:0:0:
201,384,127338,6,0,P|170:368|183:305,1,90.0000034332277,2|0,3:2|0:0,0:0:0:0:
209,169,127599,2,0,P|210:203|149:224,1,90.0000034332277,2|0,3:2|0:0,0:0:0:0:
16,232,127859,1,10,3:2:0:0:
102,274,127990,1,2,0:0:0:0:
8,221,128120,2,0,P|-5:173|-22:121,1,90.0000034332277,0|0,3:2|1:2,0:0:0:0:
149,16,128381,6,0,B|174:27|173:57|173:57|168:32|146:18,1,90.0000034332277,2|0,3:2|0:0,0:0:0:0:
288,90,128642,2,0,B|290:117|264:131|264:131|283:114|284:88,1,90.0000034332277,2|0,3:2|0:0,0:0:0:0:
154,155,128903,1,10,3:2:0:0:
154,155,129033,1,2,0:0:0:0:
212,301,129164,5,0,3:2:0:0:
219,271,129251,5,0,0:0:0:0:
226,241,129338,5,0,0:0:0:0:
231,211,129425,6,0,P|187:225|136:237,1,90.0000034332277,2|0,3:2|0:0,0:0:0:0:
362,155,129686,1,2,3:2:0:0:
324,259,129816,1,2,1:2:0:0:
381,149,129946,2,0,B|402:129|391:96|391:96|391:118|382:132,1,90.0000034332277,10|0,3:2|0:0,0:0:0:0:
152,79,130207,2,0,B|127:63|131:29|131:29|135:50|147:62,1,90.0000034332277,0|0,3:2|1:2,0:0:0:0:
297,0,130468,5,2,3:2:0:0:
297,0,130599,2,0,P|287:32|276:81,1,71.9999978027344,2|0,0:0|1:2,0:0:0:0:
222,168,130990,1,2,0:0:0:0:
228,180,131077,1,0,0:0:0:0:
232,193,131164,1,0,0:0:0:0:
232,207,131251,1,0,0:0:0:0:
