osu file format v14

[General]
AudioFilename: audio.mp3
AudioLeadIn: 0
PreviewTime: 97599
Countdown: 0
SampleSet: Soft
StackLeniency: 0.5
Mode: 0
LetterboxInBreaks: 0
WidescreenStoryboard: 1

[Editor]
Bookmarks: 18816,27164,43860,52207,60555,68903,77251,98120,114816
DistanceSpacing: 0.6
BeatDivisor: 6
GridSize: 32
TimelineZoom: 3.099999

[Metadata]
Title:CH4NGE feat. KAFU
TitleUnicode:CH4NGE feat. 可不
Artist:Giga
ArtistUnicode:Giga
Creator:muya-
Version:F4NBOY'S 4NOTHER
Source:
Tags:kaf 花譜 kafu change electronic japanese vocaloid 神椿スタジオ kamitsubaki studios q*Left qleft q left ギガ ギガp gigap giga-p giga p female vocals CeVIO Ai seolv [_L_u_k_a_s_] fanboyyou
BeatmapID:3781026
BeatmapSetID:1826534

[Difficulty]
HPDrainRate:4.4
CircleSize:3.7
OverallDifficulty:7.8
ApproachRate:8.8
SliderMultiplier:2.4
SliderTickRate:1

[Events]
//Background and Video events
0,0,"kafu.jpg",0,0
//Break Periods
2,69102,76606
//Storyboard Layer 0 (Background)
//Storyboard Layer 1 (Fail)
//Storyboard Layer 2 (Pass)
//Storyboard Layer 3 (Foreground)
//Storyboard Layer 4 (Overlay)
//Storyboard Sound Samples

[TimingPoints]
1600,521.739130434783,4,2,1,60,1,8
1600,-100,4,2,1,60,0,8
2121,521.739130434783,4,2,1,60,1,0
2121,-100,4,2,1,60,0,0
10468,-71.4285714285714,4,2,1,60,0,0
10990,-90.9090909090909,4,2,1,60,0,0
12555,-71.4285714285714,4,2,1,60,0,0
13077,-90.9090909090909,4,2,1,60,0,0
14642,-71.4285714285714,4,2,1,60,0,0
15164,-90.9090909090909,4,2,1,60,0,0
18294,-100,4,2,2,60,0,0
18816,-55.5555555555556,4,2,3,75,0,0
19338,-71.4285714285714,4,2,3,75,0,0
20903,-62.5,4,2,3,75,0,0
21425,-71.4285714285714,4,2,3,75,0,0
22729,-100,4,2,3,75,0,0
22990,-55.5555555555556,4,2,3,75,0,0
23512,-71.4285714285714,4,2,3,75,0,0
25077,-71.4285714285714,4,2,3,70,0,0
26642,-100,4,2,3,60,0,0
27164,-55.5555555555556,4,2,18,90,0,1
27425,-62.5,4,2,8,90,0,1
27490,-62.5,4,2,4,90,0,1
27947,-62.5,4,2,8,90,0,1
28012,-62.5,4,2,4,90,0,1
28468,-62.5,4,2,8,90,0,1
28533,-62.5,4,2,4,90,0,1
28990,-62.5,4,2,8,90,0,1
29055,-62.5,4,2,4,90,0,1
29512,-41.6666666666667,4,2,8,90,0,1
29577,-41.6666666666667,4,2,4,90,0,1
30034,-41.6666666666667,4,2,8,90,0,1
30099,-55.5555555555556,4,2,4,90,0,1
30555,-62.5,4,2,8,90,0,1
30620,-62.5,4,2,4,90,0,1
31077,-62.5,4,2,8,90,0,1
31142,-62.5,4,2,4,90,0,1
31599,-62.5,4,2,8,90,0,1
31664,-62.5,4,2,4,90,0,1
32121,-62.5,4,2,8,90,0,1
32186,-62.5,4,2,4,90,0,1
32642,-62.5,4,2,8,90,0,1
32707,-62.5,4,2,4,90,0,1
33034,-62.5,4,2,4,5,0,1
33164,-62.5,4,2,8,90,0,1
33229,-62.5,4,2,4,90,0,1
33686,-62.5,4,2,8,90,0,1
33751,-62.5,4,2,4,90,0,1
34207,-62.5,4,2,8,90,0,1
34272,-62.5,4,2,4,90,0,1
34729,-62.5,4,2,8,90,0,1
34794,-62.5,4,2,4,90,0,1
34990,-50,4,2,4,90,0,1
35251,-50,4,2,4,90,0,0
35512,-50,4,2,4,90,0,1
35773,-62.5,4,2,8,90,0,1
35838,-62.5,4,2,4,90,0,1
36294,-62.5,4,2,8,90,0,1
36359,-62.5,4,2,4,90,0,1
36816,-62.5,4,2,8,90,0,1
36881,-62.5,4,2,4,90,0,1
37338,-62.5,4,2,8,90,0,1
37403,-62.5,4,2,4,90,0,1
37599,-50,4,2,4,90,0,1
37860,-62.5,4,2,8,90,0,1
37925,-62.5,4,2,4,90,0,1
38381,-62.5,4,2,8,90,0,1
38446,-62.5,4,2,4,90,0,1
38903,-41.6666666666667,4,2,8,90,0,1
38968,-62.5,4,2,4,90,0,1
39425,-62.5,4,2,8,90,0,1
39490,-50,4,2,4,90,0,1
39947,-62.5,4,2,8,90,0,1
40012,-62.5,4,2,4,90,0,1
40468,-62.5,4,2,8,90,0,1
40533,-62.5,4,2,4,90,0,1
40990,-62.5,4,2,8,90,0,1
41055,-62.5,4,2,4,90,0,1
41512,-62.5,4,2,8,90,0,1
41577,-62.5,4,2,4,90,0,1
41773,-50,4,2,4,90,0,1
42034,-62.5,4,2,8,90,0,1
42099,-62.5,4,2,4,90,0,1
42555,-62.5,4,2,8,90,0,1
42620,-62.5,4,2,4,90,0,1
42816,-62.5,4,2,4,90,0,0
43077,-62.5,4,2,8,90,0,0
43142,-62.5,4,2,4,90,0,0
43338,-62.5,4,2,14,90,0,0
43860,-83.3333333333333,4,2,3,75,0,0
46990,-71.4285714285714,4,2,3,75,0,0
48034,-83.3333333333333,4,2,3,75,0,0
52207,-71.4285714285714,4,2,1,65,0,0
52990,-90.9090909090909,4,2,1,65,0,0
57425,-71.4285714285714,4,2,1,65,0,0
58468,-83.3333333333333,4,2,1,80,0,0
60555,-62.5,4,2,3,75,0,0
68903,-100,4,2,6,55,0,0
77251,-133.333333333333,4,2,7,65,0,0
85599,-200,4,2,9,40,0,0
86121,-200,4,2,9,50,0,0
86642,-200,4,2,9,60,0,0
87164,-200,4,2,9,70,0,0
87686,-100,4,2,9,90,0,0
88207,-83.3333333333333,4,2,9,90,0,0
88729,-55.5555555555556,4,2,9,90,0,0
89773,-71.4285714285714,4,2,3,80,0,8
96033,-285.714285714286,4,2,3,70,0,8
97599,-100,4,2,3,60,0,8
98121,-62.5,4,2,18,90,0,1
98381,-62.5,4,2,8,90,0,1
98446,-62.5,4,2,4,90,0,1
98903,-62.5,4,2,8,90,0,1
98968,-62.5,4,2,4,90,0,1
99424,-62.5,4,2,8,90,0,1
99489,-62.5,4,2,4,90,0,1
99946,-62.5,4,2,8,90,0,1
100011,-62.5,4,2,4,90,0,1
100468,-40,4,2,8,90,0,1
100533,-40,4,2,4,90,0,1
100990,-40,4,2,8,90,0,1
101055,-55.5555555555556,4,2,4,90,0,1
101511,-62.5,4,2,8,90,0,1
101576,-62.5,4,2,4,90,0,1
102033,-62.5,4,2,8,90,0,1
102098,-62.5,4,2,4,90,0,1
102555,-62.5,4,2,8,90,0,1
102620,-62.5,4,2,4,90,0,1
103077,-62.5,4,2,8,90,0,1
103142,-62.5,4,2,4,90,0,1
103598,-62.5,4,2,8,90,0,1
103663,-62.5,4,2,4,90,0,1
104120,-62.5,4,2,8,90,0,1
104185,-62.5,4,2,4,90,0,1
104642,-62.5,4,2,8,90,0,1
104707,-62.5,4,2,4,90,0,1
105163,-62.5,4,2,8,90,0,1
105228,-62.5,4,2,4,90,0,1
105685,-62.5,4,2,8,90,0,1
105750,-50,4,2,4,90,0,1
106207,-62.5,4,2,4,90,0,0
106468,-50,4,2,4,90,0,1
106729,-62.5,4,2,8,90,0,1
106794,-62.5,4,2,4,90,0,1
107250,-62.5,4,2,8,90,0,1
107315,-62.5,4,2,4,90,0,1
107772,-62.5,4,2,8,90,0,1
107837,-62.5,4,2,4,90,0,1
108294,-62.5,4,2,8,90,0,1
108359,-62.5,4,2,4,90,0,1
108555,-50,4,2,4,90,0,1
108816,-62.5,4,2,8,90,0,1
108881,-62.5,4,2,4,90,0,1
109337,-62.5,4,2,8,90,0,1
109402,-62.5,4,2,4,90,0,1
109859,-62.5,4,2,8,90,0,1
109924,-62.5,4,2,4,90,0,1
110381,-62.5,4,2,8,90,0,1
110446,-62.5,4,2,4,90,0,1
110903,-62.5,4,2,8,90,0,1
110968,-62.5,4,2,4,90,0,1
111424,-62.5,4,2,8,90,0,1
111489,-62.5,4,2,4,90,0,1
111946,-62.5,4,2,8,90,0,1
112011,-62.5,4,2,4,90,0,1
112468,-62.5,4,2,8,90,0,1
112533,-62.5,4,2,4,90,0,1
112729,-50,4,2,4,90,0,1
112990,-62.5,4,2,8,90,0,1
113055,-62.5,4,2,4,90,0,1
113511,-62.5,4,2,8,90,0,1
113576,-62.5,4,2,4,90,0,1
113773,-62.5,4,2,4,90,0,0
114033,-100,4,2,8,90,0,0
114098,-100,4,2,4,90,0,0
114294,-100,4,2,14,90,0,0
114816,-100,4,2,3,75,0,0
123164,-71.4285714285714,4,2,4,80,0,0
123425,-71.4285714285714,4,2,8,80,0,0
123490,-71.4285714285714,4,2,4,80,0,0
123946,-71.4285714285714,4,2,8,80,0,0
124011,-71.4285714285714,4,2,4,80,0,0
124468,-71.4285714285714,4,2,8,80,0,0
124533,-71.4285714285714,4,2,4,80,0,0
124990,-71.4285714285714,4,2,8,80,0,0
125055,-71.4285714285714,4,2,4,80,0,0
125512,-71.4285714285714,4,2,8,80,0,0
125577,-71.4285714285714,4,2,4,80,0,0
126033,-71.4285714285714,4,2,8,80,0,0
126098,-71.4285714285714,4,2,4,80,0,0
126555,-71.4285714285714,4,2,8,80,0,0
126620,-71.4285714285714,4,2,4,80,0,0
127077,-71.4285714285714,4,2,8,80,0,0
127142,-71.4285714285714,4,2,4,80,0,0
127599,-71.4285714285714,4,2,8,80,0,0
127664,-71.4285714285714,4,2,4,80,0,0
128120,-71.4285714285714,4,2,8,80,0,0
128185,-71.4285714285714,4,2,4,80,0,0
128642,-71.4285714285714,4,2,8,80,0,0
128707,-71.4285714285714,4,2,4,80,0,0
129164,-71.4285714285714,4,2,8,80,0,0
129229,-71.4285714285714,4,2,4,80,0,0
129686,-71.4285714285714,4,2,8,80,0,0
129751,-71.4285714285714,4,2,4,80,0,0
130207,-71.4285714285714,4,2,8,80,0,0
130272,-71.4285714285714,4,2,4,80,0,0
130468,-71.4285714285714,4,2,4,60,0,0
130729,-100,4,2,8,60,0,0
130794,-100,4,2,4,60,0,0

[Colours]
Combo1 : 228,63,113
Combo2 : 142,234,214
Combo3 : 225,132,169
Combo4 : 221,225,225

[HitObjects]
60,74,1600,6,0,P|-5:137|45:227,1,200,2|0,0:0|0:0,0:0:0:0:
54,228,2121,6,0,P|81:196|123:195,1,80,2|0,0:0|0:0,0:0:0:0:
116,194,2381,1,0,1:2:0:0:
227,334,2642,1,10,0:0:0:0:
215,328,2773,2,0,P|181:283|216:223,1,120,0|0,1:2|0:0,0:0:0:0:
233,134,3164,2,0,P|265:118|315:105,1,80,2|0,1:2|0:0,0:0:0:0:
355,47,3425,2,0,P|388:62|431:72,1,80,2|0,0:0|0:0,0:0:0:0:
309,228,3686,6,0,P|317:208|326:191,2,40,8|0|0,0:0|0:0|0:0,0:0:0:0:
309,228,3947,5,2,1:2:0:0:
511,251,4207,6,0,P|474:264|454:302,1,80,2|0,0:0|0:0,0:0:0:0:
375,293,4468,2,0,P|375:332|405:362,1,80,2|0,1:2|0:0,0:0:0:0:
512,243,4729,2,0,B|500:218|493:198|493:198|492:184|492:184|496:165|447:86,2,120,10|2|2,0:0|0:2|1:2,0:0:0:0:
200,306,5512,6,0,P|188:278|172:253,1,60
266,363,5773,6,0,P|285:366|304:373,2,40,10|0|0,0:0|0:0|0:0,0:0:0:0:
266,363,6034,5,0,0:0:0:0:
100,359,6294,6,0,B|126:323|126:323|212:303,2,120,2|2|10,0:0|1:2|0:0,0:0:0:0:
15,284,6947,6,0,P|-6:262|11:151,1,140,0|0,1:2|0:0,0:0:0:0:
1,148,7338,2,0,P|32:134|82:118,1,80,2|0,1:2|0:0,0:0:0:0:
126,61,7599,2,0,P|157:75|207:91,1,80,2|0,0:0|0:0,0:0:0:0:
156,199,7860,6,0,P|152:178|145:160,2,40,8|0|0,0:0|0:0|0:0,0:0:0:0:
156,199,8121,5,2,1:2:0:0:
295,365,8381,6,0,P|323:337|358:317,1,80,2|0,0:0|0:0,0:0:0:0:
442,320,8642,2,0,P|433:282|433:242,1,80,2|0,1:2|0:0,0:0:0:0:
244,258,8903,1,10,0:0:0:0:
253,267,9034,2,0,B|309:276|290:291|345:317|345:317|391:322,1,120,0|0,1:2|0:0,0:0:0:0:
337,154,9425,5,2,1:2:0:0:
332,142,9512,2,0,P|303:150|285:158,4,40
206,172,9947,1,10,0:0:0:0:
202,184,10034,2,0,P|144:167|136:163,4,40,0|0|2|0|0,0:0|0:0|1:2|0:0|0:0,0:0:0:0:
264,0,10468,6,0,B|257:52|257:52|251:58|251:58|284:106|295:157,1,167.999994873047,2|2,0:0|1:2,0:0:0:0:
512,157,10990,6,0,P|492:132|407:136,1,88.000002685547,10|0,0:0|0:0,0:0:0:0:
405,38,11251,2,0,P|375:49|360:116,1,88.000002685547,2|0,0:0|0:0,0:0:0:0:
344,276,11512,2,0,P|323:219|292:151,1,132.00000402832,2|2,1:2|0:0,0:0:0:0:
438,348,12034,6,0,P|445:325|455:303,2,44.0000013427735,10|0|0,0:0|0:0|0:0,0:0:0:0:
438,348,12294,5,0,1:2:0:0:
222,206,12555,6,0,B|190:189|152:209|152:209|154:213|154:213|113:244|131:296,1,167.999994873047,2|2,0:0|1:2,0:0:0:0:
201,338,12990,1,0,0:0:0:0:
209,328,13077,2,0,P|252:336|292:353,1,88.000002685547,10|0,0:0|0:0,0:0:0:0:
137,384,13338,2,0,P|96:375|54:355,1,88.000002685547,2|0,0:0|0:0,0:0:0:0:
79,176,13599,2,0,B|112:210|112:210|134:315,1,132.00000402832,2|2,1:2|0:0,0:0:0:0:
129,292,13990,1,0,0:0:0:0:
129,292,14121,1,10,0:0:0:0:
203,77,14381,6,0,P|208:55|213:34,2,44.0000013427735,0|0|0,1:2|0:0|0:0,0:0:0:0:
203,77,14642,6,0,B|238:71|255:87|255:87|253:91|253:91|279:135|279:135|297:163|360:150,1,167.999994873047,2|0,0:0|1:2,0:0:0:0:
410,24,15077,1,0,0:0:0:0:
397,19,15164,2,0,P|359:36|342:85,1,88.000002685547,10|0,0:0|0:0,0:0:0:0:
447,224,15425,2,0,P|414:196|409:153,1,88.000002685547,2|0,0:0|0:0,0:0:0:0:
512,38,15686,2,0,P|471:130|443:244,1,198.000006042481,0|0,1:2|0:0,0:0:0:0:
363,344,16207,6,0,P|372:363|380:384,2,44.0000013427735,8|0|0,0:0|0:0|0:0,0:0:0:0:
362,343,16468,5,2,1:2:0:0:
191,236,16729,2,0,P|162:219|46:181,1,132.00000402832,2|0,0:0|1:2,0:0:0:0:
278,175,17251,2,0,P|313:154|330:106,1,88.000002685547,10|0,0:0|0:0,0:0:0:0:
244,75,17512,2,0,P|234:35|194:5,1,88.000002685547,2|0,0:0|0:0,0:0:0:0:
69,185,17773,2,0,P|137:139|202:158,1,132.00000402832,2|0,1:2|0:0,0:0:0:0:
132,296,18294,6,0,P|122:290|112:287,4,20
190,236,18555,6,0,P|197:233|204:229,1,15
508,253,18816,6,0,B|523:217|523:217|515:218|515:218|423:184|369:247|371:339,1,215.999993408203,6|2,3:2|0:0,0:0:0:0:
274,384,19207,1,0,0:0:0:0:
283,369,19338,2,0,P|269:330|244:297,1,83.9999974365235,10|2,1:2|0:0,0:0:0:0:
345,172,19599,2,0,P|319:204|304:244,1,83.9999974365235,2|2,0:0|0:0,0:0:0:0:
103,145,19860,6,0,P|184:147|230:214,1,167.999994873047,2|2,3:2|0:0,0:0:0:0:
76,331,20251,1,0,0:0:0:0:
83,315,20381,2,0,P|118:292|157:277,1,83.9999974365235,10|2,1:2|0:0,0:0:0:0:
284,137,20642,5,0,0:0:0:0:
244,142,20729,5,0,0:0:0:0:
223,175,20816,5,0,0:0:0:0:
229,213,20903,6,0,B|264:201|264:201|267:197|267:197|364:242|291:258|392:298,1,192,2|2,3:2|0:0,0:0:0:0:
512,239,21294,1,2,1:2:0:0:
497,246,21425,2,0,P|476:290|463:338,1,83.9999974365235,10|2,1:2|0:0,0:0:0:0:
388,164,21686,2,0,P|375:123|356:86,1,83.9999974365235,2|0,0:0|1:2,0:0:0:0:
297,272,21947,5,2,3:2:0:0:
290,287,22077,2,0,B|248:327|197:309|197:309|173:267|113:261,1,167.999994873047,2|0,0:0|0:0,0:0:0:0:
90,156,22468,5,10,1:2:0:0:
127,144,22555,5,0,0:0:0:0:
162,160,22642,5,0,0:0:0:0:
178,195,22729,6,0,P|149:256|143:280,1,80
69,380,22990,6,0,B|77:350|77:350|31:266|-1:180,1,215.999993408203,2|2,3:2|0:0,0:0:0:0:
28,109,23381,1,2,0:0:0:0:
0,183,23512,1,10,1:2:0:0:
27,109,23642,2,0,P|65:91|104:101,1,83.9999974365235,2|0,0:0|0:0,0:0:0:0:
162,272,23903,5,2,1:2:0:0:
146,268,24034,2,0,P|116:239|113:198,1,83.9999974365235,2|0,3:2|0:0,0:0:0:0:
270,115,24294,2,0,P|231:131|214:168,1,83.9999974365235,2|0,0:0|0:0,0:0:0:0:
381,240,24555,5,10,1:2:0:0:
383,258,24686,2,0,B|355:282|332:278|332:278|330:274|330:274|241:243|241:243|253:239,1,167.999994873047,2|0,0:0|0:0,0:0:0:0:
213,168,25077,5,2,3:2:0:0:
510,132,25512,5,0,0:0:0:0:
512,114,25599,2,0,B|484:89|461:93|461:93|459:97|459:97|370:128|370:128|381:131,1,167.999994873047,2|0,3:2|0:0,0:0:0:0:
283,92,26034,5,0,0:0:0:0:
267,99,26121,2,0,B|197:49|197:49|276:72,1,167.999994873047,2|0,1:1|0:0,0:0:0:0:
381,132,26642,5,10,0:0:0:0:
37,203,27164,6,0,B|11:303|115:340|114:302|150:347|150:377,1,215.999993408203,6|2,3:2|3:2,0:0:0:0:
118,234,27599,1,0,0:0:0:0:
127,217,27686,2,0,P|186:193|241:160,1,128,10|0,0:0|0:0,0:0:0:0:
322,332,27947,2,0,P|266:300|206:277,1,128,2|0,3:2|0:0,0:0:0:0:
4,294,28207,6,0,P|93:300|127:217,1,192,2|2,3:2|3:2,0:0:0:0:
130,51,28729,2,0,B|138:110|75:143|89:104|23:143|31:204,1,192,10|2,0:0|3:2,0:0:0:0:
101,356,29164,5,0,0:0:0:0:
93,340,29251,2,0,P|107:281|128:216,1,128,2|0,3:2|0:0,0:0:0:0:
130,51,29512,6,0,B|199:72|253:82|253:82|218:76|188:97,1,191.999994140625,2|0,3:1|1:2,0:0:0:0:
123,146,29773,6,0,B|100:129|63:135|63:135|119:125|190:104,1,191.999994140625,10|0,2:1|0:0,0:0:0:0:
256,54,30034,6,0,B|278:70|316:64|316:64|259:74|187:96,1,191.999994140625,2|0,3:1|1:2,0:0:0:0:
164,3,30294,6,0,B|195:108|195:108|192:111|192:111|222:209,1,215.999993408203,2|0,3:1|3:2,0:0:0:0:
249,320,30816,5,10,0:0:0:0:
255,283,30903,5,0,0:0:0:0:
282,256,30990,5,0,0:0:0:0:
320,257,31077,6,0,B|413:277|346:304|445:320,1,128,2|0,3:2|0:0,0:0:0:0:
334,384,31338,2,0,P|419:340|510:308,1,192,2|0,3:2|3:2,0:0:0:0:
107,193,31860,6,0,P|102:131|148:89,1,128,10|0,0:0|0:0,0:0:0:0:
112,212,32121,2,0,P|60:246|1:227,1,128,2|0,3:2|0:0,0:0:0:0:
127,201,32381,2,0,P|268:241|314:265,1,192,2|2,3:2|3:2,0:0:0:0:
473,150,32903,2,0,B|492:132|485:103|485:103|480:130|457:140,1,96,10|0,0:0|0:0,0:0:0:0:
403,249,33164,5,2,3:2:0:0:
410,211,33251,5,0,0:0:0:0:
388,179,33338,5,0,0:0:0:0:
352,166,33425,6,0,B|282:130|197:198|259:218|172:244,1,192,2|2,3:2|3:2,0:0:0:0:
142,371,33860,1,0,1:2:0:0:
135,358,33947,2,0,P|76:333|14:318,1,128,8|0,0:0|0:0,0:0:0:0:
221,318,34207,6,0,P|269:278|276:216,1,128,2|0,3:2|1:2,0:0:0:0:
149,116,34468,2,0,P|175:174|192:235,1,128,2|0,3:2|0:0,0:0:0:0:
63,136,34729,2,0,P|27:109|14:46,1,96,2|0,3:2|1:2,0:0:0:0:
247,33,34990,6,0,P|184:31|145:118,1,160,10|0,0:0|1:2,0:0:0:0:
124,193,35251,6,0,B|141:240|192:236|192:236|157:234|139:189,1,160,2|0,1:2|0:0,0:0:0:0:
232,125,35512,6,0,P|117:164|7:211,1,240,6|0,3:2|3:2,0:0:0:0:
7,384,35947,1,0,0:0:0:0:
0,371,36034,2,0,P|31:307|94:309,1,128,8|0,0:0|0:0,0:0:0:0:
135,359,36294,1,2,3:2:0:0:
242,113,36468,5,0,0:0:0:0:
232,125,36555,2,0,P|218:179|193:256,1,128,0|0,3:2|0:0,0:0:0:0:
315,384,36816,2,0,P|295:322|279:261,1,128,2|0,3:2|0:0,0:0:0:0:
326,193,37077,1,10,0:0:0:0:
505,384,37338,5,2,3:2:0:0:
494,347,37425,5,0,0:0:0:0:
463,323,37512,5,0,0:0:0:0:
424,318,37599,6,0,P|344:286|188:246,1,240,2|0,3:2|3:2,0:0:0:0:
126,375,38034,1,0,0:0:0:0:
139,368,38121,2,0,P|134:310|75:265,1,128,8|0,0:0|0:0,0:0:0:0:
6,159,38381,2,0,P|58:183|127:155,1,128,2|0,3:2|0:0,0:0:0:0:
255,148,38642,2,0,P|207:181|197:254,1,128,0|0,3:2|0:0,0:0:0:0:
240,318,38903,1,2,3:2:0:0:
433,353,39164,5,10,0:0:0:0:
436,314,39251,5,0,0:0:0:0:
416,281,39338,5,0,0:0:0:0:
380,269,39425,6,0,P|324:301|324:365,1,128,2|0,3:2|0:0,0:0:0:0:
450,372,39686,6,0,B|493:291|400:199|361:267|332:186,1,240,2|0,3:2|3:2,0:0:0:0:
382,20,40207,6,0,B|430:11|453:41|453:41|427:27|396:35,1,128,10|0,0:0|0:0,0:0:0:0:
269,88,40468,6,0,B|225:65|225:27|225:27|237:54|267:67,1,128,2|0,3:2|0:0,0:0:0:0:
399,140,40729,6,0,P|376:206|341:342,2,192,2|2|10,3:2|3:2|0:0,0:0:0:0:
239,278,41425,1,0,1:2:0:0:
229,288,41512,2,0,P|179:283|139:220,1,128,2|0,3:2|0:0,0:0:0:0:
269,88,41773,6,0,B|299:63|333:78|333:78|291:82|251:131|280:125|248:172|181:170,1,240,2|0,3:2|3:2,0:0:0:0:
10,40,42207,1,0,0:0:0:0:
19,29,42294,2,0,P|107:51|118:79,1,128,8|0,0:0|0:0,0:0:0:0:
52,230,42555,2,0,P|27:142|45:119,1,128,2|0,3:2|0:0,0:0:0:0:
66,243,42816,2,0,P|56:306|39:367,1,128,2|0,3:2|0:0,0:0:0:0:
171,286,43077,2,0,P|180:219|197:157,1,128,2|0,3:2|0:0,0:0:0:0:
254,358,43338,5,10,0:0:0:0:
447,139,43860,6,0,P|480:152|512:171,1,71.9999978027344,6|0,3:2|0:0,0:0:0:0:
341,252,44121,2,0,P|371:233|406:222,1,71.9999978027344,2|0,0:0|0:0,0:0:0:0:
300,68,44381,1,10,3:2:0:0:
365,35,44512,1,0,0:0:0:0:
427,70,44642,2,0,P|435:103|447:139,1,71.9999978027344,0|0,0:0|1:2,0:0:0:0:
386,291,44903,6,0,P|394:256|405:222,1,71.9999978027344,2|0,3:2|0:0,0:0:0:0:
300,68,45164,1,2,0:0:0:0:
235,35,45295,1,8,0:2:0:0:
173,70,45425,2,0,P|164:103|152:139,1,71.9999978027344,2|2,3:2|0:0,0:0:0:0:
276,233,45686,5,0,0:0:0:0:
289,198,45773,5,0,0:0:0:0:
275,163,45860,5,0,0:0:0:0:
241,146,45947,6,0,P|176:172|104:204,1,143.999995605469,2|2,3:2|0:0,0:0:0:0:
0,299,46338,1,0,1:2:0:0:
44,355,46468,2,0,P|77:368|110:382,1,71.9999978027344,10|0,3:2|0:0,0:0:0:0:
395,338,46729,5,0,0:0:0:0:
443,284,46860,1,0,1:2:0:0:
411,219,46990,2,0,B|329:194|261:291|322:274|258:364|187:346,1,279.999991455078,2|0,3:2|0:0,0:0:0:0:
108,201,47512,2,0,B|93:250|152:291|142:254|197:293|186:337,1,167.999994873047,10|0,3:2|0:0,0:0:0:0:
190,190,47903,5,8,0:0:0:0:
164,122,48034,2,0,P|177:88|194:56,1,71.9999978027344,2|0,3:2|0:0,0:0:0:0:
62,0,48294,2,0,P|78:32|92:65,1,71.9999978027344,2|0,0:0|0:0,0:0:0:0:
108,201,48555,2,0,P|73:141|4:140,1,143.999995605469,10|0,3:2|0:0,0:0:0:0:
42,339,48947,5,0,1:2:0:0:
96,292,49077,2,0,P|136:284|180:267,1,71.9999978027344,2|0,3:2|0:0,0:0:0:0:
274,364,49338,2,0,P|239:352|204:345,1,71.9999978027344,2|8,0:0|0:2,0:0:0:0:
229,211,49599,2,0,P|263:222|298:229,1,71.9999978027344,2|2,3:2|0:0,0:0:0:0:
419,384,49860,5,0,0:0:0:0:
381,378,49947,5,0,0:0:0:0:
358,347,50034,5,0,0:0:0:0:
357,308,50121,6,0,P|390:294|424:283,1,71.9999978027344,2|0,3:2|0:0,0:0:0:0:
505,174,50381,2,0,P|471:188|437:199,1,71.9999978027344,2|0,0:0|1:2,0:0:0:0:
274,364,50642,2,0,B|227:306|278:225|288:271|333:203|291:145,1,239.999992675781,10|0,3:2|0:0,0:0:0:0:
150,169,51164,6,0,P|176:192|212:189,1,71.9999978027344,0|0,3:2|0:0,0:0:0:0:
256,55,51425,2,0,P|223:67|208:98,1,71.9999978027344,2|8,0:0|0:0,0:0:0:0:
374,181,51686,5,0,3:2:0:0:
361,145,51773,5,0,0:0:0:0:
326,129,51860,5,0,0:0:0:0:
290,144,51947,5,0,1:2:0:0:
91,302,52207,6,0,P|54:196|19:132,2,167.999994873047,2|2|2,3:2|1:2|3:2,0:0:0:0:
249,273,52903,1,0,0:0:0:0:
235,266,52990,2,0,P|193:281|171:323,1,88.000002685547,2|0,0:0|0:0,0:0:0:0:
1,383,53251,2,0,P|59:361|90:303,1,132.00000402832,2|2,3:2|0:0,0:0:0:0:
137,103,53686,1,0,0:0:0:0:
131,116,53773,2,0,P|153:168|164:206,1,88.000002685547,0|0,3:2|0:0,0:0:0:0:
235,266,54034,2,0,P|247:223|266:183,1,88.000002685547,2|0,1:2|0:0,0:0:0:0:
400,123,54294,6,0,B|482:141|439:169|513:186,1,132.00000402832,2|2,3:2|1:2,0:0:0:0:
351,39,54729,1,0,0:0:0:0:
340,49,54816,2,0,P|299:68|252:79,1,88.000002685547,2|0,3:2|0:0,0:0:0:0:
400,123,55077,2,0,P|441:104|488:93,1,88.000002685547,2|0,0:0|0:0,0:0:0:0:
385,239,55338,2,0,P|326:208|263:188,1,132.00000402832,2|2,3:2|0:0,0:0:0:0:
186,113,55729,1,2,0:0:0:0:
257,78,55860,5,0,3:2:0:0:
249,47,55947,5,0,0:0:0:0:
223,29,56034,5,0,0:0:0:0:
192,30,56121,6,0,P|167:19|146:10,2,44.0000013427735,2|0|0,1:2|0:0|0:0,0:0:0:0:
186,113,56381,6,0,P|171:149|154:202,1,88.000002685547,2|0,3:2|0:0,0:0:0:0:
9,142,56642,2,0,P|51:136|95:128,1,88.000002685547,2|0,1:2|0:0,0:0:0:0:
122,281,56903,2,0,P|95:246|66:213,1,88.000002685547,2|0,3:2|0:0,0:0:0:0:
95,128,57164,1,2,0:0:0:0:
218,249,57338,5,0,0:0:0:0:
223,237,57425,2,0,B|276:211|315:271|285:258|315:308|367:297,1,167.999994873047,2|2,3:2|0:0,0:0:0:0:
458,222,57860,1,0,0:0:0:0:
452,208,57947,2,0,P|402:203|366:301,1,167.999994873047,0|2,3:2|1:2,0:0:0:0:
328,367,58294,5,0,0:0:0:0:
353,384,58381,5,0,0:0:0:0:
380,377,58468,6,0,P|432:355|469:343,1,95.9999970703126,10|0,0:0|0:0,0:0:0:0:
276,257,58729,2,0,P|230:241|186:223,1,95.9999970703126,2|0,1:2|0:0,0:0:0:0:
184,210,58990,1,10,0:0:0:0:
321,144,59164,5,0,0:0:0:0:
329,153,59251,2,0,P|369:138|388:90,1,95.9999970703126,2|0,0:0|0:0,0:0:0:0:
219,121,59512,6,0,P|198:164|183:209,1,95.9999970703126,10|2,0:0|0:0,0:0:0:0:
110,107,59773,6,0,P|95:61|74:18,1,95.9999970703126,2|2,1:2|0:0,0:0:0:0:
0,194,60034,6,0,P|68:197|100:258,1,143.999995605469,10|2,0:0|1:2,0:0:0:0:
91,368,60555,6,0,B|31:350|20:291|20:291|36:336|79:345,1,192,6|0,3:2|1:2,0:0:0:0:
219,381,60990,1,0,0:0:0:0:
232,384,61077,2,0,P|281:343|232:235,1,192,10|0,0:0|0:0,0:0:0:0:
107,113,61512,5,0,0:0:0:0:
92,112,61599,2,0,P|43:188|100:258,1,192,2|0,3:2|0:0,0:0:0:0:
122,383,62034,1,0,0:0:0:0:
115,370,62121,2,0,P|146:265|167:180,1,192,10|0,0:2|1:2,0:0:0:0:
215,108,62468,5,0,0:0:0:0:
252,100,62555,5,0,0:0:0:0:
281,124,62642,6,0,B|397:157|317:198|435:225,1,192,2|0,3:2|1:2,0:0:0:0:
261,233,63077,1,0,0:0:0:0:
273,240,63164,2,0,B|391:212|311:171|427:138,1,192,10|0,0:0|0:0,0:0:0:0:
357,36,63599,1,0,0:0:0:0:
366,46,63686,2,0,P|407:136|434:224,1,192,2|0,3:2|0:0,0:0:0:0:
496,372,64121,5,0,0:0:0:0:
504,345,64207,5,10,0:2:0:0:
493,314,64294,5,0,0:0:0:0:
465,297,64381,5,0,0:0:0:0:
433,302,64468,5,0,1:2:0:0:
183,236,64729,6,0,B|261:199|315:273|315:273|313:299|329:328,1,192,2|0,3:2|1:2,0:0:0:0:
124,176,65164,1,0,0:0:0:0:
122,190,65251,2,0,P|152:280|173:374,1,192,10|0,0:0|0:0,0:0:0:0:
182,115,65686,5,0,0:0:0:0:
175,102,65773,2,0,B|96:65|42:139|42:139|44:165|28:194,1,192,2|0,3:2|0:0,0:0:0:0:
187,250,66207,1,0,0:0:0:0:
183,236,66295,2,0,P|204:139|234:51,1,192,10|0,0:2|1:2,0:0:0:0:
314,0,66642,5,0,0:0:0:0:
345,1,66729,5,0,0:0:0:0:
367,24,66816,6,0,P|374:104|281:148,1,192,2|0,3:2|1:2,0:0:0:0:
125,143,67251,1,0,0:0:0:0:
125,128,67338,2,0,P|191:80|275:140,1,192,10|0,0:0|0:0,0:0:0:0:
246,348,67773,1,0,0:0:0:0:
239,335,67860,2,0,P|253:262|290:137,2,192,2|0|8,3:2|0:0|0:2,0:0:0:0:
322,384,68468,5,0,0:0:0:0:
359,373,68555,5,0,0:0:0:0:
368,335,68642,6,0,L|359:299,8,24,2|0|0|0|2|0|0|0|2,1:2|0:0|0:0|0:0|0:0|0:0|0:0|0:0|1:2,0:0:0:0:
453,229,77251,6,0,L|463:182,3,45.0000017166138,2|0|0|0,3:2|0:0|0:0|0:0,0:0:0:0:
439,240,77773,2,0,L|428:283,1,45.0000017166138,2|0,0:0|0:0,0:0:0:0:
313,170,78034,6,0,L|274:157,1,22.5000008583069,2|0,0:0|0:0,0:0:0:0:
321,164,78164,2,0,L|360:151,1,22.5000008583069
319,178,78294,2,0,L|334:232,1,45.0000017166138,10|0,0:0|0:0,0:0:0:0:
353,353,78555,6,0,L|327:340,1,22.5000008583069
321,346,78686,2,0,L|295:333,1,22.5000008583069
254,263,78816,2,0,L|194:289,2,45.0000017166138,6|4|4,0:0|0:0|0:0,0:0:0:0:
434,59,79338,6,0,L|477:40,3,45.0000017166138,2|0|0|0,1:2|0:0|0:0|0:0,0:0:0:0:
368,120,79860,2,0,P|335:112|321:98,1,45.0000017166138,2|0,3:2|0:0,0:0:0:0:
256,6,80121,2,0,P|250:27|254:49,1,45.0000017166138,0|0,1:2|0:0,0:0:0:0:
150,174,80381,2,0,P|166:133|208:120,1,90.0000034332277,10|0,0:0|0:0,0:0:0:0:
218,129,80773,1,0,0:0:0:0:
259,200,80903,2,0,L|246:246,2,45.0000017166138,0|0|2,1:2|0:0|0:0,0:0:0:0:
345,198,81294,5,0,3:2:0:0:
345,198,81425,2,0,L|388:210,1,45.0000017166138,2|0,3:2|0:0,0:0:0:0:
485,265,81686,2,0,L|441:278,1,45.0000017166138,2|0,0:0|0:0,0:0:0:0:
470,181,81947,2,0,L|513:99,2,90.0000034332277,2|2|10,0:0|0:0|0:0,0:0:0:0:
330,333,82729,6,0,L|306:341,1,22.5000008583069
301,351,82860,2,0,L|279:358,1,22.5000008583069
212,323,82990,1,4,0:0:0:0:
212,323,83121,1,4,0:0:0:0:
153,371,83251,1,6,0:0:0:0:
143,378,83512,6,0,P|121:373|108:357,1,45.0000017166138,2|0,1:2|0:0,0:0:0:0:
26,310,83773,2,0,P|23:286|34:269,1,45.0000017166138,2|0,0:0|0:0,0:0:0:0:
203,158,84034,2,0,L|187:203,1,45.0000017166138,2|0,3:2|0:0,0:0:0:0:
116,169,84294,2,0,L|132:124,1,45.0000017166138,2|0,1:2|0:0,0:0:0:0:
288,201,84555,2,0,L|115:268,1,180.000006866455,10|2,0:0|0:0,0:0:0:0:
120,266,85338,1,0,0:0:0:0:
419,230,85599,6,0,P|430:196|442:171,1,60,10|0,0:0|0:0,0:0:0:0:
426,242,86121,6,0,P|437:208|449:183,1,60,10|0,0:0|0:0,0:0:0:0:
248,22,86642,6,0,P|261:49|270:78,1,60,10|0,0:0|0:0,0:0:0:0:
241,34,87164,6,0,P|254:61|263:90,1,60,10|0,0:0|0:0,0:0:0:0:
410,333,87686,6,0,P|356:312|340:256,1,120,6|0,3:2|0:0,0:0:0:0:
512,152,88207,6,0,P|492:218|427:243,1,143.999995605469,6|0,3:2|0:0,0:0:0:0:
208,79,88729,6,2,B|148:48|216:-76|348:0|335:127|269:76|275:145|347:199|456:203|450:71|376:79,2,431.999986816407,6|10|6,3:1|0:0|3:2,1:1:0:0:
38,325,90033,5,2,0:0:0:0:
114,336,90164,1,0,0:0:0:0:
151,270,90294,2,0,P|135:229|123:188,1,83.9999974365235,10|2,3:2|0:0,0:0:0:0:
17,96,90555,2,0,P|32:135|44:175,1,83.9999974365235,2|2,0:0|0:0,0:0:0:0:
237,155,90816,5,2,3:2:0:0:
166,128,90946,1,0,0:0:0:0:
123,190,91077,2,0,P|135:230|151:270,1,83.9999974365235,2|0,0:0|0:0,0:0:0:0:
263,384,91338,1,10,1:2:0:0:
254,371,91468,2,0,P|265:330|281:291,1,83.9999974365235,2|0,0:0|0:0,0:0:0:0:
512,222,91729,5,0,0:0:0:0:
481,290,91859,2,0,B|437:309|406:297|406:297|400:301|400:301|400:295|400:295|365:280|351:237,1,167.999994873047,2|2,3:2|0:0,0:0:0:0:
206,87,92251,5,2,1:2:0:0:
240,154,92381,2,0,B|284:173|315:161|315:161|321:165|321:165|321:159|321:159|356:144|369:101,1,167.999994873047,10|2,3:2|0:0,0:0:0:0:
95,12,92773,5,0,1:2:0:0:
41,73,92903,1,2,3:2:0:0:
104,7,93033,2,0,B|124:80|124:80|122:81|122:81|146:167,1,167.999994873047,2|0,0:0|0:0,0:0:0:0:
308,209,93425,1,10,1:2:0:0:
240,154,93555,2,0,B|220:227|220:227|222:228|222:228|197:314,1,167.999994873047,2|0,0:0|0:0,0:0:0:0:
0,384,93946,6,0,P|22:349|63:336,1,83.9999974365235,2|0,3:2|0:0,0:0:0:0:
197,314,94207,1,2,0:0:0:0:
129,280,94338,1,2,0:0:0:0:
135,204,94468,2,0,P|151:155|161:118,1,83.9999974365235,10|2,3:2|0:0,0:0:0:0:
247,0,94729,2,0,P|231:49|221:86,1,83.9999974365235,0|2,0:0|1:2,0:0:0:0:
389,127,94990,6,0,B|360:105|328:107|328:107|328:111|328:111|218:164,1,167.999994873047,2|2,3:2|0:0,0:0:0:0:
300,268,95381,1,0,0:0:0:0:
349,201,95512,1,10,1:2:0:0:
294,280,95642,2,0,P|315:326|327:368,1,83.9999974365235,2|0,0:0|0:0,0:0:0:0:
483,213,95903,5,0,0:0:0:0:
472,223,96033,2,0,P|454:261|441:301,2,83.9999974365235,2|2|2,3:2|3:2|3:2,0:0:0:0:
72,268,97599,6,0,B|107:258|135:283|119:285|142:313|179:305,1,120,2|2,0:0|0:0,0:0:0:0:
391,65,98121,6,0,B|340:54|275:100|335:117|276:157|233:147,1,192,6|2,3:2|3:2,0:0:0:0:
466,243,98555,1,0,0:0:0:0:
457,252,98642,2,0,P|396:240|369:185,1,128,10|0,0:0|0:0,0:0:0:0:
391,65,98903,2,0,P|411:122|377:174,1,128,2|0,3:2|0:0,0:0:0:0:
291,317,99164,2,0,P|372:270|486:240,1,192,2|2,3:2|3:2,0:0:0:0:
172,326,99686,6,0,B|159:224|244:262|232:153,1,192,10|2,0:0|3:2,0:0:0:0:
139,62,100120,1,0,0:0:0:0:
124,59,100207,2,0,P|71:78|5:105,1,128,2|0,3:2|0:0,0:0:0:0:
233,154,100468,6,0,B|270:127|288:70|261:29|261:29|273:62|248:90,1,200,2|0,3:1|1:2,0:0:0:0:
222,165,100729,6,0,B|226:210|267:254|315:251|315:251|281:245|269:209,1,200,10|0,2:1|0:0,0:0:0:0:
217,149,100990,6,0,B|175:130|116:143|95:187|95:187|117:160|154:168,1,200,2|0,3:1|1:2,0:0:0:0:
332,165,101251,6,0,B|434:127|490:101|490:101|459:116|463:142,1,215.999993408203,2|0,3:1|3:2,0:0:0:0:
429,342,101773,5,10,0:0:0:0:
411,308,101859,5,0,0:0:0:0:
373,299,101946,5,0,0:0:0:0:
339,318,102033,6,0,B|262:335|298:363|229:376,1,128,2|0,3:2|0:0,0:0:0:0:
138,190,102294,2,0,P|176:265|215:368,1,192,2|0,3:2|3:2,0:0:0:0:
26,127,102816,6,0,P|58:179|120:189,1,128,10|0,0:0|0:0,0:0:0:0:
233,125,103077,2,0,P|171:127|131:175,1,128,2|0,3:2|0:0,0:0:0:0:
138,190,103338,2,0,P|181:276|215:366,1,192,2|2,3:2|3:2,0:0:0:0:
301,80,103859,6,0,B|295:48|317:30|317:30|325:60|294:89,1,96,10|0,0:0|0:0,0:0:0:0:
331,169,104120,5,2,3:2:0:0:
296,183,104207,5,0,0:0:0:0:
260,172,104294,5,0,0:0:0:0:
236,140,104381,6,0,B|235:80|179:50|191:82|127:52|124:0,1,192,2|2,3:2|3:2,0:0:0:0:
149,133,104816,1,0,1:2:0:0:
156,145,104903,2,0,B|150:219|119:196|113:273,1,128,8|0,0:0|0:0,0:0:0:0:
0,384,105164,6,0,P|33:337|101:340,1,128,2|0,3:2|1:2,0:0:0:0:
260,378,105425,2,0,P|202:372|171:312,1,128,2|0,3:2|0:0,0:0:0:0:
80,173,105686,2,0,P|97:217|112:263,1,96,2|0,3:2|1:2,0:0:0:0:
210,162,105946,6,0,P|257:104|217:37,1,160,10|0,0:0|1:2,0:0:0:0:
149,1,106207,6,0,B|110:-4|89:26|89:26|108:10|148:15,1,128,2|0,1:2|0:0,0:0:0:0:
287,120,106468,6,0,P|178:67|64:34,1,240,6|0,3:2|3:2,0:0:0:0:
102,214,106903,1,0,0:0:0:0:
112,224,106990,2,0,P|176:210|195:157,1,128,8|0,0:0|0:0,0:0:0:0:
174,81,107251,1,2,3:2:0:0:
322,212,107425,5,0,0:0:0:0:
315,199,107512,2,0,P|264:178|192:155,1,128,0|0,3:2|0:0,0:0:0:0:
53,124,107773,2,0,P|114:104|173:80,1,128,2|0,3:2|0:0,0:0:0:0:
230,27,108033,1,10,0:0:0:0:
3,211,108294,5,2,3:2:0:0:
0,173,108381,5,0,0:0:0:0:
18,139,108468,5,0,0:0:0:0:
53,124,108555,6,0,B|117:163|109:243|56:292|57:255|2:299|32:363,1,240,2|0,3:2|3:2,0:0:0:0:
128,384,108990,1,0,0:0:0:0:
131,370,109077,2,0,P|168:346|247:324,1,128,8|0,0:0|0:0,0:0:0:0:
255,169,109338,2,0,P|310:200|371:216,1,128,2|0,3:2|0:0,0:0:0:0:
214,247,109599,2,0,P|169:208|170:142,1,128,0|0,3:2|0:0,0:0:0:0:
237,91,109859,1,2,3:2:0:0:
451,251,110121,5,10,0:0:0:0:
466,216,110207,5,0,0:0:0:0:
459,179,110294,5,0,0:0:0:0:
430,155,110381,6,0,P|372:159|385:226,1,128,2|0,3:2|0:0,0:0:0:0:
347,339,110642,6,0,P|433:296|526:279,1,192,2|0,3:2|3:2,0:0:0:0:
103,198,111164,6,0,B|63:176|68:131|68:131|78:162|99:167,1,128,10|0,0:0|0:0,0:0:0:0:
228,73,111425,6,0,B|228:118|187:136|187:136|209:112|203:91,1,128,2|0,3:2|0:0,0:0:0:0:
0,211,111686,6,0,B|63:184|109:245|75:234|114:288|166:277,2,192,2|2|10,3:2|3:2|0:0,0:0:0:0:
231,367,112381,1,0,1:2:0:0:
225,354,112468,2,0,P|250:290|270:228,1,128,2|0,3:2|0:0,0:0:0:0:
370,69,112729,6,0,B|361:42|316:29|316:29|272:83|309:171|336:129|349:185,1,240,2|0,3:2|3:2,0:0:0:0:
359,298,113164,1,0,0:0:0:0:
362,283,113251,2,0,P|403:237|466:237,1,128,8|0,0:0|0:0,0:0:0:0:
369,384,113512,2,0,P|307:371|276:317,1,128,2|0,3:2|0:0,0:0:0:0:
512,167,113773,2,0,P|473:270|453:351,2,192,2|2|0,3:2|3:2|0:0,0:0:0:0:
151,247,114816,5,6,3:2:0:0:
80,208,114946,1,0,0:0:0:0:
158,238,115077,2,0,P|183:221|210:210,1,60,2|0,0:0|1:2,0:0:0:0:
124,332,115338,2,0,P|73:299|18:276,1,120,10|0,3:2|3:2,0:0:0:0:
99,143,115729,5,8,0:0:0:0:
105,153,115859,2,0,P|85:195|77:215,1,60,2|0,0:0|1:2,0:0:0:0:
25,110,116120,2,0,P|13:82|0:55,1,60,2|0,3:2|0:0,0:0:0:0:
191,13,116381,2,0,P|132:15|97:60,1,120,10|0,0:0|0:0,0:0:0:0:
287,102,116773,5,8,0:0:0:0:
281,91,116903,2,0,P|292:63|305:36,1,60,2|0,3:2|0:0,0:0:0:0:
213,178,117164,2,0,P|201:150|188:123,1,60,2|0,0:0|1:2,0:0:0:0:
397,234,117425,2,0,B|323:219|372:191|293:178,1,120,10|0,3:2|3:2,0:0:0:0:
383,116,117816,5,8,0:0:0:0:
390,108,117946,1,2,0:0:0:0:
443,156,118077,1,2,1:2:0:0:
432,217,118207,1,2,3:2:0:0:
397,234,118338,1,2,0:0:0:0:
385,224,118468,5,10,0:0:0:0:
350,241,118599,1,2,0:0:0:0:
339,302,118729,1,2,1:2:0:0:
392,350,118860,1,2,0:0:0:0:
512,267,118990,6,0,P|498:294|486:322,1,60,2|0,3:2|0:0,0:0:0:0:
439,168,119251,1,2,0:0:0:0:
385,224,119381,1,0,1:2:0:0:
443,156,119512,2,0,P|423:113|413:95,1,60,10|0,3:2|0:0,0:0:0:0:
245,32,119773,5,0,3:2:0:0:
204,91,119903,1,8,0:0:0:0:
251,144,120033,2,0,P|278:132|307:122,1,60,2|0,0:0|1:2,0:0:0:0:
204,235,120294,2,0,P|176:223|147:213,1,60,2|0,3:2|0:0,0:0:0:0:
287,220,120555,2,0,P|309:276|329:333,1,120,10|0,0:0|0:0,0:0:0:0:
512,333,120946,5,8,0:0:0:0:
493,334,121077,2,0,P|469:356|464:393,1,60,2|0,3:2|0:0,0:0:0:0:
382,209,121338,1,2,0:0:0:0:
421,282,121468,1,0,1:2:0:0:
392,196,121599,2,0,P|400:167|418:121,1,60,10|0,3:2|0:0,0:0:0:0:
488,103,121859,1,0,3:2:0:0:
321,123,122120,5,2,3:2:0:0:
252,100,122251,1,2,1:2:0:0:
252,28,122381,1,2,0:0:0:0:
321,6,122512,1,2,0:0:0:0:
363,64,122642,6,0,L|381:56,4,15,10|0|0|0|0,0:0|0:0|0:0|0:0|0:0,0:0:0:0:
248,19,122903,6,0,L|234:12,4,15,2|0|0|0|0,0:0|0:0|0:0|0:0|0:0,0:0:0:0:
266,183,123164,6,0,B|258:283|205:231|196:328,1,167.999994873047,6|2,3:2|3:2,0:0:0:0:
382,384,123599,1,0,0:0:0:0:
379,371,123686,2,0,P|345:351|271:322,1,111.999996582031,10|0,3:2|0:0,0:0:0:0:
406,279,123946,2,0,P|458:260|507:232,1,111.999996582031,0|0,3:2|0:0,0:0:0:0:
299,221,124207,6,0,P|249:196|233:143,1,111.999996582031,2|0,3:2|0:0,0:0:0:0:
311,229,124468,2,0,P|314:283|277:323,1,111.999996582031,2|0,3:2|0:0,0:0:0:0:
312,214,124729,2,0,P|384:171|462:141,1,167.999994873047,10|0,3:2|3:2,0:0:0:0:
512,84,125077,5,0,0:0:0:0:
499,52,125164,5,0,0:0:0:0:
465,42,125251,6,0,P|408:38|378:-5,1,111.999996582031,2|0,3:2|0:0,0:0:0:0:
279,52,125512,2,0,P|310:4|363:0,1,111.999996582031,2|0,3:2|0:0,0:0:0:0:
360,82,125773,2,0,P|334:149|305:252,1,167.999994873047,10|0,3:2|3:2,0:0:0:0:
261,320,126207,5,0,0:0:0:0:
249,325,126294,2,0,B|197:333|158:274|219:269|133:198|86:199|32:303|111:315,1,279.999991455078,2|0,3:2|0:0,0:0:0:0:
168,370,126816,2,0,P|186:301|222:193,1,167.999994873047,10|0,3:2|3:2,0:0:0:0:
7,18,127338,6,0,P|61:31|76:79,1,111.999996582031,2|0,3:2|0:0,0:0:0:0:
160,81,127599,2,0,P|168:134|127:169,1,111.999996582031,2|0,3:2|0:0,0:0:0:0:
7,147,127859,2,0,P|83:112|161:80,1,167.999994873047,10|0,3:2|3:2,0:0:0:0:
268,11,128294,1,0,0:0:0:0:
273,0,128381,2,0,P|331:-1|368:37,1,111.999996582031,2|0,3:2|0:0,0:0:0:0:
497,85,128642,2,0,P|439:84|402:122,1,111.999996582031,2|0,3:2|0:0,0:0:0:0:
351,242,128903,2,0,P|327:161|296:84,1,167.999994873047,10|0,3:2|3:2,0:0:0:0:
207,97,129251,5,0,0:0:0:0:
182,75,129338,5,0,0:0:0:0:
183,42,129425,6,0,P|132:26|83:-8,1,111.999996582031,2|0,3:2|0:0,0:0:0:0:
295,83,129686,2,0,P|359:103|420:145,1,111.999996582031,2|0,3:2|0:0,0:0:0:0:
228,191,129946,2,0,P|140:218|57:276,1,167.999994873047,10|0,3:2|3:2,0:0:0:0:
305,365,130381,5,0,0:0:0:0:
297,355,130468,2,0,P|292:315|394:297,1,167.999994873047,2|0,3:2|3:2,0:0:0:0:
211,370,130903,5,0,0:0:0:0:
201,362,130990,6,0,P|196:343|188:324,2,40,2|0|0,0:0|0:0|0:0,0:0:0:0:
