osu file format v14

[General]
AudioFilename: audio.mp3
AudioLeadIn: 0
PreviewTime:97599
Countdown: 0
SampleSet: Soft
StackLeniency: 0.4
Mode: 0
LetterboxInBreaks: 0
WidescreenStoryboard: 1

[Editor]
Bookmarks: 27164,43860,68903,77251,98120,114816
DistanceSpacing: 0.9
BeatDivisor: 2
GridSize: 8
TimelineZoom: 1.3

[Metadata]
Title:CH4NGE feat. KAFU
TitleUnicode:CH4NGE feat. 可不
Artist:Giga
ArtistUnicode:Giga
Creator:muya-
Version:E4SY
Source:
Tags:kaf 花譜 kafu change electronic japanese vocaloid 神椿スタジオ kamitsubaki studios q*Left qleft q left ギガ ギガp gigap giga-p giga p female vocals CeVIO Ai seolv [_L_u_k_a_s_] fanboyyou
BeatmapID:3758329
BeatmapSetID:1826534

[Difficulty]
HPDrainRate:3
CircleSize:2.5
OverallDifficulty:3
ApproachRate:4
SliderMultiplier:1.3
SliderTickRate:1

[Events]
//Background and Video events
0,0,"kafu.jpg",0,0
//Break Periods
2,69103,75931
//Storyboard Layer 0 (Background)
//Storyboard Layer 1 (Fail)
//Storyboard Layer 2 (Pass)
//Storyboard Layer 3 (Foreground)
//Storyboard Layer 4 (Overlay)
//Storyboard Sound Samples

[TimingPoints]
1600,521.739130434783,4,2,1,60,1,8
1600,-100,4,2,1,60,0,8
2121,521.739130434783,4,2,1,60,1,0
2121,-100,4,2,1,60,0,0
18294,-100,4,2,2,60,0,0
18816,-100,4,2,3,75,0,0
25077,-100,4,2,3,70,0,0
26642,-100,4,2,3,60,0,0
27164,-100,4,2,18,90,0,1
27425,-100,4,2,8,90,0,1
27490,-100,4,2,4,90,0,1
27947,-100,4,2,8,90,0,1
28012,-100,4,2,4,90,0,1
28468,-100,4,2,8,90,0,1
28533,-100,4,2,4,90,0,1
28990,-100,4,2,8,90,0,1
29055,-100,4,2,4,90,0,1
29512,-100,4,2,8,90,0,1
29577,-100,4,2,4,90,0,1
30034,-100,4,2,8,90,0,1
30099,-100,4,2,4,90,0,1
30555,-100,4,2,8,90,0,1
30620,-100,4,2,4,90,0,1
31077,-100,4,2,8,90,0,1
31142,-100,4,2,4,90,0,1
31599,-100,4,2,8,90,0,1
31664,-100,4,2,4,90,0,1
32121,-100,4,2,8,90,0,1
32186,-100,4,2,4,90,0,1
32642,-100,4,2,8,90,0,1
32707,-100,4,2,4,90,0,1
33164,-100,4,2,8,90,0,1
33229,-100,4,2,4,90,0,1
33686,-100,4,2,8,90,0,1
33751,-100,4,2,4,90,0,1
34207,-100,4,2,8,90,0,1
34272,-100,4,2,4,90,0,1
34729,-100,4,2,8,90,0,1
34794,-100,4,2,4,90,0,1
34990,-100,4,2,4,90,0,0
35512,-100,4,2,4,90,0,1
35773,-100,4,2,8,90,0,1
35838,-100,4,2,4,90,0,1
36294,-100,4,2,8,90,0,1
36359,-100,4,2,4,90,0,1
36816,-100,4,2,8,90,0,1
36881,-100,4,2,4,90,0,1
37338,-100,4,2,8,90,0,1
37403,-100,4,2,4,90,0,1
37860,-100,4,2,8,90,0,1
37925,-100,4,2,4,90,0,1
38381,-100,4,2,8,90,0,1
38446,-100,4,2,4,90,0,1
38903,-100,4,2,8,90,0,1
38968,-100,4,2,4,90,0,1
39425,-100,4,2,8,90,0,1
39490,-100,4,2,4,90,0,1
39947,-100,4,2,8,90,0,1
40012,-100,4,2,4,90,0,1
40468,-100,4,2,8,90,0,1
40533,-100,4,2,4,90,0,1
40990,-100,4,2,8,90,0,1
41055,-100,4,2,4,90,0,1
41512,-100,4,2,8,90,0,1
41577,-100,4,2,4,90,0,1
42034,-100,4,2,8,90,0,1
42099,-100,4,2,4,90,0,1
42555,-100,4,2,8,90,0,1
42620,-100,4,2,4,90,0,1
43077,-100,4,2,8,90,0,1
43142,-100,4,2,4,90,0,1
43338,-100,4,2,14,90,0,1
43860,-100,4,2,3,75,0,0
52207,-100,4,2,1,65,0,0
58468,-100,4,2,1,80,0,0
60555,-100,4,2,3,75,0,0
68903,-100,4,2,6,55,0,0
77251,-100,4,2,7,65,0,0
85599,-100,4,2,9,40,0,0
86121,-100,4,2,9,50,0,0
86642,-100,4,2,9,60,0,0
87164,-100,4,2,9,70,0,0
87686,-100,4,2,9,90,0,0
89773,-100,4,2,3,80,0,8
96033,-100,4,2,3,70,0,8
97599,-100,4,2,3,60,0,8
98121,-100,4,2,18,90,0,1
98381,-100,4,2,8,90,0,1
98446,-100,4,2,4,90,0,1
98903,-100,4,2,8,90,0,1
98968,-100,4,2,4,90,0,1
99424,-100,4,2,8,90,0,1
99489,-100,4,2,4,90,0,1
99946,-100,4,2,8,90,0,1
100011,-100,4,2,4,90,0,1
100468,-100,4,2,8,90,0,1
100533,-100,4,2,4,90,0,1
100990,-100,4,2,8,90,0,1
101055,-100,4,2,4,90,0,1
101511,-100,4,2,8,90,0,1
101576,-100,4,2,4,90,0,1
102033,-100,4,2,8,90,0,1
102098,-100,4,2,4,90,0,1
102555,-100,4,2,8,90,0,1
102620,-100,4,2,4,90,0,1
103077,-100,4,2,8,90,0,1
103142,-100,4,2,4,90,0,1
103598,-100,4,2,8,90,0,1
103663,-100,4,2,4,90,0,1
104120,-100,4,2,8,90,0,1
104185,-100,4,2,4,90,0,1
104642,-100,4,2,8,90,0,1
104707,-100,4,2,4,90,0,1
105163,-100,4,2,8,90,0,1
105228,-100,4,2,4,90,0,1
105685,-100,4,2,8,90,0,1
105750,-100,4,2,4,90,0,1
105947,-100,4,2,4,90,0,0
106468,-100,4,2,4,90,0,1
106729,-100,4,2,8,90,0,1
106794,-100,4,2,4,90,0,1
107250,-100,4,2,8,90,0,1
107315,-100,4,2,4,90,0,1
107772,-100,4,2,8,90,0,1
107837,-100,4,2,4,90,0,1
108294,-100,4,2,8,90,0,1
108359,-100,4,2,4,90,0,1
108816,-100,4,2,8,90,0,1
108881,-100,4,2,4,90,0,1
109337,-100,4,2,8,90,0,1
109402,-100,4,2,4,90,0,1
109859,-100,4,2,8,90,0,1
109924,-100,4,2,4,90,0,1
110381,-100,4,2,8,90,0,1
110446,-100,4,2,4,90,0,1
110903,-100,4,2,8,90,0,1
110968,-100,4,2,4,90,0,1
111424,-100,4,2,8,90,0,1
111489,-100,4,2,4,90,0,1
111946,-100,4,2,8,90,0,1
112011,-100,4,2,4,90,0,1
112468,-100,4,2,8,90,0,1
112533,-100,4,2,4,90,0,1
112990,-100,4,2,8,90,0,1
113055,-100,4,2,4,90,0,1
113511,-100,4,2,8,90,0,1
113576,-100,4,2,4,90,0,1
114033,-100,4,2,8,90,0,1
114098,-100,4,2,4,90,0,1
114294,-100,4,2,14,90,0,1
114816,-100,4,2,3,75,0,0
123164,-100,4,2,4,80,0,0
123425,-100,4,2,8,80,0,0
123490,-100,4,2,4,80,0,0
123946,-100,4,2,8,80,0,0
124011,-100,4,2,4,80,0,0
124468,-100,4,2,8,80,0,0
124533,-100,4,2,4,80,0,0
124990,-100,4,2,8,80,0,0
125055,-100,4,2,4,80,0,0
125512,-100,4,2,8,80,0,0
125577,-100,4,2,4,80,0,0
126033,-100,4,2,8,80,0,0
126098,-100,4,2,4,80,0,0
126555,-100,4,2,8,80,0,0
126620,-100,4,2,4,80,0,0
127077,-100,4,2,8,80,0,0
127142,-100,4,2,4,80,0,0
127599,-100,4,2,8,80,0,0
127664,-100,4,2,4,80,0,0
128120,-100,4,2,8,80,0,0
128185,-100,4,2,4,80,0,0
128642,-100,4,2,8,80,0,0
128707,-100,4,2,4,80,0,0
129164,-100,4,2,8,80,0,0
129229,-100,4,2,4,80,0,0
129686,-100,4,2,8,80,0,0
129751,-100,4,2,4,80,0,0
130207,-100,4,2,8,80,0,0
130272,-100,4,2,4,80,0,0
130468,-100,4,2,4,60,0,0
130729,-100,4,2,8,60,0,0
130794,-100,4,2,4,60,0,0

[Colours]
Combo1 : 228,63,113
Combo2 : 142,234,214
Combo3 : 225,132,169
Combo4 : 221,225,225

[HitObjects]
171,184,2121,6,0,P|153:124|116:60,2,130,2|10|2,0:0|0:0|1:2,0:0:0:0:
177,300,3686,1,8,0:0:0:0:
62,324,4207,2,0,P|45:306|40:263,1,65,2|2,0:0|1:2,0:0:0:0:
58,211,4729,1,10,0:0:0:0:
171,184,5251,2,0,B|235:177|236:223|316:225,1,130,2|10,1:2|0:0,0:0:0:0:
403,184,6294,6,0,P|457:122|436:66,1,130,2|10,0:0|0:0,0:0:0:0:
360,13,7338,1,2,1:2:0:0:
360,13,7599,2,0,P|292:28|221:42,1,130,2|2,0:0|1:2,0:0:0:0:
175,51,8381,1,2,0:0:0:0:
257,134,8903,1,10,0:0:0:0:
182,224,9425,2,0,P|166:257|167:291,1,65,2|0,1:2|0:0,0:0:0:0:
191,337,9947,1,10,0:0:0:0:
305,362,10468,6,0,P|354:332|453:336,2,130,2|10|2,0:0|0:0|1:2,0:0:0:0:
191,337,12034,2,0,P|170:306|167:270,1,65,10|0,0:0|1:2,0:0:0:0:
182,224,12555,2,0,P|231:177|219:96,2,130,2|10|2,0:0|0:0|1:2,0:0:0:0:
64,226,14121,1,10,0:0:0:0:
23,116,14642,6,0,B|82:102|72:55|146:48,1,130,2|10,0:0|0:0,0:0:0:0:
246,76,15686,2,0,B|305:62|295:15|369:8,1,130,0|8,1:2|0:0,0:0:0:0:
417,17,16468,1,2,1:2:0:0:
417,17,16729,1,2,0:0:0:0:
484,112,17251,2,0,P|465:187|447:266,2,130,10|2|0,0:0|1:2|0:0,0:0:0:0:
355,130,18816,6,0,P|308:181|230:164,1,130,6|10,3:2|1:2,0:0:0:0:
169,95,19860,2,0,P|149:74|105:67,1,65,2|2,3:2|0:0,0:0:0:0:
57,79,20381,1,10,1:2:0:0:
1,182,20903,2,0,P|18:252|34:325,1,130,2|10,3:2|1:2,0:0:0:0:
126,376,21947,1,2,3:2:0:0:
239,346,22468,1,10,1:2:0:0:
260,230,22990,6,0,P|247:197|231:150,1,65,2|2,3:2|0:0,0:0:0:0:
186,138,23512,2,0,P|173:105|157:58,1,65,10|0,1:2|0:0,0:0:0:0:
181,21,24034,1,2,3:2:0:0:
295,45,24555,1,10,1:2:0:0:
408,72,25077,2,0,P|394:143|380:219,2,130,2|2|2,3:2|3:2|1:1,0:0:0:0:
295,45,26642,1,10,0:0:0:0:
181,21,27164,6,0,P|157:45|151:86,1,65,6|2,3:2|3:2,0:0:0:0:
114,121,27686,2,0,P|122:153|155:179,1,65,10|2,0:0|3:2,0:0:0:0:
178,222,28207,2,0,P|226:189|301:178,1,130,2|10,3:2|0:0,0:0:0:0:
406,216,29251,2,0,P|399:250|395:282,2,65,2|2|10,3:2|3:1|2:1,0:0:0:0:
454,181,30034,1,2,3:1:0:0:
454,181,30294,1,2,3:1:0:0:
428,66,30816,1,10,0:0:0:0:
313,40,31338,6,0,P|253:56|161:80,1,130,2|10,3:2|0:0,0:0:0:0:
135,95,32121,1,2,3:2:0:0:
135,95,32381,1,2,3:2:0:0:
52,177,32903,1,10,0:0:0:0:
105,281,33425,2,0,P|167:264|230:247,1,130,2|8,3:2|0:0,0:0:0:0:
337,199,34468,2,0,P|370:205|401:241,1,65,2|2,3:2|3:2,0:0:0:0:
450,239,34990,2,0,P|461:270|445:315,1,65,10|2,0:0|1:2,0:0:0:0:
414,340,35512,6,0,B|354:335|348:375|290:382,2,130,6|8|0,3:2|0:0|3:2,0:0:0:0:
503,267,37077,1,10,0:0:0:0:
490,223,37338,1,2,3:2:0:0:
452,197,37599,2,0,P|412:158|433:72,2,130,2|8|0,3:2|0:0|3:2,0:0:0:0:
384,292,39164,1,10,0:0:0:0:
270,263,39686,6,0,P|284:195|298:127,1,130,2|10,3:2|0:0,0:0:0:0:
301,81,40468,1,2,3:2:0:0:
301,81,40729,1,2,3:2:0:0:
201,19,41251,1,10,0:0:0:0:
97,74,41773,2,0,P|50:127|84:192,1,130,2|8,3:2|0:0,0:0:0:0:
88,237,42555,1,2,3:2:0:0:
88,237,42816,2,0,B|157:223|154:277|237:285,1,130,2|10,3:2|0:0,0:0:0:0:
333,248,43860,6,0,P|397:260|433:336,2,130,6|10|2,3:2|3:2|3:2,0:0:0:0:
243,172,45425,2,0,P|220:148|216:104,1,65,2|0,3:2|0:0,0:0:0:0:
252,73,45947,2,0,P|291:22|377:53,1,130,2|10,3:2|3:2,0:0:0:0:
445,96,46990,1,2,3:2:0:0:
369,185,47512,1,10,3:2:0:0:
434,281,48034,6,0,P|490:336|481:395,2,130,2|10|2,3:2|3:2|3:2,0:0:0:0:
317,291,49599,2,0,P|285:312|241:312,1,65,2|0,3:2|0:0,0:0:0:0:
204,293,50121,2,0,P|217:226|235:143,1,130,2|10,3:2|3:2,0:0:0:0:
167,66,51164,2,0,P|142:49|100:47,2,65,0|2|0,3:2|0:0|3:2,0:0:0:0:
230,165,52207,6,0,P|216:229|204:293,2,130,2|2|2,3:2|3:2|3:2,0:0:0:0:
259,116,53512,1,2,0:0:0:0:
259,116,53773,1,0,3:2:0:0:
369,76,54294,2,0,P|441:89|461:159,2,130,2|2|2,3:2|3:2|3:2,0:0:0:0:
259,116,55860,2,0,L|238:210,1,65,0|2,3:2|1:2,0:0:0:0:
234,237,56381,5,2,3:2:0:0:
326,308,56903,1,2,3:2:0:0:
436,269,57425,2,0,P|449:221|394:160,1,130,2|0,3:2|3:2,0:0:0:0:
304,97,58468,6,0,P|269:105|229:113,1,65,10|2,0:0|1:2,0:0:0:0:
186,87,58990,2,0,P|151:95|111:103,1,65,10|2,0:0|0:0,0:0:0:0:
68,77,59512,1,10,0:0:0:0:
0,173,60034,1,10,0:0:0:0:
0,218,60294,1,2,1:2:0:0:
33,248,60555,6,0,P|90:235|177:219,1,130,6|10,3:2|0:0,0:0:0:0:
246,141,61599,2,0,P|303:128|390:112,1,130,2|10,3:2|0:2,0:0:0:0:
478,167,62642,1,2,3:2:0:0:
506,280,63164,1,10,0:0:0:0:
405,340,63686,2,0,B|346:325|357:283|272:278,1,130,2|10,3:2|0:2,0:0:0:0:
237,280,64468,1,0,1:2:0:0:
237,280,64729,6,0,B|167:280|180:325|103:339,1,130,2|10,3:2|0:0,0:0:0:0:
25,267,65773,2,0,P|-15:203|16:144,1,130,2|10,3:2|0:2,0:0:0:0:
95,85,66816,1,2,3:2:0:0:
196,142,67338,1,10,0:0:0:0:
297,82,67860,2,0,P|328:54|381:58,1,65,2|0,3:2|0:0,0:0:0:0:
407,58,68381,2,0,P|435:88|431:141,1,65,8|2,0:2|1:2,0:0:0:0:
440,169,68903,5,2,1:2:0:0:
79,286,77251,6,0,B|22:243|13:141|94:110|156:157|137:215,2,260,2|10|2,3:2|0:0|1:2,0:0:0:0:
182,296,79860,1,2,3:2:0:0:
254,221,80381,2,0,P|237:163|215:92,1,130,10|0,0:0|1:2,0:0:0:0:
233,50,81164,1,2,0:0:0:0:
233,50,81425,5,2,3:2:0:0:
326,4,81947,1,2,0:0:0:0:
411,63,82468,2,0,P|452:126|429:177,1,130,10|4,0:0|0:0,0:0:0:0:
345,227,83512,2,0,P|277:209|214:195,2,130,2|2|10,1:2|3:2|0:0,0:0:0:0:
417,301,85077,1,2,0:0:0:0:
326,374,85599,6,0,P|274:373|288:282,1,130,10|10,0:0|0:0,0:0:0:0:
345,227,86642,2,0,P|392:199|370:124,1,130,10|10,0:0|0:0,0:0:0:0:
273,87,87686,2,0,P|237:90|215:107,1,65,6|0,3:2|0:0,0:0:0:0:
175,150,88207,1,6,3:2:0:0:
63,115,88729,6,2,P|50:73|128:29,2,130,6|10|6,3:1|0:0|3:2,0:1:0:0:
149,193,90294,1,10,3:2:0:0:
63,273,90817,2,0,P|41:301|37:339,1,65,2|2,3:2|0:0,0:0:0:0:
62,381,91338,1,10,1:2:0:0:
180,378,91860,2,0,B|236:368|229:319|299:308,1,130,2|10,3:2|3:2,0:0:0:0:
349,302,92642,1,2,0:0:0:0:
349,302,92904,1,2,3:2:0:0:
420,209,93425,1,10,1:2:0:0:
334,128,93947,6,0,L|266:146,1,65,2|2,3:2|0:0,0:0:0:0:
225,181,94468,2,0,L|157:199,1,65,10|0,3:2|0:0,0:0:0:0:
112,229,94991,1,2,3:2:0:0:
27,148,95512,1,10,1:2:0:0:
80,43,96034,2,0,P|147:57|225:73,2,130,2|2|2,3:2|3:2|3:2,0:0:0:0:
27,148,97599,1,2,0:0:0:0:
112,229,98121,6,0,P|146:219|183:210,1,65,6|2,3:2|3:2,0:0:0:0:
224,180,98642,2,0,P|258:170|295:161,1,65,10|2,0:0|3:2,0:0:0:0:
328,121,99164,2,0,P|385:113|412:183,1,130,2|10,3:2|0:0,0:0:0:0:
374,279,100208,2,0,P|387:312|398:341,2,65,2|2|10,3:2|3:1|2:1,0:0:0:0:
325,258,100991,1,2,3:1:0:0:
325,258,101251,1,2,3:1:0:0:
213,292,101773,1,10,0:0:0:0:
99,320,102295,6,0,P|39:285|54:210,1,130,2|10,3:2|0:0,0:0:0:0:
40,176,103078,1,2,3:2:0:0:
40,176,103338,1,2,3:2:0:0:
135,107,103860,1,10,0:0:0:0:
240,157,104382,2,0,B|305:145|305:189|379:193,1,130,2|8,3:2|0:0,0:0:0:0:
472,151,105425,2,0,P|484:123|463:67,1,65,2|2,3:2|3:2,0:0:0:0:
442,44,105947,2,0,P|414:32|358:53,1,65,10|2,0:0|1:2,0:0:0:0:
328,65,106469,6,0,P|345:127|364:198,2,130,6|8|0,3:2|0:0|3:2,0:0:0:0:
216,29,108034,1,10,0:0:0:0:
176,52,108295,1,2,3:2:0:0:
162,95,108555,2,0,P|179:157|198:228,2,130,2|8|0,3:2|0:0|3:2,0:0:0:0:
58,40,110121,1,10,0:0:0:0:
0,141,110642,6,0,P|17:203|36:274,1,130,2|10,3:2|0:0,0:0:0:0:
58,325,111425,1,2,3:2:0:0:
58,325,111686,1,2,3:2:0:0:
164,372,112208,1,10,0:0:0:0:
262,308,112730,2,0,P|307:254|275:190,1,130,2|8,3:2|0:0,0:0:0:0:
249,169,113512,1,2,3:2:0:0:
249,169,113773,2,0,P|199:142|216:49,1,130,2|0,3:2|0:0,0:0:0:0:
311,19,114816,6,0,P|381:37|448:53,2,130,6|10|2,3:2|3:2|0:0,0:0:0:0:
203,65,116381,2,0,P|187:95|196:136,1,65,10|0,0:0|0:0,0:0:0:0:
192,183,116903,2,0,B|265:175|261:222|330:231,1,130,2|10,3:2|3:2,0:0:0:0:
423,194,117946,1,2,0:0:0:0:
504,278,118468,1,10,0:0:0:0:
438,375,118990,6,0,P|375:361|306:349,2,130,2|10|2,3:2|3:2|0:0,0:0:0:0:
504,278,120555,2,0,P|499:244|476:220,1,65,10|0,0:0|0:0,0:0:0:0:
426,196,121077,2,0,P|363:210|294:222,1,130,2|10,3:2|3:2,0:0:0:0:
183,241,122120,2,0,P|160:220|154:179,1,65,2|2,3:2|0:0,0:0:0:0:
126,135,122642,1,10,0:0:0:0:
208,51,123164,6,0,L|299:71,1,65,6|2,3:2|3:2,0:0:0:0:
328,50,123686,2,0,L|419:70,1,65,10|0,3:2|3:2,0:0:0:0:
448,50,124207,2,0,P|495:79|475:162,1,130,2|10,3:2|3:2,0:0:0:0:
419,239,125251,2,0,P|431:269|441:301,2,65,2|2|10,3:2|3:2|3:2,0:0:0:0:
313,188,126294,1,2,3:2:0:0:
226,266,126816,1,10,3:2:0:0:
117,222,127338,6,0,P|95:195|96:152,1,65,2|2,3:2|3:2,0:0:0:0:
62,115,127859,2,0,P|74:82|112:61,1,65,10|0,3:2|3:2,0:0:0:0:
140,24,128381,2,0,P|212:42|273:55,1,130,2|10,3:2|3:2,0:0:0:0:
380,80,129425,2,0,P|371:118|363:155,1,65,2|2,3:2|3:2,0:0:0:0:
351,200,129946,1,10,3:2:0:0:
314,311,130468,2,0,P|250:293|180:274,1,130,2|2,3:2|0:0,0:0:0:0:
