osu file format v14

[General]
AudioFilename: audio.mp3
AudioLeadIn: 0
PreviewTime: 97458
Countdown: 0
SampleSet: Normal
StackLeniency: 0.7
Mode: 1
LetterboxInBreaks: 0
WidescreenStoryboard: 1

[Editor]
DistanceSpacing: 1.1
BeatDivisor: 4
GridSize: 8
TimelineZoom: 1.4

[Metadata]
Title:CH4NGE feat. KAFU
TitleUnicode:CH4NGE feat. 可不
Artist:Giga
ArtistUnicode:Giga
Creator:imyx
Version:Oni
Source:
Tags:change electronic japanese vocaloid q*Left qleft q left ギガp gigap giga-p giga p
BeatmapID:3679017
BeatmapSetID:1789863

[Difficulty]
HPDrainRate:6
CircleSize:2
OverallDifficulty:5
ApproachRate:8
SliderMultiplier:1.6
SliderTickRate:1

[Events]
//Background and Video events
0,0,"bg.jpg",0,70
//Break Periods
//Storyboard Layer 0 (Background)
//Storyboard Layer 1 (Fail)
//Storyboard Layer 2 (Pass)
//Storyboard Layer 3 (Foreground)
//Storyboard Layer 4 (Overlay)
//Storyboard Sound Samples

[TimingPoints]
1590,521.739130434783,4,1,0,70,1,8
1763,-104.166666666667,4,1,0,70,0,0
1937,-107.181136120043,4,1,0,70,0,0
2111,521.739130434783,4,1,0,70,1,0
2111,-111.111111111111,4,1,0,70,0,0
18806,-100,4,1,0,80,0,0
25067,-111.111111111111,4,1,0,80,0,0
25197,-113.636363636364,4,1,0,80,0,0
25589,-117.647058823529,4,1,0,80,0,0
25719,-120.481927710843,4,1,0,80,0,0
26111,-125,4,1,0,80,0,0
26632,-76.9230769230769,4,1,0,90,0,0
26893,-71.4285714285714,4,1,0,90,0,0
27154,-71.4285714285714,4,1,0,90,0,1
27415,-83.3333333333333,4,1,0,90,0,1
43850,-90.9090909090909,4,1,0,80,0,0
48024,-90.9090909090909,4,1,0,80,0,0
51024,-91.743119266055,4,1,0,80,0,0
51154,-92.5925925925926,4,1,0,80,0,0
51284,-93.4579439252336,4,1,0,80,0,0
51415,-94.3396226415094,4,1,0,80,0,0
51676,-96.1538461538461,4,1,0,80,0,0
52197,-111.111111111111,4,1,0,70,0,0
58458,-106.382978723404,4,1,0,75,0,0
58980,-102.040816326531,4,1,0,75,0,0
59502,-98.0392156862745,4,1,0,75,0,0
60024,-94.3396226415094,4,1,0,75,0,0
60545,-90.9090909090909,4,1,0,80,0,0
67980,-95.2380952380952,4,1,0,80,0,0
68241,-96.1538461538461,4,1,0,80,0,0
68371,-97.0873786407767,4,1,0,80,0,0
68502,-102.040816326531,4,1,0,60,0,0
68763,-103.092783505155,4,1,0,60,0,0
68893,-104.166666666667,4,1,0,60,0,0
69154,-111.111111111111,4,1,0,60,0,0
69415,-117.647058823529,4,1,0,60,0,0
69806,-125,4,1,0,60,0,0
76720,-120.481927710843,4,1,0,60,0,0
76980,-116.279069767442,4,1,0,60,0,0
77241,-111.111111111111,4,1,0,70,0,0
85589,-106.382978723404,4,1,0,75,0,0
86111,-102.040816326531,4,1,0,75,0,0
86632,-98.0392156862745,4,1,0,75,0,0
87154,-94.3396226415094,4,1,0,75,0,0
87676,-90.9090909090909,4,1,0,75,0,0
87937,-89.2857142857143,4,1,0,75,0,0
88197,-87.719298245614,4,1,0,75,0,0
88719,-84.7457627118644,4,1,0,75,0,0
88850,-84.0336134453781,4,1,0,75,0,0
88980,-83.3333333333333,4,1,0,75,0,0
89111,-82.6446280991736,4,1,0,75,0,0
89241,-76.9230769230769,4,1,0,75,0,0
89763,521.739130434783,4,1,0,80,1,0
89763,-100,4,1,0,80,0,0
96023,-111.111111111111,4,1,0,80,0,0
96154,-113.636363636364,4,1,0,80,0,0
96545,-117.647058823529,4,1,0,80,0,0
96676,-120.481927710843,4,1,0,80,0,0
97067,-125,4,1,0,80,0,0
97589,-83.3333333333333,4,1,0,90,0,0
97849,-76.9230769230769,4,1,0,90,0,0
98110,-71.4285714285714,4,1,0,90,0,1
98371,-83.3333333333333,4,1,0,90,0,1
114806,-90.9090909090909,4,1,0,80,0,0

[Colours]
Combo1 : 255,128,128
Combo2 : 2,173,238

[HitObjects]
98,91,1590,5,0,1:1:0:0:
98,91,1763,1,0,1:1:0:0:
98,91,1937,1,0,1:1:0:0:
200,92,2111,1,2,1:1:0:0:
98,91,2371,1,0,1:1:0:0:
98,91,2632,1,2,1:1:0:0:
98,91,2763,1,0,1:1:0:0:
98,91,3024,1,2,1:1:0:0:
98,91,3154,1,0,1:1:0:0:
98,91,3415,1,0,1:1:0:0:
98,91,3676,1,2,1:1:0:0:
98,91,3763,1,2,1:1:0:0:
98,91,3850,1,2,1:1:0:0:
98,91,3937,1,0,1:1:0:0:
98,91,4197,1,2,1:1:0:0:
98,91,4459,1,0,1:1:0:0:
98,91,4719,1,2,1:1:0:0:
98,91,4851,1,0,1:1:0:0:
200,92,5112,1,2,1:1:0:0:
98,91,5241,1,2,1:1:0:0:
98,91,5502,1,0,1:1:0:0:
200,92,5763,1,2,1:1:0:0:
200,92,5850,1,2,1:1:0:0:
200,92,5937,1,2,1:1:0:0:
98,91,6023,1,0,1:1:0:0:
98,91,6545,1,0,1:1:0:0:
98,91,6806,1,2,1:1:0:0:
98,91,6937,1,0,1:1:0:0:
98,91,7198,1,2,1:1:0:0:
98,91,7328,1,0,1:1:0:0:
98,91,7589,1,0,1:1:0:0:
98,91,7849,1,2,1:1:0:0:
98,91,7937,1,2,1:1:0:0:
98,91,8024,1,2,1:1:0:0:
98,91,8110,1,0,1:1:0:0:
98,91,8371,1,2,1:1:0:0:
98,91,8632,1,0,1:1:0:0:
98,91,8893,1,2,1:1:0:0:
98,91,9154,1,2,1:1:0:0:
62,53,9415,1,0,1:1:0:0:
62,53,9545,1,0,1:1:0:0:
62,53,9676,1,2,1:1:0:0:
62,53,9936,1,2,1:1:0:0:
62,53,10024,1,2,1:1:0:0:
62,53,10111,1,2,1:1:0:0:
62,53,10197,1,0,1:1:0:0:
98,91,10719,1,0,1:1:0:0:
98,91,10981,1,0,1:1:0:0:
98,91,11111,1,2,1:1:0:0:
98,91,11372,1,0,1:1:0:0:
98,91,11502,1,2,1:1:0:0:
98,91,11763,1,2,1:1:0:0:
98,91,12023,1,0,1:1:0:0:
98,91,12111,1,0,1:1:0:0:
98,91,12198,1,0,1:1:0:0:
98,91,12284,1,2,1:1:0:0:
98,91,12545,1,0,1:1:0:0:
98,91,12806,1,2,1:1:0:0:
62,53,13066,1,0,1:1:0:0:
98,91,13197,1,2,1:1:0:0:
98,91,13458,1,2,1:1:0:0:
98,91,13590,1,2,1:1:0:0:
98,91,13849,1,2,1:1:0:0:
62,53,14111,1,0,1:1:0:0:
240,91,14372,1,0,1:1:0:0:
240,91,14459,1,0,1:1:0:0:
98,91,14546,1,0,1:1:0:0:
98,91,14632,1,2,1:1:0:0:
98,91,14894,1,0,1:1:0:0:
98,91,15024,1,2,1:1:0:0:
98,91,15285,1,0,1:1:0:0:
98,91,15415,1,2,1:1:0:0:
98,91,15676,1,0,1:1:0:0:
98,91,16197,1,2,1:1:0:0:
98,91,16285,1,2,1:1:0:0:
98,91,16372,1,2,1:1:0:0:
98,91,16458,1,0,1:1:0:0:
98,91,16719,1,2,1:1:0:0:
98,91,16980,1,0,1:1:0:0:
98,91,17241,1,0,1:1:0:0:
98,91,17371,1,0,1:1:0:0:
98,91,17502,1,2,1:1:0:0:
98,91,17763,1,2,1:1:0:0:
98,91,18024,1,2,1:1:0:0:
98,91,18155,1,2,1:1:0:0:
98,91,18285,1,0,1:1:0:0:
62,53,18806,5,6,1:1:0:0:
62,53,19067,1,0,1:1:0:0:
62,53,19197,1,0,1:1:0:0:
62,53,19329,1,2,1:1:0:0:
62,53,19459,1,2,1:1:0:0:
62,53,19589,1,0,1:1:0:0:
62,53,19849,1,2,1:1:0:0:
62,53,20110,1,0,1:1:0:0:
62,53,20242,1,2,1:1:0:0:
62,53,20372,1,0,1:1:0:0:
62,53,20503,1,0,1:1:0:0:
62,53,20632,1,2,1:1:0:0:
62,53,20893,1,2,1:1:0:0:
62,53,21155,1,2,1:1:0:0:
62,53,21285,1,2,1:1:0:0:
62,53,21415,1,0,1:1:0:0:
62,53,21546,1,0,1:1:0:0:
62,53,21676,1,2,1:1:0:0:
62,53,21936,1,0,1:1:0:0:
62,53,22067,1,2,1:1:0:0:
62,53,22198,1,2,1:1:0:0:
62,53,22459,1,2,1:1:0:0:
62,53,22590,1,0,1:1:0:0:
62,53,22720,1,0,1:1:0:0:
175,56,22980,1,6,1:1:0:0:
62,53,23242,1,0,1:1:0:0:
62,53,23372,1,0,1:1:0:0:
62,53,23502,1,2,1:1:0:0:
62,53,23632,1,2,1:1:0:0:
62,53,23764,1,0,1:1:0:0:
62,53,24024,1,2,1:1:0:0:
62,53,24285,1,2,1:1:0:0:
62,53,24416,1,0,1:1:0:0:
62,53,24546,1,2,1:1:0:0:
62,53,24676,1,0,1:1:0:0:
62,53,24807,1,0,1:1:0:0:
62,53,25067,1,2,1:1:0:0:
62,53,25197,1,0,1:1:0:0:
62,53,25589,1,2,1:1:0:0:
62,53,25719,1,2,1:1:0:0:
294,58,26111,5,4,1:1:0:0:
175,56,26632,1,0,1:1:0:0:
175,56,26893,1,0,1:1:0:0:
175,56,27154,1,6,1:1:0:0:
175,56,27415,1,0,1:1:0:0:
175,56,27545,1,0,1:1:0:0:
175,56,27676,1,2,1:1:0:0:
175,56,27807,1,0,1:1:0:0:
175,56,27937,1,2,1:1:0:0:
175,56,28198,1,2,1:1:0:0:
175,56,28458,1,0,1:1:0:0:
175,56,28589,1,0,1:1:0:0:
175,56,28719,1,2,1:1:0:0:
175,56,28850,1,2,1:1:0:0:
175,56,28981,1,0,1:1:0:0:
175,56,29110,1,2,1:1:0:0:
175,56,29241,1,0,1:1:0:0:
175,56,29502,5,6,1:1:0:0:
175,56,29763,5,6,1:1:0:0:
175,56,30023,5,6,1:1:0:0:
175,56,30284,5,4,1:1:0:0:
175,56,30806,1,0,1:1:0:0:
175,56,31067,1,0,1:1:0:0:
175,56,31198,1,0,1:1:0:0:
175,56,31328,1,2,1:1:0:0:
175,56,31589,1,0,1:1:0:0:
175,56,31850,1,0,1:1:0:0:
175,56,31980,1,2,1:1:0:0:
175,56,32111,1,0,1:1:0:0:
175,56,32242,1,0,1:1:0:0:
175,56,32371,1,2,1:1:0:0:
175,56,32632,1,0,1:1:0:0:
175,56,32894,1,0,1:1:0:0:
175,56,33154,1,2,1:1:0:0:
379,70,33242,1,2,1:1:0:0:
379,70,33329,1,2,1:1:0:0:
175,56,33416,5,0,1:1:0:0:
175,56,33676,1,2,1:1:0:0:
175,56,33806,1,2,1:1:0:0:
175,56,33936,1,0,1:1:0:0:
175,56,34198,1,2,1:1:0:0:
175,56,34329,1,0,1:1:0:0:
175,56,34459,1,2,1:1:0:0:
175,56,34590,1,2,1:1:0:0:
175,56,34719,1,0,1:1:0:0:
175,56,34980,1,2,1:1:0:0:
175,56,35502,5,4,1:1:0:0:
175,56,35763,1,0,1:1:0:0:
175,56,35894,1,6,1:1:0:0:
175,56,36284,1,4,1:1:0:0:
175,56,36545,1,2,1:1:0:0:
175,56,36806,1,2,1:1:0:0:
175,56,37067,1,2,1:1:0:0:
175,56,37197,1,2,1:1:0:0:
175,56,37328,1,0,1:1:0:0:
175,56,37589,5,6,1:1:0:0:
175,56,37849,1,2,1:1:0:0:
175,56,37980,1,4,1:1:0:0:
175,56,38372,1,6,1:1:0:0:
175,56,38633,1,0,1:1:0:0:
175,56,38893,1,2,1:1:0:0:
175,56,39024,1,2,1:1:0:0:
175,56,39155,5,4,1:1:0:0:
175,56,39415,5,6,1:1:0:0:
175,56,39676,5,6,1:1:0:0:
175,56,39937,1,0,1:1:0:0:
175,56,40067,1,0,1:1:0:0:
175,56,40198,1,2,1:1:0:0:
175,56,40458,1,2,1:1:0:0:
175,56,40590,1,0,1:1:0:0:
175,56,40720,5,2,1:1:0:0:
175,56,40980,5,2,1:1:0:0:
175,56,41241,5,0,1:1:0:0:
175,56,41502,1,0,1:1:0:0:
175,56,41763,1,2,1:1:0:0:
175,56,41894,1,0,1:1:0:0:
175,56,42024,1,2,1:1:0:0:
175,56,42154,1,2,1:1:0:0:
175,56,42285,1,0,1:1:0:0:
175,56,42545,1,2,1:1:0:0:
175,56,42806,1,2,1:1:0:0:
175,56,43067,1,0,1:1:0:0:
175,56,43328,5,2,1:1:0:0:
63,57,43850,5,4,1:1:0:0:
175,56,44110,1,2,1:1:0:0:
63,57,44371,1,0,1:1:0:0:
175,56,44503,1,2,1:1:0:0:
63,57,44633,1,0,1:1:0:0:
175,56,44762,1,0,1:1:0:0:
63,57,44893,1,2,1:1:0:0:
175,56,45155,1,0,1:1:0:0:
175,56,45415,1,2,1:1:0:0:
63,57,45545,1,0,1:1:0:0:
175,56,45676,1,2,1:1:0:0:
63,57,45763,1,2,1:1:0:0:
175,56,45850,1,2,1:1:0:0:
63,57,45937,1,0,1:1:0:0:
63,57,46198,1,2,1:1:0:0:
175,56,46458,1,0,1:1:0:0:
63,57,46589,1,2,1:1:0:0:
63,57,46720,1,0,1:1:0:0:
62,53,46849,1,0,1:1:0:0:
62,53,46981,1,2,1:1:0:0:
62,53,47503,1,2,1:1:0:0:
63,57,48023,5,4,1:1:0:0:
175,56,48284,1,2,1:1:0:0:
63,57,48546,1,0,1:1:0:0:
175,56,48676,1,2,1:1:0:0:
63,57,48806,1,0,1:1:0:0:
175,56,48937,1,0,1:1:0:0:
63,57,49068,1,2,1:1:0:0:
175,56,49328,1,0,1:1:0:0:
175,56,49590,1,2,1:1:0:0:
63,57,49720,1,0,1:1:0:0:
175,56,49851,1,2,1:1:0:0:
63,57,49937,1,2,1:1:0:0:
63,57,50024,1,2,1:1:0:0:
63,57,50112,1,0,1:1:0:0:
63,57,50371,1,2,1:1:0:0:
63,57,50632,1,0,1:1:0:0:
175,56,50763,1,2,1:1:0:0:
62,53,51024,1,0,1:1:0:0:
62,53,51154,1,2,1:1:0:0:
62,53,51284,1,2,1:1:0:0:
62,53,51415,1,0,1:1:0:0:
62,53,51676,1,0,1:1:0:0:
431,74,52197,1,0,1:1:0:0:
431,74,52459,1,2,1:1:0:0:
431,74,52720,1,0,1:1:0:0:
431,74,52980,1,2,1:1:0:0:
431,74,53110,1,2,1:1:0:0:
431,74,53241,1,0,1:1:0:0:
431,74,53502,1,0,1:1:0:0:
431,74,53632,1,0,1:1:0:0:
431,74,53894,1,2,1:1:0:0:
431,74,54023,1,0,1:1:0:0:
431,74,54155,1,2,1:1:0:0:
431,74,54284,1,2,1:1:0:0:
431,74,54545,1,2,1:1:0:0:
431,74,54676,1,0,1:1:0:0:
431,74,54806,1,0,1:1:0:0:
431,74,54936,1,2,1:1:0:0:
431,74,55197,1,2,1:1:0:0:
431,74,55328,1,2,1:1:0:0:
431,74,55589,1,2,1:1:0:0:
431,74,55719,5,0,1:1:0:0:
431,74,55981,1,2,1:1:0:0:
431,74,56111,1,0,1:1:0:0:
431,74,56242,1,0,1:1:0:0:
431,74,56372,1,2,1:1:0:0:
431,74,56632,1,0,1:1:0:0:
431,74,56893,1,2,1:1:0:0:
431,74,57154,1,2,1:1:0:0:
431,74,57284,1,0,1:1:0:0:
431,74,57415,1,2,1:1:0:0:
431,74,57676,1,2,1:1:0:0:
431,74,57806,1,2,1:1:0:0:
431,74,57937,1,2,1:1:0:0:
431,74,58197,1,2,1:1:0:0:
238,62,58458,1,4,1:1:0:0:
238,62,58719,1,2,1:1:0:0:
238,62,58850,1,2,1:1:0:0:
238,62,58980,1,4,1:1:0:0:
238,62,59241,1,2,1:1:0:0:
238,62,59502,1,4,1:1:0:0:
238,62,59763,1,2,1:1:0:0:
238,62,59893,1,2,1:1:0:0:
238,62,60024,1,4,1:1:0:0:
238,62,60284,1,2,1:1:0:0:
77,108,60545,5,6,1:1:0:0:
238,62,60937,1,0,1:1:0:0:
77,108,61068,1,6,1:1:0:0:
238,62,61458,1,2,1:1:0:0:
238,62,61590,1,4,1:1:0:0:
238,62,61981,1,2,1:1:0:0:
238,62,62111,1,4,1:1:0:0:
238,62,62503,1,0,1:1:0:0:
238,62,62633,1,6,1:1:0:0:
238,62,63024,1,0,1:1:0:0:
238,62,63155,1,6,1:1:0:0:
238,62,63546,1,2,1:1:0:0:
238,62,63676,1,4,1:1:0:0:
238,62,63938,1,2,1:1:0:0:
238,62,64198,1,0,1:1:0:0:
238,62,64285,1,0,1:1:0:0:
238,62,64372,1,0,1:1:0:0:
238,62,64459,1,2,1:1:0:0:
77,108,64719,5,6,1:1:0:0:
238,62,65111,1,0,1:1:0:0:
77,108,65242,1,6,1:1:0:0:
238,62,65633,1,2,1:1:0:0:
238,62,65763,1,4,1:1:0:0:
238,62,66154,1,2,1:1:0:0:
238,62,66285,1,4,1:1:0:0:
238,62,66676,1,0,1:1:0:0:
238,62,66806,1,6,1:1:0:0:
238,62,67197,1,0,1:1:0:0:
238,62,67328,1,6,1:1:0:0:
238,62,67720,1,0,1:1:0:0:
238,62,67851,1,6,1:1:0:0:
238,62,68110,1,2,1:1:0:0:
238,62,68242,1,0,1:1:0:0:
238,62,68371,1,2,1:1:0:0:
163,70,68633,5,0,1:1:0:0:
163,70,68763,1,0,1:1:0:0:
163,70,68893,1,2,1:1:0:0:
163,70,69154,1,2,1:1:0:0:
68,70,69415,1,0,1:1:0:0:
163,70,69936,1,2,1:1:0:0:
163,70,70197,1,2,1:1:0:0:
68,70,70458,1,0,1:1:0:0:
68,70,70720,1,2,1:1:0:0:
68,70,70980,1,0,1:1:0:0:
68,70,71241,1,0,1:1:0:0:
163,70,71502,1,2,1:1:0:0:
163,70,71763,1,2,1:1:0:0:
68,70,72024,1,0,1:1:0:0:
163,70,72545,1,2,1:1:0:0:
163,70,72806,1,0,1:1:0:0:
163,70,72937,1,0,1:1:0:0:
163,70,73067,1,2,1:1:0:0:
163,70,73328,1,2,1:1:0:0:
68,70,73589,1,0,1:1:0:0:
163,70,74110,1,2,1:1:0:0:
163,70,74371,1,2,1:1:0:0:
68,70,74632,1,0,1:1:0:0:
163,70,74893,1,2,1:1:0:0:
68,70,75154,1,0,1:1:0:0:
68,70,75415,1,0,1:1:0:0:
163,70,75676,1,2,1:1:0:0:
163,70,75937,1,2,1:1:0:0:
68,70,76198,1,0,1:1:0:0:
163,70,76720,1,2,1:1:0:0:
63,49,76980,1,0,1:1:0:0:
163,70,77241,5,6,1:1:0:0:
163,48,77502,1,0,1:1:0:0:
163,48,77632,1,0,1:1:0:0:
163,48,77763,1,2,1:1:0:0:
163,48,77894,1,0,1:1:0:0:
163,48,78023,1,2,1:1:0:0:
163,48,78284,1,0,1:1:0:0:
163,48,78546,1,2,1:1:0:0:
163,48,78676,1,2,1:1:0:0:
163,48,78806,1,0,1:1:0:0:
163,48,78936,1,0,1:1:0:0:
163,48,79068,1,2,1:1:0:0:
163,48,79328,1,0,1:1:0:0:
163,48,79590,1,2,1:1:0:0:
163,48,79720,1,2,1:1:0:0:
163,48,79850,1,0,1:1:0:0:
163,48,80110,1,0,1:1:0:0:
163,48,80371,1,2,1:1:0:0:
163,48,80893,1,2,1:1:0:0:
163,48,81154,1,2,1:1:0:0:
163,48,81284,1,2,1:1:0:0:
163,48,81415,1,0,1:1:0:0:
163,48,81676,1,2,1:1:0:0:
163,48,81937,1,0,1:1:0:0:
163,48,82068,1,0,1:1:0:0:
163,48,82198,1,0,1:1:0:0:
163,48,82458,1,2,1:1:0:0:
163,48,82719,1,2,1:1:0:0:
163,48,82849,1,2,1:1:0:0:
163,48,82980,1,0,1:1:0:0:
163,48,83241,1,2,1:1:0:0:
163,48,83502,1,2,1:1:0:0:
163,48,83763,1,2,1:1:0:0:
163,48,83893,1,0,1:1:0:0:
163,48,84024,1,2,1:1:0:0:
163,48,84285,1,0,1:1:0:0:
163,48,84545,1,2,1:1:0:0:
163,48,84807,1,0,1:1:0:0:
163,48,84938,1,0,1:1:0:0:
163,48,85067,1,2,1:1:0:0:
163,48,85329,1,0,1:1:0:0:
60,62,85590,5,2,1:1:0:0:
60,62,86111,1,2,1:1:0:0:
60,62,86633,1,2,1:1:0:0:
60,62,87155,1,2,1:1:0:0:
60,62,87676,1,4,1:1:0:0:
60,62,87937,1,2,1:1:0:0:
60,62,88197,1,4,1:1:0:0:
163,48,88720,1,2,1:1:0:0:
163,48,88851,1,2,1:1:0:0:
163,48,88981,1,2,1:1:0:0:
163,48,89112,1,2,1:1:0:0:
60,62,89242,1,4,1:1:0:0:
62,53,89764,5,6,1:1:0:0:
62,53,90024,1,0,1:1:0:0:
62,53,90154,1,0,1:1:0:0:
62,53,90284,1,2,1:1:0:0:
62,53,90416,1,2,1:1:0:0:
62,53,90546,1,0,1:1:0:0:
62,53,90806,1,2,1:1:0:0:
62,53,91067,1,0,1:1:0:0:
62,53,91197,1,2,1:1:0:0:
62,53,91328,1,0,1:1:0:0:
62,53,91458,1,0,1:1:0:0:
62,53,91589,1,2,1:1:0:0:
62,53,91850,1,2,1:1:0:0:
62,53,92110,1,2,1:1:0:0:
62,53,92242,1,2,1:1:0:0:
62,53,92372,1,0,1:1:0:0:
62,53,92503,1,0,1:1:0:0:
62,53,92633,1,2,1:1:0:0:
62,53,92893,1,0,1:1:0:0:
62,53,93024,1,2,1:1:0:0:
62,53,93155,1,2,1:1:0:0:
62,53,93416,1,2,1:1:0:0:
62,53,93546,1,0,1:1:0:0:
62,53,93677,1,0,1:1:0:0:
175,56,93937,1,6,1:1:0:0:
62,53,94197,1,0,1:1:0:0:
62,53,94328,1,0,1:1:0:0:
62,53,94458,1,2,1:1:0:0:
62,53,94589,1,2,1:1:0:0:
62,53,94719,1,0,1:1:0:0:
62,53,94981,1,2,1:1:0:0:
62,53,95242,1,2,1:1:0:0:
62,53,95371,1,0,1:1:0:0:
62,53,95503,1,2,1:1:0:0:
62,53,95633,1,0,1:1:0:0:
62,53,95764,1,0,1:1:0:0:
62,53,96024,1,2,1:1:0:0:
62,53,96155,1,0,1:1:0:0:
62,53,96546,1,2,1:1:0:0:
62,53,96677,1,2,1:1:0:0:
294,58,97068,5,4,1:1:0:0:
175,56,97590,1,0,1:1:0:0:
175,56,97850,1,0,1:1:0:0:
175,56,98111,1,6,1:1:0:0:
175,56,98372,1,0,1:1:0:0:
175,56,98502,1,0,1:1:0:0:
175,56,98633,1,2,1:1:0:0:
175,56,98764,1,0,1:1:0:0:
175,56,98894,1,2,1:1:0:0:
175,56,99155,1,2,1:1:0:0:
175,56,99415,1,0,1:1:0:0:
175,56,99546,1,0,1:1:0:0:
175,56,99676,1,2,1:1:0:0:
175,56,99807,1,2,1:1:0:0:
175,56,99936,1,0,1:1:0:0:
175,56,100067,1,2,1:1:0:0:
175,56,100198,1,0,1:1:0:0:
175,56,100459,5,6,1:1:0:0:
175,56,100720,5,6,1:1:0:0:
175,56,100980,5,6,1:1:0:0:
175,56,101241,5,4,1:1:0:0:
175,56,101764,1,0,1:1:0:0:
175,56,102023,1,0,1:1:0:0:
175,56,102154,1,0,1:1:0:0:
175,56,102284,1,2,1:1:0:0:
175,56,102545,1,0,1:1:0:0:
175,56,102806,1,0,1:1:0:0:
175,56,102936,1,2,1:1:0:0:
175,56,103067,1,0,1:1:0:0:
175,56,103198,1,0,1:1:0:0:
175,56,103328,1,2,1:1:0:0:
175,56,103590,1,0,1:1:0:0:
175,56,103850,1,0,1:1:0:0:
175,56,104110,1,2,1:1:0:0:
379,70,104198,1,2,1:1:0:0:
379,70,104285,1,2,1:1:0:0:
175,56,104372,5,0,1:1:0:0:
175,56,104632,1,2,1:1:0:0:
175,56,104763,1,2,1:1:0:0:
175,56,104893,1,0,1:1:0:0:
175,56,105154,1,2,1:1:0:0:
175,56,105284,1,0,1:1:0:0:
175,56,105415,1,2,1:1:0:0:
175,56,105545,1,2,1:1:0:0:
175,56,105676,1,0,1:1:0:0:
175,56,105936,1,2,1:1:0:0:
175,56,106458,5,4,1:1:0:0:
175,56,106719,1,0,1:1:0:0:
175,56,106849,1,6,1:1:0:0:
175,56,107241,1,4,1:1:0:0:
175,56,107502,1,2,1:1:0:0:
175,56,107763,1,2,1:1:0:0:
175,56,108023,1,2,1:1:0:0:
175,56,108155,1,2,1:1:0:0:
175,56,108284,1,0,1:1:0:0:
175,56,108545,5,6,1:1:0:0:
175,56,108806,1,2,1:1:0:0:
175,56,108936,1,4,1:1:0:0:
175,56,109328,5,6,1:1:0:0:
175,56,109589,1,0,1:1:0:0:
175,56,109849,1,2,1:1:0:0:
175,56,109980,1,2,1:1:0:0:
175,56,110110,5,4,1:1:0:0:
175,56,110371,5,6,1:1:0:0:
175,56,110633,5,6,1:1:0:0:
175,56,110894,1,0,1:1:0:0:
175,56,111024,1,0,1:1:0:0:
175,56,111155,1,2,1:1:0:0:
175,56,111415,1,2,1:1:0:0:
175,56,111545,1,0,1:1:0:0:
175,56,111676,5,2,1:1:0:0:
175,56,111936,5,2,1:1:0:0:
175,56,112197,5,0,1:1:0:0:
175,56,112459,1,0,1:1:0:0:
175,56,112720,1,2,1:1:0:0:
175,56,112849,1,0,1:1:0:0:
175,56,112981,1,2,1:1:0:0:
175,56,113111,1,2,1:1:0:0:
175,56,113242,1,0,1:1:0:0:
175,56,113502,1,2,1:1:0:0:
175,56,113763,1,2,1:1:0:0:
175,56,114024,1,0,1:1:0:0:
63,57,114807,5,4,1:1:0:0:
63,57,115067,1,2,1:1:0:0:
63,57,115198,1,2,1:1:0:0:
63,57,115328,1,0,1:1:0:0:
175,56,115589,1,0,1:1:0:0:
63,57,115850,1,2,1:1:0:0:
63,57,115980,1,0,1:1:0:0:
63,57,116110,1,0,1:1:0:0:
175,56,116242,1,2,1:1:0:0:
175,56,116371,1,2,1:1:0:0:
175,56,116632,1,0,1:1:0:0:
63,57,116764,1,0,1:1:0:0:
175,56,116894,1,2,1:1:0:0:
175,56,117155,1,0,1:1:0:0:
175,56,117285,1,2,1:1:0:0:
63,57,117416,1,0,1:1:0:0:
63,57,117677,1,2,1:1:0:0:
62,53,117937,1,2,1:1:0:0:
62,53,118068,1,2,1:1:0:0:
62,53,118198,1,2,1:1:0:0:
62,53,118459,1,2,1:1:0:0:
62,53,118590,1,2,1:1:0:0:
175,56,118720,1,2,1:1:0:0:
175,56,118850,1,2,1:1:0:0:
62,53,118981,1,0,1:1:0:0:
63,57,119242,1,2,1:1:0:0:
63,57,119371,1,2,1:1:0:0:
63,57,119503,1,0,1:1:0:0:
63,57,119764,1,0,1:1:0:0:
175,56,120024,1,2,1:1:0:0:
63,57,120154,1,0,1:1:0:0:
63,57,120284,1,0,1:1:0:0:
175,56,120416,1,2,1:1:0:0:
175,56,120545,1,2,1:1:0:0:
175,56,120807,1,0,1:1:0:0:
63,57,120936,1,0,1:1:0:0:
175,56,121068,1,2,1:1:0:0:
175,56,121329,1,0,1:1:0:0:
175,56,121458,5,2,1:1:0:0:
175,56,121590,1,0,1:1:0:0:
175,56,121849,1,2,1:1:0:0:
63,57,122111,1,0,1:1:0:0:
63,57,122242,1,0,1:1:0:0:
175,56,122371,1,2,1:1:0:0:
175,56,122503,1,2,1:1:0:0:
175,56,122632,5,0,1:1:0:0:
175,56,122894,1,2,1:1:0:0:
63,57,123155,5,4,1:1:0:0:
63,57,123676,1,0,1:1:0:0:
175,56,123807,1,2,1:1:0:0:
63,57,123936,1,0,1:1:0:0:
175,56,124067,1,0,1:1:0:0:
63,57,124198,1,2,1:1:0:0:
175,56,124458,1,0,1:1:0:0:
175,56,124720,1,2,1:1:0:0:
63,57,124850,1,0,1:1:0:0:
175,56,124981,1,2,1:1:0:0:
63,57,125068,1,2,1:1:0:0:
63,57,125155,1,2,1:1:0:0:
63,57,125242,1,0,1:1:0:0:
63,57,125502,1,2,1:1:0:0:
175,56,125763,1,0,1:1:0:0:
63,57,125894,1,2,1:1:0:0:
63,57,126023,1,0,1:1:0:0:
62,53,126154,1,0,1:1:0:0:
62,53,126284,1,2,1:1:0:0:
62,53,126806,1,2,1:1:0:0:
63,57,127329,5,4,1:1:0:0:
175,56,127589,1,2,1:1:0:0:
63,57,127849,1,0,1:1:0:0:
175,56,127981,1,2,1:1:0:0:
63,57,128111,1,0,1:1:0:0:
175,56,128242,1,0,1:1:0:0:
63,57,128371,1,2,1:1:0:0:
175,56,128632,1,0,1:1:0:0:
175,56,128893,1,2,1:1:0:0:
63,57,129023,1,0,1:1:0:0:
175,56,129154,1,2,1:1:0:0:
63,57,129242,1,2,1:1:0:0:
63,57,129329,1,2,1:1:0:0:
63,57,129415,1,0,1:1:0:0:
63,57,129676,5,2,1:1:0:0:
63,57,129937,1,0,1:1:0:0:
175,56,130068,1,2,1:1:0:0:
63,57,130198,1,0,1:1:0:0:
62,53,130329,1,0,1:1:0:0:
62,53,130458,1,2,1:1:0:0:
62,53,130981,1,2,1:1:0:0:
