osu file format v14

[General]
AudioFilename: audio.mp3
AudioLeadIn: 0
PreviewTime: 51721
Countdown: 0
SampleSet: Soft
StackLeniency: 0.4
Mode: 0
LetterboxInBreaks: 0
WidescreenStoryboard: 1

[Editor]
Bookmarks: 146253,158253
DistanceSpacing: 0.6
BeatDivisor: 4
GridSize: 16
TimelineZoom: 3.199999

[Metadata]
Title:BRING IT ON
TitleUnicode:劣等上等
Artist:Giga
ArtistUnicode:Giga
Creator:Pho
Version:Minorsonek's Extreme
Source:
Tags:vocaloid 鏡音リン レン Kagamine Rin Len ギガ Magical Mirai 10th anniversary theme song マジカルミライ テーマソング rettou joutou giga-p reol れをる △○□×miwasiba みわしいば okiku お菊 japanese pop rap [_Drop_] choikapo [ Drop ] minorsonek m2usonek novelty
BeatmapID:1864300
BeatmapSetID:865490

[Difficulty]
HPDrainRate:5
CircleSize:4
OverallDifficulty:8.2
ApproachRate:9.3
SliderMultiplier:2.8
SliderTickRate:1

[Events]
//Background and Video events
0,0,"bg.jpg",0,0
//Break Periods
2,146328,157574
//Storyboard Layer 0 (Background)
//Storyboard Layer 1 (Fail)
//Storyboard Layer 2 (Pass)
//Storyboard Layer 3 (Foreground)
//Storyboard Layer 4 (Overlay)
//Storyboard Sound Samples

[TimingPoints]
628,375,4,2,1,60,1,0
628,-100,4,2,1,60,0,0
909,-100,4,2,1,5,0,0
1003,-153.846153846154,4,2,1,40,0,0
3253,-153.846153846154,4,2,1,60,0,0
3534,-153.846153846154,4,2,1,5,0,0
3628,-100,4,2,1,60,0,0
4003,-153.846153846154,4,2,1,40,0,0
6065,-153.846153846154,4,2,1,40,0,0
6440,-153.846153846154,4,2,1,40,0,0
6534,-153.846153846154,4,2,1,5,0,0
6628,-90.9090909090909,4,2,1,90,0,0
6909,-90.9090909090909,4,2,1,60,0,0
7003,-133.333333333333,4,2,1,60,0,0
7753,-133.333333333333,4,2,2,70,0,0
7846,-133.333333333333,4,2,1,75,0,0
7940,-133.333333333333,4,2,1,60,0,0
9253,-133.333333333333,4,2,2,70,0,0
9346,-133.333333333333,4,2,1,60,0,0
9628,-133.333333333333,4,2,1,65,0,0
10753,-100,4,2,2,75,0,0
11128,-100,4,2,1,70,0,0
11315,-100,4,2,1,75,0,0
11503,-100,4,2,1,80,0,0
11690,-100,4,2,1,85,0,0
11878,-100,4,2,1,40,0,0
12065,-100,4,2,1,45,0,0
12253,-100,4,2,1,50,0,0
12440,-100,4,2,1,55,0,0
12534,-100,4,2,1,5,0,0
12628,-333.333333333333,4,2,1,100,0,0
12721,-333.333333333333,4,2,1,60,0,0
12815,-66.6666666666667,4,2,1,60,0,0
13003,-333.333333333333,4,2,1,60,0,0
13190,-66.6666666666667,4,2,1,60,0,0
13378,-333.333333333333,4,2,1,60,0,0
13565,-66.6666666666667,4,2,1,60,0,0
13753,-333.333333333333,4,2,1,60,0,0
13940,-66.6666666666667,4,2,1,60,0,0
14128,-100,4,2,1,60,0,0
15628,-333.333333333333,4,2,1,60,0,0
15815,-66.6666666666667,4,2,1,60,0,0
16003,-333.333333333333,4,2,1,60,0,0
16190,-66.6666666666667,4,2,1,60,0,0
16378,-333.333333333333,4,2,1,60,0,0
16565,-66.6666666666667,4,2,1,60,0,0
16753,-333.333333333333,4,2,1,60,0,0
16940,-66.6666666666667,4,2,1,60,0,0
17128,-100,4,2,1,60,0,0
18628,-90.9090909090909,4,2,1,60,0,0
20128,-76.9230769230769,4,2,1,60,0,0
21253,-66.6666666666667,4,2,1,60,0,0
21628,-71.4285714285714,4,2,1,60,0,0
23128,-58.8235294117647,4,2,1,60,0,0
24253,-200,4,2,2,100,0,0
24534,-200,4,2,1,5,0,0
24628,-71.4285714285714,4,2,2,100,0,0
24721,-71.4285714285714,4,2,1,60,0,0
30628,-83.3333333333333,4,2,1,60,0,0
31565,-58.8235294117647,4,2,1,60,0,0
31753,-50,4,2,1,60,0,0
32128,-83.3333333333333,4,2,1,60,0,0
33065,-58.8235294117647,4,2,1,60,0,0
33253,-50,4,2,1,60,0,0
33628,-62.5,4,2,1,60,0,0
36253,-200,4,2,2,100,0,0
36440,-200,4,2,1,70,0,0
36628,-55.5555555555556,4,2,1,80,0,0
36909,-55.5555555555556,4,2,1,20,0,0
37003,-133.333333333333,4,2,1,50,0,0
42253,-100,4,2,1,50,0,0
42628,-55.5555555555556,4,2,1,80,0,0
42909,-55.5555555555556,4,2,1,20,0,0
43003,-133.333333333333,4,2,1,50,0,0
48628,-33.3333333333333,4,2,2,40,0,0
48721,-33.3333333333333,4,2,1,55,0,0
49378,-33.3333333333333,4,2,2,40,0,0
49471,-33.3333333333333,4,2,1,55,0,0
50128,-33.3333333333333,4,2,2,55,0,0
50221,-33.3333333333333,4,2,1,50,0,0
50503,-33.3333333333333,4,2,2,55,0,0
50596,-33.3333333333333,4,2,1,50,0,0
50878,-50,4,2,2,60,0,0
50971,-50,4,2,1,50,0,0
51065,-50,4,2,1,50,0,0
51253,-50,4,2,2,65,0,0
51346,-50,4,2,1,50,0,0
51440,-50,4,2,1,50,0,0
51628,-133.333333333333,4,2,1,40,0,0
52378,-133.333333333333,4,2,5,90,0,0
52565,-133.333333333333,4,2,1,40,0,0
52753,-133.333333333333,4,2,1,50,0,0
53128,-50,4,2,1,80,0,1
53878,-66.6666666666667,4,2,1,80,0,1
54628,-50,4,2,1,80,0,1
55378,-66.6666666666667,4,2,1,80,0,1
56128,-50,4,2,1,80,0,1
56878,-66.6666666666667,4,2,1,80,0,1
57440,-50,4,2,1,80,0,1
57815,-66.6666666666667,4,2,1,80,0,1
58378,-58.8235294117647,4,2,1,80,0,1
59128,-50,4,2,1,80,0,1
59878,-66.6666666666667,4,2,1,80,0,1
60628,-50,4,2,1,80,0,1
61378,-66.6666666666667,4,2,1,80,0,1
62128,-58.8235294117647,4,2,1,80,0,1
62878,-66.6666666666667,4,2,1,80,0,1
63440,-76.9230769230769,4,2,1,80,0,1
64753,-66.6666666666667,4,2,2,80,0,1
64940,-66.6666666666667,4,2,1,80,0,1
65128,-66.6666666666667,4,2,2,80,0,1
65315,-66.6666666666667,4,2,1,80,0,1
66628,-66.6666666666667,4,2,2,80,0,1
66815,-66.6666666666667,4,2,1,80,0,1
68128,-66.6666666666667,4,2,2,80,0,1
68315,-66.6666666666667,4,2,1,80,0,1
69628,-66.6666666666667,4,2,1,80,0,1
70753,-66.6666666666667,4,2,2,80,0,1
71128,-100,4,2,1,60,0,0
71409,-100,4,2,1,5,0,0
71503,-100,4,2,1,35,0,0
71784,-100,4,2,1,5,0,0
71878,-100,4,2,1,25,0,0
72065,-100,4,2,1,5,0,0
72159,-100,4,2,1,35,0,0
72346,-100,4,2,1,5,0,0
72440,-100,4,2,1,35,0,0
73096,-100,4,2,1,5,0,0
73190,-100,4,2,1,35,0,0
73284,-100,4,2,1,5,0,0
73378,-100,4,2,1,35,0,0
73659,-100,4,2,1,5,0,0
73753,-100,4,2,1,35,0,0
74034,-100,4,2,1,5,0,0
74128,-100,4,2,1,60,0,0
74409,-100,4,2,1,15,0,0
74503,-100,4,2,1,35,0,0
74784,-100,4,2,1,5,0,0
74878,-100,4,2,1,25,0,0
75065,-100,4,2,1,5,0,0
75159,-100,4,2,1,35,0,0
75346,-100,4,2,1,5,0,0
75440,-100,4,2,1,35,0,0
75534,-100,4,2,1,5,0,0
75628,-66.6666666666667,4,2,1,35,0,0
75721,-66.6666666666667,4,2,1,5,0,0
75815,-133.333333333333,4,2,1,40,0,0
75909,-133.333333333333,4,2,1,5,0,0
76003,-66.6666666666667,4,2,1,45,0,0
76096,-66.6666666666667,4,2,1,5,0,0
76190,-133.333333333333,4,2,1,50,0,0
76284,-133.333333333333,4,2,1,5,0,0
76378,-66.6666666666667,4,2,1,55,0,0
76471,-66.6666666666667,4,2,1,5,0,0
76565,-133.333333333333,4,2,1,60,0,0
76659,-133.333333333333,4,2,1,5,0,0
76753,-50,4,2,5,80,0,0
77034,-50,4,2,5,5,0,0
77128,-66.6666666666667,4,2,2,80,0,0
77409,-66.6666666666667,4,2,1,5,0,0
77503,-83.3333333333333,4,2,1,50,0,0
77878,-83.3333333333333,4,2,3,70,0,0
78065,-83.3333333333333,4,2,1,50,0,0
79378,-83.3333333333333,4,2,3,70,0,0
79659,-83.3333333333333,4,2,1,50,0,0
80878,-83.3333333333333,4,2,3,70,0,0
81065,-83.3333333333333,4,2,1,50,0,0
82378,-83.3333333333333,4,2,3,70,0,0
82471,-83.3333333333333,4,2,1,50,0,0
82565,-83.3333333333333,4,2,1,60,0,0
82753,-83.3333333333333,4,2,3,100,0,0
83034,-83.3333333333333,4,2,1,5,0,0
83128,-66.6666666666667,4,2,2,70,0,0
83503,-83.3333333333333,4,2,1,50,0,0
83878,-83.3333333333333,4,2,3,70,0,0
84065,-83.3333333333333,4,2,1,50,0,0
85378,-83.3333333333333,4,2,3,70,0,0
85659,-83.3333333333333,4,2,1,50,0,0
86878,-83.3333333333333,4,2,3,70,0,0
87065,-83.3333333333333,4,2,1,50,0,0
88378,-83.3333333333333,4,2,3,50,0,0
89128,-66.6666666666667,4,2,2,80,0,0
89315,-66.6666666666667,4,2,4,65,0,0
89503,-76.9230769230769,4,2,4,65,0,0
94753,-200,4,2,3,100,0,0
95034,-200,4,2,1,5,0,0
95128,-58.8235294117647,4,2,2,70,0,0
95315,-58.8235294117647,4,2,1,70,0,0
95503,-66.6666666666667,4,2,1,70,0,0
96346,-66.6666666666667,4,2,1,5,0,0
96440,-66.6666666666667,4,2,1,70,0,0
96721,-66.6666666666667,4,2,1,5,0,0
96815,-66.6666666666667,4,2,1,70,0,0
98128,-66.6666666666667,4,2,1,75,0,0
98878,-66.6666666666667,4,2,1,80,0,0
99628,-66.6666666666667,4,2,1,85,0,0
100003,-83.3333333333333,4,2,1,85,0,0
100378,-83.3333333333333,4,2,3,50,0,0
101128,-55.5555555555556,4,2,1,80,0,0
101409,-55.5555555555556,4,2,1,20,0,0
101503,-133.333333333333,4,2,1,50,0,0
106753,-100,4,2,1,50,0,0
107128,-55.5555555555556,4,2,1,80,0,0
107409,-55.5555555555556,4,2,1,20,0,0
107503,-133.333333333333,4,2,1,50,0,0
110409,-133.333333333333,4,2,1,5,0,0
110503,-133.333333333333,4,2,1,50,0,0
110784,-133.333333333333,4,2,1,5,0,0
110878,-100,4,2,1,60,0,0
110971,-100,4,2,1,5,0,0
111065,-100,4,2,1,60,0,0
111159,-100,4,2,1,5,0,0
111253,-100,4,2,1,60,0,0
111628,-45.4545454545455,4,2,2,70,0,0
112378,-50,4,2,1,90,0,0
112565,-50,4,2,1,80,0,0
112753,-55.5555555555556,4,2,1,50,0,0
113034,-55.5555555555556,4,2,1,5,0,0
113128,-50,4,2,1,80,0,1
113878,-66.6666666666667,4,2,1,80,0,1
114628,-50,4,2,1,80,0,1
115378,-66.6666666666667,4,2,1,80,0,1
116128,-50,4,2,1,80,0,1
116878,-66.6666666666667,4,2,1,80,0,1
117440,-50,4,2,1,80,0,1
117815,-66.6666666666667,4,2,1,80,0,1
118378,-58.8235294117647,4,2,1,80,0,1
119128,-50,4,2,1,80,0,1
119878,-66.6666666666667,4,2,1,80,0,1
120628,-50,4,2,1,80,0,1
121378,-66.6666666666667,4,2,1,80,0,1
122128,-58.8235294117647,4,2,1,80,0,1
122878,-66.6666666666667,4,2,1,80,0,1
123440,-76.9230769230769,4,2,1,80,0,1
124753,-66.6666666666667,4,2,2,80,0,1
124846,-66.6666666666667,4,2,1,80,0,1
125128,-66.6666666666667,4,2,2,90,0,1
125315,-66.6666666666667,4,2,1,80,0,1
126628,-66.6666666666667,4,2,2,90,0,1
126815,-66.6666666666667,4,2,1,80,0,1
128128,-66.6666666666667,4,2,2,90,0,1
128315,-66.6666666666667,4,2,1,80,0,1
129628,-66.6666666666667,4,2,2,80,0,1
129721,-66.6666666666667,4,2,1,80,0,1
130753,-66.6666666666667,4,2,1,70,0,1
131128,-100,4,2,2,50,0,0
132440,-100,4,2,1,5,0,0
132628,-100,4,2,1,50,0,0
133471,-100,4,2,5,50,0,0
133753,-66.6666666666667,4,2,1,80,0,0
134128,-41.6666666666667,4,2,1,80,0,0
134409,-41.6666666666667,4,2,1,5,0,0
134503,-50,4,2,1,80,0,0
134784,-50,4,2,1,5,0,0
134878,-100,4,2,5,80,0,0
134971,-100,4,2,1,70,0,0
135628,-76.9230769230769,4,2,1,70,0,0
135909,-76.9230769230769,4,2,1,5,0,0
136003,-76.9230769230769,4,2,1,70,0,0
136284,-76.9230769230769,4,2,1,5,0,0
136378,-76.9230769230769,4,2,5,80,0,0
136471,-76.9230769230769,4,2,1,70,0,0
137034,-76.9230769230769,4,2,1,5,0,0
137128,-41.6666666666667,4,2,1,80,0,0
137409,-41.6666666666667,4,2,1,70,0,0
137503,-133.333333333333,4,2,1,70,0,0
137878,-66.6666666666667,4,2,5,80,0,0
137971,-66.6666666666667,4,2,1,70,0,0
139378,-50,4,2,5,80,0,0
139471,-50,4,2,1,70,0,0
139940,-50,4,2,5,70,0,0
140128,-50,4,2,1,80,0,0
140409,-50,4,2,1,5,0,0
140503,-50,4,2,1,80,0,0
140784,-50,4,2,1,5,0,0
140878,-100,4,2,5,70,0,0
140971,-100,4,2,1,70,0,0
141628,-83.3333333333333,4,2,1,70,0,0
142003,-71.4285714285714,4,2,1,70,0,0
142378,-66.6666666666667,4,2,5,70,0,0
142471,-66.6666666666667,4,2,1,70,0,0
143128,-41.6666666666667,4,2,1,80,0,0
143409,-41.6666666666667,4,2,1,5,0,0
143503,-71.4285714285714,4,2,1,70,0,0
143878,-71.4285714285714,4,2,5,80,0,0
143971,-71.4285714285714,4,2,1,70,0,0
144628,-62.5,4,2,1,70,0,0
144815,-62.5,4,2,4,50,0,0
145003,-62.5,4,2,1,70,0,0
145753,-33.3333333333333,4,2,5,80,0,0
146034,-62.5,4,2,1,70,0,0
146128,-62.5,4,2,1,20,0,0
158128,-133.333333333333,4,2,1,70,0,0
158690,-133.333333333333,4,2,1,40,0,0
164128,-133.333333333333,4,2,1,70,0,0
164690,-133.333333333333,4,2,1,50,0,0
167128,-111.111111111111,4,2,1,60,0,0
169753,-111.111111111111,4,2,1,50,0,0
170128,-38.4615384615385,4,2,1,80,0,0
170409,-200,4,2,1,80,0,0
170690,-38.4615384615385,4,2,1,80,0,0
170971,-200,4,2,1,80,0,0
171253,-38.4615384615385,4,2,1,80,0,0
171534,-200,4,2,1,80,0,0
171815,-50,4,2,1,80,0,0
172753,-50,4,2,3,100,0,0
173128,-38.4615384615385,4,2,1,80,0,0
173409,-200,4,2,1,80,0,0
173690,-38.4615384615385,4,2,1,80,0,0
173971,-200,4,2,1,80,0,0
174253,-38.4615384615385,4,2,1,80,0,0
174534,-200,4,2,1,80,0,0
174815,-50,4,2,1,80,0,0
175753,-100,4,2,1,80,0,0
176128,-38.4615384615385,4,2,1,80,0,0
176409,-200,4,2,1,80,0,0
176690,-38.4615384615385,4,2,1,80,0,0
176971,-200,4,2,1,80,0,0
177253,-38.4615384615385,4,2,1,80,0,0
177534,-200,4,2,1,80,0,0
177815,-50,4,2,1,80,0,0
178753,-50,4,2,3,100,0,0
179128,-50,4,2,1,70,0,0
179409,-200,4,2,1,70,0,0
179690,-50,4,2,1,70,0,0
179971,-200,4,2,1,70,0,0
180253,-50,4,2,1,70,0,0
180534,-200,4,2,1,70,0,0
180815,-133.333333333333,4,2,1,60,0,0
180909,-133.333333333333,4,2,1,50,0,0
183628,-100,4,2,2,80,0,0
189253,-100,4,2,2,70,0,0
190565,-100,4,2,1,50,0,0
190753,-80,4,2,1,50,0,0
190940,-66.6666666666667,4,2,1,50,0,0
191034,-66.6666666666667,4,2,1,5,0,0
191128,-50,4,2,1,60,0,0
192253,-50,4,2,2,60,0,0
192628,-40,4,2,1,70,0,0
193753,-45.4545454545455,4,2,2,80,0,0
194128,-50,4,2,1,80,0,1
194878,-66.6666666666667,4,2,1,80,0,1
195440,-50,4,2,1,80,0,1
195815,-66.6666666666667,4,2,1,80,0,1
196378,-58.8235294117647,4,2,1,80,0,1
197128,-50,4,2,1,80,0,1
197878,-66.6666666666667,4,2,1,80,0,1
198628,-50,4,2,1,80,0,1
199378,-66.6666666666667,4,2,1,80,0,1
200128,-58.8235294117647,4,2,1,80,0,1
200878,-66.6666666666667,4,2,1,80,0,1
201440,-76.9230769230769,4,2,1,80,0,1
202378,-100,4,2,1,80,0,0
202659,-100,4,2,1,5,0,0
202753,-100,4,2,1,80,0,0
202940,-100,4,2,2,70,0,0
203128,-83.3333333333333,4,2,2,90,0,0
203503,-83.3333333333333,4,2,1,60,0,0
203878,-83.3333333333333,4,2,2,90,0,0
204253,-83.3333333333333,4,2,1,60,0,0
204628,-83.3333333333333,4,2,2,90,0,0
205003,-83.3333333333333,4,2,1,60,0,0
205378,-83.3333333333333,4,2,2,90,0,0
205753,-83.3333333333333,4,2,1,60,0,0
206128,-83.3333333333333,4,2,2,90,0,0
206503,-83.3333333333333,4,2,1,60,0,0
206878,-83.3333333333333,4,2,2,90,0,0
207159,-83.3333333333333,4,2,1,5,0,0
207253,-83.3333333333333,4,2,1,60,0,0
207534,-83.3333333333333,4,2,1,80,0,0
208003,-83.3333333333333,4,2,10,100,0,0
208753,-83.3333333333333,4,2,2,100,0,0
208846,-83.3333333333333,4,2,1,70,0,0
209128,-50,4,2,2,80,0,1
209315,-50,4,2,1,80,0,1
209878,-66.6666666666667,4,2,1,80,0,1
210628,-66.6666666666667,4,2,2,80,0,1
210721,-66.6666666666667,4,2,2,80,0,1
210815,-66.6666666666667,4,2,1,80,0,1
212128,-50,4,2,2,80,0,1
212315,-50,4,2,1,80,0,1
212878,-66.6666666666667,4,2,1,80,0,1
213628,-66.6666666666667,4,2,2,55,0,1
213674,-66.6666666666667,4,2,1,80,0,1
214753,-66.6666666666667,4,2,2,80,0,1
215034,-66.6666666666667,4,2,1,5,0,1
215128,-100,4,2,1,80,0,0
215784,-100,4,2,1,5,0,0
215878,-83.3333333333333,4,2,1,70,0,0
216159,-83.3333333333333,4,2,1,5,0,0
216253,-83.3333333333333,4,2,1,70,0,0
216534,-83.3333333333333,4,2,1,5,0,0
216628,-83.3333333333333,4,2,1,70,0,0
217003,-71.4285714285714,4,2,1,70,0,0
217284,-71.4285714285714,4,2,1,5,0,0
217378,-62.5,4,2,1,70,0,0
217659,-62.5,4,2,1,5,0,0
217753,-62.5,4,2,1,70,0,0
218034,-62.5,4,2,1,5,0,0
218128,-66.6666666666667,4,2,1,70,0,0
218409,-66.6666666666667,4,2,1,5,0,0
218503,-83.3333333333333,4,2,1,70,0,0
218784,-83.3333333333333,4,2,1,5,0,0
218878,-71.4285714285714,4,2,1,70,0,0
219159,-71.4285714285714,4,2,1,5,0,0
219253,-62.5,4,2,1,70,0,0
219534,-62.5,4,2,1,5,0,0
219628,-62.5,4,2,1,70,0,0
219815,-83.3333333333333,4,2,1,70,0,0
220378,-62.5,4,2,1,70,0,0
220659,-62.5,4,2,1,5,0,0
220753,-83.3333333333333,4,2,1,70,0,0
220846,-83.3333333333333,4,2,1,70,0,0
221128,-333.333333333333,4,2,3,100,0,0
221221,-333.333333333333,4,2,1,80,0,0
221315,-66.6666666666667,4,2,1,80,0,0
221503,-333.333333333333,4,2,1,80,0,0
221690,-66.6666666666667,4,2,1,80,0,0
221878,-333.333333333333,4,2,1,80,0,0
222065,-66.6666666666667,4,2,1,80,0,0
222253,-333.333333333333,4,2,1,80,0,0
222440,-66.6666666666667,4,2,1,80,0,0
222628,-333.333333333333,4,2,1,80,0,0
222815,-66.6666666666667,4,2,1,80,0,0
223003,-333.333333333333,4,2,1,80,0,0
223190,-66.6666666666667,4,2,1,80,0,0
223378,-333.333333333333,4,2,1,80,0,0
223565,-66.6666666666667,4,2,1,80,0,0
223753,-333.333333333333,4,2,1,80,0,0
223940,-66.6666666666667,4,2,1,80,0,0
224128,-62.5,4,2,1,85,0,0
224878,-62.5,4,2,1,90,0,0
225628,-55.5555555555556,4,2,1,95,0,0
226378,-55.5555555555556,4,2,1,100,0,0
227128,-55.5555555555556,4,2,1,60,0,0
229753,-40,4,2,1,90,0,0
230034,-40,4,2,1,5,0,0

[Colours]
Combo1 : 212,212,212
Combo2 : 210,241,37
Combo3 : 27,227,243
Combo4 : 0,234,117
Combo5 : 245,16,10
SliderTrackOverride : 0,0,32

[HitObjects]
27,360,628,6,0,B|143:364|80:256|187:251,1,210,0|0,1:1|0:0,0:0:0:0:
211,259,1003,54,0,B|173:202|83:191|14:239|14:239|98:180|8:64|151:54|151:54|121:126|183:179|233:191|300:158|327:120|317:72|265:44|231:56|214:95,1,818.999962509157,0|0,0:0|0:0,0:0:0:0:
222,81,3065,1,0,0:0:0:0:
224,90,3253,2,0,L|251:234,1,136.499993751526,0|0,0:0|0:0,0:0:0:0:
365,272,3628,6,0,P|263:249|163:277,1,210,0|0,1:1|0:0,0:0:0:0:
114,384,4003,54,0,B|235:398|347:297|318:146|318:146|199:135|164:277|164:277|178:130|67:93,1,818.999962509157,0|0,0:0|0:0,0:0:0:0:
68,93,6065,1,0,0:0:0:0:
68,103,6440,2,0,L|15:118,1,45.4999979171754,0|0,0:0|0:0,0:0:0:0:
235,66,6628,6,0,P|308:126|304:25,1,231.000007049561,4|0,1:0|0:0,0:0:0:0:
408,117,7003,2,0,P|414:66|399:16,1,105.000004005432,0|0,1:1|0:0,0:0:0:0:
333,276,7378,2,0,P|304:232|261:203,1,105.000004005432,0|0,1:1|0:0,0:0:0:0:
358,355,7753,2,0,L|416:367,3,52.5000020027161,8|0|0|0,1:1|0:0|0:0|0:0,0:0:0:0:
273,337,8128,54,0,P|221:355|169:342,1,105.000004005432,0|0,1:1|0:0,0:0:0:0:
169,164,8503,2,0,P|210:201|224:252,1,105.000004005432,0|0,1:1|0:0,0:0:0:0:
61,299,8878,1,0,1:1:0:0:
222,259,9065,1,0,0:0:0:0:
84,173,9253,2,0,L|66:112,1,52.5000020027161,8|0,1:1|0:0,0:0:0:0:
153,334,9440,2,0,L|138:384,1,52.5000020027161,0|0,0:0|0:0,0:0:0:0:
189,149,9628,5,0,1:1:0:0:
377,162,9815,1,0,0:0:0:0:
333,236,10003,5,0,1:1:0:0:
321,35,10190,1,0,0:0:0:0:
266,281,10378,6,0,L|205:291,3,52.5000020027161,0|0|0|0,1:1|0:0|0:0|0:0,0:0:0:0:
247,204,10753,2,0,B|347:185|331:301|430:288,1,210,8|0,1:1|0:0,0:0:0:0:
482,232,11128,6,0,L|494:199,2,35,0|0|0,1:1|0:0|0:0,0:0:0:0:
427,139,11315,2,0,L|420:104,2,35,0|0|0,0:0|0:0|0:0,0:0:0:0:
332,85,11503,2,0,L|309:58,2,35,0|0|0,1:1|0:0|0:0,0:0:0:0:
221,84,11690,2,0,L|189:69,2,35,0|0|0,0:0|0:0|0:0,0:0:0:0:
256,192,11878,12,0,12534,0:0:0:0:
449,108,12628,22,0,L|469:111,1,20.9999993591309,4|0,1:0|0:0,0:0:0:0:
395,55,12815,2,0,P|338:40|288:40,1,105.000004005432,0|0,0:2|0:2,0:0:0:0:
173,182,13003,54,0,L|152:185,1,20.9999993591309,8|0,0:2|0:0,0:0:0:0:
227,129,13190,2,0,P|284:114|334:114,1,105.000004005432,0|0,0:2|0:2,0:0:0:0:
448,257,13378,6,0,L|468:260,1,20.9999993591309,8|0,0:2|0:0,0:0:0:0:
394,204,13565,2,0,P|337:189|287:189,1,105.000004005432,0|0,0:2|0:2,0:0:0:0:
172,331,13753,54,0,L|151:334,1,20.9999993591309,8|0,0:2|0:0,0:0:0:0:
226,278,13940,2,0,P|283:263|333:263,1,105.000004005432,0|0,0:2|0:2,0:0:0:0:
460,359,14128,6,0,L|452:289,1,70,8|0,0:2|0:2,0:0:0:0:
393,98,14315,1,0,0:2:0:0:
346,78,14409,1,0,0:2:0:0:
301,55,14503,2,0,L|161:66,1,140,8|0,0:2|0:2,0:0:0:0:
26,149,14784,1,0,0:2:0:0:
37,161,14878,22,0,L|120:146,1,70,8|0,0:2|0:2,0:0:0:0:
274,226,15065,2,0,L|191:241,1,70,0|0,0:2|0:2,0:0:0:0:
161,66,15253,2,0,B|202:17|202:17|183:175,1,210,8|0,0:0|0:0,0:0:0:0:
164,331,15628,38,0,L|166:310,1,20.9999993591309,8|0,0:2|0:0,0:0:0:0:
221,384,15815,2,0,P|273:381|315:351,1,105.000004005432,0|0,0:2|0:2,0:0:0:0:
357,196,16003,54,0,L|359:216,1,20.9999993591309,8|0,0:2|0:0,0:0:0:0:
296,144,16190,2,0,P|244:146|202:177,1,105.000004005432,0|0,0:2|0:2,0:0:0:0:
387,292,16378,6,0,L|366:294,1,20.9999993591309,8|0,0:2|0:0,0:0:0:0:
447,218,16565,2,0,P|444:166|413:124,1,105.000004005432,0|0,0:2|0:2,0:0:0:0:
272,50,16753,54,0,L|292:47,1,20.9999993591309,8|0,0:2|0:0,0:0:0:0:
212,124,16940,2,0,P|214:175|245:217,1,105.000004005432,0|0,0:2|0:2,0:0:0:0:
427,39,17128,6,0,L|418:108,1,70,8|0,0:2|0:2,0:0:0:0:
312,308,17315,1,0,0:2:0:0:
276,270,17409,1,0,0:2:0:0:
243,230,17503,2,0,L|333:244,1,70,8|0,0:2|0:2,0:0:0:0:
432,373,17690,2,0,L|362:362,1,70,0|0,0:2|0:2,0:0:0:0:
502,223,17878,22,0,P|503:257|495:293,1,70,8|0,0:2|0:2,0:0:0:0:
306,147,18065,2,0,P|335:128|371:119,1,70,0|0,0:2|0:2,0:0:0:0:
394,290,18253,2,0,P|427:217|334:249,1,210,10|0,0:2|0:2,0:0:0:0:
249,378,18628,37,10,0:2:0:0:
63,225,18815,1,0,0:2:0:0:
62,249,18909,1,0,0:2:0:0:
60,273,19003,2,0,P|97:265|136:266,1,77.0000023498536,10|0,0:2|0:0,0:0:0:0:
159,122,19190,2,0,P|121:114|82:115,1,77.0000023498536,0|0,0:2|0:2,0:0:0:0:
257,213,19378,22,0,P|339:207|399:165,1,154.000004699707,10|0,0:2|0:2,0:0:0:0:
294,40,19659,1,2,0:2:0:0:
271,55,19753,2,0,P|234:129|241:201,1,154.000004699707,8|2,0:2|0:2,0:0:0:0:
292,301,20034,1,0,0:2:0:0:
310,370,20128,38,0,L|327:274,1,90.9999958343508,10|0,0:2|0:0,0:0:0:0:
232,383,20315,2,0,L|249:287,1,90.9999958343508,0|0,0:2|0:0,0:0:0:0:
65,127,20503,2,0,L|82:223,1,90.9999958343508,10|0,0:2|0:0,0:0:0:0:
143,140,20690,2,0,L|160:236,1,90.9999958343508,2|0,0:2|0:2,0:0:0:0:
16,299,20878,21,10,0:2:0:0:
172,209,21065,1,0,0:2:0:0:
248,204,21159,1,0,0:2:0:0:
320,224,21253,2,0,P|326:143|228:176,1,210.000008010865,2|0,1:1|0:2,0:0:0:0:
383,340,21534,1,0,0:2:0:0:
396,369,21628,38,0,P|411:257|437:175,1,195.999994018555,10|0,0:2|0:2,0:0:0:0:
280,33,21909,2,0,P|308:126|319:223,1,195.999994018555,0|0,0:2|0:2,0:0:0:0:
226,367,22190,2,0,P|223:311|207:256,1,97.9999970092774,0|0,0:2|0:2,0:0:0:0:
15,118,22378,22,0,P|127:103|209:77,1,195.999994018555,10|0,2:2|2:2,0:0:0:0:
351,234,22659,2,0,P|257:205|160:194,1,195.999994018555,2|0,2:2|2:2,0:0:0:0:
17,288,22940,2,0,P|73:291|128:307,1,97.9999970092774,2|0,0:2|0:2,0:0:0:0:
384,311,23128,38,0,P|437:215|350:149,1,238.00000453949,10|0,0:2|0:2,0:0:0:0:
113,301,23409,2,0,P|250:280|257:179,1,238.00000453949,0|0,0:2|0:2,0:0:0:0:
48,182,23690,2,0,P|101:205|159:194,1,119.000002269745,2|0,0:2|0:2,0:0:0:0:
323,32,23878,37,8,3:2:0:0:
308,111,23971,1,0,3:2:0:0:
293,191,24065,1,0,3:2:0:0:
279,271,24159,1,0,3:2:0:0:
259,384,24253,6,0,B|329:343|329:343|362:347,1,105,8|0,0:0|0:0,0:0:0:0:
467,384,24628,6,0,L|454:286,1,97.9999970092774,2|0,0:2|0:0,0:0:0:0:
391,87,24815,1,0,0:2:0:0:
386,116,24909,1,0,0:2:0:0:
382,145,25003,2,0,L|369:242,1,97.9999970092774,8|0,0:2|0:0,0:0:0:0:
218,149,25190,2,0,L|205:51,1,97.9999970092774,0|0,0:2|0:2,0:0:0:0:
67,254,25378,6,0,B|-10:188|-10:188|178:227,1,293.999991027832,10|2,0:2|0:2,0:0:0:0:
291,384,25753,2,0,B|351:316|275:240|275:240|258:316|178:332,1,293.999991027832,8|0,0:2|0:2,0:0:0:0:
83,207,26128,54,0,L|180:228,1,97.9999970092774,10|0,0:2|0:2,0:0:0:0:
382,145,26315,2,0,L|285:124,1,97.9999970092774,0|0,0:2|0:2,0:0:0:0:
201,26,26503,2,0,L|180:123,1,97.9999970092774,10|0,0:2|0:2,0:0:0:0:
263,325,26690,2,0,L|284:228,1,97.9999970092774,2|0,0:2|0:2,0:0:0:0:
15,104,26878,5,10,0:2:0:0:
15,104,27065,2,0,P|63:102|106:124,1,97.9999970092774,0|0,0:2|0:2,0:0:0:0:
193,235,27253,1,8,3:2:0:0:
193,235,27440,54,0,P|276:191|375:246,1,195.999994018555,2|10,0:2|0:2,0:0:0:0:
357,368,27815,1,0,0:2:0:0:
312,381,27909,1,0,0:2:0:0:
265,384,28003,2,0,L|279:280,1,97.9999970092774,8|0,0:2|0:2,0:0:0:0:
455,174,28190,2,0,L|441:271,1,97.9999970092774,0|0,0:2|0:2,0:0:0:0:
261,56,28378,6,0,B|215:89|215:89|229:241,1,195.999994018555,10|0,0:2|0:2,0:0:0:0:
119,134,28659,1,2,0:2:0:0:
92,125,28753,2,0,P|48:144|20:183,1,97.9999970092774,8|0,0:2|0:2,0:0:0:0:
60,367,28940,1,2,0:2:0:0:
99,338,29034,1,0,0:2:0:0:
138,311,29128,54,0,L|147:213,1,97.9999970092774,10|0,0:2|0:0,0:0:0:0:
289,132,29315,2,0,L|299:232,1,97.9999970092774,0|0,0:2|0:2,0:0:0:0:
210,364,29503,2,0,L|219:266,1,97.9999970092774,10|0,0:2|0:2,0:0:0:0:
364,87,29690,2,0,L|374:187,1,97.9999970092774,2|0,0:2|0:2,0:0:0:0:
419,373,29878,6,0,B|438:237|438:237|399:286,1,195.999994018555,10|0,0:2|0:2,0:0:0:0:
495,109,30253,2,0,B|457:154|457:154|477:19,1,195.999994018555,10|2,0:2|0:2,0:0:0:0:
378,80,30534,1,0,0:0:0:0:
367,96,30628,54,0,P|296:110|242:36,1,167.999994873047,10|0,0:2|0:2,0:0:0:0:
244,275,31003,2,0,P|280:185|217:123,1,167.999994873047,10|0,0:2|0:2,0:0:0:0:
57,326,31378,1,10,0:2:0:0:
57,326,31565,6,0,L|180:306,1,119.000002269745,0|2,0:2|0:2,0:0:0:0:
310,312,31753,2,0,L|33:356,1,280,8|2,0:2|0:2,0:0:0:0:
80,245,32034,1,0,0:2:0:0:
93,226,32128,54,0,P|114:146|96:65,1,167.999994873047,10|0,0:2|0:2,0:0:0:0:
270,169,32503,2,0,P|221:100|210:18,1,167.999994873047,10|2,0:2|0:2,0:0:0:0:
417,45,32878,1,10,0:2:0:0:
417,45,33065,6,0,L|401:181,1,119.000002269745,0|0,0:2|0:2,0:0:0:0:
412,288,33253,2,0,L|444:9,1,280,8|2,0:2|0:2,0:0:0:0:
338,83,33534,1,0,0:2:0:0:
307,114,33628,54,0,L|195:126,1,112,10|0,0:2|0:0,0:0:0:0:
113,334,33815,2,0,L|224:321,1,112,0|0,0:2|0:2,0:0:0:0:
80,96,34003,2,0,L|92:207,1,112,8|0,0:2|0:0,0:0:0:0:
334,350,34190,2,0,L|321:238,1,112,0|0,0:2|0:2,0:0:0:0:
0,272,34378,6,0,B|109:298|95:182|221:207,1,224,10|0,0:2|0:2,0:0:0:0:
394,221,34659,1,2,0:2:0:0:
445,273,34753,2,0,L|316:251,1,112,8|0,0:2|0:2,0:0:0:0:
89,108,34940,2,0,L|218:86,1,112,2|0,0:2|0:2,0:0:0:0:
205,290,35128,54,0,P|145:339|166:236,1,224,10|0,0:2|0:2,0:0:0:0:
289,324,35409,1,0,0:2:0:0:
299,310,35503,2,0,L|308:242,2,56,8|0|0,0:2|0:0|0:2,0:0:0:0:
241,212,35690,2,0,L|232:144,2,56,2|0|0,0:2|0:0|0:2,0:0:0:0:
415,145,35878,6,0,P|368:173|312:175,1,112,10|0,0:2|0:2,0:0:0:0:
153,93,36065,2,0,P|200:63|255:59,1,112,0|0,0:2|0:2,0:0:0:0:
77,197,36253,38,0,L|57:114,1,70,8|0,0:0|0:0,0:0:0:0:
105,321,36628,54,0,B|-1:273|-1:273|77:196|77:196|222:253,1,377.999988464356,12|0,0:2|0:0,0:0:0:0:
352,376,37003,22,0,P|350:324|366:274,2,105.000004005432,8|10|0,0:3|0:2|0:0,0:0:0:0:
429,177,37565,1,0,0:0:0:0:
344,203,37753,1,8,0:3:0:0:
267,165,37940,1,8,0:2:0:0:
199,224,38128,2,0,L|86:239,1,105.000004005432,8|8,0:0|0:0,0:0:0:0:
38,306,38503,54,0,P|57:257|52:205,2,105.000004005432,8|2|0,0:3|0:0|0:0,0:0:0:0:
11,116,39065,1,8,0:0:0:0:
113,125,39253,1,8,0:3:0:0:
205,85,39440,1,8,0:0:0:0:
326,142,39628,6,0,L|314:255,1,105.000004005432,8|0,0:0|0:0,0:0:0:0:
212,355,40003,2,0,L|200:250,1,105.000004005432,8|10,0:3|0:0,0:0:0:0:
398,170,40378,2,0,L|386:283,1,105.000004005432,0|8,0:0|0:0,0:0:0:0:
134,327,40753,1,8,0:3:0:0:
113,209,40940,1,10,0:0:0:0:
43,256,41128,54,0,P|28:207|45:159,1,105.000004005432,0|8,0:0|0:0,0:0:0:0:
234,114,41503,2,0,L|7:78,1,210.000008010865,10|2,0:3|0:3,0:0:0:0:
152,17,42065,1,8,0:0:0:0:
250,143,42253,2,0,B|264:176|264:176|267:209,1,70,10|0,0:3|0:0,0:0:0:0:
377,254,42440,2,0,B|380:220|380:220|394:187,1,70,0|0,0:0|0:0,0:0:0:0:
230,353,42628,54,0,B|315:342|315:342|265:249|265:249|204:317|204:317|102:339,1,377.999988464356,8|0,0:2|0:0,0:0:0:0:
15,211,43003,22,0,P|38:257|41:309,2,105.000004005432,8|10|0,0:3|0:0|0:0,0:0:0:0:
123,260,43565,1,0,0:0:0:0:
110,175,43753,1,8,0:3:0:0:
97,94,43940,1,8,0:0:0:0:
167,36,44128,54,0,L|287:77,1,105.000004005432,8|8,3:2|0:2,0:0:0:0:
289,145,44503,2,0,P|301:94|336:56,2,105.000004005432,8|2|0,0:3|0:0|0:0,0:0:0:0:
457,178,45065,2,0,L|353:192,1,105.000004005432,8|8,0:0|0:3,0:0:0:0:
486,92,45440,1,8,0:0:0:0:
416,270,45628,6,0,L|312:284,1,105.000004005432,8|0,0:0|0:0,0:0:0:0:
114,349,46003,2,0,L|217:363,1,105.000004005432,8|10,0:3|0:0,0:0:0:0:
435,184,46378,2,0,L|331:198,1,105.000004005432,0|8,0:0|0:0,0:0:0:0:
81,262,46753,2,0,L|184:276,1,105.000004005432,8|10,0:3|0:0,0:0:0:0:
362,64,47128,53,8,0:0:0:0:
316,186,47315,1,8,0:0:0:0:
161,58,47503,1,8,0:3:0:0:
219,207,47690,2,0,P|158:189|97:206,1,105.000004005432,2|2,0:0|0:0,0:0:0:0:
235,364,48065,2,0,P|264:320|275:269,1,105.000004005432,8|8,0:0|0:3,0:0:0:0:
254,117,48440,1,10,0:0:0:0:
400,350,48628,6,0,L|436:143,1,210.000008010865,8|0,0:0|0:0,0:0:0:0:
92,310,49003,1,8,0:3:0:0:
92,310,49378,54,0,L|55:103,1,210.000008010865,8|0,0:0|0:0,0:0:0:0:
400,350,49753,1,8,0:3:0:0:
400,350,50128,6,0,L|436:143,1,210.000008010865,8|0,0:0|0:0,0:0:0:0:
92,310,50503,54,0,L|55:103,1,210.000008010865,8|0,0:0|0:0,0:0:0:0:
322,369,50878,54,0,L|350:196,1,140,8|0,0:0|0:0,0:0:0:0:
173,336,51065,2,0,L|145:163,1,140,8|0,0:0|0:0,0:0:0:0:
322,369,51253,22,0,L|350:196,1,140,8|0,0:0|0:0,0:0:0:0:
173,336,51440,2,0,L|145:163,1,140,8|0,0:0|0:0,0:0:0:0:
218,93,51628,54,0,B|209:39|247:11|312:5|348:50|362:109|324:170|268:191|209:102|140:212|160:296,1,420.000016021729,12|2,0:0|0:0,0:0:0:0:
193,363,52565,1,0,0:0:0:0:
193,363,52659,1,0,0:0:0:0:
193,363,52753,1,0,0:0:0:0:
247,258,52940,1,0,0:0:0:0:
55,380,53128,6,0,B|142:304|7:214|103:122|174:156,1,280,6|0,1:1|0:1,0:0:0:0:
348,215,53409,1,0,0:1:0:0:
348,215,53503,2,0,B|226:249|252:48|133:72,1,280,10|0,1:1|0:1,0:0:0:0:
0,151,53784,1,0,0:1:0:0:
0,151,53878,22,0,P|20:187|30:250,1,105.000004005432,2|0,1:1|0:1,0:0:0:0:
189,345,54065,1,0,0:1:0:0:
202,298,54159,1,2,0:1:0:0:
195,250,54253,2,0,P|201:198|225:151,1,105.000004005432,8|0,1:1|0:1,0:0:0:0:
462,251,54440,2,0,P|456:199|432:152,1,105.000004005432,2|0,0:1|0:0,0:0:0:0:
295,339,54628,38,0,B|405:319|305:181|471:111|511:187,1,280,0|2,1:1|0:1,0:0:0:0:
278,259,54909,1,0,0:1:0:0:
278,259,55003,2,0,B|241:206|254:101|309:47|374:60|405:115,1,280,10|0,1:1|0:1,0:0:0:0:
215,315,55284,1,0,0:0:0:0:
215,315,55378,22,0,P|163:304|111:305,1,105.000004005432,2|0,1:1|0:1,0:0:0:0:
322,341,55565,2,0,P|371:357|416:384,1,105.000004005432,0|2,0:1|0:1,0:0:0:0:
154,198,55753,2,0,P|104:214|59:241,1,105.000004005432,8|0,1:1|0:1,0:0:0:0:
431,255,55940,2,0,P|465:294|491:340,1,105.000004005432,2|0,0:1|0:1,0:0:0:0:
445,94,56128,38,0,B|309:85|374:250|202:234,1,280,2|0,1:1|0:1,0:0:0:0:
28,79,56409,1,0,0:1:0:0:
28,79,56503,2,0,B|56:45|136:56|140:125|109:184|85:144|38:160|14:214|42:278,1,280,10|0,1:1|0:1,0:0:0:0:
122,354,56784,1,0,0:1:0:0:
134,331,56878,22,0,P|74:332|9:364,1,105.000004005432,2|0,1:1|0:1,0:0:0:0:
266,207,57065,2,0,P|235:155|174:115,1,105.000004005432,0|2,0:1|0:1,0:0:0:0:
439,258,57253,2,0,P|468:205|472:133,1,105.000004005432,8|0,1:1|0:1,0:0:0:0:
237,300,57440,38,0,P|210:134|357:227,1,420,2|0,0:1|0:1,0:0:0:0:
348,329,57815,1,2,0:1:0:0:
372,112,58003,2,0,L|358:216,1,105.000004005432,10|0,1:1|0:1,0:0:0:0:
244,384,58190,2,0,L|257:279,1,105.000004005432,0|0,0:1|0:1,0:0:0:0:
53,72,58378,22,0,L|87:327,1,238.00000453949,2|0,1:1|0:1,0:0:0:0:
84,307,58659,1,2,0:1:0:0:
84,307,58753,1,8,1:1:0:0:
243,172,58940,1,2,0:1:0:0:
53,72,59128,38,0,B|154:168|216:-1|346:121,1,280,2|0,1:1|0:1,0:0:0:0:
326,245,59409,1,0,0:1:0:0:
326,245,59503,2,0,P|197:246|254:170,1,280,10|0,1:1|0:1,0:0:0:0:
454,337,59784,1,0,0:1:0:0:
454,337,59878,6,0,P|402:339|346:366,1,105.000004005432,2|0,1:1|0:0,0:0:0:0:
152,214,60065,1,0,0:1:0:0:
174,251,60159,1,2,0:1:0:0:
185,289,60253,2,0,P|237:291|293:318,1,105.000004005432,8|0,1:1|0:1,0:0:0:0:
113,356,60440,2,0,P|61:354|5:327,1,105.000004005432,2|0,0:1|0:0,0:0:0:0:
16,125,60628,54,0,B|-22:133|-44:182|-2:236|66:224|73:182|88:104|191:140,1,280,0|2,1:1|0:1,0:0:0:0:
358,286,60909,1,0,0:1:0:0:
358,286,61003,2,0,B|414:148|316:8|316:8|248:89|297:184,1,420,10|0,1:1|0:1,0:0:0:0:
327,364,61378,5,2,1:1:0:0:
378,196,61565,2,0,P|425:175|477:171,1,105.000004005432,0|2,0:1|0:1,0:0:0:0:
205,103,61753,2,0,P|209:50|232:3,1,105.000004005432,8|0,1:1|0:1,0:0:0:0:
72,247,61940,2,0,P|29:216|0:173,1,105.000004005432,2|0,0:1|0:1,0:0:0:0:
173,373,62128,54,0,L|200:136,1,238.00000453949,2|0,1:1|0:1,0:0:0:0:
222,190,62409,1,0,0:1:0:0:
222,190,62503,2,0,P|323:243|370:131,1,238.00000453949,10|0,1:1|0:1,0:0:0:0:
330,69,62784,1,0,0:0:0:0:
330,69,62878,6,0,P|300:138|305:195,1,105.000004005432,2|0,1:1|0:0,0:0:0:0:
422,263,63065,2,0,P|446:217|452:165,1,105.000004005432,0|2,0:1|0:1,0:0:0:0:
251,314,63253,1,8,1:1:0:0:
8,213,63440,54,0,B|132:194|104:369|251:326,1,272.999987503052,2|0,0:1|0:1,0:0:0:0:
207,238,63815,2,0,L|195:192,2,45.4999979171754,2|0|0,3:1|3:1|3:1,0:0:0:0:
299,191,64003,2,0,L|324:89,1,90.9999958343508,2|0,0:1|0:1,0:0:0:0:
155,37,64190,2,0,L|176:125,1,90.9999958343508,0|0,1:1|0:1,0:0:0:0:
345,12,64378,1,2,1:1:0:0:
160,136,64565,21,8,0:0:0:0:
140,149,64659,1,8,0:0:0:0:
118,159,64753,2,0,P|74:164|18:137,1,105.000004005432,2|0,1:3|0:0,0:0:0:0:
279,279,64940,2,0,P|323:276|373:239,1,105.000004005432,8|0,0:2|0:1,0:0:0:0:
96,269,65128,6,0,P|113:353|175:293,1,210.000008010865,12|0,0:3|0:1,0:0:0:0:
176,125,65409,1,0,0:1:0:0:
192,146,65503,2,0,P|253:177|304:166,1,105.000004005432,10|0,1:1|0:1,0:0:0:0:
368,77,65690,2,0,P|324:49|272:49,1,105.000004005432,0|0,3:1|3:1,0:0:0:0:
446,234,65878,37,2,1:1:0:0:
439,184,65971,1,0,3:1:0:0:
431,136,66065,2,0,P|377:162|322:151,1,105.000004005432,0|2,3:1|3:1,0:0:0:0:
175,70,66253,2,0,P|229:44|284:55,1,105.000004005432,8|0,1:1|3:1,0:0:0:0:
91,149,66440,2,0,P|65:95|76:40,1,105.000004005432,2|0,3:1|3:1,0:0:0:0:
214,231,66628,22,0,P|176:308|131:235,1,210.000008010865,12|2,0:3|0:1,0:0:0:0:
309,236,66909,1,0,0:1:0:0:
317,271,67003,2,0,P|292:351|250:389,1,105.000004005432,10|0,1:1|0:1,0:0:0:0:
67,368,67190,2,0,P|38:324|29:272,1,105.000004005432,0|0,3:1|3:1,0:0:0:0:
25,86,67378,53,2,1:1:0:0:
54,122,67471,1,0,3:1:0:0:
91,149,67565,2,0,P|148:170|205:156,1,105.000004005432,0|2,3:1|3:1,0:0:0:0:
216,0,67753,2,0,P|247:41|253:93,1,105.000004005432,8|0,1:1|3:1,0:0:0:0:
59,217,67940,2,0,P|126:242|185:241,1,105.000004005432,2|0,3:1|3:1,0:0:0:0:
326,56,68128,6,0,P|356:135|273:113,1,210.000008010865,12|0,0:3|0:1,0:0:0:0:
420,29,68409,1,0,3:1:0:0:
438,59,68503,2,0,P|445:126|434:160,1,105.000004005432,10|0,1:1|3:1,0:0:0:0:
152,41,68690,2,0,P|219:34|253:45,1,105.000004005432,0|0,3:1|3:1,0:0:0:0:
201,300,68878,21,2,1:1:0:0:
151,317,68971,1,0,3:1:0:0:
101,333,69065,2,0,P|46:327|0:293,1,105.000004005432,0|2,3:1|3:1,0:0:0:0:
249,230,69253,2,0,P|282:269|285:320,1,105.000004005432,8|0,1:1|3:1,0:0:0:0:
0,187,69440,2,0,P|32:142|85:119,1,105.000004005432,2|0,3:1|3:1,0:0:0:0:
284,321,69628,6,0,P|235:339|184:332,1,105.000004005432,4|0,1:1|3:1,0:0:0:0:
154,65,69815,2,0,P|202:46|254:52,1,105.000004005432,2|0,3:1|3:1,0:0:0:0:
91,258,70003,2,0,P|72:209|79:158,1,105.000004005432,10|0,1:1|3:1,0:0:0:0:
347,128,70190,2,0,P|365:176|359:228,1,105.000004005432,0|0,3:1|3:1,0:0:0:0:
113,275,70378,6,0,L|216:255,1,105.000004005432,10|0,1:1|3:1,0:0:0:0:
136,58,70565,2,0,L|32:38,1,105.000004005432,0|0,3:1|3:1,0:0:0:0:
364,121,70753,1,2,0:2:0:0:
364,121,71128,38,0,P|409:54|395:145,1,210,12|0,0:2|0:0,0:0:0:0:
379,198,71503,2,0,P|424:131|410:222,1,210,0|0,0:0|0:0,0:0:0:0:
363,290,71878,54,0,P|390:331|382:275,1,140,8|0,0:0|0:0,0:0:0:0:
235,298,72159,2,0,P|213:342|257:307,1,140,0|0,0:0|0:0,0:0:0:0:
164,191,72440,2,0,P|114:194|167:214,2,140,0|0|0,0:0|0:0|0:0,0:0:0:0:
68,310,73003,6,0,P|78:332|56:314,1,70,0|0,0:0|0:0,0:0:0:0:
26,150,73190,2,0,P|47:133|40:159,1,70,0|0,0:0|0:0,0:0:0:0:
104,302,73378,54,0,P|64:360|76:281,1,210,8|0,0:0|0:0,0:0:0:0:
263,187,73753,2,0,P|223:128|235:207,1,210,8|0,0:0|0:0,0:0:0:0:
338,309,74128,6,0,P|383:376|369:285,1,210,8|0,0:0|0:0,0:0:0:0:
353,232,74503,2,0,P|398:299|384:208,1,210,0|0,0:0|0:0,0:0:0:0:
337,118,74878,54,0,P|364:76|356:132,1,140,8|0,0:0|0:0,0:0:0:0:
211,237,75159,2,0,P|254:267|239:216,1,140,0|0,0:0|0:0,0:0:0:0:
144,93,75440,2,0,P|165:77|158:103,1,70,0|0,0:0|0:0,0:0:0:0:
80,180,75628,6,0,P|50:137|39:86,1,105.000004005432,0|0,0:0|0:0,0:0:0:0:
45,13,75815,2,0,P|50:44|45:71,1,52.5000020027161,0|0,0:0|0:0,0:0:0:0:
148,270,76003,54,0,P|177:227|188:176,1,105.000004005432,8|0,0:0|0:0,0:0:0:0:
183,103,76190,2,0,P|178:134|183:161,1,52.5000020027161,0|0,0:0|0:0,0:0:0:0:
69,374,76378,6,0,P|39:331|28:280,1,105.000004005432,8|0,0:0|0:0,0:0:0:0:
34,207,76565,2,0,P|39:238|34:265,1,52.5000020027161,0|0,0:0|0:0,0:0:0:0:
179,251,76753,38,0,B|133:220|69:250|77:307|104:360|170:365|226:311|204:243|211:229|283:194|352:193|388:237,1,420,8|0,0:0|0:0,0:0:0:0:
316,323,77128,6,0,P|301:202|495:214,1,315.000012016297,10|0,0:3|0:0,0:0:0:0:
368,325,77503,38,0,P|266:341|329:273,1,251.999992309571,0|0,0:0|0:0,0:0:0:0:
456,259,77878,2,0,P|498:311|439:298,1,167.999994873047,8|0,0:0|0:0,0:0:0:0:
423,153,78159,2,0,P|489:142|448:187,1,167.999994873047,0|0,0:0|0:0,0:0:0:0:
314,128,78440,2,0,P|338:64|356:122,2,167.999994873047,0|8|0,0:0|0:0|0:0,0:0:0:0:
236,237,79003,22,0,P|208:254|218:223,1,83.9999974365235,8|0,0:0|0:0,0:0:0:0:
157,113,79190,2,0,P|184:95|174:126,1,83.9999974365235,0|0,0:0|0:0,0:0:0:0:
220,293,79378,2,0,P|190:200|271:254,1,251.999992309571,8|0,0:0|0:0,0:0:0:0:
358,217,79753,2,0,P|423:145|417:242,1,251.999992309571,0|0,0:0|0:0,0:0:0:0:
213,374,80128,37,8,0:0:0:0:
180,370,80221,1,0,0:0:0:0:
148,366,80315,1,0,0:0:0:0:
115,361,80409,1,0,0:0:0:0:
82,357,80503,22,0,P|76:260|141:331,1,251.999992309571,0|0,0:0|0:0,0:0:0:0:
28,183,80878,2,0,P|52:246|70:188,1,167.999994873047,8|0,0:0|0:0,0:0:0:0:
143,141,81159,2,0,P|209:151|168:106,1,167.999994873047,0|0,0:0|0:0,0:0:0:0:
53,62,81440,2,0,P|74:35|44:42,1,83.9999974365235,0|0,0:0|0:0,0:0:0:0:
203,189,81628,38,0,P|239:209|280:211,1,83.9999974365235,8|0,0:0|0:0,0:0:0:0:
300,124,81815,2,0,B|271:137|260:160|232:119|231:115|246:115,1,83.9999974365235,0|0,0:0|0:0,0:0:0:0:
367,60,82003,2,0,B|354:102|378:88|372:142,1,83.9999974365235,8|0,0:0|0:0,0:0:0:0:
351,261,82190,2,0,P|368:237|363:270,1,83.9999974365235,0|0,0:0|0:0,0:0:0:0:
209,300,82378,22,0,B|257:265|252:332|273:275,1,83.9999974365235,8|0,0:0|0:0,0:0:0:0:
72,319,82565,2,0,B|96:352|131:358|154:350,1,83.9999974365235,0|0,0:0|0:0,0:0:0:0:
95,219,82753,54,0,B|133:277|133:277|148:179|148:179|94:104,1,251.999992309571,2|0,0:0|0:0,0:0:0:0:
4,45,83128,54,0,P|137:120|286:80,1,315.000012016297,10|0,0:3|0:0,0:0:0:0:
332,133,83503,22,0,P|230:149|293:81,1,251.999992309571,0|0,0:0|0:0,0:0:0:0:
404,281,83878,2,0,P|361:228|420:241,1,167.999994873047,8|0,0:0|0:0,0:0:0:0:
228,350,84159,2,0,P|276:307|211:308,1,167.999994873047,0|0,0:0|0:0,0:0:0:0:
366,384,84440,2,0,P|341:362|374:363,1,83.9999974365235,0|0,0:0|0:0,0:0:0:0:
265,178,84628,38,0,P|289:199|256:198,1,83.9999974365235,8|0,0:0|0:0,0:0:0:0:
184,241,84815,2,0,P|177:272|161:244,1,83.9999974365235,0|0,0:0|0:0,0:0:0:0:
88,202,85003,2,0,P|57:212|73:184,1,83.9999974365235,8|0,0:0|0:0,0:0:0:0:
73,99,85190,2,0,P|48:77|81:78,1,83.9999974365235,0|0,0:0|0:0,0:0:0:0:
298,151,85378,22,0,P|260:247|233:158,1,251.999992309571,8|0,0:0|0:0,0:0:0:0:
348,92,85753,2,0,P|310:-4|283:84,1,251.999992309571,0|0,0:0|0:0,0:0:0:0:
442,165,86128,37,8,0:0:0:0:
438,197,86221,1,0,0:0:0:0:
434,229,86315,1,0,0:0:0:0:
429,262,86409,1,0,0:0:0:0:
425,295,86503,22,0,P|328:301|399:236,1,251.999992309571,0|0,0:0|0:0,0:0:0:0:
188,371,86878,2,0,P|218:310|232:375,1,167.999994873047,8|0,0:0|0:0,0:0:0:0:
158,182,87159,2,0,P|120:238|184:218,1,167.999994873047,0|0,0:0|0:0,0:0:0:0:
80,312,87440,2,0,P|98:340|66:330,1,83.9999974365235,0|0,0:0|0:0,0:0:0:0:
57,133,87628,37,8,0:0:0:0:
16,284,87815,1,0,0:0:0:0:
136,103,88003,21,8,0:0:0:0:
0,200,88190,1,0,0:0:0:0:
114,223,88378,1,8,0:0:0:0:
114,223,89128,54,0,B|256:258|192:47|360:83,1,315.000012016297,2|0,1:3|0:0,0:0:0:0:
315,250,89503,38,0,P|309:204|327:149,1,90.9999958343508,2|0,0:0|0:0,0:0:0:0:
441,29,89690,2,0,P|452:72|446:117,1,90.9999958343508,0|0,0:0|0:0,0:0:0:0:
391,207,89878,1,2,0:0:0:0:
277,64,90065,37,8,0:0:0:0:
237,57,90159,1,0,0:0:0:0:
196,61,90253,2,0,L|90:80,1,90.9999958343508,2|0,0:0|0:0,0:0:0:0:
225,233,90440,2,0,L|331:252,1,90.9999958343508,0|0,0:0|0:0,0:0:0:0:
50,146,90628,22,0,L|85:324,1,181.999991668702,8|0,0:0|0:0,0:0:0:0:
7,361,90909,1,0,0:0:0:0:
7,361,91003,2,0,P|62:325|112:332,1,90.9999958343508,2|0,0:0|0:0,0:0:0:0:
293,186,91190,2,0,P|259:157|215:150,1,90.9999958343508,0|0,0:0|0:0,0:0:0:0:
270,384,91378,1,2,0:0:0:0:
270,384,91565,38,0,L|297:270,1,90.9999958343508,8|0,0:0|0:0,0:0:0:0:
457,220,91753,2,0,L|436:308,1,90.9999958343508,2|0,0:0|0:0,0:0:0:0:
182,384,91940,2,0,L|209:270,1,90.9999958343508,0|0,0:0|0:0,0:0:0:0:
390,146,92128,22,0,P|296:90|194:211,1,272.999987503052,8|0,0:0|0:0,0:0:0:0:
96,143,92503,2,0,P|190:87|292:208,1,272.999987503052,2|0,0:0|0:0,0:0:0:0:
242,294,92878,2,0,P|302:218|214:80,1,272.999987503052,2|0,0:0|0:0,0:0:0:0:
117,135,93253,1,2,0:0:0:0:
377,200,93440,38,0,P|375:155|360:112,1,90.9999958343508,0|0,0:0|0:0,0:0:0:0:
177,247,93628,2,0,P|179:202|194:159,1,90.9999958343508,8|0,0:0|0:0,0:0:0:0:
428,271,93815,2,0,P|448:231|457:186,1,90.9999958343508,0|0,0:0|0:0,0:0:0:0:
127,317,94003,2,0,P|106:277|97:232,1,90.9999958343508,2|0,0:0|0:0,0:0:0:0:
291,384,94190,1,0,0:0:0:0:
291,384,94378,22,0,P|311:278|159:262,1,272.999987503052,2|0,0:0|0:0,0:0:0:0:
29,311,94753,22,0,P|56:267|54:215,1,105,2|0,0:0|0:0,0:0:0:0:
47,193,95128,38,0,B|-12:143|-12:143|167:174,1,238.00000453949,10|0,0:3|0:1,0:0:0:0:
292,123,95409,1,0,0:1:0:0:
292,123,95503,2,0,L|158:97,1,105.000004005432,0|0,1:1|0:1,0:0:0:0:
291,206,95690,37,2,0:1:0:0:
341,193,95784,1,0,0:1:0:0:
378,157,95878,2,0,P|379:98|347:47,1,105.000004005432,0|0,1:1|0:1,0:0:0:0:
191,180,96065,2,0,P|190:239|222:290,1,105.000004005432,2|0,0:1|0:1,0:0:0:0:
442,206,96253,2,0,P|456:150|452:89,1,105.000004005432,0|0,1:1|0:0,0:0:0:0:
368,273,96440,21,0,0:1:0:0:
394,308,96534,1,0,0:1:0:0:
419,340,96628,2,0,L|315:324,1,105.000004005432,0|0,1:1|0:0,0:0:0:0:
85,289,96815,1,2,0:1:0:0:
107,320,96909,1,0,0:1:0:0:
129,353,97003,38,0,L|113:249,1,105.000004005432,0|0,1:1|0:1,0:0:0:0:
310,142,97190,2,0,L|294:245,1,105.000004005432,2|0,0:1|0:1,0:0:0:0:
35,230,97378,2,0,L|19:126,1,105.000004005432,0|0,1:1|0:1,0:0:0:0:
241,100,97565,1,2,0:1:0:0:
231,137,97659,1,0,0:1:0:0:
220,174,97753,22,0,P|159:175|116:146,1,105.000004005432,0|0,1:1|0:1,0:0:0:0:
154,248,97940,2,0,P|107:232|65:198,1,105.000004005432,0|0,0:1|0:1,0:0:0:0:
359,353,98128,38,0,P|306:321|254:325,1,105.000004005432,0|0,1:1|0:1,0:0:0:0:
338,256,98315,2,0,P|289:246|235:254,1,105.000004005432,2|0,0:1|0:1,0:0:0:0:
465,109,98503,22,0,P|411:138|388:185,1,105.000004005432,0|0,1:1|0:1,0:0:0:0:
370,78,98690,2,0,P|337:115|317:165,1,105.000004005432,2|0,0:1|0:1,0:0:0:0:
47,109,98878,38,0,P|100:138|123:185,1,105.000004005432,0|0,1:1|0:1,0:0:0:0:
142,78,99065,2,0,P|174:115|194:165,1,105.000004005432,2|0,0:1|0:1,0:0:0:0:
146,384,99253,38,0,L|127:280,1,105.000004005432,0|0,1:1|0:1,0:0:0:0:
261,349,99440,2,0,L|280:245,1,105.000004005432,2|0,0:1|0:1,0:0:0:0:
406,384,99628,2,0,L|387:280,1,105.000004005432,0|0,1:1|0:1,0:0:0:0:
418,156,99815,53,0,0:0:0:0:
370,174,99909,1,0,0:0:0:0:
320,178,100003,2,0,P|279:168|243:146,1,83.9999974365235,0|0,0:0|0:0,0:0:0:0:
283,30,100190,2,0,P|323:39|359:61,1,83.9999974365235,0|0,0:0|0:0,0:0:0:0:
161,64,100378,6,0,B|193:36|193:36|180:75,1,83.9999974365235,2|0,0:3|0:0,0:0:0:0:
136,196,100565,2,0,B|163:226|163:226|155:185,1,83.9999974365235,2|0,0:3|0:0,0:0:0:0:
45,103,100753,2,0,B|4:111|4:111|44:124,2,83.9999974365235,2|2|2,0:3|0:3|0:3,0:0:0:0:
48,225,101128,6,0,B|43:309|117:365|254:371|202:253|280:230|341:242|389:331,1,377.999988464356,12|0,0:0|0:0,0:0:0:0:
427,368,101503,6,0,P|430:304|444:262,2,105.000004005432,8|10|0,0:3|0:0|0:0,0:0:0:0:
477,191,102065,1,0,0:0:0:0:
390,170,102253,1,8,0:3:0:0:
303,149,102440,1,8,0:0:0:0:
202,209,102628,6,0,P|151:210|106:184,1,105.000004005432,8|8,0:0|0:0,0:0:0:0:
106,39,103003,2,0,P|151:64|175:110,2,105.000004005432,8|2|0,0:3|0:0|0:0,0:0:0:0:
0,103,103565,1,8,0:0:0:0:
40,203,103753,1,8,0:3:0:0:
0,303,103940,1,8,0:0:0:0:
102,363,104128,54,0,L|205:344,1,105.000004005432,8|0,0:0|0:0,0:0:0:0:
286,175,104503,2,0,L|182:193,1,105.000004005432,8|10,0:3|0:0,0:0:0:0:
266,384,104878,2,0,L|369:365,1,105.000004005432,0|8,0:0|0:0,0:0:0:0:
404,224,105253,1,8,0:3:0:0:
453,322,105440,1,10,0:0:0:0:
471,167,105628,6,0,P|429:138|377:139,1,105.000004005432,0|8,0:0|0:0,0:0:0:0:
272,252,106003,2,0,L|306:34,1,210.000008010865,10|2,0:3|0:3,0:0:0:0:
199,119,106565,1,8,0:0:0:0:
106,32,106753,2,0,B|120:65|120:65|123:98,1,70,10|0,0:3|0:0,0:0:0:0:
18,202,106940,2,0,B|4:169|4:169|1:135,1,70,8|0,0:0|0:0,0:0:0:0:
99,323,107128,38,0,B|55:337|34:290|47:256|68:226|106:221|159:239|194:284|199:325|234:345|277:345|321:321,1,377.999988464356,8|0,0:0|0:0,0:0:0:0:
296,155,107503,6,0,P|273:202|269:254,1,105.000004005432,8|10,0:3|0:0,0:0:0:0:
460,203,107878,1,2,0:0:0:0:
296,64,108065,2,0,P|252:93|223:136,1,105.000004005432,8|8,0:0|0:3,0:0:0:0:
392,137,108440,1,10,0:0:0:0:
191,54,108628,6,0,L|86:43,1,105.000004005432,10|8,0:0|0:0,0:0:0:0:
157,246,109003,2,0,L|261:235,1,105.000004005432,8|0,0:3|0:0,0:0:0:0:
109,145,109378,1,0,0:0:0:0:
52,274,109565,1,10,0:0:0:0:
246,121,109753,1,8,0:3:0:0:
318,288,109940,1,10,0:0:0:0:
369,63,110128,54,0,P|448:52|431:108,1,157.500006008148,8|0,0:0|0:0,0:0:0:0:
359,146,110503,2,0,P|333:148|307:141,1,52.5000020027161,8|0,0:0|0:0,0:0:0:0:
241,103,110690,2,0,P|226:81|220:56,1,52.5000020027161,0|0,0:0|0:0,0:0:0:0:
94,21,110878,6,0,P|109:52|114:86,1,70,8|0,0:0|0:0,0:0:0:0:
116,192,111065,2,0,P|113:226|101:259,1,70,8|0,0:0|0:0,0:0:0:0:
16,355,111253,53,8,0:0:0:0:
56,344,111346,1,8,0:0:0:0:
102,365,111440,1,8,0:0:0:0:
166,341,111534,1,8,0:0:0:0:
239,378,111628,6,0,L|391:359,1,154.000004699707,8|0,0:0|0:0,0:0:0:0:
479,83,112378,38,0,L|340:65,1,140,8|0,0:1|0:0,0:0:0:0:
118,136,112565,1,0,0:0:0:0:
502,168,112753,6,0,L|363:150,1,125.999996154785,0|0,0:0|0:0,0:0:0:0:
297,299,112940,2,0,L|435:281,1,125.999996154785,0|0,0:0|0:0,0:0:0:0:
214,180,113128,6,0,B|113:206|88:270|92:327|153:360|210:339|227:286|197:238,1,280,6|0,1:1|0:1,0:0:0:0:
122,139,113409,1,0,0:1:0:0:
122,139,113503,2,0,P|50:220|84:381,1,280,10|0,1:1|0:1,0:0:0:0:
291,214,113784,1,0,0:1:0:0:
291,214,113878,6,0,P|293:157|253:105,1,105.000004005432,2|0,1:1|0:0,0:0:0:0:
21,162,114065,1,0,0:1:0:0:
52,198,114159,1,2,0:1:0:0:
92,224,114253,2,0,P|161:219|199:184,1,105.000004005432,8|0,1:1|0:1,0:0:0:0:
298,36,114440,2,0,P|246:34|201:61,1,105.000004005432,2|0,0:1|0:1,0:0:0:0:
428,145,114628,54,0,B|460:105|416:79|416:79|345:130|356:218|423:282,1,280,0|2,1:1|0:1,0:0:0:0:
505,276,114909,1,0,0:1:0:0:
505,276,115003,2,0,P|385:258|246:370,1,280,10|0,1:1|0:1,0:0:0:0:
140,384,115284,1,0,0:0:0:0:
140,384,115378,6,0,P|159:322|161:267,1,105.000004005432,2|0,1:1|0:1,0:0:0:0:
0,150,115565,2,0,P|63:164|111:190,1,105.000004005432,0|2,0:1|0:1,0:0:0:0:
259,344,115753,2,0,P|255:279|238:226,1,105.000004005432,8|0,1:1|0:1,0:0:0:0:
46,32,115940,2,0,P|100:67|137:108,1,105.000004005432,2|0,0:1|0:1,0:0:0:0:
46,279,116128,54,0,B|176:314|145:115|287:171,1,280,2|0,1:1|0:1,0:0:0:0:
424,352,116409,1,0,0:1:0:0:
424,352,116503,2,0,B|370:387|321:321|341:258|403:249|463:278|468:197|455:151,1,280,10|0,1:1|0:1,0:0:0:0:
357,157,116784,1,0,0:1:0:0:
380,183,116878,6,0,P|364:138|317:93,1,105.000004005432,2|0,1:1|0:1,0:0:0:0:
221,290,117065,2,0,P|251:254|267:191,1,105.000004005432,0|2,0:1|0:1,0:0:0:0:
58,213,117253,2,0,P|104:222|167:203,1,105.000004005432,8|0,1:1|0:1,0:0:0:0:
143,39,117440,54,0,P|25:79|188:154,1,420,2|0,0:1|0:1,0:0:0:0:
232,75,117815,1,2,0:1:0:0:
147,277,118003,2,0,P|96:284|45:274,1,105.000004005432,10|0,1:1|0:1,0:0:0:0:
323,174,118190,2,0,P|272:166|221:177,1,105.000004005432,0|0,0:1|0:1,0:0:0:0:
395,384,118378,6,0,L|432:124,1,238.00000453949,2|0,1:1|0:1,0:0:0:0:
428,148,118659,1,2,0:1:0:0:
428,148,118753,1,8,1:1:0:0:
505,340,118940,1,2,0:1:0:0:
457,74,119128,54,0,B|327:39|358:238|216:182,1,280,2|0,1:1|0:1,0:0:0:0:
65,67,119409,1,0,0:1:0:0:
65,67,119503,2,0,B|127:99|121:218|1:174|13:296|78:330,1,280,10|0,1:1|0:1,0:0:0:0:
217,257,119784,1,0,0:1:0:0:
217,257,119878,22,0,P|165:249|114:259,1,105.000004005432,2|0,1:1|0:0,0:0:0:0:
226,383,120065,1,0,0:0:0:0:
267,373,120159,1,2,0:1:0:0:
304,356,120253,2,0,P|336:315|353:265,1,105.000004005432,8|0,1:1|0:0,0:0:0:0:
227,60,120440,2,0,P|194:100|177:150,1,105.000004005432,2|0,0:1|0:1,0:0:0:0:
413,129,120628,38,0,B|345:90|263:88|226:130|227:195|275:229|335:217|347:160,1,280,0|2,1:1|0:1,0:0:0:0:
137,38,120909,1,0,0:1:0:0:
137,38,121003,2,0,B|55:173|123:310|123:310|182:257|182:178,1,420,10|0,1:1|0:1,0:0:0:0:
25,111,121378,21,2,1:1:0:0:
238,263,121565,2,0,P|216:310|182:350,1,105.000004005432,0|2,0:1|0:1,0:0:0:0:
377,216,121753,2,0,P|407:258|424:308,1,105.000004005432,8|0,1:1|0:1,0:0:0:0:
385,67,121940,2,0,P|437:62|488:71,1,105.000004005432,2|0,0:1|0:1,0:0:0:0:
237,152,122128,38,0,P|140:151|213:66,1,238.00000453949,2|0,1:1|0:1,0:0:0:0:
275,223,122409,1,0,0:1:0:0:
275,223,122503,2,0,P|128:240|58:88,1,238.00000453949,10|0,1:1|0:0,0:0:0:0:
277,76,122784,1,0,0:0:0:0:
277,76,122878,22,0,P|313:110|321:176,1,105.000004005432,2|0,1:1|0:0,0:0:0:0:
66,78,123065,2,0,P|91:32|138:0,1,105.000004005432,0|2,0:1|0:1,0:0:0:0:
160,251,123253,1,8,1:1:0:0:
285,384,123440,38,0,P|426:328|435:203,1,272.999987503052,2|0,0:1|0:1,0:0:0:0:
408,125,123815,2,0,L|454:137,2,45.4999979171754,2|0|0,0:1|0:1|0:1,0:0:0:0:
250,66,124003,2,0,L|338:44,1,90.9999958343508,2|0,1:1|0:1,0:0:0:0:
329,269,124190,2,0,L|241:248,1,90.9999958343508,0|0,1:1|0:1,0:0:0:0:
441,221,124378,1,2,1:1:0:0:
253,336,124565,5,0,1:0:0:0:
216,322,124659,1,0,1:0:0:0:
182,307,124753,2,0,P|162:278|168:208,1,105.000004005432,10|0,0:3|0:0,0:0:0:0:
351,100,124940,2,0,P|371:129|365:199,1,105.000004005432,0|0,0:0|0:0,0:0:0:0:
98,163,125128,22,0,P|95:76|170:118,1,210.000008010865,12|0,0:3|0:1,0:0:0:0:
0,164,125409,1,0,0:1:0:0:
0,128,125503,2,0,P|8:72|50:19,1,105.000004005432,10|0,1:1|0:1,0:0:0:0:
106,279,125690,2,0,P|49:265|2:221,1,105.000004005432,0|0,3:1|3:1,0:0:0:0:
237,126,125878,53,2,1:1:0:0:
279,145,125971,1,0,3:1:0:0:
317,173,126065,2,0,P|330:223|320:274,1,105.000004005432,0|2,3:1|3:1,0:0:0:0:
133,134,126253,2,0,P|145:83|180:44,1,105.000004005432,8|0,1:1|3:1,0:0:0:0:
270,333,126440,2,0,P|218:338|169:319,1,105.000004005432,2|0,3:1|3:1,0:0:0:0:
369,102,126628,6,0,P|429:86|401:180,1,210.000008010865,12|2,0:3|0:1,0:0:0:0:
209,29,126909,1,0,0:1:0:0:
232,66,127003,2,0,P|243:116|229:166,1,105.000004005432,10|0,1:1|0:1,0:0:0:0:
20,245,127190,2,0,P|8:194|22:144,1,105.000004005432,0|0,3:1|3:1,0:0:0:0:
173,308,127378,37,2,1:1:0:0:
219,308,127471,1,0,3:1:0:0:
262,285,127565,2,0,P|294:240|292:171,1,105.000004005432,0|2,3:1|3:1,0:0:0:0:
93,235,127753,2,0,P|89:183|112:136,1,105.000004005432,8|0,1:1|3:1,0:0:0:0:
293,351,127940,2,0,P|332:317|364:254,1,105.000004005432,2|0,3:1|3:1,0:0:0:0:
99,339,128128,22,0,P|72:293|94:316,1,210.000008010865,12|0,0:3|0:1,0:0:0:0:
219,217,128409,1,0,3:1:0:0:
190,238,128503,2,0,P|139:232|94:203,1,105.000004005432,10|0,1:1|3:1,0:0:0:0:
66,40,128690,2,0,P|117:46|162:75,1,105.000004005432,0|0,3:1|3:1,0:0:0:0:
306,250,128878,21,2,1:1:0:0:
301,203,128971,1,0,3:1:0:0:
326,161,129065,2,0,P|375:144|426:148,1,105.000004005432,0|2,3:1|3:1,0:0:0:0:
148,312,129253,2,0,P|115:273|112:222,1,105.000004005432,8|0,1:1|3:1,0:0:0:0:
219,40,129440,2,0,P|252:79|254:131,1,105.000004005432,2|0,3:1|3:1,0:0:0:0:
0,121,129628,6,0,P|41:89|92:82,1,105.000004005432,12|0,3:3|3:1,0:0:0:0:
255,176,129815,2,0,P|213:207|162:214,1,105.000004005432,2|0,3:1|3:1,0:0:0:0:
149,4,130003,2,0,P|180:45|187:96,1,105.000004005432,10|0,1:1|3:1,0:0:0:0:
95,296,130190,2,0,P|63:254|56:203,1,105.000004005432,0|0,3:1|3:1,0:0:0:0:
358,161,130378,6,0,L|254:176,1,105.000004005432,10|0,1:1|3:1,0:0:0:0:
157,359,130565,2,0,L|261:374,1,105.000004005432,0|0,3:1|3:1,0:0:0:0:
398,77,130753,2,0,L|294:92,1,105.000004005432,0|0,1:1|0:0,0:0:0:0:
206,288,130940,2,0,L|310:303,1,105.000004005432,0|0,3:1|0:0,0:0:0:0:
438,8,131128,5,2,3:1:0:0:
256,192,131221,12,8,132628,0:0:0:0:
467,150,133003,5,2,0:0:0:0:
467,178,133096,1,8,0:3:0:0:
467,207,133190,1,8,0:3:0:0:
468,236,133284,1,4,0:3:0:0:
446,260,133378,5,4,0:3:0:0:
488,272,133471,1,8,0:0:0:0:
447,289,133565,1,8,0:0:0:0:
489,301,133659,1,0,0:0:0:0:
463,324,133753,54,0,B|428:409|247:426|238:260,1,315.000012016297,2|0,0:1|0:0,0:0:0:0:
375,81,134128,54,0,B|407:56|452:60|474:86|478:124|456:167|409:158|409:158|331:142|331:142|330:133|330:133|326:141|326:141|226:123|226:123|222:128|222:128|221:122|221:122|191:112|191:112|168:117|218:120|138:103|138:103|136:106|112:105,1,503.999984619141,2|0,1:1|0:0,0:0:0:0:
7,251,134503,38,0,B|53:238|90:274|86:300|63:348|56:381|93:408|122:404|172:388|214:376|195:323|157:313|143:265|158:212|206:209,1,420,2|0,0:0|0:0,0:0:0:0:
378,310,134878,2,0,P|350:315|319:280,1,70,8|0,0:0|0:0,0:0:0:0:
367,249,135065,2,0,P|385:270|370:315,1,70,0|0,0:0|0:0,0:0:0:0:
320,288,135253,2,0,P|329:261|375:251,1,70,0|0,0:0|0:0,0:0:0:0:
430,113,135440,1,8,0:0:0:0:
428,146,135534,1,0,0:0:0:0:
426,179,135628,6,0,P|391:166|396:109,1,90.9999958343508,0|0,0:0|0:0,0:0:0:0:
254,57,135815,2,0,P|282:33|329:66,1,90.9999958343508,0|0,0:0|0:0,0:0:0:0:
231,175,136003,2,0,P|196:161|287:126,1,272.999987503052,8|0,0:0|0:0,0:0:0:0:
110,183,136378,22,0,P|69:171|47:208,1,90.9999958343508,8|0,0:0|0:0,0:0:0:0:
207,282,136565,2,0,P|190:243|147:250,1,90.9999958343508,0|0,0:0|0:0,0:0:0:0:
14,315,136753,2,0,B|-23:331|9:360|47:358|78:331|99:308|141:306|164:339|163:387|240:362|254:339,1,272.999987503052,0|0,0:0|0:0,0:0:0:0:
467,128,137128,54,0,B|369:84|369:84|361:71|361:71|366:86|366:86|344:213|344:213|347:224|347:224|341:215|341:215|246:204|246:204|238:212|238:212|242:200|242:200|194:115,1,503.999984619141,2|0,1:0|0:0,0:0:0:0:
108,38,137503,38,0,L|120:177,1,105.000004005432,0|0,0:0|0:0,0:0:0:0:
121,148,137784,1,0,0:0:0:0:
126,155,137878,6,0,P|75:165|32:196,1,105.000004005432,8|0,0:0|0:0,0:0:0:0:
196,318,138065,1,0,0:0:0:0:
250,304,138159,1,0,0:0:0:0:
296,278,138253,2,0,P|330:242|342:177,1,105.000004005432,0|0,0:0|0:0,0:0:0:0:
203,77,138440,2,0,B|202:109|202:109|213:137,3,52.5000020027161,0|0|0|0,1:1|0:0|0:0|0:0,0:0:0:0:
228,46,138628,6,0,L|345:66,1,105.000004005432,0|0,0:0|0:0,0:0:0:0:
446,206,138815,2,0,L|342:188,1,105.000004005432,0|0,0:0|0:0,0:0:0:0:
254,23,139003,2,0,L|371:43,1,105.000004005432,8|0,0:0|0:0,0:0:0:0:
472,183,139190,2,0,L|368:165,1,105.000004005432,0|0,0:0|0:0,0:0:0:0:
79,135,139378,38,0,P|148:135|207:170,1,140,8|0,1:2|2:0,0:0:0:0:
213,371,139565,2,0,P|248:311|247:242,1,140,2|0,1:0|2:0,0:0:0:0:
44,73,139753,2,0,P|109:57|186:71,1,140,2|0,1:0|0:0,0:0:0:0:
89,384,139940,2,0,P|39:335|22:268,1,140,8|8,1:2|1:2,1:2:0:0:
329,269,140128,6,0,B|265:243|188:258|194:296|164:322|157:342|111:353|64:305|75:261|99:240|114:229|131:212|171:212|234:281,1,420,2|0,1:0|0:0,0:0:0:0:
463,204,140503,6,0,B|416:192|402:142|419:122|463:91|485:66|467:25|439:13|388:2|346:-7|336:47|364:75|352:123|312:162|269:140,1,420,2|0,0:0|0:0,0:0:0:0:
177,41,140878,38,0,P|149:36|118:71,1,70,8|0,0:0|0:0,0:0:0:0:
166,102,141065,2,0,P|184:81|169:36,1,70,0|0,0:0|0:0,0:0:0:0:
119,63,141253,2,0,P|128:90|174:100,1,70,0|0,0:0|0:0,0:0:0:0:
49,162,141440,1,8,0:0:0:0:
40,188,141534,1,0,0:0:0:0:
30,217,141628,6,0,P|53:241|105:220,1,83.9999974365235,0|0,0:0|0:0,0:0:0:0:
231,160,141815,2,0,P|222:193|167:201,1,83.9999974365235,0|0,0:0|0:0,0:0:0:0:
93,363,142003,2,0,B|159:324|146:238|146:238|184:317|264:321,1,293.999991027832,8|0,0:0|0:0,0:0:0:0:
354,202,142378,22,0,L|471:227,1,105.000004005432,8|0,0:0|0:0,0:0:0:0:
265,90,142565,1,0,0:0:0:0:
265,90,142753,22,0,L|382:115,1,105.000004005432,0|0,0:0|0:0,0:0:0:0:
115,224,142940,2,0,L|232:249,1,105.000004005432,0|0,0:0|0:0,0:0:0:0:
39,79,143128,22,0,B|50:27|50:27|112:7|112:7|166:47|166:47|148:126|148:126|67:144|67:144|22:206|22:206|39:284,1,503.999984619141,2|0,1:0|0:0,0:0:0:0:
221,327,143503,54,0,B|170:328|170:328|127:347,1,97.9999970092774,2|0,0:0|0:0,0:0:0:0:
292,269,143690,2,0,B|247:244|247:244|200:239,1,97.9999970092774,2|0,0:0|0:0,0:0:0:0:
378,238,143878,22,0,B|376:289|376:289|358:332,1,97.9999970092774,8|0,0:0|0:0,0:0:0:0:
436,167,144065,2,0,B|460:211|460:211|465:258,1,97.9999970092774
387,87,144253,22,0,B|299:125|299:125|202:84,1,195.999994018555,2|8,0:0|0:0,0:0:0:0:
131,160,144534,1,0,0:0:0:0:
123,185,144628,6,0,L|103:51,1,112,2|0,0:0|0:0,0:0:0:0:
281,233,144815,2,0,L|301:99,1,112,2|2,0:0|0:0,0:0:0:0:
30,248,145003,2,0,L|10:114,1,112,10|0,0:0|0:0,0:0:0:0:
188,296,145190,2,0,L|208:162,1,112,8|8,0:3|0:3,0:0:0:0:
38,344,145378,22,0,P|192:310|371:354,1,336,8|0,0:3|0:0,0:0:0:0:
480,162,145753,2,0,B|482:167|483:174|483:174|489:174|489:174|484:177|484:177|485:181|485:187|485:187|480:188|480:188|485:189|485:189|485:196|485:199|485:199|490:201|490:201|484:202|484:202|483:210|482:213|482:213|477:212|477:212|481:216|481:216|479:220|477:225|477:225|482:228|482:228|477:228|477:228|473:234|471:236|471:236|467:235|467:235|469:239|469:239|467:243|463:246|463:246|465:251|465:251|461:249|461:249|455:253|453:256|453:256|448:252|448:252|450:257|450:257|446:260|441:262|441:262|443:267|443:267|439:264|439:264|432:267|429:268|429:268|426:263|426:263|427:268|427:268|420:270|417:271|417:271|416:276|416:276|414:271|414:271|409:272|403:271|403:271|402:266|402:266|401:272|401:272|396:271|391:270|391:270|387:275|387:275|388:270|388:270|381:268|378:267|378:267|378:261|378:261|375:265|375:265|370:263|366:261|366:261|362:265|362:265|363:259|363:259|358:257|354:254|354:254|356:249|356:249|352:253|352:253|349:249|345:245|345:245|340:247|340:247|343:243|343:243|340:239|337:234|337:234|340:230|340:230|335:232|335:232|333:227|330:223|330:223|326:223|326:223|330:220|330:220|327:215|326:210|326:210|331:207|331:207|326:208|326:208|325:203|324:197|324:197|320:196|320:196|325:195|325:195|324:189|324:184|324:184|330:183|330:183|325:181|325:181|326:176|326:171|326:171|322:168|322:168|327:168|327:168|329:164|331:159|331:159|336:160|336:160|332:156|332:156|335:151|337:147|337:147|334:143|334:143|339:144|339:144|343:139|345:137|345:137|350:139|350:139|347:134|347:134|351:131|355:127|355:127|353:123|353:123|358:126|358:126|362:123|366:120|366:120|370:124|370:124|369:118|369:118|376:116|378:116|378:116|378:110|378:110|380:114|380:114|385:112|391:112|391:112|393:116|393:116|394:111|394:111|402:111|398:111,1,630.000024032594,8|0,0:0|0:0,0:0:0:0:
405,190,146128,5,0,0:0:0:0:
437,170,158128,70,0,B|469:146|448:110|448:110|391:77|345:137|372:203|304:243|241:215,1,315.000012016297,12|0,0:0|0:0,0:0:0:0:
253,118,158878,2,0,P|266:174|253:231,1,105.000004005432,2|0,0:0|0:0,0:0:0:0:
188,297,159253,1,0,0:0:0:0:
81,325,159440,1,0,0:0:0:0:
81,325,159815,53,0,0:0:0:0:
293,343,160003,2,0,P|380:333|487:254,1,210.000008010865,8|2,0:0|0:0,0:0:0:0:
188,297,160565,1,0,0:0:0:0:
362,239,160753,2,0,P|311:224|259:222,1,105.000004005432,0|0,0:0|0:0,0:0:0:0:
207,62,161128,6,0,B|269:73|259:165|173:185|147:122|144:46|82:71|40:126|56:170|130:179,1,315.000012016297,8|0,0:0|0:0,0:0:0:0:
171,205,161878,1,2,0:0:0:0:
141,23,162065,1,2,0:0:0:0:
3,118,162253,2,0,P|22:70|63:39,1,105.000004005432,0|2,0:0|0:0,0:0:0:0:
63,38,162815,53,2,0:0:0:0:
269,101,163003,2,0,P|371:82|461:29,1,210.000008010865,10|0,0:0|0:0,0:0:0:0:
141,23,163565,1,0,0:0:0:0:
282,201,163753,2,0,P|284:149|268:100,1,105.000004005432,2|0,0:0|0:0,0:0:0:0:
28,189,164128,6,0,B|-23:200|-13:245|-13:245|38:266|102:241|90:143|214:165,1,315.000012016297,8|0,0:0|0:0,0:0:0:0:
250,322,164878,2,0,P|197:290|178:241,1,105.000004005432,2|2,0:0|0:0,0:0:0:0:
343,143,165253,1,0,0:0:0:0:
267,236,165440,1,2,0:0:0:0:
267,236,165815,53,0,0:0:0:0:
376,217,166003,2,0,B|414:210|435:165|427:127|427:127|485:153|506:257|420:311,1,315.000012016297,8|0,0:0|0:0,0:0:0:0:
253,364,166753,2,0,L|370:347,1,105.000004005432,0|0,0:0|0:0,0:0:0:0:
66,342,167128,6,0,P|186:259|41:244,1,377.999988464356,8|0,0:0|0:0,0:0:0:0:
41,244,167878,1,2,0:0:0:0:
185,123,168065,1,10,0:0:0:0:
276,294,168253,1,0,0:0:0:0:
276,294,168440,2,0,L|439:280,1,125.999996154785,10|0,0:0|0:0,0:0:0:0:
296,77,168815,2,0,L|307:202,1,125.999996154785,10|8,0:0|0:0,0:0:0:0:
412,176,169190,1,2,0:0:0:0:
219,221,169378,53,0,0:0:0:0:
61,147,169565,1,8,0:3:0:0:
296,77,169753,1,4,0:3:0:0:
21,352,170128,22,0,B|93:321|93:321|198:345|198:345|302:307|302:307|379:332,1,363.999983337403,8|0,0:0|0:0,0:0:0:0:
466,366,170409,2,0,L|432:354,1,35,0|0,0:0|0:0,0:0:0:0:
73,172,170690,6,0,B|151:167|151:167|241:225|241:225|352:225|352:225|416:275,1,363.999983337403,8|0,0:0|0:0,0:0:0:0:
485,336,170971,2,0,L|457:313,1,35,0|0,0:0|0:0,0:0:0:0:
180,21,171253,6,0,B|255:43|255:43|320:129|320:129|424:167|424:167|467:235,1,363.999983337403,8|0,0:0|0:0,0:0:0:0:
511,316,171534,2,0,L|493:285,1,35,0|0,0:0|0:0,0:0:0:0:
244,359,171815,6,0,L|273:217,1,140,8|0,0:0|0:0,0:0:0:0:
196,176,172003,2,0,L|167:313,1,140,0|0,0:0|0:0,0:0:0:0:
76,344,172190,2,0,L|105:202,1,140,0|0,0:0|0:0,0:0:0:0:
28,161,172378,2,0,L|0:298,1,140,0|0,0:0|0:0,0:0:0:0:
196,176,172565,2,0,L|167:313,1,140,0|0,0:0|0:0,0:0:0:0:
119,97,172753,1,2,0:0:0:0:
484,361,173128,22,0,P|335:301|126:321,1,363.999983337403,8|0,0:0|0:0,0:0:0:0:
27,345,173409,2,0,P|44:345|61:343,1,35,0|0,0:0|0:0,0:0:0:0:
449,169,173690,6,0,P|288:163|99:253,1,363.999983337403,8|0,0:0|0:0,0:0:0:0:
15,310,173971,2,0,P|31:304|47:296,1,35,0|0,0:0|0:0,0:0:0:0:
360,0,174253,6,0,P|207:49|60:199,1,363.999983337403,8|0,0:0|0:0,0:0:0:0:
0,281,174534,2,0,P|13:270|25:257,1,35,0|0,0:0|0:0,0:0:0:0:
278,333,174815,6,0,L|420:362,1,140,8|0,0:0|0:0,0:0:0:0:
461,284,175003,2,0,L|323:255,1,140,0|0,0:0|0:0,0:0:0:0:
293,164,175190,2,0,L|435:193,1,140,0|0,0:0|0:0,0:0:0:0:
476,116,175378,2,0,L|338:87,1,140,0|0,0:0|0:0,0:0:0:0:
461,284,175565,2,0,L|323:255,1,140,0|0,0:0|0:0,0:0:0:0:
250,85,175753,6,0,P|219:75|209:105,1,70,8|0,0:0|0:0,0:0:0:0:
363,256,175940,2,0,P|386:234|365:210,1,70,8|0,0:0|0:0,0:0:0:0:
39,306,176128,6,0,B|119:223|119:223|251:215|251:215|325:122,1,363.999983337403,8|0,0:0|0:0,0:0:0:0:
390,32,176409,2,0,L|369:60,1,35,0|0,0:0|0:0,0:0:0:0:
24,68,176690,6,0,B|119:132|119:132|150:261|150:261|254:317,1,363.999983337403,8|0,0:0|0:0,0:0:0:0:
354,366,176971,2,0,L|322:350,1,35,0|0,0:0|0:0,0:0:0:0:
439,178,177253,6,0,B|327:206|327:206|253:316|253:316|136:333,1,363.999983337403,8|0,0:0|0:0,0:0:0:0:
26,345,177534,2,0,L|60:340,1,35,0|0,0:0|0:0,0:0:0:0:
59,35,177815,6,0,L|30:177,1,140,8|0,0:0|0:0,0:0:0:0:
107,218,178003,2,0,L|135:80,1,140,0|0,0:0|0:0,0:0:0:0:
227,50,178190,2,0,L|198:192,1,140,0|0,0:0|0:0,0:0:0:0:
275,233,178378,2,0,L|303:95,1,140,0|0,0:0|0:0,0:0:0:0:
107,218,178565,2,0,L|135:80,1,140,0|0,0:0|0:0,0:0:0:0:
184,297,178753,1,2,0:0:0:0:
463,172,179128,22,0,P|456:114|397:207,1,280,8|0,0:0|0:0,0:0:0:0:
468,284,179409,2,0,L|445:233,1,35,0|0,0:0|0:0,0:0:0:0:
282,213,179690,6,0,P|255:160|231:268,1,280,0|0,0:0|0:0,0:0:0:0:
325,316,179971,2,0,L|285:275,1,35,0|0,0:0|0:0,0:0:0:0:
111,293,180253,6,0,P|68:253|82:362,1,280,8|0,0:0|0:0,0:0:0:0:
186,375,180534,2,0,L|135:350,1,35,0|0,0:0|0:0,0:0:0:0:
35,91,180815,6,0,B|91:29|203:31|242:96|269:152|387:153|452:63|452:63|500:142|447:214|368:212|336:235|328:272|322:305|320:369|384:392|441:393|500:375|514:273|486:263|480:230|366:165|276:212,1,1155.00004405976,4|0,1:1|0:0,0:0:0:0:
251,302,183065,2,0,L|193:282,1,52.5000020027161,0|0,0:0|0:0,0:0:0:0:
195,324,183253,2,0,L|146:307,1,52.5000020027161,0|0,0:0|0:0,0:0:0:0:
135,339,183440,2,0,L|106:329,3,26.2500010013581,0|0|0|0,0:0|0:0|0:0|0:0,0:0:0:0:
117,356,183628,6,0,B|27:312|0:196|33:128|33:128|137:153|130:247,1,420,2|0,0:1|0:0,0:0:0:0:
373,57,184378,2,0,B|453:34|487:106|456:191|372:175|318:129|333:59|219:53|167:127,1,420,8|0,0:1|0:0,0:0:0:0:
411,361,185128,54,0,B|281:335|392:176|233:165,2,280,2|2|8,0:1|0:1|0:1,0:0:0:0:
420,271,186065,1,0,0:0:0:0:
244,251,186253,2,0,P|180:254|108:287,1,140,0|0,0:0|0:0,0:0:0:0:
33,376,186628,6,0,B|149:276|191:138|165:98|64:49|3:121|23:197,1,420,2|0,0:1|0:0,0:0:0:0:
388,123,187378,2,0,B|318:150|259:140|194:79|194:79|129:14|51:21|2:54,1,420,8|0,0:1|0:0,0:0:0:0:
242,282,188128,54,0,B|313:177|428:334|500:231,2,280,2|2|8,0:1|0:1|0:1,0:0:0:0:
429,185,189065,1,0,0:0:0:0:
308,320,189253,2,0,P|273:371|248:276,1,210,0|0,0:0|0:0,0:0:0:0:
209,384,189628,1,4,0:1:0:0:
429,80,190565,6,0,P|408:108|396:141,1,70,0|0,0:0|0:0,0:0:0:0:
350,283,190753,2,0,P|355:239|342:198,1,87.5,0|0,0:0|0:0,0:0:0:0:
221,57,190940,2,0,P|246:112|243:175,1,105.000004005432,0|0,0:0|0:0,0:0:0:0:
42,329,191128,22,0,L|320:304,1,280,10|0,0:0|0:0,0:0:0:0:
0,250,191503,2,0,L|278:225,1,280,10|0,0:0|0:0,0:0:0:0:
493,22,191878,2,0,L|468:300,1,280,10|0,0:0|0:0,0:0:0:0:
225,140,192253,1,8,0:0:0:0:
320,304,192440,1,0,0:0:0:0:
12,134,192628,54,0,P|190:115|361:59,1,350,10|0,0:0|0:0,0:0:0:0:
481,339,193003,2,0,P|307:320|139:265,1,350,10|0,0:0|0:0,0:0:0:0:
493,22,193378,2,0,P|314:38|143:95,1,350,10|0,0:0|0:0,0:0:0:0:
0,362,193753,1,8,0:0:0:0:
28,105,193940,1,0,0:0:0:0:
73,311,194128,54,0,B|120:201|185:150|255:161|309:181,1,280,6|0,1:1|0:1,0:0:0:0:
280,363,194409,1,0,0:1:0:0:
280,363,194503,2,0,P|174:305|272:247,1,280,10|0,1:1|0:1,0:0:0:0:
417,301,194784,1,0,0:1:0:0:
417,301,194878,22,0,P|470:278|512:232,1,105.000004005432,2|0,1:1|0:0,0:0:0:0:
285,173,195065,2,0,P|292:115|273:56,1,105.000004005432,0|2,0:1|0:1,0:0:0:0:
130,254,195253,2,0,P|83:218|22:205,1,105.000004005432,8|0,1:1|0:1,0:0:0:0:
270,340,195440,38,0,B|266:253|315:246|482:253|363:63|332:58|225:74|203:146,1,420,2|0,0:1|0:0,0:0:0:0:
349,339,195815,1,2,0:1:0:0:
162,266,196003,2,0,L|57:275,1,105.000004005432,10|0,1:1|0:1,0:0:0:0:
285,173,196190,2,0,L|389:182,1,105.000004005432,0|0,0:1|0:1,0:0:0:0:
89,39,196378,22,0,L|55:289,1,238.00000453949,2|0,1:1|0:1,0:0:0:0:
56,274,196659,1,2,0:1:0:0:
56,274,196753,1,8,1:1:0:0:
212,126,196940,1,2,0:1:0:0:
221,364,197128,38,0,B|230:308|300:275|324:309|363:336|446:301|463:231,1,280,2|0,1:1|0:1,0:0:0:0:
310,74,197409,1,0,0:1:0:0:
310,74,197503,2,0,B|275:174|299:251|356:256|415:235|395:171,1,280,10|0,1:1|0:1,0:0:0:0:
161,44,197784,1,0,0:1:0:0:
161,44,197878,6,0,P|123:113|123:164,1,105.000004005432,2|0,1:1|0:1,0:0:0:0:
212,322,198065,1,0,0:1:0:0:
229,291,198159,1,2,0:1:0:0:
236,259,198253,2,0,P|225:207|195:165,1,105.000004005432,8|0,1:1|0:1,0:0:0:0:
48,351,198440,2,0,P|97:367|149:362,1,105.000004005432,2|0,0:1|0:1,0:0:0:0:
53,157,198628,54,0,P|46:273|126:189,1,280,0|2,1:1|0:1,0:0:0:0:
30,27,198909,1,0,0:1:0:0:
30,27,199003,2,0,B|132:182|312:-56|420:126,1,420,10|0,1:1|0:1,0:0:0:0:
300,183,199378,1,2,1:1:0:0:
124,294,199565,6,0,P|76:312|24:310,1,105.000004005432,0|2,0:1|0:1,0:0:0:0:
385,232,199753,2,0,P|437:232|485:212,1,105.000004005432,8|0,1:1|0:1,0:0:0:0:
87,128,199940,2,0,P|37:110|0:75,1,105.000004005432,2|0,0:1|0:1,0:0:0:0:
280,56,200128,54,0,L|250:292,1,238.00000453949,2|0,1:1|0:1,0:0:0:0:
237,240,200409,1,0,0:1:0:0:
237,240,200503,2,0,P|120:204|16:295,1,238.00000453949,10|0,1:1|0:1,0:0:0:0:
16,337,200784,1,0,0:1:0:0:
16,337,200878,6,0,L|32:194,1,105.000004005432,2|0,1:1|0:0,0:0:0:0:
123,78,201065,2,0,L|134:182,1,105.000004005432,0|2,0:1|0:1,0:0:0:0:
225,344,201253,1,8,1:1:0:0:
418,202,201440,54,0,P|297:222|224:350,1,272.999987503052,2|0,0:1|0:1,0:0:0:0:
144,369,201815,2,0,L|98:357,2,45.4999979171754,2|0|0,0:1|0:1|0:1,0:0:0:0:
144,285,202003,2,0,L|166:197,1,90.9999958343508,2|0,1:1|0:0,0:0:0:0:
311,92,202190,2,0,L|333:180,1,90.9999958343508,0|0,1:1|0:0,0:0:0:0:
207,59,202378,54,0,P|155:115|164:27,1,210,2|0,0:1|0:1,0:0:0:0:
152,28,202753,1,0,1:1:0:0:
62,185,202940,1,0,0:0:0:0:
50,232,203034,1,0,0:0:0:0:
39,279,203128,54,0,B|136:278|175:351|175:351|214:280|326:288,1,335.999989746094,8|8,0:0|0:0,0:0:0:0:
447,339,203690,1,0,0:0:0:0:
403,121,203878,2,0,B|476:143|459:232|459:232|406:167|333:147|242:181,1,335.999989746094,8|8,0:0|0:0,0:0:0:0:
177,240,204440,1,0,0:0:0:0:
56,128,204628,6,0,B|115:37|115:37|86:274,1,335.999989746094,8|8,0:0|0:0,0:0:0:0:
71,376,205190,1,0,0:0:0:0:
200,216,205378,2,0,B|360:203|310:396|496:372,1,335.999989746094,8|8,0:0|0:0,0:0:0:0:
228,310,205940,1,0,0:0:0:0:
441,275,206128,54,0,P|445:150|326:60,1,251.999992309571,8|0,0:0|0:0,0:0:0:0:
239,39,206503,1,2,0:0:0:0:
200,45,206596,1,0,0:0:0:0:
161,51,206690,1,2,0:0:0:0:
122,57,206784,1,0,0:0:0:0:
83,63,206878,6,0,B|9:81|9:81|-31:180|74:234,1,251.999992309571,8|0,0:0|0:0,0:0:0:0:
169,201,207253,2,0,P|134:297|275:356,1,251.999992309571,8|0,0:0|0:0,0:0:0:0:
317,348,207628,54,0,L|375:359,6,41.9999987182618,0|0|0|0|0|0|0,0:0|0:0|0:0|0:0|0:0|0:0|0:0,0:0:0:0:
342,329,208003,1,2,0:0:0:0:
454,53,208378,21,0,0:0:0:0:
363,211,208565,1,0,0:0:0:0:
340,52,208753,54,0,P|363:29|359:62,1,83.9999974365235,2|0,0:3|0:0,0:0:0:0:
450,166,208940,2,0,P|481:156|450:144,1,83.9999974365235,0|0,0:0|0:0,0:0:0:0:
276,214,209128,6,0,P|142:227|67:114,1,280,12|0,0:3|0:1,0:0:0:0:
260,117,209409,1,0,0:1:0:0:
260,117,209503,2,0,P|202:169|205:45,1,280,10|0,1:1|0:1,0:0:0:0:
377,298,209784,1,0,0:1:0:0:
377,298,209878,6,0,B|445:186|386:81|386:81|332:109|332:167,2,315.000012016297,2|2|2,1:1|0:1|0:1,0:0:0:0:
315,224,210628,2,0,P|272:193|223:176,1,105.000004005432,12|0,0:3|0:0,0:0:0:0:
30,202,210815,2,0,P|24:253|35:305,1,105.000004005432,2|0,0:1|0:1,0:0:0:0:
175,342,211003,2,0,P|159:233|84:146,1,210.000008010865,10|0,1:1|0:1,0:0:0:0:
1,84,211284,1,0,0:1:0:0:
1,84,211378,6,0,B|59:151|178:138|191:58|246:3|350:30|378:102,1,420.000016021729,2|8,1:1|1:1,0:0:0:0:
385,234,211940,1,2,0:1:0:0:
344,209,212034,1,0,0:1:0:0:
295,214,212128,38,0,P|360:261|389:112,1,280,12|0,0:3|0:1,0:0:0:0:
211,86,212409,1,0,0:1:0:0:
211,86,212503,2,0,B|292:167|111:209|284:249|211:358,1,280,10|0,1:1|0:1,0:0:0:0:
149,132,212784,1,0,0:1:0:0:
149,132,212878,6,0,B|118:215|26:216|26:216|121:229|155:313,2,315.000012016297,2|2|2,1:1|0:1|0:1,0:0:0:0:
21,32,213628,2,0,P|69:52|121:50,1,105.000004005432,12|0,1:3|0:1,0:0:0:0:
277,8,213815,2,0,P|235:39|210:85,1,105.000004005432,2|0,0:1|0:1,0:0:0:0:
410,179,214003,2,0,P|441:137|454:87,1,105.000004005432,10|0,1:1|0:1,0:0:0:0:
300,88,214190,2,0,P|279:136|281:188,1,105.000004005432,0|0,0:1|0:1,0:0:0:0:
467,298,214378,6,0,P|307:257|123:317,1,315.000012016297,2|0,1:1|0:1,0:0:0:0:
106,360,214753,2,0,P|231:340|143:206,1,315.000012016297,8|0,0:0|0:1,0:0:0:0:
77,266,215128,21,0,0:0:0:0:
77,266,215503,2,0,P|74:186|174:241,1,210,2|0,0:0|0:0,0:0:0:0:
164,301,215878,54,0,P|177:194|343:87,1,251.999992309571,2|0,0:0|0:0,0:0:0:0:
357,111,216253,2,0,P|257:153|82:62,1,251.999992309571,8|0,0:0|0:0,0:0:0:0:
69,58,216628,1,0,0:0:0:0:
69,58,217003,6,0,B|165:152|-65:183|172:251|64:347,1,293.999991027832,8|0,0:0|0:0,0:0:0:0:
14,286,217378,2,0,B|61:231|61:231|130:243|130:243|192:221|192:221|251:252|251:252|317:226,1,336,2|0,0:0|0:0,0:0:0:0:
256,160,217753,2,0,B|235:284|235:284|361:355|361:355|379:275,1,336,0|0,0:0|0:0,0:0:0:0:
415,133,218128,2,0,B|490:79|545:178|498:251|388:241|308:179,1,315.000012016297,8|0,0:0|0:0,0:0:0:0:
197,47,218503,54,0,B|285:82|265:-4|408:-1|396:117|318:141|282:95,1,251.999992309571,0|0,0:0|0:0,0:0:0:0:
100,242,218878,2,0,B|137:272|186:251|200:186|155:142|113:166|98:189|89:214|40:132|57:88|115:80|144:100|164:126,1,293.999991027832,2|0,0:0|0:0,0:0:0:0:
333,243,219253,2,0,B|274:230|208:247|229:378|63:355|30:273,1,336,8|0,0:0|0:0,0:0:0:0:
139,105,219628,1,0,0:0:0:0:
10,182,219815,5,8,0:0:0:0:
53,174,219909,1,8,0:0:0:0:
95,189,220003,2,0,P|139:213|185:217,1,83.9999974365235,0|0,0:0|0:0,0:0:0:0:
260,191,220190,2,0,P|301:198|337:219,1,83.9999974365235,8|0,0:0|0:0,0:0:0:0:
343,332,220378,2,0,B|281:302|293:173|398:205|473:155|424:49,1,336,2|0,0:0|0:0,0:0:0:0:
361,99,220753,54,0,P|338:107|361:83,1,83.9999974365235,0|0,0:0|0:0,0:0:0:0:
63,108,221128,22,0,L|43:111,1,20.9999993591309,2|0,3:2|0:1,0:0:0:0:
117,55,221315,2,0,P|174:40|224:40,1,105.000004005432,2|0,0:1|0:1,0:0:0:0:
339,182,221503,6,0,L|360:185,1,20.9999993591309,0|0,1:1|0:1,0:0:0:0:
285,129,221690,2,0,P|228:114|178:114,1,105.000004005432,2|0,0:1|0:1,0:0:0:0:
64,257,221878,6,0,L|44:260,1,20.9999993591309,0|0,1:1|0:1,0:0:0:0:
118,204,222065,2,0,P|175:189|225:189,1,105.000004005432,2|0,0:1|0:1,0:0:0:0:
340,331,222253,6,0,L|361:334,1,20.9999993591309,0|0,1:1|0:1,0:0:0:0:
286,278,222440,2,0,P|229:263|179:263,1,105.000004005432,2|0,0:1|0:1,0:0:0:0:
84,349,222628,6,0,L|87:369,1,20.9999993591309,0|0,1:1|0:1,0:0:0:0:
31,295,222815,2,0,P|16:238|16:188,1,105.000004005432,2|0,0:1|0:1,0:0:0:0:
158,73,223003,6,0,L|161:52,1,20.9999993591309,0|0,1:1|0:1,0:0:0:0:
105,127,223190,2,0,P|90:184|90:234,1,105.000004005432,2|0,0:1|0:1,0:0:0:0:
233,348,223378,6,0,L|236:368,1,20.9999993591309,0|0,1:1|0:1,0:0:0:0:
180,294,223565,2,0,P|165:237|165:187,1,105.000004005432,2|0,0:1|0:1,0:0:0:0:
307,72,223753,6,0,L|310:51,1,20.9999993591309,0|0,1:1|0:1,0:0:0:0:
254,126,223940,2,2,P|239:183|239:233,1,105.000004005432,2|0,0:1|0:1,0:0:0:0:
435,204,224128,6,0,P|421:159|405:203,1,112,0|0,1:1|0:1,0:0:0:0:
389,297,224315,2,0,P|416:332|425:288,1,112,0|0,1:1|0:1,0:0:0:0:
320,167,224503,6,0,P|306:122|290:166,1,112,0|0,1:1|0:1,0:0:0:0:
303,311,224690,2,0,P|330:346|339:302,1,112,0|0,1:1|0:1,0:0:0:0:
204,127,224878,6,0,P|190:82|174:126,1,112,0|0,1:1|0:1,0:0:0:0:
217,325,225065,2,0,P|244:360|253:316,1,112,0|0,1:1|0:1,0:0:0:0:
87,90,225253,6,0,P|73:45|57:89,1,112,0|0,1:1|0:1,0:0:0:0:
131,339,225440,2,0,P|158:374|167:330,1,112,0|0,1:1|0:1,0:0:0:0:
18,278,225628,6,0,P|11:217|51:170,1,125.999996154785,0|0,1:0|0:0,0:0:0:0:
279,94,225815,2,0,P|285:154|245:201,1,125.999996154785,0|0,1:0|0:0,0:0:0:0:
56,55,226003,6,0,P|117:49|163:89,1,125.999996154785,0|0,1:0|0:0,0:0:0:0:
240,316,226190,2,0,P|179:322|133:282,1,125.999996154785,0|0,1:0|0:0,0:0:0:0:
413,143,226378,6,0,L|382:265,1,125.999996154785,0|0,1:1|0:1,0:0:0:0:
117,212,226565,2,0,L|86:89,1,125.999996154785,0|0,1:1|0:1,0:0:0:0:
284,315,226753,6,0,B|259:374|259:374|237:308,1,125.999996154785,0|0,1:1|0:1,0:0:0:0:
239,68,226940,6,0,B|259:9|259:9|284:69,1,125.999996154785,0|0,1:1|0:1,0:0:0:0:
265,195,227128,5,0,0:0:0:0:
190,231,229753,6,0,B|198:197|250:136|311:183|316:220|348:237|421:229|454:184|478:134|465:88|424:47|371:40|333:57|284:116|361:200,1,525,0|0,1:1|0:0,0:0:0:0:
