osu file format v14

[General]
AudioFilename: audio.mp3
AudioLeadIn: 0
PreviewTime: 33274
Countdown: 0
SampleSet: Soft
StackLeniency: 0.2
Mode: 0
LetterboxInBreaks: 0
WidescreenStoryboard: 0

[Editor]
Bookmarks: 22607
DistanceSpacing: 0.5
BeatDivisor: 8
GridSize: 4
TimelineZoom: 1.9

[Metadata]
Title:-BWW SCREAM-
TitleUnicode:-BWW SCREAM-
Artist:Giga
ArtistUnicode:ギガ
Creator:Turquoise-
Version:-LOUDER-
Source:
Tags:
BeatmapID:1665961
BeatmapSetID:793252

[Difficulty]
HPDrainRate:5
CircleSize:4.5
OverallDifficulty:9.2
ApproachRate:9.4
SliderMultiplier:2.4
SliderTickRate:1

[Events]
//Background and Video events
0,0,"bww scream.jpg",0,0
//Break Periods
//Storyboard Layer 0 (Background)
//Storyboard Layer 1 (Fail)
//Storyboard Layer 2 (Pass)
//Storyboard Layer 3 (Foreground)
//Storyboard Sound Samples

[TimingPoints]
608,333.333333333333,4,2,0,60,1,0
608,-200,4,2,0,60,0,0
1441,-300.000000003,4,2,0,60,0,0
2107,-200,4,2,0,60,0,0
2607,-300.0000003,4,2,0,60,0,0
2857,-300.0000003,4,2,0,5,0,0
2941,-300.0000003,4,2,0,60,0,0
3191,-300.0000003,4,2,0,5,0,0
3274,-200,4,2,0,60,0,0
4107,-300.0000003,4,2,0,60,0,0
4774,-200,4,2,0,60,0,0
5107,-300.0000003,4,2,0,60,0,0
5357,-300.0000003,4,2,0,5,0,0
5441,-300.0000003,4,2,0,60,0,0
5691,-300.0000003,4,2,0,5,0,0
5774,-300.0000003,4,2,0,60,0,0
5941,-133.333333333333,4,2,0,65,0,0
6774,-200,4,2,0,65,0,0
7941,-400,4,2,0,65,0,0
8607,-100,4,2,0,65,0,0
11274,-400,4,2,0,65,0,0
11607,-66.6666666666667,4,2,0,65,0,0
11941,333.333333333333,4,2,0,70,1,0
23940,-80,4,2,0,70,0,0
24107,-100,4,2,0,70,0,0
25274,-133.333333333333,4,2,0,70,0,0
25440,-100,4,2,0,70,0,0
26607,-80,4,2,0,70,0,0
26774,-100,4,2,0,70,0,0
27940,-66.6666666666667,4,2,0,70,0,0
28107,-100,4,2,0,70,0,0
29274,-80,4,2,0,70,0,0
29440,-100,4,2,0,70,0,0
29940,-66.6666666666667,4,2,0,70,0,0
30107,-100,4,2,0,70,0,0
31607,-80,4,2,0,70,0,0
31940,-50,4,2,0,70,0,0
32607,-133.333333333333,4,2,0,60,0,0
32940,-133.333333333333,4,2,0,55,0,0
33274,-200,4,2,0,50,0,0
37690,-200,4,2,0,25,0,0
37940,-200,4,2,0,50,0,0
42607,-50,4,2,0,69,0,0
42649,-50,4,2,0,20,0,0
43274,-80,4,2,0,70,0,0
43940,-76.9230769230769,4,2,0,70,0,0
44440,-200,4,2,0,70,0,0
44774,-76.9230769230769,4,2,0,70,0,0
45774,-200,4,2,0,70,0,0
46107,-76.9230769230769,4,2,0,70,0,0
46607,-66.6666666666667,4,2,0,80,0,1
47274,-68.9655172413793,4,2,0,80,0,1
47940,-100,4,2,0,80,0,1
48107,-50,4,2,0,80,0,1
49274,-66.6666666666667,4,2,0,80,0,1
49774,-133.333333333333,4,2,0,80,0,1
50107,-66.6666666666667,4,2,0,80,0,1
51107,-133.333333333333,4,2,0,80,0,1
51440,-66.6666666666667,4,2,0,80,0,1
52607,-68.9655172413793,4,2,0,80,0,1
53274,-66.6666666666667,4,2,0,80,0,1
53940,-133.333333333333,4,2,0,80,0,1
54607,-57.1428571428571,4,2,0,80,0,1
54940,-66.6666666666667,4,2,0,80,0,1
57274,-57.1428571428571,4,2,0,80,0,1
57329,-57.1428571428571,4,2,0,40,0,1
57607,-66.6666666666667,4,2,0,80,0,1
62607,-100,4,2,0,80,0,1
62940,-66.6666666666667,4,2,0,80,0,1
64107,-57.1428571428571,4,2,0,80,0,1
64315,-57.1428571428571,4,2,0,15,0,1
64357,-57.1428571428571,4,2,0,80,0,1
64399,-57.1428571428571,4,2,0,15,0,1
64440,-57.1428571428571,4,2,0,80,0,1
65274,-400,4,2,0,70,0,0
65940,-133.333333333333,4,2,0,70,0,0
66940,-200,4,2,0,70,0,0
67274,-133.333333333333,4,2,0,70,0,0
67440,-66.6666666666667,4,2,0,70,0,0
67607,-133.333333333333,4,2,0,70,0,0
69274,-200,4,2,0,70,0,0
69940,-66.6666666666667,4,2,0,70,0,0
70274,-100,4,2,0,70,0,0
70607,-57.1428571428571,4,2,0,70,0,0
70732,-57.1428571428571,4,2,0,5,0,0
70774,-57.1428571428571,4,2,0,70,0,0
70899,-57.1428571428571,4,2,0,5,0,0
70940,-57.1428571428571,4,2,0,70,0,0
71940,-50,4,2,0,69,0,0
71982,-50,4,2,0,20,0,0
72607,-80,4,2,0,70,0,0
73274,-200,4,2,0,70,0,0
73774,-100,4,2,0,70,0,0
73940,-80,4,2,0,70,0,0
74607,-400,4,2,0,70,0,0
74857,-100,4,2,0,70,0,0
75107,-50,4,2,0,70,0,0
75274,-50,4,2,0,5,0,0
75607,-40,4,2,0,70,0,0
75649,-40,4,2,0,30,0,0
75940,-66.6666666666667,4,2,0,70,0,0
76274,-50,4,2,0,70,0,0
76774,-60.6060606060606,4,2,0,70,0,0
77107,-1000,4,2,0,70,0,0

[Colours]
Combo1 : 116,2,176
Combo2 : 183,0,183
Combo3 : 86,4,221
Combo4 : 24,2,221
Combo5 : 62,6,164

[HitObjects]
40,68,608,5,0,0:0:0:0:
93,133,774,1,2,0:0:0:0:
176,120,941,1,2,0:0:0:0:
62,211,1107,2,0,L|134:191,1,60,2|0,0:0|0:0,0:0:0:0:
198,100,1441,6,0,L|256:116,1,60,2|0,0:0|0:0,0:0:0:0:
202,196,1774,2,0,L|260:212,1,60,2|0,0:0|0:0,0:0:0:0:
264,308,2107,6,0,L|206:292,1,60,2|0,3:0|0:0,0:0:0:0:
206,292,2441,1,2,0:0:0:0:
202,196,2607,6,0,L|260:212,1,60,4|0,3:0|0:0,0:0:0:0:
198,100,2941,2,0,L|256:116,1,60,4|0,3:0|0:0,0:0:0:0:
194,4,3274,5,2,0:0:0:0:
273,24,3441,1,2,0:0:0:0:
296,105,3607,1,2,0:0:0:0:
458,145,3774,2,0,L|400:129,1,60,2|0,0:0|0:0,0:0:0:0:
259,180,4107,6,0,L|202:196,1,60,2|0,0:0|0:0,0:0:0:0:
263,276,4441,2,0,L|206:292,1,60,2|0,0:0|0:0,0:0:0:0:
198,100,4774,6,0,L|255:84,1,60,2|0,3:0|0:0,0:0:0:0:
255,83,5107,6,0,L|252:110,1,20,4|0,3:0|0:0,0:0:0:0:
380,148,5274,1,2,0:0:0:0:
348,269,5441,2,0,L|346:249,1,20,4|2,3:0|0:0,0:0:0:0:
259,180,5607,1,0,0:0:0:0:
337,80,5774,1,0,0:0:0:0:
116,220,5941,5,8,0:0:0:0:
184,312,6107,1,0,0:0:0:0:
6,308,6274,1,0,0:0:0:0:
98,240,6441,2,0,L|121:153,1,90.0000034332277,2|0,0:0|0:0,0:0:0:0:
401,127,6774,6,0,L|377:213,1,90.0000034332277,4|0,3:0|0:0,0:0:0:0:
308,136,7107,2,0,L|281:234,1,90.0000034332277,4|0,3:0|0:0,0:0:0:0:
191,231,7441,1,2,0:0:0:0:
377,213,7607,5,2,3:0:0:0:
98,240,7774,1,2,3:0:0:0:
220,30,7941,6,0,L|220:76,1,45,12|0,3:0|0:0,0:0:0:0:
292,29,8274,2,0,L|291:73,1,45,4|0,3:0|0:0,0:0:0:0:
151,74,8607,5,8,0:0:0:0:
361,74,8774,1,8,3:0:0:0:
132,92,8941,1,8,0:0:0:0:
327,212,9107,1,8,3:0:0:0:
185,212,9274,5,8,0:0:0:0:
380,92,9440,1,8,3:0:0:0:
257,335,9607,1,8,0:0:0:0:
256,76,9774,1,8,3:0:0:0:
414,247,9941,6,0,P|388:240|344:248,1,60,8|0,0:0|3:0,3:0:0:0:
103,253,10107,2,0,P|129:260|173:252,1,60,8|0,3:0|3:0,3:0:0:0:
400,112,10274,2,0,P|374:119|329:111,1,60,8|0,0:0|3:0,3:0:0:0:
112,112,10441,2,0,P|138:111|179:131,1,60,8|0,3:0|3:0,3:0:0:0:
272,312,10607,1,4,3:0:0:0:
259,320,10690,1,4,3:0:0:0:
245,326,10773,1,4,3:0:0:0:
231,329,10857,1,4,3:0:0:0:
216,330,10941,5,2,0:0:0:0:
191,312,11023,1,2,0:0:0:0:
156,264,11107,1,2,0:0:0:0:
146,176,11190,1,2,0:0:0:0:
214,81,11274,6,0,P|204:112|192:124,1,45,2|0,1:0|0:0,0:0:0:0:
147,176,11607,6,0,B|153:152|145:132|145:132|169:120|185:88,3,90.0000034332277,2|2|2|2,3:0|3:0|3:0|3:0,3:0:0:0:
156,264,11941,6,0,P|248:248|280:160,1,180,8|0,0:0|0:0,0:0:0:0:
252,160,12274,2,0,P|275:173|319:177,1,60
452,92,12441,2,0,P|364:59|292:120,1,180,4|0,0:0|0:0,0:0:0:0:
277,90,12774,1,0,0:0:0:0:
364,232,12940,2,0,P|377:208|381:164,1,60,2|0,3:0|0:0,0:0:0:0:
277,90,13107,1,0,0:0:0:0:
196,180,13274,6,0,L|156:326,2,120,8|0|0,0:0|0:0|0:0,0:0:0:0:
364,232,13774,1,2,0:0:0:0:
371,260,13857,1,0,0:0:0:0:
367,290,13940,1,4,0:0:0:0:
176,160,14107,1,0,0:0:0:0:
380,100,14274,2,0,P|375:129|361:155,1,60,2|0,3:0|0:0,0:0:0:0:
176,160,14440,1,0,0:0:0:0:
145,22,14607,6,0,P|216:81|200:174,1,180,8|0,0:0|0:0,0:0:0:0:
176,160,14940,2,0,P|202:159|243:179,1,60
267,307,15107,2,0,P|183:323|103:267,1,180,4|0,0:0|0:0,0:0:0:0:
92,300,15440,1,0,0:0:0:0:
112,108,15607,2,0,P|98:131|94:175,1,60,2|0,3:0|0:0,0:0:0:0:
92,299,15774,1,0,0:0:0:0:
249,363,15940,5,8,0:0:0:0:
176,160,16107,1,0,0:0:0:0:
249,363,16274,2,0,P|262:339|266:295,1,60,2|0,0:0|0:0,0:0:0:0:
176,160,16440,1,4,0:0:0:0:
249,363,16607,1,4,3:0:0:0:
263,336,16690,1,4,3:0:0:0:
267,307,16774,1,4,3:0:0:0:
92,300,16940,2,0,P|94:329|107:356,1,60,2|0,3:0|0:0,0:0:0:0:
267,306,17107,1,0,3:0:0:0:
249,234,17190,1,0,3:0:0:0:
193,186,17273,5,8,0:0:0:0:
296,68,17440,2,0,B|308:124|360:160|360:160|332:216|364:296,1,240,2|0,0:0|0:0,0:0:0:0:
416,324,17857,1,0,0:0:0:0:
484,305,17940,1,4,0:0:0:0:
396,72,18107,1,0,0:0:0:0:
433,255,18274,2,0,P|446:231|450:187,1,60,2|0,3:0|0:0,0:0:0:0:
396,72,18440,1,0,0:0:0:0:
124,108,18607,6,0,P|104:168|136:220,1,120,8|0,0:0|0:0,0:0:0:0:
176,160,18857,1,0,0:0:0:0:
228,108,18940,2,0,P|248:168|216:220,1,120,2|0,0:0|0:0,0:0:0:0:
176,236,19190,1,0,0:0:0:0:
129,214,19274,1,4,0:0:0:0:
296,68,19440,1,0,0:0:0:0:
338,285,19607,2,0,P|252:291|189:366,1,180,2|0,3:0|0:0,0:0:0:0:
169,374,19940,6,0,P|111:308|24:300,1,180,8|0,0:0|0:0,0:0:0:0:
103,144,20274,2,0,P|79:161|63:187,1,60,2|0,0:0|0:0,0:0:0:0:
112,308,20440,2,0,P|139:223|103:144,1,180,4|0,0:0|0:0,0:0:0:0:
122,125,20774,2,0,P|209:107|260:36,1,180,2|0,3:0|0:0,0:0:0:0:
230,35,21107,1,0,0:0:0:0:
320,264,21274,5,8,0:0:0:0:
316,88,21440,1,0,0:0:0:0:
254,291,21607,2,0,P|249:264|261:221,1,60,4|0,0:0|0:0,0:0:0:0:
381,60,21773,1,0,0:0:0:0:
254,291,21940,1,4,3:0:0:0:
250,261,22023,1,4,3:0:0:0:
256,232,22106,1,4,3:0:0:0:
381,60,22274,1,4,0:0:0:0:
152,275,22440,1,0,0:0:0:0:
483,75,22607,6,0,P|463:127|487:191,1,120,8|0,0:0|0:0,0:0:0:0:
376,332,22940,2,0,P|381:276|342:220,1,120,4|0,0:0|0:0,0:0:0:0:
184,116,23274,1,0,3:0:0:0:
184,145,23357,1,0,3:0:0:0:
194,173,23440,1,0,3:0:0:0:
213,196,23523,1,0,3:0:0:0:
238,212,23607,2,0,P|248:186|249:142,1,60,4|0,0:0|0:0,0:0:0:0:
12,236,23774,1,0,0:0:0:0:
238,212,23940,6,0,P|251:170|242:124,1,75,4|0,1:0|0:0,0:0:0:0:
112,316,24107,6,0,L|303:299,1,180,8|0,0:0|0:0,0:0:0:0:
380,308,24440,2,0,L|188:291,1,180,4|0,0:0|0:0,0:0:0:0:
212,264,24774,1,2,0:0:0:0:
380,148,24940,2,0,P|380:177|371:206,1,60,4|0,0:0|0:0,0:0:0:0:
212,264,25107,1,0,0:0:0:0:
225,101,25274,6,0,P|243:127|252:154,1,45.0000017166138,4|0,1:0|0:0,0:0:0:0:
76,196,25440,5,8,0:0:0:0:
225,101,25607,2,0,P|242:124|251:153,1,60,4|0,0:0|0:0,0:0:0:0:
76,196,25774,1,0,0:0:0:0:
208,16,25940,1,2,0:0:0:0:
342,114,26107,2,0,L|367:136,3,30
345,151,26274,2,0,P|324:173|313:201,1,60,4|0,0:0|0:0,0:0:0:0:
504,276,26440,1,0,0:0:0:0:
291,300,26607,6,0,L|224:241,1,75,4|0,1:0|0:0,0:0:0:0:
364,134,26774,6,0,L|342:114,1,30,8|0,0:0|0:0,0:0:0:0:
389,116,26857,2,0,L|376:88,1,30
418,109,26940,2,0,P|424:79|420:50,1,60,4|0,0:0|0:0,0:0:0:0:
188,36,27107,1,0,0:0:0:0:
418,109,27274,1,4,3:0:0:0:
424,79,27357,1,4,3:0:0:0:
420,50,27440,1,4,3:0:0:0:
188,36,27607,1,4,0:0:0:0:
293,245,27774,1,0,0:0:0:0:
33,110,27940,6,0,L|124:118,1,90.0000034332277,4|0,1:0|0:0,0:0:0:0:
392,216,28107,5,8,0:0:0:0:
33,110,28274,2,0,P|37:139|51:166,1,60,4|0,0:0|0:0,0:0:0:0:
392,216,28440,1,0,0:0:0:0:
233,107,28607,1,2,0:0:0:0:
215,298,28774,1,2,3:0:0:0:
344,116,28940,1,4,0:0:0:0:
233,107,29107,1,0,0:0:0:0:
324,308,29274,6,0,L|232:299,1,75,4|0,1:0|0:0,0:0:0:0:
169,198,29440,5,8,0:0:0:0:
324,308,29607,2,0,P|296:319|266:320,1,60,4|0,0:0|0:0,0:0:0:0:
169,198,29774,1,2,0:0:0:0:
433,108,29940,6,0,L|329:117,1,90.0000034332277,4|0,1:0|0:0,0:0:0:0:
169,198,30107,5,8,0:0:0:0:
433,108,30274,2,0,P|405:96|375:95,1,60,4|0,0:0|0:0,0:0:0:0:
169,198,30440,1,2,0:0:0:0:
357,267,30607,5,4,1:0:0:0:
415,258,30690,1,0,0:0:0:0:
456,216,30774,2,0,P|464:196|466:174,2,40,2|0|0,0:0|0:0|0:0,0:0:0:0:
432,107,30940,5,4,0:0:0:0:
404,120,31024,1,2,3:0:0:0:
340,100,31107,5,4,1:0:0:0:
311,112,31191,1,2,3:0:0:0:
247,92,31274,5,2,3:0:0:0:
202,89,31357,1,0,0:0:0:0:
166,114,31440,1,2,0:0:0:0:
153,156,31523,1,0,0:0:0:0:
168,197,31607,6,0,P|212:184|240:148,1,75,4|0,0:0|0:0,0:0:0:0:
32,32,31774,1,8,0:0:0:0:
66,282,31940,6,4,B|91:266|116:280|116:280|128:268|128:268|156:284|184:276,2,120,4|0|4,1:0|1:0|1:0,1:0:0:0:
66,282,32440,5,2,0:0:0:0:
46,226,32523,1,2,0:0:0:0:
69,173,32607,2,0,P|94:153|117:147,1,45.0000017166138,2|0,3:0|0:0,0:0:0:0:
174,147,32774,2,0,P|197:167|207:189,1,45.0000017166138
48,152,32940,2,0,P|66:126|87:114,1,45.0000017166138,4|0,0:0|0:0,0:0:0:0:
204,120,33107,1,0,3:0:0:0:
217,137,33190,1,0,3:0:0:0:
224,160,33274,6,0,P|248:204|324:224,1,120,4|0,0:0|0:0,0:0:0:0:
376,184,33774,1,0,0:0:0:0:
344,112,33940,2,0,P|313:132|299:170,1,60,4|0,0:0|0:0,0:0:0:0:
292,248,34274,1,0,0:0:0:0:
298,261,34357,1,0,0:0:0:0:
307,273,34440,1,0,0:0:0:0:
401,112,34607,2,0,P|364:105|328:121,1,60,2|0,0:0|0:0,0:0:0:0:
318,128,34857,1,0,0:0:0:0:
302,152,34940,1,0,0:0:0:0:
450,216,35107,1,0,0:0:0:0:
401,112,35274,5,4,0:0:0:0:
302,152,35440,1,0,0:0:0:0:
203,110,35607,1,2,0:0:0:0:
104,150,35774,1,0,0:0:0:0:
89,255,35940,5,2,0:0:0:0:
89,267,36024,1,0,3:0:0:0:
92,278,36107,1,0,3:0:0:0:
97,287,36190,1,0,3:0:0:0:
104,294,36274,1,0,3:0:0:0:
172,320,36440,1,0,0:0:0:0:
186,321,36524,2,0,L|179:344,1,15
201,318,36607,6,0,P|207:281|191:245,2,60,4|0|0,0:0|0:0|0:0,0:0:0:0:
152,184,37107,1,0,3:0:0:0:
139,174,37190,1,0,3:0:0:0:
125,169,37273,1,2,0:0:0:0:
220,92,37440,1,0,0:0:0:0:
297,187,37607,2,0,L|278:204,8,15,2|0|0|0|0|0|0|0|0,0:0|3:0|3:0|3:0|3:0|3:0|3:0|3:0|3:0,3:0:0:0:
392,110,38107,1,0,0:0:0:0:
315,15,38274,1,2,0:0:0:0:
220,92,38440,1,0,0:0:0:0:
311,201,38607,5,4,0:0:0:0:
311,201,38690,1,0,0:0:0:0:
311,201,38774,1,0,0:0:0:0:
311,201,38857,1,0,0:0:0:0:
311,201,38940,2,0,P|337:214|367:214,1,60,2|0,3:0|0:0,0:0:0:0:
392,110,39274,2,0,P|365:96|335:96,1,60,2|0,0:0|0:0,0:0:0:0:
220,132,39607,1,0,3:0:0:0:
205,138,39690,1,0,3:0:0:0:
195,149,39773,1,2,0:0:0:0:
176,272,39940,6,0,P|206:249|219:212,1,60,4|0,0:0|0:0,0:0:0:0:
218,199,40190,1,0,0:0:0:0:
212,171,40273,1,0,0:0:0:0:
108,240,40440,1,0,0:0:0:0:
101,116,40607,5,2,0:0:0:0:
232,152,40774,2,0,L|255:158,2,15,0|0|0,3:0|3:0|3:0,3:0:0:0:
140,175,40940,1,0,0:0:0:0:
133,53,41107,1,0,0:0:0:0:
161,60,41190,1,0,0:0:0:0:
190,68,41273,5,4,0:0:0:0:
217,243,41774,1,2,0:0:0:0:
217,243,41857,1,0,0:0:0:0:
217,243,41940,1,4,0:0:0:0:
204,156,42607,6,0,B|228:136|228:136|260:140,14,60,8|0|0|0|0|0|0|0|0|0|0|0|0|0|0,0:0|0:0|0:0|0:0|0:0|0:0|0:0|0:0|0:0|0:0|0:0|0:0|0:0|0:0|0:0,0:0:0:0:
192,184,43274,5,4,3:0:0:0:
162,251,43357,1,0,3:0:0:0:
182,322,43440,1,2,3:0:0:0:
241,365,43524,1,0,3:0:0:0:
315,362,43607,1,4,3:0:0:0:
370,314,43690,1,0,3:0:0:0:
384,242,43774,1,2,3:0:0:0:
349,177,43857,1,0,3:0:0:0:
281,148,43940,6,0,B|236:136|224:100|224:100|176:104|144:56,1,155.999992858887,4|0,0:0|0:0,0:0:0:0:
134,52,44190,2,0,P|76:96|92:176,1,155.999992858887,4|0,0:0|0:0,0:0:0:0:
104,188,44440,6,0,P|121:229|108:272,1,90,4|0,0:0|0:0,0:0:0:0:
86,290,44774,5,2,0:0:0:0:
260,164,44940,1,2,0:0:0:0:
86,290,45107,1,2,0:0:0:0:
283,378,45274,6,0,B|328:392|360:376|360:376|372:328|328:280,1,155.999992858887,4|0,0:0|0:0,0:0:0:0:
324,283,45524,2,0,B|312:272|300:256|300:256|304:208|340:176|400:164,1,155.999992858887,4|0,0:0|0:0,0:0:0:0:
392,148,45774,6,0,P|436:147|472:173,1,90,4|0,0:0|0:0,0:0:0:0:
452,193,46107,1,2,0:0:0:0:
224,100,46274,1,2,0:0:0:0:
452,193,46440,1,2,0:0:0:0:
257,343,46607,6,0,B|188:360|128:316|128:316|136:288|172:268,1,180.000006866455,8|0,0:0|0:0,0:0:0:0:
280,184,46857,1,2,0:0:0:0:
338,232,46940,2,0,P|298:257|234:247,1,90.0000034332277,8|0,3:0|0:0,0:0:0:0:
56,100,47107,2,0,L|156:126,1,90.0000034332277
128,316,47274,6,0,B|120:268|120:268|132:204,1,87.0000026550294,4|0,0:0|0:0,0:0:0:0:
256,76,47440,2,0,B|264:124|264:124|252:188,1,87.0000026550294,2|0,0:0|0:0,0:0:0:0:
385,316,47607,2,0,B|377:268|377:268|389:204,1,87.0000026550294,4|0,0:0|0:0,0:0:0:0:
256,76,47774,2,0,B|248:124|248:124|264:188,1,87.0000026550294,2|0,0:0|0:0,0:0:0:0:
257,343,47940,6,0,P|265:311|261:279,1,60,4|0,3:0|0:0,0:0:0:0:
76,160,48107,6,0,P|56:216|94:287,1,120,12|0,1:0|0:0,0:0:0:0:
308,12,48274,2,0,P|251:-7|180:30,1,120,4|0,0:0|0:0,0:0:0:0:
497,215,48440,2,0,P|515:159|496:104,1,120,2|0,0:0|0:0,0:0:0:0:
76,160,48607,1,4,3:0:0:0:
58,216,48690,1,4,3:0:0:0:
78,272,48773,1,4,3:0:0:0:
388,88,48940,2,0,P|332:92|260:108,1,120,4|0,0:0|0:0,0:0:0:0:
78,272,49107,2,0,P|134:268|206:252,1,120,2|0,0:0|0:0,0:0:0:0:
44,23,49274,6,0,P|12:75|93:160,1,180.000006866455,4|0,0:0|0:0,0:0:0:0:
166,154,49524,2,0,B|217:153|250:188|250:188|285:222|340:220,1,180.000006866455,4|0,0:0|0:0,0:0:0:0:
407,204,49774,6,0,L|409:182,6,22.5000008583069,4|0|0|0|0|0|0,0:0|0:0|0:0|0:0|0:0|0:0|0:0,0:0:0:0:
424,220,50107,5,2,0:0:0:0:
236,56,50274,1,2,0:0:0:0:
424,220,50440,1,2,0:0:0:0:
187,300,50607,6,0,B|156:292|156:292|112:248|127:182|172:144,1,180.000006866455,4|0,0:0|0:0,0:0:0:0:
214,74,50857,2,0,B|236:55|236:55|325:84|325:179,1,180.000006866455,4|0,0:0|0:0,0:0:0:0:
276,232,51107,6,0,L|274:210,6,22.5000008583069,4|0|0|0|0|0|0,0:0|0:0|0:0|0:0|0:0|0:0|0:0,0:0:0:0:
259,248,51440,5,2,0:0:0:0:
64,40,51607,1,2,0:0:0:0:
259,248,51773,1,2,0:0:0:0:
467,54,51940,6,0,B|452:64|452:64|408:24|332:28|300:96,1,180.000006866455,8|0,0:0|0:0,0:0:0:0:
407,204,52190,1,2,0:0:0:0:
484,224,52274,2,0,P|483:179|459:142,1,90.0000034332277,8|0,3:0|0:0,0:0:0:0:
240,268,52440,2,0,L|212:372,1,90.0000034332277
407,204,52607,6,0,B|369:173|369:173|308:151,1,87.0000026550294,4|0,0:0|0:0,0:0:0:0:
128,196,52774,2,0,B|176:204|176:204|240:192,1,87.0000026550294,2|0,0:0|0:0,0:0:0:0:
484,224,52940,2,0,B|455:263|455:263|401:300,1,87.0000026550294,4|0,0:0|0:0,0:0:0:0:
51,217,53107,5,4,0:0:0:0:
292,60,53274,2,0,P|284:103|242:137,1,90.0000034332277,8|0,0:0|0:0,0:0:0:0:
51,217,53440,1,2,0:0:0:0:
292,60,53607,2,0,P|284:103|242:137,1,90.0000034332277,8|0,0:0|0:0,0:0:0:0:
51,217,53773,1,2,0:0:0:0:
292,60,53940,2,0,L|267:73,1,22.5000008583069,4|0,3:0|0:0,0:0:0:0:
284,103,54024,2,0,L|255:102,1,22.5000008583069,4|0,3:0|0:0,0:0:0:0:
252,133,54106,1,4,3:0:0:0:
51,217,54274,5,10,3:0:0:0:
132,184,54357,1,10,3:0:0:0:
120,270,54440,5,10,3:0:0:0:
51,217,54523,1,10,3:0:0:0:
62,130,54607,6,0,B|168:140|168:140|252:200|252:200|380:208,1,315.000003004074,8|0,0:0|0:0,0:0:0:0:
340,122,54940,6,0,P|336:166|360:210,1,90.0000034332277,8|0,0:0|0:0,0:0:0:0:
120,270,55107,2,0,P|156:295|206:296,1,90.0000034332277,2|0,0:0|0:0,0:0:0:0:
220,88,55274,2,4,P|109:86|53:225,2,270.000010299683
484,224,55940,5,8,0:0:0:0:
200,298,56107,1,2,3:0:0:0:
292,60,56274,5,8,0:0:0:0:
364,344,56440,1,2,3:0:0:0:
82,264,56607,2,4,P|124:143|251:135,2,270.000010299683
354,275,57274,6,0,B|351:256|351:256|359:224|359:224|354:191,5,70.000000667572,4|0|0|0|0|0,1:0|0:0|0:0|0:0|0:0|0:0,0:0:0:0:
428,156,57607,6,0,P|393:126|343:121,1,90.0000034332277,8|0,0:0|0:0,0:0:0:0:
380,368,57774,2,0,P|420:349|445:305,1,90.0000034332277,2|0,0:0|0:0,0:0:0:0:
283,183,57940,2,4,P|155:191|113:311,2,270.000010299683
216,354,58607,5,8,3:0:0:0:
50,216,58774,1,2,0:0:0:0:
216,354,58940,2,0,P|241:317|242:267,1,90.0000034332277,4|0,0:0|0:0,0:0:0:0:
50,216,59107,1,2,0:0:0:0:
216,354,59274,1,4,3:0:0:0:
241,317,59357,1,4,3:0:0:0:
244,273,59440,1,4,3:0:0:0:
50,216,59607,1,4,0:0:0:0:
253,142,59774,1,0,0:0:0:0:
418,280,59940,5,4,3:0:0:0:
407,204,60024,1,4,3:0:0:0:
359,143,60107,1,4,3:0:0:0:
104,176,60274,2,0,L|202:144,1,90.0000034332277,4|0,0:0|0:0,0:0:0:0:
448,72,60440,1,2,0:0:0:0:
144,358,60607,2,4,P|186:238|314:230,2,270.000010299683
407,204,61274,5,8,0:0:0:0:
84,156,61440,1,4,3:0:0:0:
448,72,61607,5,4,0:0:0:0:
64,176,61774,1,4,3:0:0:0:
287,236,61940,5,4,0:0:0:0:
228,13,62107,1,4,0:0:0:0:
144,228,62274,2,0,P|188:227|229:200,1,90.0000034332277,10|0,3:0|0:0,0:0:0:0:
338,103,62440,1,8,0:0:0:0:
107,90,62607,6,0,L|66:100,6,30,4|0|0|0|0|0|0,1:0|0:0|0:0|0:0|0:0|0:0|0:0,0:0:0:0:
188,64,62940,6,0,P|191:108|168:152,1,90.0000034332277,8|0,0:0|0:0,0:0:0:0:
24,268,63107,1,2,0:0:0:0:
244,273,63274,1,2,3:0:0:0:
288,274,63357,1,2,3:0:0:0:
332,275,63440,1,2,3:0:0:0:
370,235,63524,5,4,0:0:0:0:
414,236,63607,2,0,P|433:196|430:152,1,90.0000034332277,2|0,0:0|0:0,0:0:0:0:
188,64,63774,1,2,0:0:0:0:
290,198,63940,1,0,0:0:0:0:
24,268,64107,6,0,L|134:204,1,105.000001001358,4|0,0:0|0:0,0:0:0:0:
338,103,64274,2,0,L|354:168,1,52.500000500679,2|0,3:0|3:0,3:0:0:0:
328,96,64357,2,0,L|344:161,1,52.500000500679,2|0,3:0|3:0,3:0:0:0:
318,89,64440,1,2,0:0:0:0:
224,292,64607,1,4,3:0:0:0:
214,241,64690,1,4,3:0:0:0:
200,190,64774,1,4,3:0:0:0:
402,50,64940,2,0,L|435:173,1,105.000001001358,2|0,3:0|0:0,0:0:0:0:
186,139,65107,1,2,0:0:0:0:
429,151,65274,6,0,L|402:50,1,105.000001001358,4|0,1:0|0:0,0:0:0:0:
380,28,65940,5,2,0:0:0:0:
107,90,66274,1,2,3:0:0:0:
60,116,66357,1,2,3:0:0:0:
86,163,66440,1,2,3:0:0:0:
133,137,66524,1,2,3:0:0:0:
107,90,66607,5,8,3:0:0:0:
32,162,66718,5,8,3:0:0:0:
132,190,66829,5,4,3:0:0:0:
57,262,66940,6,0,P|96:240|148:248,1,90,4|0,3:0|0:0,0:0:0:0:
116,356,67274,6,0,L|111:308,1,45.0000017166138,8|0,0:0|0:0,0:0:0:0:
228,288,67440,2,0,L|239:156,1,90.0000034332277,4|0,0:0|0:0,0:0:0:0:
350,240,67607,2,0,L|362:193,1,45.0000017166138,8|0,0:0|0:0,0:0:0:0:
228,288,67774,5,4,3:0:0:0:
231,243,67857,1,4,3:0:0:0:
235,198,67940,5,4,0:0:0:0:
429,151,68107,1,8,0:0:0:0:
231,243,68274,5,4,0:0:0:0:
60,116,68440,1,8,0:0:0:0:
228,288,68607,6,0,L|232:240,1,45.0000017166138,4|0,0:0|0:0,0:0:0:0:
459,66,68774,1,8,0:0:0:0:
224,332,68940,5,4,0:0:0:0:
29,31,69107,1,8,0:0:0:0:
220,377,69274,6,0,L|236:189,1,180,4|0,1:0|0:0,0:0:0:0:
57,262,69940,6,0,L|47:365,1,90.0000034332277,8|0,0:0|0:0,0:0:0:0:
398,236,70107,5,4,3:0:0:0:
360,344,70190,1,4,1:0:0:0:
436,280,70274,5,4,1:0:0:0:
361,193,70357,1,4,3:0:0:0:
382,108,70440,1,4,3:0:0:0:
429,73,70524,1,4,3:0:0:0:
458,66,70607,6,0,B|416:48|388:24|388:24|356:44|296:56,1,157.500001502037,4|0,0:0|0:0,0:0:0:0:
308,60,70774,2,0,B|280:56|265:44|265:44|208:64|204:144,1,157.500001502037,4|0,0:0|0:0,0:0:0:0:
208,144,70940,2,0,P|196:192|152:228,1,105.000001001358,4|0,0:0|0:0,0:0:0:0:
8,12,71107,1,2,3:0:0:0:
208,144,71274,1,4,0:0:0:0:
194,193,71357,1,0,0:0:0:0:
154,226,71440,1,8,0:0:0:0:
8,12,71607,1,4,0:0:0:0:
0,272,71774,1,4,0:0:0:0:
261,276,71940,6,0,B|274:270|286:257|286:257|290:243|290:226,14,60,4|0|0|0|0|0|0|0|0|0|0|0|0|0|0,1:0|0:0|0:0|0:0|0:0|0:0|0:0|0:0|0:0|0:0|0:0|0:0|0:0|0:0|0:0,0:0:0:0:
240,296,72607,5,2,3:0:0:0:
283,355,72690,1,2,3:0:0:0:
354,373,72773,1,2,3:0:0:0:
421,344,72857,1,2,3:0:0:0:
455,278,72940,5,2,3:0:0:0:
396,233,73023,1,2,3:0:0:0:
376,162,73106,1,2,3:0:0:0:
402,93,73190,2,0,L|399:54,1,37.5,2|0,3:0|3:0,0:0:0:0:
465,55,73274,6,0,L|375:47,1,90,4|0,0:0|0:0,0:0:0:0:
384,72,73607,1,8,0:0:0:0:
127,72,73774,1,4,3:0:0:0:
120,100,73857,1,4,3:0:0:0:
112,129,73940,6,0,L|90:214,1,75,8|0,0:0|0:0,0:0:0:0:
418,202,74107,2,0,L|399:129,1,75,4|0,0:0|0:0,0:0:0:0:
97,283,74274,2,0,L|115:355,1,75,4|0,0:0|0:0,0:0:0:0:
396,355,74440,2,0,L|415:283,1,75,4|0,0:0|0:0,0:0:0:0:
243,16,74607,6,0,P|240:32|243:50,1,30,8|0,1:0|0:0,0:0:0:0:
258,65,74857,6,0,P|279:125|252:177,1,120,8|0,1:0|0:0,0:0:0:0:
236,193,75107,6,0,P|185:283|280:368,1,240,8|0,1:0|0:0,0:0:0:0:
269,367,75607,6,0,B|248:354|248:354|225:367|225:367|196:347,6,75,4|0|0|0|0|0|0,1:0|0:0|0:0|0:0|0:0|0:0|0:0,0:0:0:0:
288,384,75940,6,0,P|314:348|320:304,1,90.0000034332277,8|0,0:0|0:0,0:0:0:0:
200,120,76107,1,2,0:0:0:0:
14,328,76274,6,0,L|143:316,1,120,8|0,0:0|0:0,0:0:0:0:
498,328,76440,1,2,0:0:0:0:
510,303,76524,1,2,0:0:0:0:
452,268,76607,5,4,3:0:0:0:
437,221,76691,1,4,3:0:0:0:
407,127,76774,5,2,3:0:0:0:
380,140,76857,1,2,3:0:0:0:
359,161,76940,5,2,3:0:0:0:
341,200,77024,1,2,3:0:0:0:
310,106,77107,6,2,L|321:107,1,12,0|0,0:0|1:0,1:0:0:0:
