osu file format v14

[General]
AudioFilename: bwwscream.mp3
AudioLeadIn: 0
PreviewTime: 43940
Countdown: 0
SampleSet: Normal
StackLeniency: 0.6
Mode: 0
LetterboxInBreaks: 0
EpilepsyWarning: 1
WidescreenStoryboard: 1

[Editor]
Bookmarks: 22190
DistanceSpacing: 1.5
BeatDivisor: 4
GridSize: 4
TimelineZoom: 2.899999

[Metadata]
Title:-BWW SCREAM-
TitleUnicode:-BWW SCREAM-
Artist:Giga
ArtistUnicode:ギガ
Creator:Lavender
Version:Advanced
Source:
Tags:reol no title Streliteela Dream117er Kawaiwkyik Rizia yf_bmp Skystar Amamiya Yuko
BeatmapID:886547
BeatmapSetID:404658

[Difficulty]
HPDrainRate:4
CircleSize:3.5
OverallDifficulty:4
ApproachRate:5.5
SliderMultiplier:1.1
SliderTickRate:1

[Events]
//Background and Video events
0,0,"bg.jpg",0,0
//Break Periods
//Storyboard Layer 0 (Background)
//Storyboard Layer 1 (Fail)
//Storyboard Layer 2 (Pass)
//Storyboard Layer 3 (Foreground)
Sprite,Foreground,Centre,"s1b\bg1.jpg",320,240 F,0,44607,44774,0,0.4 F,0,44774,45107,0.4 F,0,45107,45274,0.4,0 F,0,45274,45940,0 F,0,45940,46107,0,0.4 F,0,46107,46190,0.4,0.2 F,0,46190,46274,0.2,0.4 F,0,46274,46357,0.4,0.2 F,0,46357,46440,0.2,0.4 F,0,46440,46524,0.4,0.2 F,0,46524,46774,0.2,1 F,0,46774,64607,1 F,0,64607,65274,1,0 F,0,65274,65774,0,0.3750938 F,0,65774,66274,0.3750938,0 F,0,66274,,0
Sprite,Foreground,Centre,"s1b\bg1_r.jpg",320,240 F,0,66607,66663,1,0.3 F,0,66663,66718,0.3,1 F,0,66718,66774,1,0.3 F,0,66774,66829,0.3,1 F,0,66829,66885,1,0.3 F,0,66885,66940,0.3,1 F,2,66940,67190,1,0
Sprite,Foreground,Centre,"s1b\bg1_g.jpg",320,240 F,0,69274,69440,0,1 F,0,69440,69940,1,0
Sprite,Foreground,Centre,"s1b\bg1_b.jpg",320,240 F,0,71940,72107,0,1 F,0,72107,72607,1,0
Sprite,Foreground,Centre,"s1b\bg1_b.jpg",320,240 F,0,74607,74690,0,1 F,0,74690,74857,1,0
Sprite,Foreground,Centre,"s1b\bg1_g.jpg",320,240 F,0,74857,74940,0,1 F,0,74940,75107,1,0
Sprite,Foreground,Centre,"s1b\bg1_r.jpg",320,240 F,0,75107,75190,0,1 F,0,75190,75357,1,0
Sprite,Foreground,Centre,"s1b\bg1.jpg",320,240 F,0,75607,75690,0,0.6 F,0,75690,75899,0.6,0 F,0,75899,75940,0,1 F,0,75940,76232,1,0.5 F,0,76232,76274,0.5,1 F,0,76274,76524,1,0
Sprite,Foreground,Centre,"s1b\g1.png",199,383 F,0,43890,43990,0,1 S,0,43940,,2.5 P,0,43940,,A F,0,43990,44040,1,0
Sprite,Foreground,Centre,"s1b\g1.png",199,383 F,0,43890,43990,0,1 S,0,43940,,2.5 P,0,43940,,A F,0,43990,44040,1,0
Sprite,Foreground,Centre,"s1b\g1.png",185,387 F,0,43931,44031,0,1 S,0,43981,,2.5 P,0,43981,,A F,0,44031,44081,1,0
Sprite,Foreground,Centre,"s1b\g1.png",185,387 F,0,43931,44031,0,1 S,0,43981,,2.5 P,0,43981,,A F,0,44031,44081,1,0
Sprite,Foreground,Centre,"s1b\g1.png",172,389 F,0,43973,44073,0,1 S,0,44023,,2.5 P,0,44023,,A F,0,44073,44123,1,0
Sprite,Foreground,Centre,"s1b\g1.png",172,389 F,0,43973,44073,0,1 S,0,44023,,2.5 P,0,44023,,A F,0,44073,44123,1,0
Sprite,Foreground,Centre,"s1b\g1.png",158,389 F,0,44014,44114,0,1 S,0,44064,,2.5 P,0,44064,,A F,0,44114,44164,1,0
Sprite,Foreground,Centre,"s1b\g1.png",158,389 F,0,44014,44114,0,1 S,0,44064,,2.5 P,0,44064,,A F,0,44114,44164,1,0
Sprite,Foreground,Centre,"s1b\g1.png",145,388 F,0,44056,44156,0,1 S,0,44106,,2.5 P,0,44106,,A F,0,44156,44206,1,0
Sprite,Foreground,Centre,"s1b\g1.png",145,388 F,0,44056,44156,0,1 S,0,44106,,2.5 P,0,44106,,A F,0,44156,44206,1,0
Sprite,Foreground,Centre,"s1b\g1.png",131,384 F,0,44098,44198,0,1 S,0,44148,,2.5 P,0,44148,,A F,0,44198,44248,1,0
Sprite,Foreground,Centre,"s1b\g1.png",131,384 F,0,44098,44198,0,1 S,0,44148,,2.5 P,0,44148,,A F,0,44198,44248,1,0
Sprite,Foreground,Centre,"s1b\g1.png",119,378 F,0,44139,44239,0,1 S,0,44189,,2.5 P,0,44189,,A F,0,44239,44289,1,0
Sprite,Foreground,Centre,"s1b\g1.png",119,378 F,0,44139,44239,0,1 S,0,44189,,2.5 P,0,44189,,A F,0,44239,44289,1,0
Sprite,Foreground,Centre,"s1b\g1.png",75,264 F,0,44390,44490,0,1 S,0,44440,,2.5 P,0,44440,,A F,0,44490,44540,1,0
Sprite,Foreground,Centre,"s1b\g1.png",75,264 F,0,44390,44490,0,1 S,0,44440,,2.5 P,0,44440,,A F,0,44490,44540,1,0
Sprite,Foreground,Centre,"s1b\g1.png",88,261 F,0,44431,44531,0,1 S,0,44481,,2.5 P,0,44481,,A F,0,44531,44581,1,0
Sprite,Foreground,Centre,"s1b\g1.png",88,261 F,0,44431,44531,0,1 S,0,44481,,2.5 P,0,44481,,A F,0,44531,44581,1,0
Sprite,Foreground,Centre,"s1b\g1.png",102,259 F,0,44473,44573,0,1 S,0,44523,,2.5 P,0,44523,,A F,0,44573,44623,1,0
Sprite,Foreground,Centre,"s1b\g1.png",102,259 F,0,44473,44573,0,1 S,0,44523,,2.5 P,0,44523,,A F,0,44573,44623,1,0
Sprite,Foreground,Centre,"s1b\g1.png",115,257 F,0,44514,44614,0,1 S,0,44564,,2.5 P,0,44564,,A F,0,44614,44664,1,0
Sprite,Foreground,Centre,"s1b\g1.png",115,257 F,0,44514,44614,0,1 S,0,44564,,2.5 P,0,44564,,A F,0,44614,44664,1,0
Sprite,Foreground,Centre,"s1b\g1.png",129,255 F,0,44556,44656,0,1 S,0,44606,,2.5 P,0,44606,,A F,0,44656,44706,1,0
Sprite,Foreground,Centre,"s1b\g1.png",129,255 F,0,44556,44656,0,1 S,0,44606,,2.5 P,0,44606,,A F,0,44656,44706,1,0
Sprite,Foreground,Centre,"s1b\g1.png",143,253 F,0,44598,44698,0,1 S,0,44648,,2.5 P,0,44648,,A F,0,44698,44748,1,0
Sprite,Foreground,Centre,"s1b\g1.png",143,253 F,0,44598,44698,0,1 S,0,44648,,2.5 P,0,44648,,A F,0,44698,44748,1,0
Sprite,Foreground,Centre,"s1b\g1.png",156,251 F,0,44639,44739,0,1 S,0,44689,,2.5 P,0,44689,,A F,0,44739,44789,1,0
Sprite,Foreground,Centre,"s1b\g1.png",156,251 F,0,44639,44739,0,1 S,0,44689,,2.5 P,0,44689,,A F,0,44739,44789,1,0
Sprite,Foreground,Centre,"s1b\g1.png",170,249 F,0,44681,44781,0,1 S,0,44731,,2.5 P,0,44731,,A F,0,44781,44831,1,0
Sprite,Foreground,Centre,"s1b\g1.png",170,249 F,0,44681,44781,0,1 S,0,44731,,2.5 P,0,44731,,A F,0,44781,44831,1,0
Sprite,Foreground,Centre,"s1b\g1.png",183,247 F,0,44723,44823,0,1 S,0,44773,,2.5 P,0,44773,,A F,0,44823,44873,1,0
Sprite,Foreground,Centre,"s1b\g1.png",183,247 F,0,44723,44823,0,1 S,0,44773,,2.5 P,0,44773,,A F,0,44823,44873,1,0
Sprite,Foreground,Centre,"s1b\g1.png",240,188 F,0,44890,44990,0,1 S,0,44940,,2.5 P,0,44940,,A F,0,44990,45040,1,0
Sprite,Foreground,Centre,"s1b\g1.png",240,188 F,0,44890,44990,0,1 S,0,44940,,2.5 P,0,44940,,A F,0,44990,45040,1,0
Sprite,Foreground,Centre,"s1b\g1.png",253,184 F,0,44931,45031,0,1 S,0,44981,,2.5 P,0,44981,,A F,0,45031,45081,1,0
Sprite,Foreground,Centre,"s1b\g1.png",253,184 F,0,44931,45031,0,1 S,0,44981,,2.5 P,0,44981,,A F,0,45031,45081,1,0
Sprite,Foreground,Centre,"s1b\g1.png",266,181 F,0,44973,45073,0,1 S,0,45023,,2.5 P,0,45023,,A F,0,45073,45123,1,0
Sprite,Foreground,Centre,"s1b\g1.png",266,181 F,0,44973,45073,0,1 S,0,45023,,2.5 P,0,45023,,A F,0,45073,45123,1,0
Sprite,Foreground,Centre,"s1b\g1.png",280,178 F,0,45014,45114,0,1 S,0,45064,,2.5 P,0,45064,,A F,0,45114,45164,1,0
Sprite,Foreground,Centre,"s1b\g1.png",280,178 F,0,45014,45114,0,1 S,0,45064,,2.5 P,0,45064,,A F,0,45114,45164,1,0
Sprite,Foreground,Centre,"s1b\g1.png",293,174 F,0,45056,45156,0,1 S,0,45106,,2.5 P,0,45106,,A F,0,45156,45206,1,0
Sprite,Foreground,Centre,"s1b\g1.png",293,174 F,0,45056,45156,0,1 S,0,45106,,2.5 P,0,45106,,A F,0,45156,45206,1,0
Sprite,Foreground,Centre,"s1b\g.png",355,120 F,0,45224,45324,0,1 S,0,45274,,2.5 P,0,45274,,A F,0,45324,45374,1,0
Sprite,Foreground,Centre,"s1b\g.png",355,120 F,0,45224,45324,0,1 S,0,45274,,2.5 P,0,45274,,A F,0,45324,45374,1,0
Sprite,Foreground,Centre,"s1b\g.png",368,124 F,0,45265,45365,0,1 S,0,45315,,2.5 P,0,45315,,A F,0,45365,45415,1,0
Sprite,Foreground,Centre,"s1b\g.png",368,124 F,0,45265,45365,0,1 S,0,45315,,2.5 P,0,45315,,A F,0,45365,45415,1,0
Sprite,Foreground,Centre,"s1b\g.png",381,126 F,0,45307,45407,0,1 S,0,45357,,2.5 P,0,45357,,A F,0,45407,45457,1,0
Sprite,Foreground,Centre,"s1b\g.png",381,126 F,0,45307,45407,0,1 S,0,45357,,2.5 P,0,45357,,A F,0,45407,45457,1,0
Sprite,Foreground,Centre,"s1b\g.png",395,127 F,0,45348,45448,0,1 S,0,45398,,2.5 P,0,45398,,A F,0,45448,45498,1,0
Sprite,Foreground,Centre,"s1b\g.png",395,127 F,0,45348,45448,0,1 S,0,45398,,2.5 P,0,45398,,A F,0,45448,45498,1,0
Sprite,Foreground,Centre,"s1b\g.png",409,125 F,0,45390,45490,0,1 S,0,45440,,2.5 P,0,45440,,A F,0,45490,45540,1,0
Sprite,Foreground,Centre,"s1b\g.png",409,125 F,0,45390,45490,0,1 S,0,45440,,2.5 P,0,45440,,A F,0,45490,45540,1,0
Sprite,Foreground,Centre,"s1b\g.png",422,122 F,0,45432,45532,0,1 S,0,45482,,2.5 P,0,45482,,A F,0,45532,45582,1,0
Sprite,Foreground,Centre,"s1b\g.png",422,122 F,0,45432,45532,0,1 S,0,45482,,2.5 P,0,45482,,A F,0,45532,45582,1,0
Sprite,Foreground,Centre,"s1b\g.png",435,118 F,0,45473,45573,0,1 S,0,45523,,2.5 P,0,45523,,A F,0,45573,45623,1,0
Sprite,Foreground,Centre,"s1b\g.png",435,118 F,0,45473,45573,0,1 S,0,45523,,2.5 P,0,45523,,A F,0,45573,45623,1,0
Sprite,Foreground,Centre,"s1b\g.png",552,75 F,0,45724,45824,0,1 S,0,45774,,2.5 P,0,45774,,A F,0,45824,45874,1,0
Sprite,Foreground,Centre,"s1b\g.png",552,75 F,0,45724,45824,0,1 S,0,45774,,2.5 P,0,45774,,A F,0,45824,45874,1,0
Sprite,Foreground,Centre,"s1b\g.png",551,88 F,0,45765,45865,0,1 S,0,45815,,2.5 P,0,45815,,A F,0,45865,45915,1,0
Sprite,Foreground,Centre,"s1b\g.png",551,88 F,0,45765,45865,0,1 S,0,45815,,2.5 P,0,45815,,A F,0,45865,45915,1,0
Sprite,Foreground,Centre,"s1b\g.png",550,102 F,0,45807,45907,0,1 S,0,45857,,2.5 P,0,45857,,A F,0,45907,45957,1,0
Sprite,Foreground,Centre,"s1b\g.png",550,102 F,0,45807,45907,0,1 S,0,45857,,2.5 P,0,45857,,A F,0,45907,45957,1,0
Sprite,Foreground,Centre,"s1b\g.png",549,116 F,0,45848,45948,0,1 S,0,45898,,2.5 P,0,45898,,A F,0,45948,45998,1,0
Sprite,Foreground,Centre,"s1b\g.png",549,116 F,0,45848,45948,0,1 S,0,45898,,2.5 P,0,45898,,A F,0,45948,45998,1,0
Sprite,Foreground,Centre,"s1b\g.png",548,129 F,0,45890,45990,0,1 S,0,45940,,2.5 P,0,45940,,A F,0,45990,46040,1,0
Sprite,Foreground,Centre,"s1b\g.png",548,129 F,0,45890,45990,0,1 S,0,45940,,2.5 P,0,45940,,A F,0,45990,46040,1,0
Sprite,Foreground,Centre,"s1b\g.png",547,143 F,0,45932,46032,0,1 S,0,45982,,2.5 P,0,45982,,A F,0,46032,46082,1,0
Sprite,Foreground,Centre,"s1b\g.png",547,143 F,0,45932,46032,0,1 S,0,45982,,2.5 P,0,45982,,A F,0,46032,46082,1,0
Sprite,Foreground,Centre,"s1b\g.png",546,157 F,0,45973,46073,0,1 S,0,46023,,2.5 P,0,46023,,A F,0,46073,46123,1,0
Sprite,Foreground,Centre,"s1b\g.png",546,157 F,0,45973,46073,0,1 S,0,46023,,2.5 P,0,46023,,A F,0,46073,46123,1,0
Sprite,Foreground,Centre,"s1b\g.png",545,171 F,0,46015,46115,0,1 S,0,46065,,2.5 P,0,46065,,A F,0,46115,46165,1,0
Sprite,Foreground,Centre,"s1b\g.png",545,171 F,0,46015,46115,0,1 S,0,46065,,2.5 P,0,46065,,A F,0,46115,46165,1,0
Sprite,Foreground,Centre,"s1b\g.png",544,184 F,0,46057,46157,0,1 S,0,46107,,2.5 P,0,46107,,A F,0,46157,46207,1,0
Sprite,Foreground,Centre,"s1b\g.png",544,184 F,0,46057,46157,0,1 S,0,46107,,2.5 P,0,46107,,A F,0,46157,46207,1,0
Sprite,Foreground,Centre,"s1b\g.png",468,215 F,0,46224,46324,0,1 S,0,46274,,2.5 P,0,46274,,A F,0,46324,46374,1,0
Sprite,Foreground,Centre,"s1b\g.png",468,215 F,0,46224,46324,0,1 S,0,46274,,2.5 P,0,46274,,A F,0,46324,46374,1,0
Sprite,Foreground,Centre,"s1b\g.png",469,228 F,0,46265,46365,0,1 S,0,46315,,2.5 P,0,46315,,A F,0,46365,46415,1,0
Sprite,Foreground,Centre,"s1b\g.png",469,228 F,0,46265,46365,0,1 S,0,46315,,2.5 P,0,46315,,A F,0,46365,46415,1,0
Sprite,Foreground,Centre,"s1b\g.png",471,242 F,0,46307,46407,0,1 S,0,46357,,2.5 P,0,46357,,A F,0,46407,46457,1,0
Sprite,Foreground,Centre,"s1b\g.png",471,242 F,0,46307,46407,0,1 S,0,46357,,2.5 P,0,46357,,A F,0,46407,46457,1,0
Sprite,Foreground,Centre,"s1b\g.png",473,255 F,0,46348,46448,0,1 S,0,46398,,2.5 P,0,46398,,A F,0,46448,46498,1,0
Sprite,Foreground,Centre,"s1b\g.png",473,255 F,0,46348,46448,0,1 S,0,46398,,2.5 P,0,46398,,A F,0,46448,46498,1,0
Sprite,Foreground,Centre,"s1b\g.png",475,269 F,0,46390,46490,0,1 S,0,46440,,2.5 P,0,46440,,A F,0,46490,46540,1,0
Sprite,Foreground,Centre,"s1b\g.png",475,269 F,0,46390,46490,0,1 S,0,46440,,2.5 P,0,46440,,A F,0,46490,46540,1,0
Sprite,Foreground,Centre,"s1b\n.png",320,240 P,0,46607,,A F,0,46607,46627,0,0.3 M,0,46607,46774,320,338,320,395 M,0,46774,46815,320,395 M,0,46815,46857,320,395,320,396 M,0,46857,46898,320,396 M,0,46898,46940,320,396,320,397 M,0,46940,46982,320,397,320,398 M,0,46982,47023,320,398 M,0,47023,47065,320,398,320,399 M,0,47065,47107,320,399 M,0,47107,47274,320,399,320,355 M,0,47274,47357,320,355,320,329 M,0,47357,47440,320,329,320,303 M,0,47440,47607,320,303,320,290 M,0,47607,47690,320,290,320,262 M,0,47690,47773,320,262,320,235 M,0,47773,47940,320,235,320,172 M,0,47940,48107,320,172,320,114 M,0,48107,48148,320,114,320,120 M,0,48148,48190,320,120,320,124 M,0,48190,48231,320,124,320,126 M,0,48231,48273,320,126 M,0,48273,48315,320,126,320,125 M,0,48315,48356,320,125,320,121 M,0,48356,48398,320,121,320,115 M,0,48398,48440,320,115,320,107 M,0,48440,48607,320,107,320,71 M,0,48607,48690,320,71,320,78 M,0,48690,48773,320,78,320,86 M,0,48773,48940,320,86,320,160 M,0,48940,49023,320,160,320,181 M,0,49023,49106,320,181,320,202 M,0,49106,49274,320,202,320,237 M,0,49274,49357,320,237,320,263 M,0,49357,49440,320,263,320,290 M,0,49440,49524,320,290,320,317 M,0,49524,49774,320,317,320,380 M,0,49774,49815,320,380,320,373 M,0,49815,49857,320,373,320,367 M,0,49857,49898,320,367,320,363 M,0,49898,49940,320,363,320,361 M,0,49940,49982,320,361,320,360 M,0,49982,50023,320,360 M,0,50023,50065,320,360,320,363 M,0,50065,50107,320,363,320,366 M,0,50107,50274,320,366,320,318 M,0,50274,50357,320,318,320,290 M,0,50357,50440,320,290,320,263 M,0,50440,50607,320,263,320,204 M,0,50607,50648,320,204,320,208 M,0,50648,50690,320,208,320,212 M,0,50690,50731,320,212,320,213 M,0,50731,50773,320,213 M,0,50773,50815,320,213,320,212 M,0,50815,50856,320,212,320,209 M,0,50856,51107,320,209,320,144 M,0,51107,51190,320,144,320,140 M,0,51190,51273,320,140,320,136 M,0,51273,51357,320,136,320,133 M,0,51357,51440,320,133,320,129 M,0,51440,51607,320,129,320,211 M,0,51607,51690,320,211,320,212 M,0,51690,51773,320,212,320,214 M,0,51773,51940,320,214,320,266 M,0,51940,52107,320,266,320,330 M,0,52107,52190,320,330,320,332 M,0,52190,52273,320,332,320,335 M,0,52273,52357,320,335,320,338 M,0,52357,52440,320,338,320,340 M,0,52440,52607,320,340,320,299 M,0,52607,52690,320,299,320,294 M,0,52690,52773,320,294,320,289 M,0,52773,52940,320,289,320,371 M,0,52940,53023,320,371,320,372 M,0,53023,53106,320,372,320,374 M,0,53106,53274,320,374,320,331 M,0,53274,53357,320,331,320,304 M,0,53357,53440,320,304,320,278 M,0,53440,53607,320,278,320,238 M,0,53607,53690,320,238,320,210 M,0,53690,53773,320,210,320,183 M,0,53773,53940,320,183,320,103 M,0,53940,54023,320,103,320,88 M,0,54023,54107,320,88,320,103 M,0,54107,54274,320,103,320,121 M,0,54274,54357,320,121,320,110 M,0,54357,54440,320,110,320,121 M,0,54440,54523,320,121,320,110 M,0,54523,54607,320,110,320,103 M,0,54607,54648,320,103,320,110 M,0,54648,54690,320,110,320,116 M,0,54690,54731,320,116,320,120 M,0,54731,54773,320,120,320,121 M,0,54773,54815,320,121 M,0,54815,54856,320,121,320,119 M,0,54856,54898,320,119,320,115 M,0,54898,54940,320,115,320,110 M,0,54940,55107,320,110,320,69 M,0,55107,55274,320,69,320,121 M,0,55274,55357,320,121,320,147 M,0,55357,55440,320,147,320,174 M,0,55440,55607,320,174,320,161 M,0,55607,55690,320,161,320,188 M,0,55690,55773,320,188,320,215 M,0,55773,55940,320,215,320,275 M,0,55940,55981,320,275,320,288 M,0,55981,56023,320,288,320,302 M,0,56023,56064,320,302,320,315 M,0,56064,56106,320,315,320,326 M,0,56106,56274,320,326,320,306 M,0,56274,56315,320,306,320,317 M,0,56315,56357,320,317,320,330 M,0,56357,56398,320,330,320,344 M,0,56398,56440,320,344,320,357 M,0,56440,56607,320,357,320,394 M,0,56607,56690,320,394,320,390 M,0,56690,56773,320,390,320,387 M,0,56773,56940,320,387,320,311 M,0,56940,57023,320,311,320,301 M,0,57023,57106,320,301,320,292 M,0,57106,57274,320,292,320,336 M,0,57274,57315,320,336,320,326 M,0,57315,57357,320,326,320,315 M,0,57357,57398,320,315,320,303 M,0,57398,57440,320,303,320,290 M,0,57440,57482,320,290,320,276 M,0,57482,57523,320,276,320,262 M,0,57523,57565,320,262,320,249 M,0,57565,57607,320,249,320,236 M,0,57607,57774,320,236,320,163 M,0,57774,57940,320,163,320,120 M,0,57940,58023,320,120,320,121 M,0,58023,58106,320,121,320,123 M,0,58106,58190,320,123,320,125 M,0,58190,58274,320,125,320,123 M,0,58274,58357,320,123,320,121 M,0,58357,58440,320,121,320,120 M,0,58440,58774,320,120,320,101 M,0,58774,59107,320,101,320,151 M,0,59107,59274,320,151,320,219 M,0,59274,59357,320,219,320,245 M,0,59357,59440,320,245,320,272 M,0,59440,59607,320,272,320,266 M,0,59607,59690,320,266,320,293 M,0,59690,59773,320,293,320,320 M,0,59773,59940,320,320,320,355 M,0,59940,60023,320,355,320,381 M,0,60023,60107,320,381,320,355 M,0,60107,60274,320,355,320,326 M,0,60274,60357,320,326,320,335 M,0,60357,60440,320,335,320,336 M,0,60440,60607,320,336,320,339 M,0,60607,60690,320,339,320,365 M,0,60690,60773,320,365,320,392 M,0,60773,60857,320,392,320,419 M,0,60857,60940,320,419,320,392 M,0,60940,61023,320,392,320,365 M,0,61023,61106,320,365,320,339 M,0,61106,61274,320,339,320,272 M,0,61274,61357,320,272,320,244 M,0,61357,61440,320,244,320,219 M,0,61440,61607,320,219,320,224 M,0,61607,61690,320,224,320,198 M,0,61690,61773,320,198,320,171 M,0,61773,61940,320,171,320,131 M,0,61940,62023,320,131,320,104 M,0,62023,62106,320,104,320,77 M,0,62106,62190,320,77,320,104 M,0,62190,62273,320,104,320,131 M,0,62273,62440,320,131,320,165 M,0,62440,62607,320,165,320,201 M,0,62607,62690,320,201,320,228 M,0,62690,62773,320,228,320,255 M,0,62773,62857,320,255,320,283 M,0,62857,62940,320,283,320,310 M,0,62940,63107,320,310,320,345 M,0,63107,63274,320,345,320,375 M,0,63274,63357,320,375,320,402 M,0,63357,63440,320,402,320,429 M,0,63440,63524,320,429,320,402 M,0,63524,63607,320,402,320,375 M,0,63607,63774,320,375,320,342 M,0,63774,63940,320,342,320,302 M,0,63940,64107,320,302,320,238 M,0,64107,64148,320,238,320,242 M,0,64148,64190,320,242,320,244 M,0,64190,64231,320,244 M,0,64231,64273,320,244,320,242 M,0,64273,64315,320,242,320,238 M,0,64315,64356,320,238,320,231 M,0,64356,64398,320,231,320,224 M,0,64398,64440,320,224,320,214 M,0,64440,64607,320,214,320,160 M,0,64607,64690,320,160,320,155 M,0,64690,64773,320,155,320,151 M,0,64773,64940,320,151,320,233 M,0,64940,65023,320,233,320,234 M,0,65023,65106,320,234,320,236 F,0,65086,65106,0.3,0
Sprite,Foreground,Centre,"s1b\n.png",320,240 R,0,46607,,1.5708 V,0,46607,,0.563,1 P,0,46607,,A F,0,46607,46627,0,0.3 M,0,46607,46774,430,240,370,240 M,0,46774,46815,370,240,356,240 M,0,46815,46857,356,240,342,240 M,0,46857,46898,342,240,328,240 M,0,46898,46940,328,240,315,240 M,0,46940,46982,315,240,301,240 M,0,46982,47023,301,240,287,240 M,0,47023,47065,287,240,273,240 M,0,47065,47107,273,240,260,240 M,0,47107,47274,260,240,190,240 M,0,47274,47357,190,240,180,240 M,0,47357,47440,180,240,170,240 M,0,47440,47607,170,240,252,240 M,0,47607,47690,252,240,253,240 M,0,47690,47773,253,240,254,240 M,0,47773,47940,254,240,201,240 M,0,47940,48107,201,240,260,240 M,0,48107,48148,260,240,272,240 M,0,48148,48190,272,240,285,240 M,0,48190,48231,285,240,298,240 M,0,48231,48273,298,240,312,240 M,0,48273,48315,312,240,326,240 M,0,48315,48356,326,240,339,240 M,0,48356,48398,339,240,351,240 M,0,48398,48440,351,240,363,240 M,0,48440,48607,363,240,438,240 M,0,48607,48690,438,240,464,240 M,0,48690,48773,464,240,490,240 M,0,48773,48940,490,240,455,240 M,0,48940,49023,455,240,472,240 M,0,49023,49106,472,240,490,240 M,0,49106,49274,490,240,414,240 M,0,49274,49357,414,240,419,240 M,0,49357,49440,419,240,424,240 M,0,49440,49524,424,240,430,240 M,0,49524,49774,430,240,323,240 M,0,49774,49815,323,240,311,240 M,0,49815,49857,311,240,298,240 M,0,49857,49898,298,240,285,240 M,0,49898,49940,285,240,271,240 M,0,49940,49982,271,240,258,240 M,0,49982,50023,258,240,244,240 M,0,50023,50065,244,240,230,240 M,0,50065,50107,230,240,217,240 M,0,50107,50274,217,240,150,240 M,0,50274,50357,150,240,147,240 M,0,50357,50440,147,240,144,240 M,0,50440,50607,144,240,83,240 M,0,50607,50648,83,240,95,240 M,0,50648,50690,95,240,109,240 M,0,50690,50731,109,240,122,240 M,0,50731,50773,122,240,136,240 M,0,50773,50815,136,240,150,240 M,0,50815,50856,150,240,163,240 M,0,50856,51107,163,240,269,240 M,0,51107,51190,269,240,296,240 M,0,51190,51273,296,240,323,240 M,0,51273,51357,323,240,350,240 M,0,51357,51440,350,240,378,240 M,0,51440,51607,378,240,395,240 M,0,51607,51690,395,240,422,240 M,0,51690,51773,422,240,449,240 M,0,51773,51940,449,240,514,240 M,0,51940,52107,514,240,462,240 M,0,52107,52190,462,240,434,240 M,0,52190,52273,434,240,407,240 M,0,52273,52357,407,240,379,240 M,0,52357,52440,379,240,352,240 M,0,52440,52607,352,240,281,240 M,0,52607,52690,281,240,253,240 M,0,52690,52773,253,240,226,240 M,0,52773,52940,226,240,236,240 M,0,52940,53023,236,240,208,240 M,0,53023,53106,208,240,181,240 M,0,53106,53274,181,240,110,240 M,0,53274,53357,110,240,101,240 M,0,53357,53440,101,240,93,240 M,0,53440,53607,93,240,165,240 M,0,53607,53690,165,240,167,240 M,0,53690,53773,167,240,169,240 M,0,53773,53940,169,240,147,240 M,0,53940,54023,147,240,123,240 M,0,54023,54107,123,240,147,240 M,0,54107,54274,147,240,228,240 M,0,54274,54357,228,240,253,240 M,0,54357,54440,253,240,228,240 M,0,54440,54523,228,240,253,240 M,0,54523,54607,253,240,293,240 M,0,54607,54648,293,240,304,240 M,0,54648,54690,304,240,317,240 M,0,54690,54731,317,240,330,240 M,0,54731,54773,330,240,343,240 M,0,54773,54815,343,240,357,240 M,0,54815,54856,357,240,371,240 M,0,54856,54898,371,240,384,240 M,0,54898,54940,384,240,396,240 M,0,54940,55107,396,240,469,240 M,0,55107,55274,469,240,532,240 M,0,55274,55357,532,240,538,240 M,0,55357,55440,538,240,545,240 M,0,55440,55607,545,240,463,240 M,0,55607,55690,463,240,459,240 M,0,55690,55773,459,240,455,240 M,0,55773,55940,455,240,398,240 M,0,55940,55981,398,240 M,0,55981,56023,398,240,399,240 M,0,56023,56064,399,240,395,240 M,0,56064,56106,395,240,389,240 M,0,56106,56274,389,240,309,240 M,0,56274,56315,309,240,301,240 M,0,56315,56357,301,240,298,240 M,0,56357,56398,298,240,299,240 M,0,56398,56440,299,240 M,0,56440,56607,299,240,226,240 M,0,56607,56690,226,240,198,240 M,0,56690,56773,198,240,171,240 M,0,56773,56940,171,240,204,240 M,0,56940,57023,204,240,178,240 M,0,57023,57106,178,240,152,240 M,0,57106,57274,152,240,80,240 M,0,57274,57315,80,240,89,240 M,0,57315,57357,89,240,98,240 M,0,57357,57398,98,240,104,240 M,0,57398,57440,104,240,108,240 M,0,57440,57482,108,240,111,240 M,0,57482,57523,111,240 M,0,57523,57565,111,240,109,240 M,0,57565,57607,109,240,105,240 M,0,57607,57774,105,240,66,240 M,0,57774,57940,66,240,136,240 M,0,57940,58023,136,240,163,240 M,0,58023,58106,163,240,190,240 M,0,58106,58190,190,240,218,240 M,0,58190,58274,218,240,190,240 M,0,58274,58357,190,240,163,240 M,0,58357,58440,163,240,136,240 M,0,58440,58774,136,240,300,240 M,0,58774,59107,300,240,456,240 M,0,59107,59274,456,240,409,240 M,0,59274,59357,409,240,402,240 M,0,59357,59440,402,240,395,240 M,0,59440,59607,395,240,478,240 M,0,59607,59690,478,240,480,240 M,0,59690,59773,480,240,483,240 M,0,59773,59940,483,240,408,240 M,0,59940,60023,408,240,402,240 M,0,60023,60107,402,240,408,240 M,0,60107,60274,408,240,329,240 M,0,60274,60357,329,240,303,240 M,0,60357,60440,303,240,276,240 M,0,60440,60607,276,240,193,240 M,0,60607,60690,193,240,186,240 M,0,60690,60773,186,240,180,240 M,0,60773,60857,180,240,174,240 M,0,60857,60940,174,240,180,240 M,0,60940,61023,180,240,186,240 M,0,61023,61106,186,240,193,240 M,0,61106,61274,193,240,142,240 M,0,61274,61357,142,240,139,240 M,0,61357,61440,139,240,149,240 M,0,61440,61607,149,240,232,240 M,0,61607,61690,232,240,241,240 M,0,61690,61773,241,240,240,240 M,0,61773,61940,240,240,312,240 M,0,61940,62023,312,240,305,240 M,0,62023,62106,305,240,304,240 M,0,62106,62190,304,240,305,240 M,0,62190,62273,305,240,312,240 M,0,62273,62440,312,240,387,240 M,0,62440,62607,387,240,460,240 M,0,62607,62690,460,240,458,240 M,0,62690,62773,458,240,456,240 M,0,62773,62857,456,240,454,240 M,0,62857,62940,454,240,452,240 M,0,62940,63107,452,240,378,240 M,0,63107,63274,378,240,300,240 M,0,63274,63357,300,240 M,0,63357,63440,300,240 M,0,63440,63524,300,240 M,0,63524,63607,300,240 M,0,63607,63774,300,240,223,240 M,0,63774,63940,223,240,151,240 M,0,63940,64107,151,240,204,240 M,0,64107,64148,204,240,217,240 M,0,64148,64190,217,240,230,240 M,0,64190,64231,230,240,244,240 M,0,64231,64273,244,240,257,240 M,0,64273,64315,257,240,271,240 M,0,64315,64356,271,240,283,240 M,0,64356,64398,283,240,294,240 M,0,64398,64440,294,240,304,240 M,0,64440,64607,304,240,368,240 M,0,64607,64690,368,240,395,240 M,0,64690,64773,395,240,422,240 M,0,64773,64940,422,240,405,240 M,0,64940,65023,405,240,432,240 M,0,65023,65106,432,240,459,240 F,0,65086,65106,0.3,0
Sprite,Foreground,Centre,"s1b\g1.png",530,281 F,0,65224,65324,0,1 S,0,65274,,2.5 P,0,65274,,A F,0,65324,65374,1,0
Sprite,Foreground,Centre,"s1b\g1.png",530,281 F,0,65224,65324,0,1 S,0,65274,,2.5 P,0,65274,,A F,0,65324,65374,1,0
Sprite,Foreground,Centre,"s1b\n.png",320,240 F,0,66587,66607,0.3,0 P,0,66607,,A F,0,66607,66627,0,0.3
Sprite,Foreground,Centre,"s1b\n.png",320,240 F,0,66587,66607,0.3,0 R,0,66607,,1.5708 V,0,66607,,0.563,1 P,0,66607,,A F,0,66607,66627,0,0.3
Sprite,Foreground,Centre,"s1b\g2.png",421,152 F,0,67224,67324,0,1 S,0,67274,,2.5 P,0,67274,,A F,0,67324,67374,1,0
Sprite,Foreground,Centre,"s1b\g2.png",421,152 F,0,67224,67324,0,1 S,0,67274,,2.5 P,0,67274,,A F,0,67324,67374,1,0
Sprite,Foreground,Centre,"s1b\g2.png",221,414 F,0,67890,67990,0,1 S,0,67940,,2.5 P,0,67940,,A F,0,67990,68040,1,0
Sprite,Foreground,Centre,"s1b\g2.png",221,414 F,0,67890,67990,0,1 S,0,67940,,2.5 P,0,67940,,A F,0,67990,68040,1,0
Sprite,Foreground,Centre,"s1b\g2.png",230,404 F,0,67931,68031,0,1 S,0,67981,,2.5 P,0,67981,,A F,0,68031,68081,1,0
Sprite,Foreground,Centre,"s1b\g2.png",230,404 F,0,67931,68031,0,1 S,0,67981,,2.5 P,0,67981,,A F,0,68031,68081,1,0
Sprite,Foreground,Centre,"s1b\g2.png",239,393 F,0,67973,68073,0,1 S,0,68023,,2.5 P,0,68023,,A F,0,68073,68123,1,0
Sprite,Foreground,Centre,"s1b\g2.png",239,393 F,0,67973,68073,0,1 S,0,68023,,2.5 P,0,68023,,A F,0,68073,68123,1,0
Sprite,Foreground,Centre,"s1b\g2.png",247,382 F,0,68015,68115,0,1 S,0,68065,,2.5 P,0,68065,,A F,0,68115,68165,1,0
Sprite,Foreground,Centre,"s1b\g2.png",247,382 F,0,68015,68115,0,1 S,0,68065,,2.5 P,0,68065,,A F,0,68115,68165,1,0
Sprite,Foreground,Centre,"s1b\g2.png",253,370 F,0,68056,68156,0,1 S,0,68106,,2.5 P,0,68106,,A F,0,68156,68206,1,0
Sprite,Foreground,Centre,"s1b\g2.png",253,370 F,0,68056,68156,0,1 S,0,68106,,2.5 P,0,68106,,A F,0,68156,68206,1,0
Sprite,Foreground,Centre,"s1b\g2.png",258,357 F,0,68098,68198,0,1 S,0,68148,,2.5 P,0,68148,,A F,0,68198,68248,1,0
Sprite,Foreground,Centre,"s1b\g2.png",258,357 F,0,68098,68198,0,1 S,0,68148,,2.5 P,0,68148,,A F,0,68198,68248,1,0
Sprite,Foreground,Centre,"s1b\g2.png",262,344 F,0,68140,68240,0,1 S,0,68190,,2.5 P,0,68190,,A F,0,68240,68290,1,0
Sprite,Foreground,Centre,"s1b\g2.png",262,344 F,0,68140,68240,0,1 S,0,68190,,2.5 P,0,68190,,A F,0,68240,68290,1,0
Sprite,Foreground,Centre,"s1b\g2.png",265,330 F,0,68181,68281,0,1 S,0,68231,,2.5 P,0,68231,,A F,0,68281,68331,1,0
Sprite,Foreground,Centre,"s1b\g2.png",265,330 F,0,68181,68281,0,1 S,0,68231,,2.5 P,0,68231,,A F,0,68281,68331,1,0
Sprite,Foreground,Centre,"s1b\g2.png",266,317 F,0,68223,68323,0,1 S,0,68273,,2.5 P,0,68273,,A F,0,68323,68373,1,0
Sprite,Foreground,Centre,"s1b\g2.png",266,317 F,0,68223,68323,0,1 S,0,68273,,2.5 P,0,68273,,A F,0,68323,68373,1,0
Sprite,Foreground,Centre,"s1b\g2.png",266,303 F,0,68265,68365,0,1 S,0,68315,,2.5 P,0,68315,,A F,0,68365,68415,1,0
Sprite,Foreground,Centre,"s1b\g2.png",266,303 F,0,68265,68365,0,1 S,0,68315,,2.5 P,0,68315,,A F,0,68365,68415,1,0
Sprite,Foreground,Centre,"s1b\g2.png",264,289 F,0,68306,68406,0,1 S,0,68356,,2.5 P,0,68356,,A F,0,68406,68456,1,0
Sprite,Foreground,Centre,"s1b\g2.png",264,289 F,0,68306,68406,0,1 S,0,68356,,2.5 P,0,68356,,A F,0,68406,68456,1,0
Sprite,Foreground,Centre,"s1b\g2.png",261,276 F,0,68348,68448,0,1 S,0,68398,,2.5 P,0,68398,,A F,0,68448,68498,1,0
Sprite,Foreground,Centre,"s1b\g2.png",261,276 F,0,68348,68448,0,1 S,0,68398,,2.5 P,0,68398,,A F,0,68448,68498,1,0
Sprite,Foreground,Centre,"s1b\g2.png",257,263 F,0,68390,68490,0,1 S,0,68440,,2.5 P,0,68440,,A F,0,68490,68540,1,0
Sprite,Foreground,Centre,"s1b\g2.png",257,263 F,0,68390,68490,0,1 S,0,68440,,2.5 P,0,68440,,A F,0,68490,68540,1,0
Sprite,Foreground,Centre,"s1b\g2.png",187,217 F,0,68557,68657,0,1 S,0,68607,,2.5 P,0,68607,,A F,0,68657,68707,1,0
Sprite,Foreground,Centre,"s1b\g2.png",187,217 F,0,68557,68657,0,1 S,0,68607,,2.5 P,0,68607,,A F,0,68657,68707,1,0
Sprite,Foreground,Centre,"s1b\g2.png",200,215 F,0,68598,68698,0,1 S,0,68648,,2.5 P,0,68648,,A F,0,68698,68748,1,0
Sprite,Foreground,Centre,"s1b\g2.png",200,215 F,0,68598,68698,0,1 S,0,68648,,2.5 P,0,68648,,A F,0,68698,68748,1,0
Sprite,Foreground,Centre,"s1b\g2.png",214,213 F,0,68640,68740,0,1 S,0,68690,,2.5 P,0,68690,,A F,0,68740,68790,1,0
Sprite,Foreground,Centre,"s1b\g2.png",214,213 F,0,68640,68740,0,1 S,0,68690,,2.5 P,0,68690,,A F,0,68740,68790,1,0
Sprite,Foreground,Centre,"s1b\g2.png",227,211 F,0,68682,68782,0,1 S,0,68732,,2.5 P,0,68732,,A F,0,68782,68832,1,0
Sprite,Foreground,Centre,"s1b\g2.png",227,211 F,0,68682,68782,0,1 S,0,68732,,2.5 P,0,68732,,A F,0,68782,68832,1,0
Sprite,Foreground,Centre,"s1b\g2.png",241,209 F,0,68723,68823,0,1 S,0,68773,,2.5 P,0,68773,,A F,0,68823,68873,1,0
Sprite,Foreground,Centre,"s1b\g2.png",241,209 F,0,68723,68823,0,1 S,0,68773,,2.5 P,0,68773,,A F,0,68823,68873,1,0
Sprite,Foreground,Centre,"s1b\g2.png",255,207 F,0,68765,68865,0,1 S,0,68815,,2.5 P,0,68815,,A F,0,68865,68915,1,0
Sprite,Foreground,Centre,"s1b\g2.png",255,207 F,0,68765,68865,0,1 S,0,68815,,2.5 P,0,68815,,A F,0,68865,68915,1,0
Sprite,Foreground,Centre,"s1b\g2.png",268,205 F,0,68807,68907,0,1 S,0,68857,,2.5 P,0,68857,,A F,0,68907,68957,1,0
Sprite,Foreground,Centre,"s1b\g2.png",268,205 F,0,68807,68907,0,1 S,0,68857,,2.5 P,0,68857,,A F,0,68907,68957,1,0
Sprite,Foreground,Centre,"s1b\g2.png",282,203 F,0,68848,68948,0,1 S,0,68898,,2.5 P,0,68898,,A F,0,68948,68998,1,0
Sprite,Foreground,Centre,"s1b\g2.png",282,203 F,0,68848,68948,0,1 S,0,68898,,2.5 P,0,68898,,A F,0,68948,68998,1,0
Sprite,Foreground,Centre,"s1b\g2.png",295,201 F,0,68890,68990,0,1 S,0,68940,,2.5 P,0,68940,,A F,0,68990,69040,1,0
Sprite,Foreground,Centre,"s1b\g2.png",295,201 F,0,68890,68990,0,1 S,0,68940,,2.5 P,0,68940,,A F,0,68990,69040,1,0
Sprite,Foreground,Centre,"s1b\g2.png",309,199 F,0,68932,69032,0,1 S,0,68982,,2.5 P,0,68982,,A F,0,69032,69082,1,0
Sprite,Foreground,Centre,"s1b\g2.png",309,199 F,0,68932,69032,0,1 S,0,68982,,2.5 P,0,68982,,A F,0,69032,69082,1,0
Sprite,Foreground,Centre,"s1b\g2.png",323,197 F,0,68973,69073,0,1 S,0,69023,,2.5 P,0,69023,,A F,0,69073,69123,1,0
Sprite,Foreground,Centre,"s1b\g2.png",323,197 F,0,68973,69073,0,1 S,0,69023,,2.5 P,0,69023,,A F,0,69073,69123,1,0
Sprite,Foreground,Centre,"s1b\g2.png",336,195 F,0,69015,69115,0,1 S,0,69065,,2.5 P,0,69065,,A F,0,69115,69165,1,0
Sprite,Foreground,Centre,"s1b\g2.png",336,195 F,0,69015,69115,0,1 S,0,69065,,2.5 P,0,69065,,A F,0,69115,69165,1,0
Sprite,Foreground,Centre,"s1b\g2.png",350,193 F,0,69057,69157,0,1 S,0,69107,,2.5 P,0,69107,,A F,0,69157,69207,1,0
Sprite,Foreground,Centre,"s1b\g2.png",350,193 F,0,69057,69157,0,1 S,0,69107,,2.5 P,0,69107,,A F,0,69157,69207,1,0
Sprite,Foreground,Centre,"s1b\n.png",320,240 F,0,69254,69274,0.3,0 P,0,69274,,A F,0,69274,69294,0,0.3
Sprite,Foreground,Centre,"s1b\n.png",320,240 F,0,69254,69274,0.3,0 R,0,69274,,1.5708 V,0,69274,,0.563,1 P,0,69274,,A F,0,69274,69294,0,0.3
Sprite,Foreground,Centre,"s1b\g3.png",91,131 F,0,69890,69990,0,1 S,0,69940,,2.5 P,0,69940,,A F,0,69990,70040,1,0
Sprite,Foreground,Centre,"s1b\g3.png",91,131 F,0,69890,69990,0,1 S,0,69940,,2.5 P,0,69940,,A F,0,69990,70040,1,0
Sprite,Foreground,Centre,"s1b\g3.png",96,143 F,0,69931,70031,0,1 S,0,69981,,2.5 P,0,69981,,A F,0,70031,70081,1,0
Sprite,Foreground,Centre,"s1b\g3.png",96,143 F,0,69931,70031,0,1 S,0,69981,,2.5 P,0,69981,,A F,0,70031,70081,1,0
Sprite,Foreground,Centre,"s1b\g3.png",101,156 F,0,69973,70073,0,1 S,0,70023,,2.5 P,0,70023,,A F,0,70073,70123,1,0
Sprite,Foreground,Centre,"s1b\g3.png",101,156 F,0,69973,70073,0,1 S,0,70023,,2.5 P,0,70023,,A F,0,70073,70123,1,0
Sprite,Foreground,Centre,"s1b\g3.png",106,169 F,0,70015,70115,0,1 S,0,70065,,2.5 P,0,70065,,A F,0,70115,70165,1,0
Sprite,Foreground,Centre,"s1b\g3.png",106,169 F,0,70015,70115,0,1 S,0,70065,,2.5 P,0,70065,,A F,0,70115,70165,1,0
Sprite,Foreground,Centre,"s1b\g3.png",111,182 F,0,70056,70156,0,1 S,0,70106,,2.5 P,0,70106,,A F,0,70156,70206,1,0
Sprite,Foreground,Centre,"s1b\g3.png",111,182 F,0,70056,70156,0,1 S,0,70106,,2.5 P,0,70106,,A F,0,70156,70206,1,0
Sprite,Foreground,Centre,"s1b\g3.png",187,217 F,0,70224,70324,0,1 S,0,70274,,2.5 P,0,70274,,A F,0,70324,70374,1,0
Sprite,Foreground,Centre,"s1b\g3.png",187,217 F,0,70224,70324,0,1 S,0,70274,,2.5 P,0,70274,,A F,0,70324,70374,1,0
Sprite,Foreground,Centre,"s1b\g3.png",192,229 F,0,70265,70365,0,1 S,0,70315,,2.5 P,0,70315,,A F,0,70365,70415,1,0
Sprite,Foreground,Centre,"s1b\g3.png",192,229 F,0,70265,70365,0,1 S,0,70315,,2.5 P,0,70315,,A F,0,70365,70415,1,0
Sprite,Foreground,Centre,"s1b\g3.png",197,242 F,0,70307,70407,0,1 S,0,70357,,2.5 P,0,70357,,A F,0,70407,70457,1,0
Sprite,Foreground,Centre,"s1b\g3.png",197,242 F,0,70307,70407,0,1 S,0,70357,,2.5 P,0,70357,,A F,0,70407,70457,1,0
Sprite,Foreground,Centre,"s1b\g3.png",202,255 F,0,70349,70449,0,1 S,0,70399,,2.5 P,0,70399,,A F,0,70449,70499,1,0
Sprite,Foreground,Centre,"s1b\g3.png",202,255 F,0,70349,70449,0,1 S,0,70399,,2.5 P,0,70399,,A F,0,70449,70499,1,0
Sprite,Foreground,Centre,"s1b\g3.png",207,268 F,0,70390,70490,0,1 S,0,70440,,2.5 P,0,70440,,A F,0,70490,70540,1,0
Sprite,Foreground,Centre,"s1b\g3.png",207,268 F,0,70390,70490,0,1 S,0,70440,,2.5 P,0,70440,,A F,0,70490,70540,1,0
Sprite,Foreground,Centre,"s1b\g3.png",267,324 F,0,70557,70657,0,1 S,0,70607,,2.5 P,0,70607,,A F,0,70657,70707,1,0
Sprite,Foreground,Centre,"s1b\g3.png",267,324 F,0,70557,70657,0,1 S,0,70607,,2.5 P,0,70607,,A F,0,70657,70707,1,0
Sprite,Foreground,Centre,"s1b\g3.png",264,337 F,0,70598,70698,0,1 S,0,70648,,2.5 P,0,70648,,A F,0,70698,70748,1,0
Sprite,Foreground,Centre,"s1b\g3.png",264,337 F,0,70598,70698,0,1 S,0,70648,,2.5 P,0,70648,,A F,0,70698,70748,1,0
Sprite,Foreground,Centre,"s1b\g3.png",262,351 F,0,70640,70740,0,1 S,0,70690,,2.5 P,0,70690,,A F,0,70740,70790,1,0
Sprite,Foreground,Centre,"s1b\g3.png",262,351 F,0,70640,70740,0,1 S,0,70690,,2.5 P,0,70690,,A F,0,70740,70790,1,0
Sprite,Foreground,Centre,"s1b\g3.png",263,364 F,0,70682,70782,0,1 S,0,70732,,2.5 P,0,70732,,A F,0,70782,70832,1,0
Sprite,Foreground,Centre,"s1b\g3.png",263,364 F,0,70682,70782,0,1 S,0,70732,,2.5 P,0,70732,,A F,0,70782,70832,1,0
Sprite,Foreground,Centre,"s1b\g3.png",267,377 F,0,70723,70823,0,1 S,0,70773,,2.5 P,0,70773,,A F,0,70823,70873,1,0
Sprite,Foreground,Centre,"s1b\g3.png",267,377 F,0,70723,70823,0,1 S,0,70773,,2.5 P,0,70773,,A F,0,70823,70873,1,0
Sprite,Foreground,Centre,"s1b\g3.png",263,364 F,0,70765,70865,0,1 S,0,70815,,2.5 P,0,70815,,A F,0,70865,70915,1,0
Sprite,Foreground,Centre,"s1b\g3.png",263,364 F,0,70765,70865,0,1 S,0,70815,,2.5 P,0,70815,,A F,0,70865,70915,1,0
Sprite,Foreground,Centre,"s1b\g3.png",262,351 F,0,70807,70907,0,1 S,0,70857,,2.5 P,0,70857,,A F,0,70907,70957,1,0
Sprite,Foreground,Centre,"s1b\g3.png",262,351 F,0,70807,70907,0,1 S,0,70857,,2.5 P,0,70857,,A F,0,70907,70957,1,0
Sprite,Foreground,Centre,"s1b\g3.png",264,337 F,0,70849,70949,0,1 S,0,70899,,2.5 P,0,70899,,A F,0,70949,70999,1,0
Sprite,Foreground,Centre,"s1b\g3.png",264,337 F,0,70849,70949,0,1 S,0,70899,,2.5 P,0,70899,,A F,0,70949,70999,1,0
Sprite,Foreground,Centre,"s1b\g3.png",267,324 F,0,70890,70990,0,1 S,0,70940,,2.5 P,0,70940,,A F,0,70990,71040,1,0
Sprite,Foreground,Centre,"s1b\g3.png",267,324 F,0,70890,70990,0,1 S,0,70940,,2.5 P,0,70940,,A F,0,70990,71040,1,0
Sprite,Foreground,Centre,"s1b\g3.png",333,275 F,0,71057,71157,0,1 S,0,71107,,2.5 P,0,71107,,A F,0,71157,71207,1,0
Sprite,Foreground,Centre,"s1b\g3.png",333,275 F,0,71057,71157,0,1 S,0,71107,,2.5 P,0,71107,,A F,0,71157,71207,1,0
Sprite,Foreground,Centre,"s1b\g3.png",335,261 F,0,71098,71198,0,1 S,0,71148,,2.5 P,0,71148,,A F,0,71198,71248,1,0
Sprite,Foreground,Centre,"s1b\g3.png",335,261 F,0,71098,71198,0,1 S,0,71148,,2.5 P,0,71148,,A F,0,71198,71248,1,0
Sprite,Foreground,Centre,"s1b\g3.png",337,247 F,0,71140,71240,0,1 S,0,71190,,2.5 P,0,71190,,A F,0,71240,71290,1,0
Sprite,Foreground,Centre,"s1b\g3.png",337,247 F,0,71140,71240,0,1 S,0,71190,,2.5 P,0,71190,,A F,0,71240,71290,1,0
Sprite,Foreground,Centre,"s1b\g3.png",336,234 F,0,71182,71282,0,1 S,0,71232,,2.5 P,0,71232,,A F,0,71282,71332,1,0
Sprite,Foreground,Centre,"s1b\g3.png",336,234 F,0,71182,71282,0,1 S,0,71232,,2.5 P,0,71232,,A F,0,71282,71332,1,0
Sprite,Foreground,Centre,"s1b\g3.png",332,221 F,0,71223,71323,0,1 S,0,71273,,2.5 P,0,71273,,A F,0,71323,71373,1,0
Sprite,Foreground,Centre,"s1b\g3.png",332,221 F,0,71223,71323,0,1 S,0,71273,,2.5 P,0,71273,,A F,0,71323,71373,1,0
Sprite,Foreground,Centre,"s1b\g3.png",336,234 F,0,71265,71365,0,1 S,0,71315,,2.5 P,0,71315,,A F,0,71365,71415,1,0
Sprite,Foreground,Centre,"s1b\g3.png",336,234 F,0,71265,71365,0,1 S,0,71315,,2.5 P,0,71315,,A F,0,71365,71415,1,0
Sprite,Foreground,Centre,"s1b\g3.png",337,247 F,0,71307,71407,0,1 S,0,71357,,2.5 P,0,71357,,A F,0,71407,71457,1,0
Sprite,Foreground,Centre,"s1b\g3.png",337,247 F,0,71307,71407,0,1 S,0,71357,,2.5 P,0,71357,,A F,0,71407,71457,1,0
Sprite,Foreground,Centre,"s1b\g3.png",335,261 F,0,71349,71449,0,1 S,0,71399,,2.5 P,0,71399,,A F,0,71449,71499,1,0
Sprite,Foreground,Centre,"s1b\g3.png",335,261 F,0,71349,71449,0,1 S,0,71399,,2.5 P,0,71399,,A F,0,71449,71499,1,0
Sprite,Foreground,Centre,"s1b\g3.png",333,275 F,0,71390,71490,0,1 S,0,71440,,2.5 P,0,71440,,A F,0,71490,71540,1,0
Sprite,Foreground,Centre,"s1b\g3.png",333,275 F,0,71390,71490,0,1 S,0,71440,,2.5 P,0,71440,,A F,0,71490,71540,1,0
Sprite,Foreground,Centre,"s1b\g3.png",398,325 F,0,71557,71657,0,1 S,0,71607,,2.5 P,0,71607,,A F,0,71657,71707,1,0
Sprite,Foreground,Centre,"s1b\g3.png",398,325 F,0,71557,71657,0,1 S,0,71607,,2.5 P,0,71607,,A F,0,71657,71707,1,0
Sprite,Foreground,Centre,"s1b\g3.png",395,338 F,0,71598,71698,0,1 S,0,71648,,2.5 P,0,71648,,A F,0,71698,71748,1,0
Sprite,Foreground,Centre,"s1b\g3.png",395,338 F,0,71598,71698,0,1 S,0,71648,,2.5 P,0,71648,,A F,0,71698,71748,1,0
Sprite,Foreground,Centre,"s1b\g3.png",393,352 F,0,71640,71740,0,1 S,0,71690,,2.5 P,0,71690,,A F,0,71740,71790,1,0
Sprite,Foreground,Centre,"s1b\g3.png",393,352 F,0,71640,71740,0,1 S,0,71690,,2.5 P,0,71690,,A F,0,71740,71790,1,0
Sprite,Foreground,Centre,"s1b\g3.png",394,365 F,0,71682,71782,0,1 S,0,71732,,2.5 P,0,71732,,A F,0,71782,71832,1,0
Sprite,Foreground,Centre,"s1b\g3.png",394,365 F,0,71682,71782,0,1 S,0,71732,,2.5 P,0,71732,,A F,0,71782,71832,1,0
Sprite,Foreground,Centre,"s1b\g3.png",398,378 F,0,71723,71823,0,1 S,0,71773,,2.5 P,0,71773,,A F,0,71823,71873,1,0
Sprite,Foreground,Centre,"s1b\g3.png",398,378 F,0,71723,71823,0,1 S,0,71773,,2.5 P,0,71773,,A F,0,71823,71873,1,0
Sprite,Foreground,Centre,"s1b\n.png",320,240 P,0,71981,,A F,0,71981,72001,0,0.3 M,0,71981,72023,320,377,320,365 M,0,72023,72065,320,365,320,353 M,0,72065,72106,320,353,320,341 M,0,72106,72148,320,341,320,329 M,0,72148,72190,320,329,320,316 M,0,72190,72231,320,316,320,303 M,0,72231,72273,320,303,320,290 M,0,72273,72315,320,290,320,277 M,0,72315,72356,320,277,320,264 M,0,72356,72398,320,264,320,251 M,0,72398,72440,320,251,320,238 F,0,72420,72440,0.3,0
Sprite,Foreground,Centre,"s1b\n.png",320,240 R,0,71981,,1.5708 V,0,71981,,0.563,1 P,0,71981,,A F,0,71981,72001,0,0.3 M,0,71981,72023,486,240,492,240 M,0,72023,72065,492,240,499,240 M,0,72065,72106,499,240,505,240 M,0,72106,72148,505,240,511,240 M,0,72148,72190,511,240,517,240 M,0,72190,72231,517,240,513,240 M,0,72231,72273,513,240,509,240 M,0,72273,72315,509,240,505,240 M,0,72315,72356,505,240,501,240 M,0,72356,72398,501,240,497,240 M,0,72398,72440,497,240,493,240 F,0,72420,72440,0.3,0
Sprite,Foreground,Centre,"s1b\g4.png",438,174 F,0,72557,72657,0,1 S,0,72607,,2.5 P,0,72607,,A F,0,72657,72707,1,0
Sprite,Foreground,Centre,"s1b\g4.png",438,174 F,0,72557,72657,0,1 S,0,72607,,2.5 P,0,72607,,A F,0,72657,72707,1,0
Sprite,Foreground,Centre,"s1b\g4.png",424,171 F,0,72598,72698,0,1 S,0,72648,,2.5 P,0,72648,,A F,0,72698,72748,1,0
Sprite,Foreground,Centre,"s1b\g4.png",424,171 F,0,72598,72698,0,1 S,0,72648,,2.5 P,0,72648,,A F,0,72698,72748,1,0
Sprite,Foreground,Centre,"s1b\g4.png",410,169 F,0,72640,72740,0,1 S,0,72690,,2.5 P,0,72690,,A F,0,72740,72790,1,0
Sprite,Foreground,Centre,"s1b\g4.png",410,169 F,0,72640,72740,0,1 S,0,72690,,2.5 P,0,72690,,A F,0,72740,72790,1,0
Sprite,Foreground,Centre,"s1b\g4.png",424,171 F,0,72682,72782,0,1 S,0,72732,,2.5 P,0,72732,,A F,0,72782,72832,1,0
Sprite,Foreground,Centre,"s1b\g4.png",424,171 F,0,72682,72782,0,1 S,0,72732,,2.5 P,0,72732,,A F,0,72782,72832,1,0
Sprite,Foreground,Centre,"s1b\g4.png",438,174 F,0,72723,72823,0,1 S,0,72773,,2.5 P,0,72773,,A F,0,72823,72873,1,0
Sprite,Foreground,Centre,"s1b\g4.png",438,174 F,0,72723,72823,0,1 S,0,72773,,2.5 P,0,72773,,A F,0,72823,72873,1,0
Sprite,Foreground,Centre,"s1b\g4.png",424,171 F,0,72765,72865,0,1 S,0,72815,,2.5 P,0,72815,,A F,0,72865,72915,1,0
Sprite,Foreground,Centre,"s1b\g4.png",424,171 F,0,72765,72865,0,1 S,0,72815,,2.5 P,0,72815,,A F,0,72865,72915,1,0
Sprite,Foreground,Centre,"s1b\g4.png",410,169 F,0,72807,72907,0,1 S,0,72857,,2.5 P,0,72857,,A F,0,72907,72957,1,0
Sprite,Foreground,Centre,"s1b\g4.png",410,169 F,0,72807,72907,0,1 S,0,72857,,2.5 P,0,72857,,A F,0,72907,72957,1,0
Sprite,Foreground,Centre,"s1b\g4.png",424,171 F,0,72849,72949,0,1 S,0,72899,,2.5 P,0,72899,,A F,0,72949,72999,1,0
Sprite,Foreground,Centre,"s1b\g4.png",424,171 F,0,72849,72949,0,1 S,0,72899,,2.5 P,0,72899,,A F,0,72949,72999,1,0
Sprite,Foreground,Centre,"s1b\g4.png",438,174 F,0,72890,72990,0,1 S,0,72940,,2.5 P,0,72940,,A F,0,72990,73040,1,0
Sprite,Foreground,Centre,"s1b\g4.png",438,174 F,0,72890,72990,0,1 S,0,72940,,2.5 P,0,72940,,A F,0,72990,73040,1,0
Sprite,Foreground,Centre,"s1b\g4.png",424,171 F,0,72932,73032,0,1 S,0,72982,,2.5 P,0,72982,,A F,0,73032,73082,1,0
Sprite,Foreground,Centre,"s1b\g4.png",424,171 F,0,72932,73032,0,1 S,0,72982,,2.5 P,0,72982,,A F,0,73032,73082,1,0
Sprite,Foreground,Centre,"s1b\g4.png",410,169 F,0,72974,73074,0,1 S,0,73024,,2.5 P,0,73024,,A F,0,73074,73124,1,0
Sprite,Foreground,Centre,"s1b\g4.png",410,169 F,0,72974,73074,0,1 S,0,73024,,2.5 P,0,73024,,A F,0,73074,73124,1,0
Sprite,Foreground,Centre,"s1b\g4.png",424,171 F,0,73016,73116,0,1 S,0,73066,,2.5 P,0,73066,,A F,0,73116,73166,1,0
Sprite,Foreground,Centre,"s1b\g4.png",424,171 F,0,73016,73116,0,1 S,0,73066,,2.5 P,0,73066,,A F,0,73116,73166,1,0
Sprite,Foreground,Centre,"s1b\g4.png",438,174 F,0,73057,73157,0,1 S,0,73107,,2.5 P,0,73107,,A F,0,73157,73207,1,0
Sprite,Foreground,Centre,"s1b\g4.png",438,174 F,0,73057,73157,0,1 S,0,73107,,2.5 P,0,73107,,A F,0,73157,73207,1,0
Sprite,Foreground,Centre,"s1b\g4.png",424,171 F,0,73099,73199,0,1 S,0,73149,,2.5 P,0,73149,,A F,0,73199,73249,1,0
Sprite,Foreground,Centre,"s1b\g4.png",424,171 F,0,73099,73199,0,1 S,0,73149,,2.5 P,0,73149,,A F,0,73199,73249,1,0
Sprite,Foreground,Centre,"s1b\g4.png",410,169 F,0,73141,73241,0,1 S,0,73191,,2.5 P,0,73191,,A F,0,73241,73291,1,0
Sprite,Foreground,Centre,"s1b\g4.png",410,169 F,0,73141,73241,0,1 S,0,73191,,2.5 P,0,73191,,A F,0,73241,73291,1,0
Sprite,Foreground,Centre,"s1b\g1.png",370,158 F,0,73224,73324,0,1 S,0,73274,,2.5 P,0,73274,,A F,0,73324,73374,1,0
Sprite,Foreground,Centre,"s1b\g1.png",370,158 F,0,73224,73324,0,1 S,0,73274,,2.5 P,0,73274,,A F,0,73324,73374,1,0
Sprite,Foreground,Centre,"s1b\g1.png",356,160 F,0,73265,73365,0,1 S,0,73315,,2.5 P,0,73315,,A F,0,73365,73415,1,0
Sprite,Foreground,Centre,"s1b\g1.png",356,160 F,0,73265,73365,0,1 S,0,73315,,2.5 P,0,73315,,A F,0,73365,73415,1,0
Sprite,Foreground,Centre,"s1b\g1.png",342,162 F,0,73307,73407,0,1 S,0,73357,,2.5 P,0,73357,,A F,0,73407,73457,1,0
Sprite,Foreground,Centre,"s1b\g1.png",342,162 F,0,73307,73407,0,1 S,0,73357,,2.5 P,0,73357,,A F,0,73407,73457,1,0
Sprite,Foreground,Centre,"s1b\g1.png",329,164 F,0,73349,73449,0,1 S,0,73399,,2.5 P,0,73399,,A F,0,73449,73499,1,0
Sprite,Foreground,Centre,"s1b\g1.png",329,164 F,0,73349,73449,0,1 S,0,73399,,2.5 P,0,73399,,A F,0,73449,73499,1,0
Sprite,Foreground,Centre,"s1b\g1.png",315,166 F,0,73390,73490,0,1 S,0,73440,,2.5 P,0,73440,,A F,0,73490,73540,1,0
Sprite,Foreground,Centre,"s1b\g1.png",315,166 F,0,73390,73490,0,1 S,0,73440,,2.5 P,0,73440,,A F,0,73490,73540,1,0
Sprite,Foreground,Centre,"s1b\g1.png",236,143 F,0,73557,73657,0,1 S,0,73607,,2.5 P,0,73607,,A F,0,73657,73707,1,0
Sprite,Foreground,Centre,"s1b\g1.png",236,143 F,0,73557,73657,0,1 S,0,73607,,2.5 P,0,73607,,A F,0,73657,73707,1,0
Sprite,Foreground,Centre,"s1b\g1.png",157,115 F,0,73724,73824,0,1 S,0,73774,,2.5 P,0,73774,,A F,0,73824,73874,1,0
Sprite,Foreground,Centre,"s1b\g1.png",157,115 F,0,73724,73824,0,1 S,0,73774,,2.5 P,0,73774,,A F,0,73824,73874,1,0
Sprite,Foreground,Centre,"s1b\g1.png",152,101 F,0,73765,73865,0,1 S,0,73815,,2.5 P,0,73815,,A F,0,73865,73915,1,0
Sprite,Foreground,Centre,"s1b\g1.png",152,101 F,0,73765,73865,0,1 S,0,73815,,2.5 P,0,73815,,A F,0,73865,73915,1,0
Sprite,Foreground,Centre,"s1b\g1.png",148,88 F,0,73807,73907,0,1 S,0,73857,,2.5 P,0,73857,,A F,0,73907,73957,1,0
Sprite,Foreground,Centre,"s1b\g1.png",148,88 F,0,73807,73907,0,1 S,0,73857,,2.5 P,0,73857,,A F,0,73907,73957,1,0
Sprite,Foreground,Centre,"s1b\g1.png",152,101 F,0,73849,73949,0,1 S,0,73899,,2.5 P,0,73899,,A F,0,73949,73999,1,0
Sprite,Foreground,Centre,"s1b\g1.png",152,101 F,0,73849,73949,0,1 S,0,73899,,2.5 P,0,73899,,A F,0,73949,73999,1,0
Sprite,Foreground,Centre,"s1b\g1.png",157,115 F,0,73890,73990,0,1 S,0,73940,,2.5 P,0,73940,,A F,0,73990,74040,1,0
Sprite,Foreground,Centre,"s1b\g1.png",157,115 F,0,73890,73990,0,1 S,0,73940,,2.5 P,0,73940,,A F,0,73990,74040,1,0
Sprite,Foreground,Centre,"s1b\g1.png",118,187 F,0,74057,74157,0,1 S,0,74107,,2.5 P,0,74107,,A F,0,74157,74207,1,0
Sprite,Foreground,Centre,"s1b\g1.png",118,187 F,0,74057,74157,0,1 S,0,74107,,2.5 P,0,74107,,A F,0,74157,74207,1,0
Sprite,Foreground,Centre,"s1b\g1.png",106,178 F,0,74098,74198,0,1 S,0,74148,,2.5 P,0,74148,,A F,0,74198,74248,1,0
Sprite,Foreground,Centre,"s1b\g1.png",106,178 F,0,74098,74198,0,1 S,0,74148,,2.5 P,0,74148,,A F,0,74198,74248,1,0
Sprite,Foreground,Centre,"s1b\g1.png",95,170 F,0,74140,74240,0,1 S,0,74190,,2.5 P,0,74190,,A F,0,74240,74290,1,0
Sprite,Foreground,Centre,"s1b\g1.png",95,170 F,0,74140,74240,0,1 S,0,74190,,2.5 P,0,74190,,A F,0,74240,74290,1,0
Sprite,Foreground,Centre,"s1b\g1.png",84,162 F,0,74182,74282,0,1 S,0,74232,,2.5 P,0,74232,,A F,0,74282,74332,1,0
Sprite,Foreground,Centre,"s1b\g1.png",84,162 F,0,74182,74282,0,1 S,0,74232,,2.5 P,0,74232,,A F,0,74282,74332,1,0
Sprite,Foreground,Centre,"s1b\g1.png",73,154 F,0,74223,74323,0,1 S,0,74273,,2.5 P,0,74273,,A F,0,74323,74373,1,0
Sprite,Foreground,Centre,"s1b\g1.png",73,154 F,0,74223,74323,0,1 S,0,74273,,2.5 P,0,74273,,A F,0,74323,74373,1,0
Sprite,Foreground,Centre,"s1b\g1.png",84,162 F,0,74265,74365,0,1 S,0,74315,,2.5 P,0,74315,,A F,0,74365,74415,1,0
Sprite,Foreground,Centre,"s1b\g1.png",84,162 F,0,74265,74365,0,1 S,0,74315,,2.5 P,0,74315,,A F,0,74365,74415,1,0
Sprite,Foreground,Centre,"s1b\g1.png",95,170 F,0,74307,74407,0,1 S,0,74357,,2.5 P,0,74357,,A F,0,74407,74457,1,0
Sprite,Foreground,Centre,"s1b\g1.png",95,170 F,0,74307,74407,0,1 S,0,74357,,2.5 P,0,74357,,A F,0,74407,74457,1,0
Sprite,Foreground,Centre,"s1b\g1.png",106,178 F,0,74349,74449,0,1 S,0,74399,,2.5 P,0,74399,,A F,0,74449,74499,1,0
Sprite,Foreground,Centre,"s1b\g1.png",106,178 F,0,74349,74449,0,1 S,0,74399,,2.5 P,0,74399,,A F,0,74449,74499,1,0
Sprite,Foreground,Centre,"s1b\g1.png",118,187 F,0,74390,74490,0,1 S,0,74440,,2.5 P,0,74440,,A F,0,74490,74540,1,0
Sprite,Foreground,Centre,"s1b\g1.png",118,187 F,0,74390,74490,0,1 S,0,74440,,2.5 P,0,74440,,A F,0,74490,74540,1,0
Sprite,Foreground,Centre,"s1b\n.png",320,240 P,0,74648,,A F,0,74648,74668,0,0.3 M,0,74648,74690,320,241,320,244 M,0,74690,74732,320,244 M,0,74732,74773,320,244,320,242 M,0,74773,74815,320,242,320,238 M,0,74815,74857,320,238,320,231 M,0,74857,74899,320,231,320,238 M,0,74899,74941,320,238,320,242 M,0,74941,74982,320,242,320,244 M,0,74982,75024,320,244 M,0,75024,75066,320,244,320,241 M,0,75066,75107,320,241,320,236 F,0,75087,75107,0.3,0
Sprite,Foreground,Centre,"s1b\n.png",320,240 R,0,74648,,1.5708 V,0,74648,,0.563,1 P,0,74648,,A F,0,74648,74668,0,0.3 M,0,74648,74690,195,240,209,240 M,0,74690,74732,209,240,222,240 M,0,74732,74773,222,240,236,240 M,0,74773,74815,236,240,249,240 M,0,74815,74857,249,240,261,240 M,0,74857,74899,261,240,249,240 M,0,74899,74941,249,240,236,240 M,0,74941,74982,236,240,222,240 M,0,74982,75024,222,240,209,240 M,0,75024,75066,209,240,195,240 M,0,75066,75107,195,240,183,240 F,0,75087,75107,0.3,0
Sprite,Foreground,Centre,"s1b\g5.png",183,236 F,0,75057,75157,0,1 S,0,75107,,2.5 P,0,75107,,A F,0,75157,75207,1,0
Sprite,Foreground,Centre,"s1b\g5.png",183,236 F,0,75057,75157,0,1 S,0,75107,,2.5 P,0,75107,,A F,0,75157,75207,1,0
Sprite,Foreground,Centre,"s1b\n.png",320,240 P,0,75648,,A F,0,75648,75668,0,0.3 M,0,75648,75690,320,267,320,281 M,0,75690,75732,320,281,320,294 M,0,75732,75773,320,294,320,308 M,0,75773,75940,320,308,320,383 M,0,75940,75981,320,383,320,390 M,0,75981,76023,320,390,320,397 M,0,76023,76065,320,397,320,401 M,0,76065,76106,320,401,320,404 M,0,76106,76148,320,404,320,405 M,0,76148,76190,320,405,320,404 M,0,76190,76231,320,404,320,401 M,0,76231,76273,320,401,320,397 M,0,76273,76440,320,397,320,347 F,0,76420,76440,0.3,0
Sprite,Foreground,Centre,"s1b\n.png",320,240 R,0,75648,,1.5708 V,0,75648,,0.563,1 P,0,75648,,A F,0,75648,75668,0,0.3 M,0,75648,75690,431,240,433,240 M,0,75690,75732,433,240,435,240 M,0,75732,75773,435,240,437,240 M,0,75773,75940,437,240,405,240 M,0,75940,75981,405,240,393,240 M,0,75981,76023,393,240,381,240 M,0,76023,76065,381,240,368,240 M,0,76065,76106,368,240,355,240 M,0,76106,76148,355,240,341,240 M,0,76148,76190,341,240,327,240 M,0,76190,76231,327,240,314,240 M,0,76231,76273,314,240,301,240 M,0,76273,76440,301,240,235,240 F,0,76420,76440,0.3,0
Sprite,Foreground,Centre,"s1b\g2.png",185,280 F,0,76557,76657,0,1 S,0,76607,,2.5 P,0,76607,,A F,0,76657,76707,1,0
Sprite,Foreground,Centre,"s1b\g2.png",185,280 F,0,76557,76657,0,1 S,0,76607,,2.5 P,0,76607,,A F,0,76657,76707,1,0
Sprite,Foreground,Centre,"s1b\g2.png",182,266 F,0,76598,76698,0,1 S,0,76648,,2.5 P,0,76648,,A F,0,76698,76748,1,0
Sprite,Foreground,Centre,"s1b\g2.png",182,266 F,0,76598,76698,0,1 S,0,76648,,2.5 P,0,76648,,A F,0,76698,76748,1,0
Sprite,Foreground,Centre,"s1b\g2.png",180,252 F,0,76640,76740,0,1 S,0,76690,,2.5 P,0,76690,,A F,0,76740,76790,1,0
Sprite,Foreground,Centre,"s1b\g2.png",180,252 F,0,76640,76740,0,1 S,0,76690,,2.5 P,0,76690,,A F,0,76740,76790,1,0
Sprite,Foreground,Centre,"s1b\g2.png",177,239 F,0,76682,76782,0,1 S,0,76732,,2.5 P,0,76732,,A F,0,76782,76832,1,0
Sprite,Foreground,Centre,"s1b\g2.png",177,239 F,0,76682,76782,0,1 S,0,76732,,2.5 P,0,76732,,A F,0,76782,76832,1,0
Sprite,Foreground,Centre,"s1b\g2.png",175,225 F,0,76723,76823,0,1 S,0,76773,,2.5 P,0,76773,,A F,0,76823,76873,1,0
Sprite,Foreground,Centre,"s1b\g2.png",175,225 F,0,76723,76823,0,1 S,0,76773,,2.5 P,0,76773,,A F,0,76823,76873,1,0
Sprite,Foreground,Centre,"s1b\g2.png",257,230 F,0,76890,76990,0,1 S,0,76940,,2.5 P,0,76940,,A F,0,76990,77040,1,0
Sprite,Foreground,Centre,"s1b\g2.png",257,230 F,0,76890,76990,0,1 S,0,76940,,2.5 P,0,76940,,A F,0,76990,77040,1,0
Sprite,Foreground,Centre,"s1b\g2.png",258,216 F,0,76931,77031,0,1 S,0,76981,,2.5 P,0,76981,,A F,0,77031,77081,1,0
Sprite,Foreground,Centre,"s1b\g2.png",258,216 F,0,76931,77031,0,1 S,0,76981,,2.5 P,0,76981,,A F,0,77031,77081,1,0
Sprite,Foreground,Centre,"s1b\g2.png",260,202 F,0,76973,77073,0,1 S,0,77023,,2.5 P,0,77023,,A F,0,77073,77123,1,0
Sprite,Foreground,Centre,"s1b\g2.png",260,202 F,0,76973,77073,0,1 S,0,77023,,2.5 P,0,77023,,A F,0,77073,77123,1,0
Sprite,Foreground,Centre,"s1b\g2.png",262,189 F,0,77015,77115,0,1 S,0,77065,,2.5 P,0,77065,,A F,0,77115,77165,1,0
Sprite,Foreground,Centre,"s1b\g2.png",262,189 F,0,77015,77115,0,1 S,0,77065,,2.5 P,0,77065,,A F,0,77115,77165,1,0
Sprite,Foreground,Centre,"s1b\g2.png",263,175 F,0,77056,77156,0,1 S,0,77106,,2.5 P,0,77106,,A F,0,77156,77206,1,0
Sprite,Foreground,Centre,"s1b\g2.png",263,175 F,0,77056,77156,0,1 S,0,77106,,2.5 P,0,77106,,A F,0,77156,77206,1,0
//Storyboard Sound Samples

[TimingPoints]
608,333.333333333333,4,3,1,80,1,0
11274,-100,4,1,1,80,0,0
11941,333.333333333333,4,1,1,80,1,0
31940,-100,4,3,1,80,0,0
32440,-100,4,2,1,80,0,0
43940,-100,4,1,1,80,0,0
46607,-100,4,1,1,100,0,1
66607,-100,4,1,1,80,0,0

[Colours]
Combo1 : 192,192,192
Combo2 : 101,86,231
Combo3 : 255,128,192
Combo4 : 91,238,227
Combo5 : 11,175,255
Combo6 : 255,128,0
Combo7 : 65,65,65

[HitObjects]
98,124,608,38,0,P|84:100|83:72,2,55,4|0|0,0:0|0:0|0:0,0:0:0:0:
167,167,1107,2,0,L|275:150,1,110,0|4,0:0|0:0,0:0:0:0:
352,296,1774,2,0,L|242:288,1,110,4|0,0:0|0:0,0:0:0:0:
129,67,2607,1,4,0:0:0:0:
244,185,2941,1,4,0:0:0:0:
402,139,3274,6,0,L|455:151,2,55,4|0|0,0:0|0:0|0:0,0:0:0:0:
337,87,3774,2,0,P|283:76|231:92,1,110,0|4,0:0|0:0,0:0:0:0:
158,239,4441,2,0,P|211:249|263:233,1,110,4|0,0:0|0:0,0:0:0:0:
337,87,5107,2,0,B|372:157|372:157|373:237|373:237|402:291,1,220,4|4,0:0|0:0,0:0:0:0:
338,361,5941,85,12,0:0:0:0:
264,213,6274,1,8,0:0:0:0:
164,344,6607,1,8,0:0:0:0:
90,196,6940,1,8,0:0:0:0:
191,65,7274,6,0,P|245:78|299:72,1,110,8|8,0:0|0:0,0:0:0:0:
378,48,7774,1,8,0:0:0:0:
456,21,7941,2,0,L|450:130,1,110,8|8,0:0|0:0,0:0:0:0:
446,213,8441,1,8,0:0:0:0:
380,263,8607,86,0,L|325:256,1,55,8|8,0:0|0:0,0:0:0:0:
341,337,8941,2,0,L|286:341,1,55,8|8,0:0|0:0,0:0:0:0:
245,269,9274,2,0,L|190:262,1,55,8|8,0:0|0:0,0:0:0:0:
206,343,9608,2,0,L|151:347,1,55,8|8,0:0|0:0,0:0:0:0:
109,275,9941,6,0,L|99:249,7,27.5,8|8|8|8|8|8|8|8,0:0|0:0|0:0|0:0|0:0|0:0|0:0|0:0,0:0:0:0:
99,208,10607,2,0,L|103:180,7,27.5,8|8|8|8|8|8|8|8,0:0|0:0|0:0|0:0|0:0|0:0|0:0|0:0,0:0:0:0:
132,150,11274,86,0,P|172:145|207:124,1,82.5,2|0,0:3|0:0,0:0:0:0:
238,96,11607,2,0,L|243:69,3,27.5,0|0|0|0,0:0|0:0|0:0|0:0,0:0:0:0:
273,40,11941,6,0,L|382:33,1,110,2|8,0:0|0:0,0:0:0:0:
451,78,12441,2,0,P|464:156|415:220,1,165,2|8,0:0|0:0,0:0:0:0:
334,206,13107,1,0,0:0:0:0:
271,260,13274,2,0,L|216:268,1,55,2|0,0:0|0:0,0:0:0:0:
143,229,13607,1,8,0:0:0:0:
89,291,13774,2,0,P|62:244|70:190,1,110,2|2,0:0|0:0,0:0:0:0:
138,144,14274,2,0,L|192:134,1,55,8|0,0:0|0:0,0:0:0:0:
243,69,14607,86,0,L|352:61,1,110,2|8,0:0|0:0,0:0:0:0:
424,19,15107,2,0,P|427:98|362:144,1,165,2|8,0:0|0:0,0:0:0:0:
304,202,15774,1,0,0:0:0:0:
245,260,15940,2,0,L|257:313,1,55,2|0,0:0|0:0,0:0:0:0:
175,304,16274,2,0,L|168:358,1,55,8|0,0:0|0:0,0:0:0:0:
93,325,16607,2,0,L|89:352,2,27.5,2|2|2,0:0|0:0|0:0,0:0:0:0:
104,243,16940,2,0,L|110:188,1,55,8|2,0:0|0:0,0:0:0:0:
38,146,17274,6,0,P|92:152|143:133,1,110,2|8,0:0|0:0,0:0:0:0:
208,83,17774,2,0,L|373:71,1,165,2|8,0:0|0:0,0:0:0:0:
404,146,18440,1,0,0:0:0:0:
436,221,18607,2,0,L|490:221,2,55,2|0|8,0:0|0:0|0:0,0:0:0:0:
353,224,19107,2,0,P|299:232|258:267,1,110,2|2,0:0|0:0,0:0:0:0:
197,324,19607,2,0,L|142:330,1,55,8|0,0:0|0:0,0:0:0:0:
80,274,19940,86,0,P|97:222|83:170,1,110,2|8,0:0|0:0,0:0:0:0:
11,128,20440,2,0,L|174:106,1,165,2|8,0:0|0:0,0:0:0:0:
237,51,21107,1,2,0:0:0:0:
305,97,21274,6,0,L|359:100,1,55,2|0,0:0|0:0,0:0:0:0:
390,177,21607,2,0,L|335:173,1,55,8|2,0:0|0:0,0:0:0:0:
290,242,21940,2,0,L|276:265,3,27.5,2|2|2|2,0:0|0:0|0:0|0:0,0:0:0:0:
250,297,22274,2,0,P|223:306|196:309,1,55,8|2,0:0|0:0,0:0:0:0:
124,270,22607,6,0,P|139:218|121:166,1,110,2|8,0:0|0:0,0:0:0:0:
57,115,23107,2,0,P|137:129|213:100,1,165,2|8,0:0|0:0,0:0:0:0:
277,48,23774,1,0,0:0:0:0:
349,86,23940,2,0,L|403:92,2,55,2|0|8,0:0|0:0|0:0,0:0:0:0:
286,140,24440,2,0,L|296:249,1,110,2|2,0:0|0:0,0:0:0:0:
238,309,24940,2,0,L|183:307,1,55,8|0,0:0|0:0,0:0:0:0:
117,358,25274,6,0,P|99:306|116:255,1,110,2|8,0:0|0:0,0:0:0:0:
46,211,25774,2,0,P|99:219|152:204,1,110,2|0,0:0|0:0,0:0:0:0:
229,175,26274,1,8,0:0:0:0:
288,118,26440,1,2,0:0:0:0:
324,44,26607,2,0,L|378:34,1,55,2|0,0:0|0:0,0:0:0:0:
371,116,26940,2,0,L|425:121,1,55,8|2,0:0|0:0,0:0:0:0:
472,189,27274,2,0,L|499:184,2,27.5,2|2|2,0:0|0:0|0:0,0:0:0:0:
425,257,27607,2,0,L|370:262,1,55,8|2,0:0|0:0,0:0:0:0:
304,312,27940,86,0,P|250:321|197:306,1,110,2|8,0:0|0:0,0:0:0:0:
128,261,28440,2,0,B|105:214|105:214|116:159|116:159|94:106,1,165,2|8,0:0|0:0,0:0:0:0:
138,36,29107,1,0,0:0:0:0:
213,69,29274,2,0,L|267:58,1,55,2|0,0:0|0:0,0:0:0:0:
346,79,29607,1,8,0:0:0:0:
412,129,29774,2,0,P|433:179|420:232,1,110,2|2,0:0|0:0,0:0:0:0:
361,289,30274,2,0,L|306:280,1,55,8|0,0:0|0:0,0:0:0:0:
224,275,30607,6,0,L|205:297,7,27.5,2|0|0|0|8|0|2|0,0:0|0:0|0:0|0:0|0:0|0:0|0:0|0:0,0:0:0:0:
196,255,31274,2,0,L|170:264,6,27.5,0|0|0|0|0|0|0,0:0|0:0|0:0|0:0|0:0|0:0|0:0,0:0:0:0:
265,211,31940,5,4,0:0:0:0:
265,128,32107,1,4,0:0:0:0:
126,39,32440,1,0,0:0:0:0:
65,95,32607,2,0,P|141:119|201:67,1,165,0|0,0:0|0:0,0:0:0:0:
280,42,33274,37,2,0:0:0:0:
455,321,33940,1,8,0:0:0:0:
148,198,34607,1,2,0:0:0:0:
465,108,35274,2,0,L|443:158,1,55,8|0,0:0|0:0,0:0:0:0:
369,193,35607,2,0,L|347:243,1,55,0|0,0:0|0:0,0:0:0:0:
280,292,35940,6,0,L|170:284,1,110,2|2,0:0|0:0,0:0:0:0:
110,129,36607,2,0,L|219:136,1,110,8|0,0:0|0:0,0:0:0:0:
294,103,37107,2,0,P|298:75|292:49,2,55,8|2|2,0:0|0:0|0:0,0:0:0:0:
288,185,37607,1,8,0:0:0:0:
94,339,38107,2,0,L|41:355,2,55,2|0|2,0:0|0:0|0:0,0:0:0:0:
171,312,38607,86,0,P|225:323|279:315,1,110,2|0,0:0|0:0,0:0:0:0:
430,247,39274,2,0,L|448:138,1,110,8|0,0:0|0:0,0:0:0:0:
316,38,39940,2,0,P|262:27|208:35,1,110,2|2,0:0|0:0,0:0:0:0:
58,104,40607,2,0,L|39:212,1,110,8|8,0:0|0:0,0:0:0:0:
165,319,41274,6,0,P|191:271|187:217,1,110,2|2,0:0|0:0,0:0:0:0:
139,150,41774,1,2,0:0:0:0:
191,86,41940,2,0,L|410:71,1,220,8|0,0:0|0:0,0:0:0:0:
203,328,43274,2,0,L|173:324,7,27.5
135,327,43940,6,0,P|95:334|56:323,1,82.5,2|0,0:0|0:0,0:0:0:0:
11,208,44440,2,0,L|119:192,1,110,2|0,0:0|0:0,0:0:0:0:
176,132,44940,2,0,L|229:119,1,55,0|0,0:0|0:0,0:0:0:0:
291,64,45274,6,0,P|332:71|372:62,1,82.5,2|0,0:0|0:0,0:0:0:0:
488,19,45774,2,0,L|481:128,1,110,2|0,0:0|0:0,0:0:0:0:
404,159,46274,2,0,L|411:213,1,55,0|0,0:0|0:0,0:0:0:0:
366,282,46607,5,2,0:0:0:0:
306,339,46774,2,0,L|196:344,1,110,0|2,0:0|0:0,0:0:0:0:
126,299,47274,2,0,L|106:247,1,55,0|2,0:0|0:0,0:0:0:0:
188,234,47607,2,0,L|191:179,1,55,8|2,0:0|0:0,0:0:0:0:
137,116,47940,5,2,0:0:0:0:
196,58,48107,2,0,P|249:71|300:51,1,110,0|2,0:0|0:0,0:0:0:0:
374,15,48607,2,0,L|426:30,1,55,2|2,0:0|0:0,0:0:0:0:
391,104,48940,2,0,L|426:146,1,55,8|2,0:0|0:0,0:0:0:0:
350,181,49274,6,0,L|366:261,1,82.5,2|2,0:0|0:0,0:0:0:0:
259,324,49774,2,0,P|207:305|153:311,1,110,2|2,0:0|0:0,0:0:0:0:
86,262,50274,2,0,L|80:207,1,55,8|0,0:0|0:0,0:0:0:0:
19,148,50607,2,0,P|59:158|100:153,1,82.5,2|2,0:0|0:0,0:0:0:0:
205,88,51107,2,0,L|314:74,1,110,0|2,0:0|0:0,0:0:0:0:
331,155,51607,2,0,L|385:158,1,55,8|0,0:0|0:0,0:0:0:0:
450,210,51940,5,2,0:0:0:0:
398,274,52107,2,0,L|288:285,1,110,0|0,0:0|0:0,0:0:0:0:
217,243,52607,2,0,L|152:232,1,55,0|2,0:0|0:0,0:0:0:0:
172,315,52940,2,0,L|117:319,1,55,8|0,0:0|0:0,0:0:0:0:
46,275,53274,2,0,L|29:222,1,55,2|0,0:0|0:0,0:0:0:0:
101,182,53607,2,0,L|106:127,1,55,8|2,0:0|0:0,0:0:0:0:
83,47,53940,2,0,L|59:32,2,27.5,2|2|2,0:0|0:0|0:0,0:0:0:0:
164,65,54274,2,0,L|190:54,3,27.5,8|0|2|0,0:0|0:0|0:0|0:0,0:0:0:0:
229,47,54607,6,0,P|280:66|333:54,1,110,2|8,0:0|0:0,0:0:0:0:
405,13,55107,1,2,0:0:0:0:
468,65,55274,2,0,L|481:118,1,55,0|0,0:0|0:0,0:0:0:0:
399,105,55607,2,0,L|392:159,1,55,8|0,0:0|0:0,0:0:0:0:
334,219,55940,6,0,B|336:252|336:252|325:271,1,55,2|0,0:0|0:0,0:0:0:0:
245,250,56274,2,0,B|234:268|234:268|236:302,1,55,8|2,0:0|0:0,0:0:0:0:
162,338,56607,2,0,L|107:331,1,55,0|2,0:0|0:0,0:0:0:0:
140,255,56940,2,0,L|88:236,1,55,8|0,0:0|0:0,0:0:0:0:
16,280,57274,6,0,P|45:234|41:180,1,110,2|8,0:0|0:0,0:0:0:0:
2,107,57774,1,2,0:0:0:0:
72,64,57940,2,0,L|154:69,2,82.5,0|0|2,0:0|0:0|0:0,0:0:0:0:
236,45,58774,5,0,0:0:0:0:
392,95,59107,1,2,0:0:0:0:
345,163,59274,2,0,L|332:216,1,55,2|2,0:0|0:0,0:0:0:0:
414,210,59607,2,0,L|419:264,1,55,8|2,0:0|0:0,0:0:0:0:
344,299,59940,6,0,L|338:326,2,27.5,0|0|0,0:0|0:0|0:0,0:0:0:0:
265,270,60274,2,0,P|239:280|212:280,1,55,8|2,0:0|0:0,0:0:0:0:
129,283,60607,2,0,L|111:363,2,82.5,0|0|0,0:0|0:0|0:0,0:0:0:0:
78,216,61274,6,0,B|75:182|75:182|86:163,1,55,2|0,0:0|0:0,0:0:0:0:
168,168,61607,2,0,B|178:149|178:149|176:115,1,55,8|2,0:0|0:0,0:0:0:0:
248,75,61940,2,0,P|241:48|241:20,2,55,0|2|8,0:0|0:0|0:0,0:0:0:0:
323,109,62440,1,0,0:0:0:0:
396,145,62607,6,0,L|389:254,1,110,0|8,0:0|0:0,0:0:0:0:
314,289,63107,1,2,0:0:0:0:
236,319,63274,2,0,L|237:374,2,55,0|0|8,0:0|0:0|0:0,0:0:0:0:
159,286,63774,1,2,0:0:0:0:
87,246,63940,5,2,0:0:0:0:
140,182,64107,2,0,P|195:186|241:158,1,110,0|2,0:0|0:0,0:0:0:0:
304,104,64607,2,0,L|358:96,1,55,2|2,0:0|0:0,0:0:0:0:
341,177,64940,2,0,L|395:180,1,55,8|2,0:0|0:0,0:0:0:0:
466,225,65274,5,0,0:0:0:0:
68,255,66607,53,6,0:0:0:0:
357,96,67274,1,8,0:0:0:0:
157,358,67940,2,0,P|199:287|193:206,1,165,2|2,0:0|0:0,0:0:0:0:
123,161,68607,2,0,L|286:138,1,165,8|0,0:0|0:0,0:0:0:0:
357,96,69274,5,2,0:0:0:0:
27,75,69940,2,0,L|47:125,1,55,8|0,0:0|0:0,0:0:0:0:
123,161,70274,2,0,L|143:211,1,55,0|2,0:0|0:0,0:0:0:0:
203,268,70607,2,0,B|198:302|198:302|203:321,2,55,2|0|0,0:0|0:0|0:0,0:0:0:0:
269,219,71107,2,0,B|274:185|274:185|268:165,2,55,2|8|2,0:0|0:0|0:0,0:0:0:0:
334,269,71607,2,0,B|329:303|329:303|334:322,1,55,8|2,0:0|0:0,0:0:0:0:
416,334,71940,6,0,B|454:261|454:261|429:182,1,165,0|0,0:0|0:0,0:0:0:0:
374,118,72607,2,0,L|346:113,7,27.5,8|0|0|0|0|0|0|0,0:0|0:0|0:0|0:0|0:0|0:0|0:0|0:0,0:0:0:0:
306,102,73274,6,0,L|251:111,1,55,2|0,0:0|0:0,0:0:0:0:
172,87,73607,1,2,0:0:0:0:
93,59,73774,2,0,L|84:32,2,27.5,0|0|8,0:0|0:0|0:0,0:0:0:0:
54,131,74107,2,0,L|9:98,2,55,0|2|0,0:0|0:0|0:0,0:0:0:0:
119,180,74607,38,0,P|158:189|197:176,2,82.5,2|2|2,0:0|0:0|0:0,0:0:0:0:
366,198,75607,2,0,L|373:252,1,55,8|0,0:0|0:0,0:0:0:0:
341,327,75940,6,0,P|290:349|237:341,1,110,8|8,0:0|0:0,0:0:0:0:
171,291,76440,1,0,0:0:0:0:
121,224,76607,2,0,L|111:169,1,55,2|8,0:0|0:0,0:0:0:0:
193,174,76940,2,0,L|200:119,1,55,2|8,0:0|0:0,0:0:0:0:
