osu file format v14

[General]
AudioFilename: audio.mp3
AudioLeadIn: 0
PreviewTime: 33309
Countdown: 0
SampleSet: None
StackLeniency: 0.7
Mode: 0
LetterboxInBreaks: 0
WidescreenStoryboard: 0

[Editor]
DistanceSpacing: 1
BeatDivisor: 4
GridSize: 32
TimelineZoom: 2.599999

[Metadata]
Title:-BWW SCREAM-
TitleUnicode:-BWW SCREAM-
Artist:Giga
ArtistUnicode:ギガ
Creator:Kui
Version:hi im Alveryn
Source:
Tags:Reol れをる No title+
BeatmapID:1002899
BeatmapSetID:455300

[Difficulty]
HPDrainRate:6
CircleSize:4.2
OverallDifficulty:8
ApproachRate:9.5
SliderMultiplier:2
SliderTickRate:2

[Events]
//Background and Video events
0,0,"scream.png",0,0
//Break Periods
//Storyboard Layer 0 (Background)
//Storyboard Layer 1 (Fail)
//Storyboard Layer 2 (Pass)
//Storyboard Layer 3 (Foreground)
//Storyboard Sound Samples

[TimingPoints]
643,333.333333333333,4,2,0,65,1,0
643,-133.333333333333,4,2,0,60,0,0
1476,-100,4,2,0,60,0,0
2976,-100,4,2,0,60,0,0
3309,-133.333333333333,4,2,0,60,0,0
4142,-100,4,2,0,60,0,0
4476,-100,4,2,0,60,0,0
5142,-142.857142857143,4,2,0,60,0,0
5309,-133.333333333333,4,2,0,60,0,0
5559,-76.9230769230769,4,2,0,60,0,0
5809,-100,4,2,0,60,0,0
5976,-100,4,1,0,60,0,0
7642,-66.6666666666667,4,1,0,60,0,0
8309,-100,4,1,0,60,0,0
8642,-100,4,1,0,60,0,0
10976,-100,4,1,0,65,0,0
11059,-100,4,1,0,70,0,0
11142,-100,4,1,0,75,0,0
11226,-100,4,1,0,80,0,0
11309,-181.818181818181,4,2,0,60,0,0
11642,-100,4,2,0,60,0,0
11976,333.333333333333,4,2,0,65,1,0
11976,-90.9090909090908,4,1,0,65,0,0
12476,-111.111111111111,4,1,0,65,0,0
13475,-100,4,1,0,65,0,0
13975,-111.111111111111,4,1,0,65,0,0
14642,-90.9090909090909,4,1,0,65,0,0
15142,-111.111111111111,4,1,0,65,0,0
17475,-83.3333333333333,4,1,0,65,0,0
17975,-111.111111111111,4,1,0,65,0,0
19975,-76.9230769230769,4,1,0,65,0,0
20309,-111.111111111111,4,1,0,65,0,0
22642,-83.3333333333333,4,1,0,65,0,0
24475,-100,4,1,0,65,0,0
25142,-83.3333333333333,4,1,0,65,0,0
25642,-83.3333333333333,4,1,0,65,0,0
25975,-111.111111111111,4,1,0,65,0,0
26309,-83.3333333333333,4,1,0,65,0,0
26642,-111.111111111111,4,1,0,65,0,0
26975,-111.111111111111,4,1,0,65,0,0
27309,-111.111111111111,4,1,0,65,0,0
27975,-83.3333333333333,4,1,0,65,0,0
30642,-111.111111111111,4,1,0,65,0,0
31642,-111.111111111111,4,1,0,65,0,0
31975,-111.111111111111,4,1,0,65,0,0
33309,-111.111111111111,4,2,0,65,0,0
42642,-166.666666666666,4,2,0,65,0,0
43309,-100,4,2,0,65,0,0
43975,-100,4,1,0,65,0,0
44475,-100,4,2,0,65,0,0
46642,-76.9230769230769,4,1,0,65,0,1
48142,-58.8235294117647,4,1,0,65,0,1
48475,-76.9230769230769,4,1,0,65,0,1
48809,-76.9230769230769,4,1,0,65,0,1
48975,-71.4285714285714,4,1,0,65,0,1
49142,-66.6666666666667,4,1,0,65,0,1
49309,-76.9230769230769,4,1,0,65,0,1
50642,-71.4285714285714,4,1,0,65,0,1
51142,-83.3333333333333,4,1,0,65,0,1
51975,-71.4285714285714,4,1,0,65,0,1
53309,-76.9230769230769,4,1,0,65,0,1
54642,-66.6666666666667,4,1,0,65,0,1
54975,-76.9230769230769,4,1,0,65,0,1
55309,-71.4285714285714,4,1,0,65,0,1
55642,-76.9230769230769,4,1,0,65,0,1
55975,-76.9230769230769,4,1,0,65,0,1
56642,-76.9230769230769,4,1,0,65,0,1
57309,-58.8235294117647,4,1,0,65,0,1
57642,-76.9230769230769,4,1,0,65,0,1
57975,-71.4285714285714,4,1,0,65,0,1
58309,-76.9230769230769,4,1,0,65,0,1
60309,-71.4285714285714,4,1,0,65,0,1
60642,-76.9230769230769,4,1,0,65,0,1
61309,-76.9230769230769,4,1,0,65,0,1
61975,-71.4285714285714,4,1,0,65,0,1
62642,-71.4285714285714,4,1,0,65,0,1
63309,-71.4285714285714,4,1,0,65,0,1
63642,-76.9230769230769,4,1,0,65,0,1
65309,-133.333333333333,4,2,0,65,0,1
65975,-100,4,2,0,65,0,1
66309,-66.6666666666667,4,2,0,65,0,1
66642,-71.4285714285714,4,2,0,65,0,0
67309,-76.9230769230769,4,2,0,65,0,0
67975,-76.9230769230769,4,1,0,65,0,0
69309,-100,4,1,0,65,0,0
71975,-100,4,1,0,65,0,0
72059,-100,4,2,0,5,0,0
72475,-100,4,1,0,5,0,0
72642,-100,4,1,0,65,0,0
73309,-100,4,1,0,65,0,0
73642,-76.9230769230769,4,1,0,65,0,0
73975,-66.6666666666667,4,1,0,65,0,0
75309,-200,4,1,0,65,0,0
75642,-71.4285714285714,4,1,0,65,0,0

[Colours]
Combo1 : 184,149,255
Combo2 : 140,210,138
Combo3 : 238,168,217
Combo4 : 255,240,120

[HitObjects]
344,271,643,6,0,P|385:322|407:331,1,75.0000028610231
392,325,976,1,0,0:0:0:0:
365,182,1142,1,0,0:0:0:0:
273,277,1309,1,0,0:0:0:0:
181,352,1476,6,0,B|153:302|153:302|158:252,1,100
249,184,1809,2,0,B|277:234|277:234|272:284,1,100
157,260,2142,1,0,0:0:0:0:
48,299,2309,2,0,P|26:308|-4:300,1,50
99,198,2476,2,0,P|86:165|86:134,1,50
160,30,2642,2,0,P|177:86|163:142,1,100
21,212,2976,2,0,P|4:156|18:100,1,100
210,204,3309,6,0,L|308:204,1,75.0000028610231
356,111,3642,1,0,0:0:0:0:
361,297,3809,2,0,L|361:357,2,37.5000014305115
491,222,4142,2,0,L|382:218,1,100
356,111,4476,1,0,0:0:0:0:
354,18,4642,1,0,0:0:0:0:
354,18,4809,1,0,0:0:0:0:
491,222,4976,1,0,0:0:0:0:
323,343,5142,6,0,L|277:343,1,34.9999989318848
208,248,5309,2,0,L|219:146,1,75.0000028610231
103,289,5559,2,0,B|103:238|103:238|117:200|117:200|116:138,1,129.999994049073
116,161,5809,1,0,0:0:0:0:
11,320,5976,6,0,B|3:275|15:247|18:234,2,50
97,70,6309,1,0,0:0:0:0:
196,69,6476,2,0,L|97:70,1,100
299,215,6809,2,0,P|351:186|356:138,1,100
455,307,7142,1,0,0:0:0:0:
280,129,7309,2,0,L|281:19,1,100
211,296,7642,6,0,L|283:342,1,75.0000028610231
70,297,7809,2,0,L|-2:343,1,75.0000028610231
138,193,7976,2,0,L|140:114,1,75.0000028610231
261,135,8309,6,0,P|287:143|310:164,1,50
467,254,8476,2,0,P|447:269|423:276,1,50
281,254,8642,5,0,0:0:0:0:
432,149,8809,1,0,0:0:0:0:
120,179,8976,5,0,0:0:0:0:
228,347,9142,1,0,0:0:0:0:
225,39,9309,5,0,0:0:0:0:
13,170,9476,1,0,0:0:0:0:
294,186,9642,5,0,0:0:0:0:
94,20,9809,1,0,0:0:0:0:
377,312,9976,5,0,0:0:0:0:
391,291,10059,1,0,0:0:0:0:
402,269,10142,1,0,0:0:0:0:
407,244,10226,1,0,0:0:0:0:
452,222,10309,5,0,0:0:0:0:
448,195,10392,1,0,0:0:0:0:
444,172,10475,1,0,0:0:0:0:
432,149,10559,1,0,0:0:0:0:
449,116,10642,5,0,0:0:0:0:
427,102,10725,1,0,0:0:0:0:
404,91,10808,1,0,0:0:0:0:
379,86,10892,1,0,0:0:0:0:
366,51,10976,5,0,0:0:0:0:
319,34,11059,1,0,0:0:0:0:
271,45,11142,1,0,0:0:0:0:
237,81,11226,1,0,0:0:0:0:
258,133,11309,2,0,L|157:133,1,82.5000025177003
95,33,11642,6,0,P|88:59|94:87,3,50
106,161,11976,6,0,B|67:203|67:203|74:315,1,165.000005035401,0|0,0:0|2:0,0:0:0:0:
74,311,12309,1,0,0:0:0:0:
219,280,12476,2,0,P|311:312|336:231,1,179.999994506836
342,255,12975,1,0,0:0:0:0:
257,127,13142,6,0,P|251:182|268:221,1,89.9999972534181
337,62,13475,2,0,P|332:93|343:128,1,50
416,16,13642,2,0,P|411:47|419:78,1,50
461,298,13809,1,0,0:0:0:0:
461,298,13892,1,0,0:0:0:0:
461,298,13975,2,0,B|468:239|468:239|457:182,1,89.9999972534181
257,127,14309,2,0,L|250:218,1,89.9999972534181
210,39,14642,6,0,P|111:26|42:49,1,165.000005035401
51,45,14975,1,0,0:0:0:0:
50,260,15142,2,0,B|107:253|107:253|164:285|164:285|226:289,1,179.999994506836
158,130,15642,1,0,0:0:0:0:
50,260,15809,6,0,B|38:309|38:309|56:365,1,89.9999972534181
192,352,16142,1,0,0:0:0:0:
138,221,16309,1,0,0:0:0:0:
279,332,16475,2,0,P|326:342|384:315,1,89.9999972534181
365,329,16725,1,0,0:0:0:0:
365,329,16809,1,0,0:0:0:0:
254,128,16975,5,0,0:0:0:0:
188,31,17142,1,0,0:0:0:0:
188,31,17225,1,0,0:0:0:0:
188,31,17309,1,0,0:0:0:0:
67,231,17475,2,0,B|61:146|61:146|95:109,1,119.999996337891
182,309,17809,1,0,0:0:0:0:
182,309,17892,1,0,0:0:0:0:
182,309,17975,6,0,L|299:309,1,89.9999972534181
19,308,18309,1,0,0:0:0:0:
355,309,18475,1,0,0:0:0:0:
452,246,18642,2,0,L|449:156,1,89.9999972534181
449,156,18975,1,0,0:0:0:0:
277,83,19142,5,0,0:0:0:0:
320,95,19225,1,0,0:0:0:0:
363,107,19308,1,0,0:0:0:0:
401,89,19391,1,0,0:0:0:0:
438,63,19475,1,0,0:0:0:0:
154,218,19642,2,0,P|148:162|167:85,1,134.999995880127
193,64,19975,6,0,B|135:56|135:56|74:86|74:86|-3:88,1,194.999991073609
5,87,20309,1,0,0:0:0:0:
248,325,20475,2,0,L|124:330,1,89.9999972534181
353,330,20809,2,0,L|415:316,1,44.999998626709
472,304,20975,1,0,0:0:0:0:
286,222,21142,2,0,P|274:186|279:165,1,44.999998626709
354,102,21309,5,0,0:0:0:0:
462,211,21475,1,0,0:0:0:0:
189,209,21642,1,0,0:0:0:0:
463,100,21809,1,0,0:0:0:0:
182,96,21975,5,0,0:0:0:0:
137,97,22058,1,0,0:0:0:0:
92,98,22141,1,0,0:0:0:0:
48,248,22309,1,0,0:0:0:0:
6,49,22475,1,0,0:0:0:0:
222,124,22642,6,0,B|116:128|116:128|92:153,1,119.999996337891
290,260,22975,2,0,B|396:256|396:256|420:231,1,119.999996337891
177,334,23309,1,0,0:0:0:0:
132,340,23392,1,0,0:0:0:0:
87,347,23475,1,0,0:0:0:0:
43,353,23559,2,0,L|47:273,3,59.9999981689454
231,172,23975,5,0,0:0:0:0:
368,335,24142,2,0,L|250:318,1,119.999996337891
467,315,24475,2,0,P|495:271|479:171,1,150
500,168,24809,2,0,L|503:60,1,100
305,20,25142,6,0,B|295:61|295:61|304:105|304:105|301:143,1,119.999996337891
394,89,25475,1,0,0:0:0:0:
177,49,25642,2,0,B|129:84|129:84|175:137,1,119.999996337891
49,193,25975,2,0,B|57:216|57:216|48:227,6,22.4999993133545
159,308,26309,2,0,L|160:175,1,119.999996337891
288,240,26642,6,0,L|321:238,6,22.4999993133545
367,304,26975,2,0,L|400:302,2,22.4999993133545
472,339,27142,2,0,L|505:337,2,22.4999993133545
491,237,27309,1,0,0:0:0:0:
491,237,27392,1,0,0:0:0:0:
491,237,27475,1,0,0:0:0:0:
246,356,27642,1,0,0:0:0:0:
334,222,27809,1,0,0:0:0:0:
340,348,27975,6,0,B|318:310|274:288|274:288|310:263|333:217,1,179.999994506836
334,222,28309,2,0,L|252:221,1,59.9999981689454
117,342,28475,2,0,L|199:341,1,59.9999981689454
337,346,28642,1,0,0:0:0:0:
448,132,28809,6,0,B|434:168|434:168|446:260,1,119.999996337891
461,346,29142,1,0,0:0:0:0:
245,287,29309,5,0,0:0:0:0:
315,125,29475,1,0,0:0:0:0:
455,340,29642,1,0,0:0:0:0:
228,270,29809,1,0,0:0:0:0:
328,113,29975,5,0,0:0:0:0:
339,85,30058,1,0,0:0:0:0:
350,57,30141,1,0,0:0:0:0:
203,140,30309,1,0,0:0:0:0:
488,42,30475,1,0,0:0:0:0:
409,258,30642,6,0,L|406:298,1,22.4999993133545
381,258,30725,2,0,L|383:299,1,22.4999993133545
355,257,30809,2,0,L|356:298,1,22.4999993133545
325,262,30892,2,0,L|334:302,1,22.4999993133545
301,265,30975,2,0,L|310:304,1,22.4999993133545
273,274,31059,2,0,L|291:310,1,22.4999993133545
250,283,31142,2,0,L|263:318,1,22.4999993133545
226,290,31225,2,0,L|239:323,1,22.4999993133545
207,288,31309,6,0,L|209:249,1,22.4999993133545
169,289,31392,2,0,L|181:255,1,22.4999993133545
145,283,31475,2,0,L|152:246,1,22.4999993133545
122,282,31559,2,0,L|122:252,1,22.4999993133545
91,287,31642,6,0,L|78:220,1,44.999998626709
33,318,31809,2,0,L|7:375,1,44.999998626709
11,223,31975,6,0,B|62:208|62:208|131:227|131:227|217:219,1,179.999994506836
290,135,32475,1,0,0:0:0:0:
290,135,32559,1,0,0:0:0:0:
290,135,32642,2,0,L|294:64,1,44.999998626709
300,17,32809,1,0,0:0:0:0:
493,220,32975,2,0,B|448:214|448:214|409:184,1,89.9999972534181
462,29,33309,6,0,L|457:129,1,89.9999972534181
330,180,33642,1,0,0:0:0:0:
450,273,33809,1,0,0:0:0:0:
317,303,33975,2,0,L|223:300,1,89.9999972534181
413,185,34309,1,0,0:0:0:0:
413,185,34392,1,0,0:0:0:0:
413,185,34475,1,0,0:0:0:0:
226,300,34642,6,0,B|195:228|210:177|210:177|243:232,1,179.999994506836
400,331,35142,1,0,0:0:0:0:
64,352,35309,5,0,0:0:0:0:
176,285,35475,1,0,0:0:0:0:
64,224,35642,1,0,0:0:0:0:
176,157,35808,1,0,0:0:0:0:
64,96,35975,5,0,0:0:0:0:
64,87,36058,1,0,0:0:0:0:
64,78,36141,1,0,0:0:0:0:
64,69,36225,1,0,0:0:0:0:
64,60,36308,1,0,0:0:0:0:
64,224,36475,1,0,0:0:0:0:
192,224,36559,1,0,0:0:0:0:
192,224,36642,6,0,L|288:192,1,89.9999972534181
255,342,36975,1,0,0:0:0:0:
255,342,37059,1,0,0:0:0:0:
255,342,37142,1,0,0:0:0:0:
253,94,37309,5,0,0:0:0:0:
161,311,37475,1,0,0:0:0:0:
387,233,37642,2,0,L|379:203,6,22.4999993133545
277,195,37975,5,0,0:0:0:0:
174,142,38142,1,0,0:0:0:0:
384,193,38309,1,0,0:0:0:0:
487,140,38476,1,0,0:0:0:0:
332,66,38642,5,0,0:0:0:0:
318,108,38725,1,0,0:0:0:0:
316,153,38808,1,0,0:0:0:0:
325,197,38892,1,0,0:0:0:0:
345,237,38975,1,0,0:0:0:0:
254,328,39142,1,0,0:0:0:0:
80,258,39309,6,0,L|190:260,1,89.9999972534181
345,237,39642,1,0,0:0:0:0:
347,260,39725,1,0,0:0:0:0:
350,282,39808,1,0,0:0:0:0:
181,218,39975,6,0,B|210:195|210:195|105:195|105:195|141:220,1,179.999994506836
216,345,40475,1,0,0:0:0:0:
315,218,40642,6,0,B|359:183|354:138|354:138|302:134|259:183,1,179.999994506836
287,344,41142,1,0,0:0:0:0:
287,344,41225,1,0,0:0:0:0:
287,344,41309,2,0,B|350:335|350:335|403:356|403:356|468:355,1,179.999994506836
450,119,41809,1,0,0:0:0:0:
450,119,41892,1,0,0:0:0:0:
450,119,41975,6,0,B|384:77|403:169|308:109|308:109|332:131|305:159,1,179.999994506836
319,131,42475,1,0,0:0:0:0:
234,289,42642,6,0,B|229:234|229:234|251:197|251:197|226:158|226:158|250:116|227:68,1,209.999993591309
148,64,43309,6,0,P|139:96|152:123,1,50
300,195,43475,1,0,0:0:0:0:
300,195,43559,1,0,0:0:0:0:
300,195,43642,2,0,L|356:198,1,50
492,255,43809,2,0,L|428:282,1,50
293,335,43975,6,0,L|173:338,1,100,2|0,0:0|2:0,0:0:0:0:
261,333,44225,2,0,L|125:340,1,100,2|2,0:0|2:0,0:0:0:0:
161,338,44475,1,2,0:1:0:0:
124,144,44642,2,0,B|114:202|114:202|126:262,1,100
161,338,44975,1,0,0:0:0:0:
35,253,45142,1,0,0:0:0:0:
256,233,45309,6,0,L|257:115,1,100,2|0,0:1|0:1,0:1:0:0:
257,191,45559,2,0,L|259:85,1,100,2|0,0:1|0:0,0:0:0:0:
258,91,45809,1,2,0:1:0:0:
372,155,45975,1,0,0:0:0:0:
155,64,46142,2,0,P|155:130|173:172,1,100
366,245,46475,1,0,0:0:0:0:
371,33,46642,6,0,B|347:95|347:95|378:169,1,129.999994049073
372,155,46892,1,0,0:0:0:0:
372,155,46975,1,0,0:0:0:0:
483,249,47142,2,0,B|446:284|446:284|357:286,1,129.999994049073
245,194,47392,1,0,0:0:0:0:
245,194,47475,6,0,L|248:130,1,64.9999970245363
92,66,47642,2,0,L|75:148,1,64.9999970245363
134,283,47809,1,0,0:0:0:0:
372,155,47975,5,0,0:0:0:0:
366,284,48142,2,0,B|222:287|222:287|271:248,1,170.000003242493
285,89,48392,1,0,0:0:0:0:
285,89,48475,6,0,L|283:165,1,64.9999970245363
167,339,48642,1,0,0:0:0:0:
167,339,48725,1,0,0:0:0:0:
167,339,48809,2,0,L|251:341,1,64.9999970245363
169,175,48975,2,0,B|204:165|204:165|257:175,1,69.9999978637696
461,265,49142,2,0,B|421:273|421:273|357:264,1,75.0000028610231
432,129,49309,6,0,B|468:100|468:100|319:101,1,194.999991073609
319,100,49642,1,0,0:0:0:0:
157,358,49809,2,0,B|131:303|131:303|168:171,1,194.999991073609
168,174,50142,1,0,0:0:0:0:
308,283,50309,1,0,0:0:0:0:
40,294,50475,1,0,0:0:0:0:
274,81,50642,6,0,B|270:135|270:135|273:181|284:220|284:220|270:182|240:156,1,209.999993591309
246,162,50975,1,0,0:0:0:0:
195,68,51142,2,0,B|137:75|137:75|77:50|77:50|0:70,1,179.999994506836
22,64,51475,2,0,P|21:108|25:134,1,59.9999981689454
147,259,51642,2,0,P|145:229|147:200,1,59.9999981689454
274,81,51809,2,0,P|276:115|271:160,1,59.9999981689454
225,261,51975,6,0,B|156:311|93:297|93:297|138:290|152:244,1,209.999993591309
146,258,52309,1,0,0:0:0:0:
274,81,52475,2,0,B|310:51|310:51|314:164,1,139.999995727539
334,261,52725,1,0,0:0:0:0:
334,261,52809,2,0,L|443:277,1,69.9999978637696
495,114,52975,2,0,L|411:110,1,69.9999978637696
195,68,53142,1,0,0:0:0:0:
371,182,53309,5,0,0:0:0:0:
134,304,53475,1,0,0:0:0:0:
195,68,53642,1,0,0:0:0:0:
403,271,53809,2,0,L|318:291,1,64.9999970245363
140,228,53975,5,0,0:0:0:0:
140,228,54059,1,0,0:0:0:0:
140,228,54142,2,0,L|146:140,1,64.9999970245363
357,46,54309,2,0,B|365:82|365:82|362:120,1,64.9999970245363
357,338,54475,2,0,B|365:302|365:302|362:273,1,64.9999970245363
368,181,54642,6,0,B|395:193|446:194|446:194|400:214|346:230|289:202,1,225.000008583069
261,122,54975,2,0,P|225:126|185:121,1,64.9999970245363
224,29,55142,1,0,0:0:0:0:
148,225,55309,6,0,B|133:250|133:250|101:190|135:132,1,139.999995727539
386,141,55559,1,0,0:0:0:0:
386,141,55642,2,0,P|398:176|385:214,1,64.9999970245363
436,287,55809,1,0,0:0:0:0:
461,45,55975,6,0,L|455:109,1,64.9999970245363,0|0,0:0|2:0,0:0:0:0:
322,295,56142,2,0,L|314:223,1,64.9999970245363,0|0,0:0|2:0,0:0:0:0:
475,25,56309,6,0,L|470:98,1,64.9999970245363,0|0,0:0|2:0,0:0:0:0:
319,308,56476,2,0,L|309:227,1,64.9999970245363,0|0,0:0|2:0,0:0:0:0:
117,113,56642,6,0,B|219:90|200:185|323:150,1,194.999991073609
347,44,56975,1,0,0:0:0:0:
347,44,57059,1,0,0:0:0:0:
349,48,57142,2,0,B|357:89|357:89|352:128,1,64.9999970245363
494,223,57309,2,0,B|471:204|471:204|461:264|461:264|437:206|437:206|423:265|423:265|392:198,1,255.000004863739
299,155,57642,6,0,L|329:240,1,64.9999970245363
195,331,57809,2,0,L|209:253,1,64.9999970245363
432,98,57975,6,0,B|474:71|474:71|473:184|473:184|414:160,1,209.999993591309
234,155,58309,2,0,L|304:155,1,64.9999970245363
430,168,58475,1,0,0:0:0:0:
206,267,58642,5,0,0:0:0:0:
430,33,58809,2,0,L|432:99,1,64.9999970245363
418,244,58975,1,0,0:0:0:0:
234,155,59142,1,0,0:0:0:0:
53,95,59309,6,0,B|88:87|88:87|138:99,1,64.9999970245363
299,155,59475,1,0,0:0:0:0:
59,76,59642,6,0,B|95:73|95:73|142:93,1,64.9999970245363
292,173,59808,1,0,0:0:0:0:
140,297,59975,1,0,0:0:0:0:
140,297,60059,1,0,0:0:0:0:
140,297,60142,1,0,0:0:0:0:
235,86,60309,6,0,B|227:103|227:103|295:94,1,69.9999978637696,0|0,0:0|2:0,0:0:0:0:
447,225,60475,2,0,B|455:242|455:242|387:233,1,69.9999978637696,0|0,0:0|2:0,0:0:0:0:
418,39,60642,6,0,B|389:76|389:76|406:115|392:167,1,129.999994049073
405,235,60892,1,0,0:0:0:0:
405,235,60975,2,0,B|312:235|312:235|357:270,1,129.999994049073
107,235,61309,6,0,L|183:235,1,64.9999970245363,0|0,0:0|2:0,0:0:0:0:
269,235,61475,2,0,L|352:235,1,64.9999970245363,0|0,0:0|2:0,0:0:0:0:
258,124,61642,6,0,L|193:124,1,64.9999970245363,0|0,0:0|2:0,0:0:0:0:
96,124,61808,2,0,L|31:124,1,64.9999970245363,0|0,0:0|2:0,0:0:0:0:
443,232,61975,6,0,B|438:195|438:195|449:171|449:171|438:140|438:140|449:116|435:85,1,139.999995727539
258,125,62225,1,0,0:0:0:0:
258,125,62309,2,0,B|243:170|243:170|248:199,1,69.9999978637696
337,306,62475,1,0,0:0:0:0:
93,310,62642,6,0,B|157:325|217:265|217:265|249:301|215:341,1,209.999993591309
204,351,62975,1,0,0:0:0:0:
135,152,63142,1,0,0:0:0:0:
336,91,63309,6,0,B|361:67|359:28|359:28|397:66|403:121|365:158,1,209.999993591309
428,232,63642,2,0,L|433:296,1,64.9999970245363
355,356,63809,1,0,0:0:0:0:
503,230,63975,5,0,0:0:0:0:
308,244,64142,2,0,B|256:247|228:284|228:284|164:264,1,129.999994049073
201,175,64392,1,0,0:0:0:0:
201,175,64475,2,0,B|204:140|204:140|189:99,1,64.9999970245363
117,344,64642,5,0,0:0:0:0:
117,344,64725,1,0,0:0:0:0:
117,344,64809,2,0,B|113:307|113:307|123:262,1,64.9999970245363
361,190,64975,5,0,0:0:0:0:
361,190,65058,1,0,0:0:0:0:
361,190,65142,2,0,L|442:189,1,64.9999970245363
221,341,65309,6,0,P|184:243|290:233,1,225.000008583069
358,75,65975,6,0,B|369:54|377:26|377:26|412:75|396:126,1,150
361,190,66309,2,0,B|371:236|372:236|402:199,3,75.0000028610231
258,120,66642,5,0,0:0:0:0:
174,122,66753,1,0,0:0:0:0:
86,208,66864,1,0,0:0:0:0:
170,206,66975,1,0,0:0:0:0:
438,312,67309,6,0,P|442:283|421:309,1,64.9999970245363,0|0,1:0|0:0,0:0:0:0:
243,338,67475,2,0,P|215:342|221:315,1,64.9999970245363
324,142,67642,6,0,P|328:113|307:139,1,64.9999970245363,0|0,1:0|0:0,0:0:0:0:
129,168,67809,1,0,1:0:0:0:
129,168,67892,1,0,1:0:0:0:
129,168,67975,5,0,1:0:0:0:
85,293,68142,1,0,0:0:0:0:
303,119,68309,5,0,1:0:0:0:
259,244,68476,1,0,0:0:0:0:
469,71,68642,5,0,1:0:0:0:
425,196,68809,1,0,0:0:0:0:
209,119,68975,5,0,1:0:0:0:
259,244,69142,1,0,0:0:0:0:
371,162,69309,6,0,B|392:109|481:102|481:102|481:179|417:200,1,250
425,196,69809,1,0,0:0:0:0:
213,69,69975,5,0,0:0:0:0:
213,69,70059,1,0,0:0:0:0:
213,69,70142,2,0,P|206:106|218:147,1,50
238,186,70309,2,0,P|249:229|269:257,1,50
300,290,70475,2,0,P|317:325|356:340,1,50
400,336,70642,5,0,0:0:0:0:
463,146,70809,1,0,0:0:0:0:
300,290,70975,5,0,0:0:0:0:
237,100,71142,1,0,0:0:0:0:
176,290,71309,5,0,0:0:0:0:
176,290,71392,1,0,0:0:0:0:
176,290,71475,1,0,0:0:0:0:
357,205,71642,2,0,B|396:204|396:204|429:223|429:223|474:221,1,100
254,124,71975,6,0,B|193:77|193:77|210:160|210:160|188:229|188:229|249:195,1,300
437,67,72642,6,0,L|367:69,1,50
310,133,72809,2,0,L|378:135,1,50
451,173,72975,6,0,L|381:175,1,50
324,239,73142,2,0,L|392:241,1,50
469,271,73309,6,0,B|508:303|508:303|449:328|375:309,1,150
280,317,73642,6,0,L|264:236,1,64.9999970245363
267,253,73809,1,0,0:0:0:0:
267,253,73892,1,0,0:0:0:0:
129,312,73975,6,0,B|88:317|88:317|24:297,1,75.0000028610231,0|0,0:0|0:2,0:0:0:0:
171,209,74142,6,0,B|175:168|175:168|205:123,1,75.0000028610231,0|0,0:0|0:2,0:0:0:0:
336,189,74309,6,0,B|371:205|371:205|428:204,1,75.0000028610231,0|0,0:0|0:2,0:0:0:0:
470,68,74475,6,0,B|441:49|441:49|370:47,1,75.0000028610231,0|0,0:0|0:2,0:0:0:0:
277,135,74642,6,0,L|257:293,1,150.000005722046
258,283,74892,6,0,L|277:135,1,150.000005722046
277,135,75142,5,0,0:0:0:0:
164,80,75309,6,0,P|135:71|163:86,1,75
163,210,75642,6,0,B|65:255|65:255|172:285,1,209.999993591309
259,240,75975,6,0,B|297:233|297:233|353:246,1,69.9999978637696
384,329,76142,1,0,0:0:0:0:
416,121,76309,6,0,B|363:123|363:123|335:147|335:147|275:149,1,139.999995727539
221,64,76559,1,0,0:0:0:0:
160,91,76642,1,0,0:0:0:0:
158,158,76725,1,0,0:0:0:0:
216,189,76809,1,0,0:0:0:0:
156,217,76892,1,0,0:0:0:0:
154,283,76975,1,0,0:0:0:0:
212,315,77058,1,0,0:0:0:0:
146,341,77142,6,0,L|76:340,1,69.9999978637696
