osu file format v14

[General]
AudioFilename: audio.mp3
AudioLeadIn: 0
PreviewTime: 33309
Countdown: 0
SampleSet: Soft
StackLeniency: 0.7
Mode: 0
LetterboxInBreaks: 0
WidescreenStoryboard: 0

[Editor]
Bookmarks: 3309,14142,15475,37892,40809,46309,51892
DistanceSpacing: 0.9
BeatDivisor: 4
GridSize: 4
TimelineZoom: 2.599999

[Metadata]
Title:-BWW SCREAM-
TitleUnicode:-BWW SCREAM-
Artist:Giga
ArtistUnicode:ギガ
Creator:Kui
Version:Funky
Source:
Tags:Reol れをる No title+
BeatmapID:975918
BeatmapSetID:455300

[Difficulty]
HPDrainRate:6
CircleSize:4
OverallDifficulty:8
ApproachRate:9
SliderMultiplier:1.9
SliderTickRate:1

[Events]
//Background and Video events
0,0,"scream.png",0,0
//Break Periods
//Storyboard Layer 0 (Background)
//Storyboard Layer 1 (Fail)
//Storyboard Layer 2 (Pass)
//Storyboard Layer 3 (Foreground)
//Storyboard Sound Samples

[TimingPoints]
643,333.333333333333,4,2,0,65,1,0
5309,-80,4,2,0,65,0,0
6309,-66.6666666666667,4,2,0,65,0,0
9976,-133.333333333333,4,2,0,65,0,0
11642,-100,4,2,0,65,0,0
11976,333.333333333333,4,2,0,65,1,0
14642,-80,4,2,0,65,0,0
15142,-100,4,2,0,65,0,0
16975,-80,4,2,0,65,0,0
17309,-100,4,2,0,65,0,0
18642,-111.111111111111,4,2,0,65,0,0
18892,-100,4,2,0,65,0,0
23642,-133.333333333333,4,2,0,65,0,0
24475,-80,4,2,0,65,0,0
25142,-100,4,2,0,65,0,0
26642,-80,4,2,0,65,0,0
28809,-100,4,2,0,65,0,0
30309,-133.333333333333,4,2,0,65,0,0
30975,-100,4,2,0,65,0,0
31975,-80,4,2,0,65,0,0
32642,-133.333333333333,4,2,0,65,0,0
33309,-100,4,2,0,65,0,0
35309,-133.333333333333,4,2,0,65,0,0
36309,-100,4,2,0,65,0,0
40309,-133.333333333333,4,2,0,65,0,0
40809,-100,4,2,0,65,0,0
41309,-100,4,2,0,65,0,0
42642,-80,4,2,0,65,0,0
43975,-100,4,2,0,65,0,0
45309,-100,4,2,0,65,0,0
46642,-80,4,2,0,65,0,1
51475,-100,4,2,0,65,0,1
51975,-80,4,2,0,65,0,1
53475,-100,4,2,0,65,0,1
56642,-80,4,2,0,65,0,1
57309,-100,4,2,0,65,0,1
57975,-80,4,2,0,65,0,1
58642,-100,4,2,0,65,0,1
60642,-80,4,2,0,65,0,1
62642,-100,4,2,0,65,0,1
63559,-80,4,2,0,65,0,1
64392,-100,4,2,0,65,0,1
65309,-66.6666666666667,4,2,0,65,0,0
65975,-133.333333333333,4,2,0,65,0,0
66975,-200,4,2,0,65,0,0
67309,-100,4,2,0,65,0,0
67975,-66.6666666666667,4,2,0,65,0,0
69309,-53.475935828877,4,2,0,65,0,0
70642,-100,4,2,0,65,0,0
71142,-133.333333333333,4,2,0,65,0,0
71975,-50,4,2,0,65,0,0
72559,-50,4,2,0,5,0,0
72642,-50,4,2,0,65,0,0
73309,-133.333333333333,4,2,0,65,0,0
75309,-66.6666666666667,4,2,0,65,0,0
75642,-100,4,2,0,65,0,0
76559,-133.333333333333,4,2,0,65,0,0

[Colours]
Combo1 : 184,149,255
Combo2 : 140,210,138
Combo3 : 238,168,217
Combo4 : 255,240,120

[HitObjects]
112,220,643,6,0,P|68:200|32:169,2,95
208,208,1142,1,0,0:0:0:0:
352,92,1475,1,0,0:0:0:0:
419,184,1809,1,0,0:0:0:0:
352,276,2142,1,0,0:0:0:0:
128,280,2476,5,0,0:0:0:0:
128,280,2559,1,0,0:0:0:0:
128,280,2642,2,0,L|160:164,1,95
216,256,2976,2,0,L|190:347,1,95
74,191,3309,2,0,L|100:100,2,95
216,256,3809,1,0,0:0:0:0:
427,165,3976,5,0,0:0:0:0:
427,165,4142,2,0,L|337:133,1,95
352,264,4476,2,0,L|441:295,1,95
216,256,4809,1,0,0:0:0:0:
440,60,5142,1,0,0:0:0:0:
432,60,5309,6,0,B|408:56|408:56|396:68|396:68|352:48|296:68,1,118.75
136,84,5559,2,0,L|256:116,1,118.75
304,216,5809,2,0,L|246:201,1,59.375
308,308,5976,6,0,L|428:276,1,118.75
340,56,6309,2,0,B|404:112|404:112|428:184,1,142.500005435944
276,355,6642,2,0,L|304:215,1,142.500005435944
72,280,6976,2,0,B|124:280|124:280|212:252,1,142.500005435944
437,232,7309,2,0,P|341:204|260:249,1,142.500005435944
84,56,7642,5,0,0:0:0:0:
184,156,7809,1,0,0:0:0:0:
288,256,7976,1,0,0:0:0:0:
40,316,8309,5,0,0:0:0:0:
60,188,8476,1,0,0:0:0:0:
84,56,8643,1,0,0:0:0:0:
196,116,8809,1,0,0:0:0:0:
308,180,8976,1,0,0:0:0:0:
196,244,9142,1,0,0:0:0:0:
218,96,9309,1,0,0:0:0:0:
337,217,9476,1,0,0:0:0:0:
174,256,9642,1,0,0:0:0:0:
240,59,9809,1,0,0:0:0:0:
349,251,9976,6,0,L|382:262,3,35.625001358986
304,312,10309,2,0,L|242:335,3,35.625001358986
228,336,10642,1,0,0:0:0:0:
169,325,10725,1,0,0:0:0:0:
119,294,10808,1,0,0:0:0:0:
82,248,10892,1,0,0:0:0:0:
64,192,10975,1,0,0:0:0:0:
66,133,11058,1,0,0:0:0:0:
89,79,11142,1,0,0:0:0:0:
129,36,11225,1,0,0:0:0:0:
180,8,11309,6,0,B|240:52|200:128,1,106.875004076958
165,225,11642,6,0,L|208:204,3,47.5
492,64,11976,6,0,B|472:108|424:116|424:116|372:192,1,142.5
416,36,12309,1,0,0:0:0:0:
400,248,12476,2,0,P|348:236|316:201,1,95
216,76,12809,2,0,L|144:137,1,95
32,248,13142,5,0,0:0:0:0:
96,304,13309,1,0,0:0:0:0:
144,236,13475,1,0,0:0:0:0:
225,259,13642,1,0,0:0:0:0:
240,176,13809,1,0,0:0:0:0:
324,196,13975,6,0,P|356:240|352:288,2,95
204,76,14475,1,0,0:0:0:0:
196,68,14642,6,0,P|136:44|76:48,1,118.75
124,136,14975,1,0,0:0:0:0:
143,273,15142,6,0,L|212:208,1,95
368,196,15475,2,0,L|299:261,1,95
464,32,15809,2,0,L|352:68,1,95
136,48,16142,2,0,L|248:12,1,95
208,124,16475,5,0,0:0:0:0:
244,324,16642,1,0,0:0:0:0:
256,288,16725,1,0,0:0:0:0:
268,252,16809,1,0,0:0:0:0:
340,71,16975,6,0,P|304:56|284:39,1,59.375
136,72,17142,1,0,0:0:0:0:
97,83,17226,1,0,0:0:0:0:
74,116,17309,2,0,P|73:164|124:204,1,95
236,209,17642,1,0,3:0:0:0:
348,132,17809,5,0,0:0:0:0:
376,168,17892,1,0,0:0:0:0:
384,208,17975,2,0,L|376:272,1,47.5
328,316,18142,1,0,0:0:0:0:
248,340,18309,1,0,3:0:0:0:
164,332,18475,1,0,0:0:0:0:
136,160,18642,2,0,L|64:206,1,85.4999973907472
96,284,18892,2,0,L|130:251,1,47.5,0|0,0:0|3:0,0:0:0:0:
440,152,19142,6,0,P|376:136|340:80,1,95
216,92,19475,2,0,L|191:136,1,47.5
138,182,19642,2,0,L|149:88,1,95,0|0,3:0|0:0,0:0:0:0:
324,220,19975,6,0,P|374:262|382:328,1,95
272,310,20309,1,0,3:0:0:0:
143,228,20475,2,0,P|185:170|207:102,1,142.5
228,12,20809,1,0,0:0:0:0:
352,140,20975,2,0,L|360:244,1,95
140,296,21309,5,0,0:0:0:0:
180,236,21475,1,0,0:0:0:0:
180,164,21642,1,0,0:0:0:0:
140,104,21808,1,0,0:0:0:0:
264,88,21975,6,0,L|320:64,2,47.5
392,232,22225,1,0,0:0:0:0:
368,260,22309,2,0,L|312:252,3,47.5
104,312,22642,6,0,P|154:269|162:203,1,95
324,152,22975,1,0,0:0:0:0:
260,220,23142,1,0,0:0:0:0:
28,129,23309,5,0,0:0:0:0:
73,142,23392,1,0,0:0:0:0:
113,167,23475,1,0,0:0:0:0:
145,201,23558,1,0,0:0:0:0:
167,244,23642,2,0,P|208:272|256:272,1,71.2500027179719
300,44,23975,5,0,0:0:0:0:
320,200,24142,1,0,0:0:0:0:
428,108,24309,1,0,0:0:0:0:
164,24,24475,2,0,L|123:135,1,118.75
280,96,24808,1,0,0:0:0:0:
364,12,24975,2,0,L|280:96,1,118.75
297,297,25309,6,0,L|343:282,1,47.5
240,364,25475,6,0,L|196:316,1,47.5
123,300,25642,2,0,L|103:237,1,47.5
396,136,25809,1,0,0:0:0:0:
188,64,25975,5,0,0:0:0:0:
448,208,26142,1,0,0:0:0:0:
432,244,26225,1,0,0:0:0:0:
400,256,26309,2,0,B|364:220|364:220|312:208,1,95
188,64,26642,6,0,L|292:140,1,118.75
216,296,26975,6,0,L|264:240,1,59.375
362,250,27142,2,0,L|324:296,1,59.375
173,105,27309,5,0,0:0:0:0:
173,105,27392,1,0,0:0:0:0:
173,105,27475,1,0,0:0:0:0:
460,25,27642,2,0,L|450:149,1,118.75
280,216,27975,6,0,P|322:174|377:154,1,118.75
376,248,28309,2,0,L|351:301,1,59.375
276,104,28475,2,0,L|300:49,1,59.375
332,222,28642,1,0,0:0:0:0:
336,360,28809,6,0,B|316:280|316:280|344:184,1,142.5
380,112,29142,1,0,0:0:0:0:
180,272,29309,6,0,L|108:344,2,95
328,188,29809,1,0,0:0:0:0:
136,116,29975,2,0,P|135:67|158:23,1,95
219,88,30309,6,0,L|259:180,1,71.2500027179719
256,224,30642,2,0,P|220:180|180:164,1,71.2500027179719
24,172,30975,1,0,0:0:0:0:
108,124,31142,2,0,B|94:65|94:65|60:28,1,95
216,177,31475,6,0,L|216:117,1,47.5
321,138,31642,2,0,L|369:170,1,47.5
299,244,31809,2,0,L|248:274,1,47.5
120,346,31975,6,0,B|171:313|171:313|231:258,1,118.75
12,91,32309,1,0,0:0:0:0:
122,70,32475,5,0,0:0:0:0:
147,75,32559,1,0,0:0:0:0:
172,71,32642,2,0,P|211:77|265:113,1,71.2500027179719
229,122,32892,5,0,0:0:0:0:
219,151,32975,1,0,0:0:0:0:
219,181,33058,1,0,0:0:0:0:
229,211,33142,1,0,0:0:0:0:
248,234,33225,1,0,0:0:0:0:
280,244,33309,6,0,P|232:188|156:196,1,142.5
104,248,33642,1,0,0:0:0:0:
0,288,33809,1,0,0:0:0:0:
156,344,33975,2,0,B|112:348|112:348|70:375,2,95
240,292,34475,1,0,0:0:0:0:
364,152,34642,6,0,B|331:218|331:218|355:294,1,142.5
292,128,34975,2,0,L|339:45,1,95
48,104,35309,5,0,0:0:0:0:
113,132,35475,1,0,0:0:0:0:
163,182,35642,1,0,0:0:0:0:
191,247,35808,1,0,0:0:0:0:
193,317,35975,1,0,0:0:0:0:
208,348,36059,1,0,0:0:0:0:
240,364,36142,1,0,0:0:0:0:
272,372,36225,1,0,0:0:0:0:
324,368,36309,6,0,P|339:299|376:260,1,95
277,254,36559,1,0,0:0:0:0:
277,254,36642,2,0,P|309:219|352:200,1,95
320,76,36975,1,0,0:0:0:0:
152,24,37142,1,0,0:0:0:0:
104,24,37225,1,0,0:0:0:0:
61,44,37309,6,0,L|149:80,1,95
152,156,37642,2,0,L|116:172,3,23.75
190,215,37809,2,0,L|226:231,3,23.75
153,285,37975,5,0,0:0:0:0:
153,285,38142,2,0,L|249:325,2,95
368,124,38642,6,0,P|424:184|440:236,1,95
340,208,38975,2,0,P|280:265|229:281,1,95
208,92,39309,1,0,0:0:0:0:
260,184,39475,1,0,0:0:0:0:
304,68,39642,6,0,L|268:32,2,47.5
348,268,39975,6,0,L|316:292,3,23.75
260,224,40142,2,0,L|237:215,3,23.75
208,132,40309,6,0,L|116:96,1,71.2500027179719
141,106,40559,1,0,0:0:0:0:
141,106,40642,1,0,0:0:0:0:
329,143,40809,2,0,L|360:176,4,23.75
420,348,41142,5,0,0:0:0:0:
399,319,41225,1,0,0:0:0:0:
368,300,41309,2,0,P|314:275|232:280,1,142.5
132,320,41642,1,0,0:0:0:0:
64,172,41809,5,0,0:0:0:0:
84,144,41892,1,0,0:0:0:0:
116,124,41975,2,0,P|169:99|252:104,1,142.5
352,148,42309,1,0,0:0:0:0:
312,304,42475,1,0,0:0:0:0:
312,296,42642,6,0,L|281:245,1,59.375
238,165,42809,2,0,L|208:216,1,59.375
312,136,42975,2,0,L|281:85,1,59.375
238,5,43142,2,0,L|208:56,1,59.375
252,44,43309,5,0,0:0:0:0:
262,78,43392,1,0,0:0:0:0:
260,111,43475,1,0,0:0:0:0:
246,143,43559,1,0,0:0:0:0:
253,177,43642,1,0,0:0:0:0:
263,211,43725,1,0,0:0:0:0:
248,241,43809,1,0,0:0:0:0:
252,276,43892,1,0,0:0:0:0:
256,312,43975,6,0,P|316:268|352:256,1,95
341,343,44225,2,0,P|410:316|448:313,1,95
256,300,44475,2,0,P|220:276|212:264,1,47.5
120,160,44642,1,0,0:0:0:0:
120,160,44809,6,0,P|84:104|24:80,2,118.75
324,44,45309,6,0,P|288:80|228:100,1,95
360,116,45559,2,0,P|396:152|456:172,1,95
292,162,45809,2,0,P|292:185|300:208,1,47.5
440,80,45975,1,0,0:0:0:0:
192,288,46142,6,0,L|219:248,1,47.5
194,166,46309,2,0,L|158:197,1,47.5
257,364,46475,2,0,L|263:316,1,47.5
443,150,46642,6,0,P|378:125|312:40,1,178.125
472,224,46975,1,0,0:0:0:0:
452,296,47142,6,0,L|376:324,1,59.375
320,227,47309,2,0,L|380:232,1,59.375
300,148,47475,2,0,L|220:176,1,59.375
172,132,47642,2,0,L|216:88,2,59.375
200,200,47975,6,0,L|164:252,1,59.375
108,296,48142,2,0,B|172:272|172:272|236:176,1,178.125
308,92,48475,6,0,L|348:140,1,59.375
288,228,48642,2,0,L|344:256,1,59.375
216,40,48809,6,0,L|160:12,1,59.375
196,176,48976,2,0,L|160:128,1,59.375
108,256,49142,1,0,0:0:0:0:
316,328,49309,6,0,B|276:261|276:261|275:220,1,118.75
381,265,49559,2,0,B|450:380,1,118.75
192,252,49809,2,0,B|192:175|192:175|172:138,1,118.75
288,84,50142,6,0,L|260:24,1,59.375
371,130,50309,2,0,L|364:64,1,59.375
455,137,50475,2,0,L|436:196,1,59.375
448,296,50642,6,0,P|392:275|349:235,1,118.75
193,239,50892,2,0,P|248:259|292:300,1,118.75
280,180,51142,2,0,B|236:128|236:128|168:84,1,118.75
160,268,51475,6,0,L|131:305,1,47.5
108,172,51642,2,0,L|93:217,1,47.5
40,128,51809,2,0,L|37:80,1,47.5
348,68,51975,6,0,B|368:120|368:120|340:216,1,118.75
432,288,52225,2,0,B|412:236|412:236|440:140,1,118.75
320,252,52475,1,0,0:0:0:0:
325,282,52642,2,0,L|240:200,1,118.75
228,252,52975,6,0,L|168:236,1,59.375
0,144,53142,2,0,B|24:200|24:200|92:220,1,118.75
140,312,53475,2,0,L|48:285,1,95
120,144,53809,2,0,L|190:167,1,47.5
424,148,53975,5,0,0:0:0:0:
402,105,54058,1,0,0:0:0:0:
370,71,54141,1,0,0:0:0:0:
48,144,54309,6,0,L|70:102,1,47.5
150,83,54475,2,0,L|188:54,1,47.5
332,287,54642,6,0,B|400:212|400:212|352:188,1,142.5
100,196,54975,2,0,L|67:229,1,47.5
264,248,55142,2,0,L|296:214,1,47.5
212,49,55309,6,0,P|166:59|126:85,1,95
255,137,55559,2,0,P|326:135|357:144,1,95
447,105,55809,1,0,0:0:0:0:
256,344,55975,6,0,L|200:356,1,47.5
112,332,56142,2,0,L|61:358,1,47.5
165,252,56309,2,0,L|206:212,1,47.5
312,186,56476,2,0,L|342:137,1,47.5
272,64,56642,6,0,B|220:76|220:76|128:52,1,118.75
0,112,56892,2,0,B|136:148,1,118.75,0|0,2:0|2:0,2:0:0:0:
280,248,57142,2,0,P|267:221|247:199,1,59.375
240,324,57309,6,0,B|272:344|312:328|312:328|332:336|332:336|352:328|384:332,1,142.5
416,140,57642,6,0,P|400:116|380:100,1,47.5
292,136,57809,2,0,P|270:126|246:124,1,47.5
156,340,57975,6,0,P|108:288|92:200,1,118.75
192,248,58225,2,0,P|262:245|336:194,1,118.75
376,160,58475,1,0,0:0:0:0:
196,232,58642,5,0,0:0:0:0:
512,248,58809,1,0,0:0:0:0:
260,172,58975,6,0,P|208:148|156:152,1,95
272,300,59309,5,0,0:0:0:0:
292,268,59392,1,0,0:0:0:0:
312,236,59475,1,0,0:0:0:0:
167,158,59642,1,0,0:0:0:0:
187,126,59725,1,0,0:0:0:0:
207,94,59808,1,0,0:0:0:0:
512,124,59975,6,0,L|472:100,1,47.5
432,192,60142,2,0,L|385:187,1,47.5
324,272,60309,2,0,L|345:313,1,47.5
238,267,60475,2,0,L|200:238,1,47.5
280,92,60642,6,0,B|220:48|220:48|196:8,1,118.75
232,164,60892,2,0,B|292:208|292:208|316:248,1,118.75
376,168,61142,2,0,P|388:136|448:108,1,59.375
452,178,61309,5,0,0:0:0:0:
348,72,61475,1,0,0:0:0:0:
264,248,61642,1,0,0:0:0:0:
176,72,61809,1,0,0:0:0:0:
68,172,61975,1,0,0:0:0:0:
350,221,62142,6,0,L|376:167,1,59.375
304,92,62308,2,0,L|330:38,1,59.375
222,37,62475,2,0,P|198:61|142:73,1,59.375
92,215,62642,6,0,P|156:190|233:195,1,142.5
350,221,62975,1,0,0:0:0:0:
452,120,63142,1,0,0:0:0:0:
248,320,63309,2,0,L|260:288,4,23.75
180,276,63559,2,0,B|160:220|160:220|160:100,1,178.125
72,272,63975,5,0,0:0:0:0:
232,204,64142,2,0,P|276:160|340:148,1,118.75
304,284,64392,2,0,L|318:239,1,47.5
215,151,64642,5,0,0:0:0:0:
215,151,64725,1,0,0:0:0:0:
215,151,64809,1,0,0:0:0:0:
71,98,64975,1,0,0:0:0:0:
20,241,65142,1,0,0:0:0:0:
165,297,65309,6,0,B|200:184|317:173|317:173|411:206|478:115|448:48,1,427.500016307831
356,80,65975,6,0,P|268:64|232:76,1,106.875004076958
232,84,66309,1,0,0:0:0:0:
203,105,66392,1,0,0:0:0:0:
171,120,66475,1,0,0:0:0:0:
136,127,66558,1,0,0:0:0:0:
96,116,66642,5,0,0:0:0:0:
164,172,66753,1,0,0:0:0:0:
232,228,66864,1,0,0:0:0:0:
304,280,66975,2,0,L|376:340,1,71.25
408,156,67309,6,0,L|320:132,1,47.5
264,36,67476,2,0,L|351:60,1,47.5
171,120,67642,1,0,0:0:0:0:
188,228,67809,5,0,0:0:0:0:
176,232,67892,1,0,0:0:0:0:
162,232,67975,2,0,P|88:188|68:128,2,142.500005435944
368,204,68475,1,0,0:0:0:0:
380,208,68642,2,0,P|454:252|474:312,2,142.500005435944
248,120,69142,1,0,0:0:0:0:
247,119,69309,2,0,P|431:26|353:217,1,532.949989428177
182,146,70059,5,0,0:0:0:0:
194,113,70142,1,0,0:0:0:0:
189,78,70225,1,0,0:0:0:0:
169,49,70308,1,0,0:0:0:0:
139,32,70392,1,0,0:0:0:0:
103,31,70475,1,0,0:0:0:0:
71,45,70558,1,0,0:0:0:0:
49,73,70642,6,0,L|84:152,1,47.5
112,232,70809,2,0,L|192:263,1,47.5
260,316,70975,1,0,0:0:0:0:
356,87,71142,6,0,B|368:120|368:120|360:176,1,71.2500027179719
364,180,71392,1,0,0:0:0:0:
352,200,71475,1,0,0:0:0:0:
244,372,71642,5,0,0:0:0:0:
216,352,71725,1,0,0:0:0:0:
192,328,71809,1,0,0:0:0:0:
88,328,71975,6,0,B|103:253|175:226|212:240|248:248|248:248|305:317|424:282|458:212|444:120|408:48|256:32|256:120|208:140|224:184,1,665
204,152,72642,5,0,0:0:0:0:
228,176,72725,1,0,0:0:0:0:
260,189,72808,1,0,0:0:0:0:
296,192,72891,1,0,0:0:0:0:
331,185,72974,1,0,0:0:0:0:
362,169,73058,1,0,0:0:0:0:
387,144,73141,1,0,0:0:0:0:
405,113,73224,1,0,0:0:0:0:
412,78,73309,2,0,L|484:168,1,106.875004076958
324,304,73642,5,0,0:0:0:0:
208,248,73809,2,0,L|168:264,1,35.625001358986
128,196,73976,2,0,L|48:180,1,71.2500027179719
276,148,74309,2,0,L|345:161,1,71.2500027179719
144,276,74642,6,0,L|216:324,1,47.5000018119813
220,100,74864,2,0,L|237:184,1,47.5000018119813
376,0,75087,2,0,L|328:72,1,47.5000018119813
256,364,75309,6,0,L|256:80,1,213.750008153916
396,136,75642,6,0,P|449:117|491:53,1,95
344,240,75975,5,0,0:0:0:0:
344,240,76142,1,0,0:0:0:0:
344,240,76309,2,0,P|300:244|240:296,1,95
240,288,76559,1,0,0:0:0:0:
209,306,76642,1,0,0:0:0:0:
175,316,76725,1,0,0:0:0:0:
140,316,76808,1,0,0:0:0:0:
106,306,76892,1,0,0:0:0:0:
72,288,76975,2,0,L|44:232,1,35.625001358986
180,180,77142,2,0,L|213:126,1,35.625001358986
392,150,77309,5,0,0:0:0:0:
